osu file format v14

[General]
AudioFilename: hirefuse.mp3
AudioLeadIn: 0
PreviewTime: 26226
Countdown: 1
SampleSet: Normal
StackLeniency: 0.7
Mode: 1
LetterboxInBreaks: 0
WidescreenStoryboard: 1

[Editor]
DistanceSpacing: 0.5
BeatDivisor: 2
GridSize: 32
TimelineZoom: 3.299999

[Metadata]
Title:Hirefuse Gumin domo! Himesama-go Ranshin All Night Hourai LIVE
TitleUnicode:ひれ伏せ愚民どもっ! 姫様ご乱心オールナイト蓬莱ライブ
Artist:IOSYS
ArtistUnicode:IOSYS
Creator:Dainesl
Version:Muzukashii
Source:東方永夜抄 ~ Imperishable Night.
Tags:Vulkin Taiko イオシス 東方Project Touhou 竹取飛翔 ~ Lunatic Princess Taketori Hishou Kaguya Houraisan 蓬莱山輝夜 ARM miko quim Yuuno Yoshimi 夕野ヨシミ 東方想幽森雛 Souyuu Shinpi
BeatmapID:1409465
BeatmapSetID:665384

[Difficulty]
HPDrainRate:5
CircleSize:5
OverallDifficulty:5
ApproachRate:5
SliderMultiplier:1.4
SliderTickRate:1

[Events]
//Background and Video events
0,0,"19282aa007_p0.jpg",0,100
//Break Periods
//Storyboard Layer 0 (Background)
//Storyboard Layer 1 (Fail)
//Storyboard Layer 2 (Pass)
//Storyboard Layer 3 (Foreground)
//Storyboard Layer 4 (Overlay)
//Storyboard Sound Samples

[TimingPoints]
626,200,4,1,0,100,1,0
626,-142.857142857143,4,1,0,100,0,0
13426,-142.857142857143,4,1,0,100,0,1
26226,-142.857142857143,4,1,0,100,0,0
96626,-142.857142857143,4,1,0,100,0,1
109426,-142.857142857143,4,1,0,100,0,0
122226,-142.857142857143,4,1,0,100,0,1
135026,-142.857142857143,4,1,0,100,0,0
194226,-142.857142857143,4,1,0,100,0,1
207026,-142.857142857143,4,1,0,100,0,0

[HitObjects]
256,192,626,5,0,0:0:0:0:
256,192,1426,1,0,0:0:0:0:
256,192,1626,1,8,0:0:0:0:
256,192,1826,1,0,0:0:0:0:
256,192,2026,1,8,0:0:0:0:
256,192,2226,1,0,0:0:0:0:
256,192,3026,1,0,0:0:0:0:
256,192,3126,1,8,0:0:0:0:
256,192,3426,1,0,0:0:0:0:
256,192,3626,1,0,0:0:0:0:
256,192,3826,1,0,0:0:0:0:
256,192,4626,1,8,0:0:0:0:
256,192,4826,1,8,0:0:0:0:
256,192,5026,1,0,0:0:0:0:
256,192,5126,1,0,0:0:0:0:
256,192,5326,1,0,0:0:0:0:
256,192,5426,1,0,0:0:0:0:
256,192,6226,1,8,0:0:0:0:
256,192,6426,1,0,0:0:0:0:
256,192,6526,1,0,0:0:0:0:
256,192,6626,1,0,0:0:0:0:
256,192,6826,1,8,0:0:0:0:
256,192,7026,1,0,0:0:0:0:
256,192,7826,1,0,0:0:0:0:
256,192,8026,1,8,0:0:0:0:
256,192,8226,1,0,0:0:0:0:
256,192,8426,1,8,0:0:0:0:
256,192,8626,1,0,0:0:0:0:
256,192,9426,1,0,0:0:0:0:
256,192,9526,1,8,0:0:0:0:
256,192,9826,1,0,0:0:0:0:
256,192,10026,1,0,0:0:0:0:
256,192,10226,1,0,0:0:0:0:
256,192,11026,1,8,0:0:0:0:
256,192,11226,1,8,0:0:0:0:
256,192,11426,1,0,0:0:0:0:
256,192,11526,1,0,0:0:0:0:
256,192,11726,1,0,0:0:0:0:
256,192,11826,1,0,0:0:0:0:
256,192,12626,1,8,0:0:0:0:
256,192,12826,1,0,0:0:0:0:
256,192,12926,1,0,0:0:0:0:
256,192,13026,1,0,0:0:0:0:
256,192,13226,1,8,0:0:0:0:
256,192,13426,1,4,0:0:0:0:
256,192,13626,1,8,0:0:0:0:
256,192,13726,1,8,0:0:0:0:
256,192,13826,1,8,0:0:0:0:
256,192,14026,1,8,0:0:0:0:
256,192,14226,1,0,0:0:0:0:
256,192,14626,1,8,0:0:0:0:
256,192,14826,1,8,0:0:0:0:
256,192,15026,1,0,0:0:0:0:
261,203,15226,1,0,0:0:0:0:
261,203,15326,1,0,0:0:0:0:
256,192,15426,1,8,0:0:0:0:
256,192,15626,1,8,0:0:0:0:
256,192,15826,1,0,0:0:0:0:
256,192,16226,1,8,0:0:0:0:
256,192,16626,1,4,0:0:0:0:
256,192,16826,1,8,0:0:0:0:
256,192,16926,1,8,0:0:0:0:
256,192,17026,1,8,0:0:0:0:
256,192,17226,1,8,0:0:0:0:
256,192,17426,1,0,0:0:0:0:
256,192,17826,1,8,0:0:0:0:
256,192,18026,1,8,0:0:0:0:
256,192,18226,1,0,0:0:0:0:
256,192,18426,1,8,0:0:0:0:
256,192,18626,1,0,0:0:0:0:
256,192,18826,1,0,0:0:0:0:
256,192,18926,1,0,0:0:0:0:
256,192,19026,1,0,0:0:0:0:
256,192,19126,1,0,0:0:0:0:
256,192,19226,1,8,0:0:0:0:
256,192,19426,1,0,0:0:0:0:
256,192,19826,1,4,0:0:0:0:
256,192,20026,1,8,0:0:0:0:
256,192,20126,1,8,0:0:0:0:
256,192,20226,1,8,0:0:0:0:
256,192,20426,1,8,0:0:0:0:
256,192,20626,1,0,0:0:0:0:
256,192,21026,1,8,0:0:0:0:
256,192,21226,1,8,0:0:0:0:
256,192,21426,1,0,0:0:0:0:
256,192,21626,1,0,0:0:0:0:
256,192,21726,1,0,0:0:0:0:
256,192,21826,1,8,0:0:0:0:
256,192,22026,1,8,0:0:0:0:
256,192,22226,1,0,0:0:0:0:
256,192,22626,1,8,0:0:0:0:
256,192,23026,1,4,0:0:0:0:
256,192,23226,1,8,0:0:0:0:
256,192,23326,1,8,0:0:0:0:
256,192,23426,1,8,0:0:0:0:
256,192,23626,1,8,0:0:0:0:
256,192,23826,1,0,0:0:0:0:
256,192,24226,1,8,0:0:0:0:
256,192,24426,1,8,0:0:0:0:
256,192,24626,1,0,0:0:0:0:
256,192,24826,1,0,0:0:0:0:
256,192,24926,1,0,0:0:0:0:
256,192,25026,1,0,0:0:0:0:
256,192,25226,1,0,0:0:0:0:
256,192,25426,1,8,0:0:0:0:
256,192,25626,1,8,0:0:0:0:
256,192,25726,1,8,0:0:0:0:
256,192,25826,1,8,0:0:0:0:
256,192,26226,1,4,0:0:0:0:
256,192,26626,1,0,0:0:0:0:
256,192,27026,1,0,0:0:0:0:
256,192,27426,1,0,0:0:0:0:
256,192,27626,1,8,0:0:0:0:
256,192,27826,1,0,0:0:0:0:
256,192,28226,1,0,0:0:0:0:
256,192,28626,1,0,0:0:0:0:
256,192,28826,1,8,0:0:0:0:
256,192,28926,1,0,0:0:0:0:
256,192,29026,1,8,0:0:0:0:
256,192,29226,1,0,0:0:0:0:
256,192,29326,1,8,0:0:0:0:
256,192,29426,1,0,0:0:0:0:
256,192,29826,1,0,0:0:0:0:
256,192,30226,1,0,0:0:0:0:
256,192,30626,1,0,0:0:0:0:
256,192,30826,1,8,0:0:0:0:
256,192,31026,1,0,0:0:0:0:
256,192,31226,1,0,0:0:0:0:
256,192,31326,1,0,0:0:0:0:
256,192,31426,1,0,0:0:0:0:
256,192,31626,1,8,0:0:0:0:
256,192,31826,1,0,0:0:0:0:
256,192,32226,1,8,0:0:0:0:
256,192,32326,1,8,0:0:0:0:
256,192,32426,1,8,0:0:0:0:
256,192,32626,1,4,0:0:0:0:
256,192,33026,1,0,0:0:0:0:
256,192,33426,1,0,0:0:0:0:
256,192,33826,1,0,0:0:0:0:
256,192,34026,1,8,0:0:0:0:
256,192,34226,1,0,0:0:0:0:
256,192,34626,1,0,0:0:0:0:
256,192,35026,1,0,0:0:0:0:
256,192,35226,1,8,0:0:0:0:
256,192,35326,1,0,0:0:0:0:
256,192,35426,1,8,0:0:0:0:
256,192,35626,1,0,0:0:0:0:
256,192,35726,1,8,0:0:0:0:
256,192,35826,1,0,0:0:0:0:
256,192,36226,1,0,0:0:0:0:
256,192,36426,1,8,0:0:0:0:
256,192,36526,1,8,0:0:0:0:
256,192,36626,1,8,0:0:0:0:
256,192,36826,1,0,0:0:0:0:
256,192,37026,1,8,0:0:0:0:
256,192,37226,1,8,0:0:0:0:
256,192,37426,1,0,0:0:0:0:
256,192,37826,1,8,0:0:0:0:
256,192,38026,1,0,0:0:0:0:
256,192,38126,1,0,0:0:0:0:
256,192,38226,1,0,0:0:0:0:
256,192,38426,1,0,0:0:0:0:
256,192,38626,1,8,0:0:0:0:
256,192,38826,1,8,0:0:0:0:
256,192,39026,1,4,0:0:0:0:
256,192,39426,1,8,0:0:0:0:
256,192,39626,1,0,0:0:0:0:
256,192,39726,1,0,0:0:0:0:
256,192,39826,1,0,0:0:0:0:
256,192,40026,1,0,0:0:0:0:
256,192,40226,1,8,0:0:0:0:
256,192,40426,1,8,0:0:0:0:
256,192,40626,1,0,0:0:0:0:
256,192,40926,1,8,0:0:0:0:
256,192,41226,1,0,0:0:0:0:
256,192,41526,1,8,0:0:0:0:
256,192,41826,1,0,0:0:0:0:
256,192,41926,1,0,0:0:0:0:
256,192,42026,1,0,0:0:0:0:
256,192,42226,1,8,0:0:0:0:
256,192,42426,1,8,0:0:0:0:
256,192,42626,1,0,0:0:0:0:
256,192,43026,1,0,0:0:0:0:
256,192,43226,1,0,0:0:0:0:
256,192,43426,1,8,0:0:0:0:
256,192,43626,1,8,0:0:0:0:
256,192,43826,1,0,0:0:0:0:
256,192,44126,1,8,0:0:0:0:
256,192,44426,1,0,0:0:0:0:
256,192,44726,1,8,0:0:0:0:
256,192,45026,1,0,0:0:0:0:
256,192,45126,1,0,0:0:0:0:
256,192,45226,1,0,0:0:0:0:
256,192,45426,1,4,0:0:0:0:
256,192,45626,1,8,0:0:0:0:
256,192,45826,1,0,0:0:0:0:
256,192,46226,1,8,0:0:0:0:
256,192,46426,1,0,0:0:0:0:
256,192,46626,1,8,0:0:0:0:
256,192,47026,1,0,0:0:0:0:
256,192,47226,1,8,0:0:0:0:
256,192,47426,1,0,0:0:0:0:
256,192,47826,1,0,0:0:0:0:
256,192,48026,1,8,0:0:0:0:
256,192,48126,1,0,0:0:0:0:
256,192,48226,1,8,0:0:0:0:
256,192,48426,1,0,0:0:0:0:
256,192,48526,1,8,0:0:0:0:
256,192,48626,1,0,0:0:0:0:
256,192,48826,1,8,0:0:0:0:
256,192,49026,1,0,0:0:0:0:
256,192,49426,1,8,0:0:0:0:
256,192,49626,1,0,0:0:0:0:
256,192,49826,1,8,0:0:0:0:
256,192,50226,1,0,0:0:0:0:
256,192,50426,1,0,0:0:0:0:
256,192,50526,1,0,0:0:0:0:
256,192,50626,1,0,0:0:0:0:
256,192,50826,1,0,0:0:0:0:
256,192,51026,1,8,0:0:0:0:
256,192,51226,1,8,0:0:0:0:
256,192,51326,1,8,0:0:0:0:
256,192,51426,1,8,0:0:0:0:
256,192,51826,1,4,0:0:0:0:
256,192,52026,1,8,0:0:0:0:
256,192,52226,1,0,0:0:0:0:
256,192,52626,1,8,0:0:0:0:
256,192,52826,1,0,0:0:0:0:
256,192,53026,1,8,0:0:0:0:
256,192,53426,1,0,0:0:0:0:
256,192,53626,1,8,0:0:0:0:
256,192,53726,1,8,0:0:0:0:
256,192,53826,1,8,0:0:0:0:
256,192,54226,1,0,0:0:0:0:
256,192,54426,1,8,0:0:0:0:
256,192,54526,1,0,0:0:0:0:
256,192,54626,1,8,0:0:0:0:
256,192,54826,1,0,0:0:0:0:
256,192,54926,1,8,0:0:0:0:
256,192,55026,1,0,0:0:0:0:
256,192,55226,1,8,0:0:0:0:
256,192,55426,1,0,0:0:0:0:
256,192,55826,1,8,0:0:0:0:
256,192,56026,1,0,0:0:0:0:
256,192,56226,1,8,0:0:0:0:
256,192,56626,1,0,0:0:0:0:
256,192,56826,1,8,0:0:0:0:
256,192,56926,1,8,0:0:0:0:
256,192,57026,1,8,0:0:0:0:
256,192,57226,1,0,0:0:0:0:
256,192,57426,1,8,0:0:0:0:
256,192,57626,1,8,0:0:0:0:
256,192,57826,1,0,0:0:0:0:
256,192,58226,1,4,0:0:0:0:
256,192,58626,1,8,0:0:0:0:
256,192,58826,1,8,0:0:0:0:
256,192,59026,1,0,0:0:0:0:
256,192,59226,1,0,0:0:0:0:
256,192,59426,1,8,0:0:0:0:
256,192,59626,1,8,0:0:0:0:
256,192,59826,1,0,0:0:0:0:
256,192,60126,1,8,0:0:0:0:
256,192,60426,1,0,0:0:0:0:
256,192,60726,1,8,0:0:0:0:
256,192,61026,1,0,0:0:0:0:
256,192,61426,1,8,0:0:0:0:
256,192,61526,1,8,0:0:0:0:
256,192,61626,1,8,0:0:0:0:
256,192,61826,1,0,0:0:0:0:
256,192,62026,1,0,0:0:0:0:
256,192,62226,1,8,0:0:0:0:
256,192,62626,1,8,0:0:0:0:
256,192,62826,1,8,0:0:0:0:
256,192,63026,1,0,0:0:0:0:
256,192,63326,1,8,0:0:0:0:
256,192,63626,1,0,0:0:0:0:
256,192,63926,1,8,0:0:0:0:
256,192,64226,1,0,0:0:0:0:
256,192,64326,1,0,0:0:0:0:
256,192,64426,1,0,0:0:0:0:
256,192,64626,1,12,0:0:0:0:
256,192,65426,1,0,0:0:0:0:
256,192,65626,1,0,0:0:0:0:
256,192,65826,1,8,0:0:0:0:
256,192,65926,1,8,0:0:0:0:
256,192,66026,1,8,0:0:0:0:
256,192,66226,1,0,0:0:0:0:
256,192,67026,1,0,0:0:0:0:
256,192,67126,1,8,0:0:0:0:
256,192,67226,1,0,0:0:0:0:
256,192,67426,1,8,0:0:0:0:
256,192,67526,1,0,0:0:0:0:
256,192,67626,1,8,0:0:0:0:
256,192,67826,1,12,0:0:0:0:
256,192,68626,1,0,0:0:0:0:
256,192,68826,1,0,0:0:0:0:
256,192,69026,1,8,0:0:0:0:
256,192,69126,1,8,0:0:0:0:
256,192,69226,1,8,0:0:0:0:
256,192,69426,1,0,0:0:0:0:
256,192,69526,1,0,0:0:0:0:
256,192,69626,1,0,0:0:0:0:
256,192,69826,1,8,0:0:0:0:
256,192,70026,1,0,0:0:0:0:
256,192,70226,1,8,0:0:0:0:
256,192,70326,1,0,0:0:0:0:
256,192,70426,1,8,0:0:0:0:
256,192,70626,1,0,0:0:0:0:
256,192,70726,1,8,0:0:0:0:
256,192,70826,1,0,0:0:0:0:
256,192,71026,1,4,0:0:0:0:
256,192,71426,1,8,0:0:0:0:
256,192,71626,1,8,0:0:0:0:
256,192,71826,1,0,0:0:0:0:
256,192,72026,1,0,0:0:0:0:
256,192,72226,1,8,0:0:0:0:
256,192,72326,1,8,0:0:0:0:
256,192,72426,1,8,0:0:0:0:
256,192,72626,1,0,0:0:0:0:
256,192,73026,1,8,0:0:0:0:
256,192,73226,1,8,0:0:0:0:
256,192,73426,1,0,0:0:0:0:
256,192,73626,1,8,0:0:0:0:
256,192,73726,1,8,0:0:0:0:
256,192,73826,1,8,0:0:0:0:
256,192,74026,1,0,0:0:0:0:
256,192,74226,1,4,0:0:0:0:
256,192,74626,1,8,0:0:0:0:
256,192,74826,1,8,0:0:0:0:
256,192,75026,1,0,0:0:0:0:
256,192,75226,1,8,0:0:0:0:
256,192,75326,1,8,0:0:0:0:
256,192,75426,1,8,0:0:0:0:
256,192,75626,1,8,0:0:0:0:
256,192,75826,1,0,0:0:0:0:
256,192,76026,1,0,0:0:0:0:
256,192,76226,1,0,0:0:0:0:
256,192,76426,1,0,0:0:0:0:
256,192,76626,1,8,0:0:0:0:
256,192,76826,1,8,0:0:0:0:
256,192,77026,1,8,0:0:0:0:
256,192,77126,1,8,0:0:0:0:
256,192,77226,1,8,0:0:0:0:
256,192,77326,1,8,0:0:0:0:
256,192,77426,2,4,L|288:192,20,24.4999992523194
256,192,78626,1,8,0:0:0:0:
256,192,78726,1,8,0:0:0:0:
256,192,78826,1,8,0:0:0:0:
256,192,79026,12,0,80226,0:0:0:0:
256,192,80626,5,4,0:0:0:0:
256,192,81026,1,8,0:0:0:0:
256,192,81426,1,0,0:0:0:0:
256,192,81626,1,0,0:0:0:0:
256,192,81826,1,8,0:0:0:0:
256,192,82026,1,8,0:0:0:0:
256,192,82226,1,0,0:0:0:0:
256,192,82626,1,8,0:0:0:0:
256,192,83026,1,0,0:0:0:0:
256,192,83226,1,0,0:0:0:0:
256,192,83426,1,8,0:0:0:0:
256,192,83826,1,4,0:0:0:0:
256,192,84226,1,8,0:0:0:0:
256,192,84626,1,0,0:0:0:0:
256,192,84926,1,8,0:0:0:0:
256,192,85026,1,0,0:0:0:0:
256,192,85226,1,0,0:0:0:0:
256,192,85426,1,8,0:0:0:0:
256,192,85826,1,0,0:0:0:0:
256,192,86026,1,0,0:0:0:0:
256,192,86226,1,8,0:0:0:0:
256,192,86626,1,0,0:0:0:0:
256,192,86826,1,8,0:0:0:0:
256,192,87026,1,4,0:0:0:0:
256,192,87226,1,8,0:0:0:0:
256,192,87426,1,8,0:0:0:0:
256,192,87526,1,8,0:0:0:0:
256,192,87626,1,8,0:0:0:0:
256,192,87826,1,0,0:0:0:0:
256,192,88026,1,8,0:0:0:0:
256,192,88226,1,0,0:0:0:0:
256,192,88626,1,0,0:0:0:0:
256,192,88826,1,8,0:0:0:0:
256,192,89026,1,8,0:0:0:0:
256,192,89126,1,8,0:0:0:0:
256,192,89226,1,8,0:0:0:0:
256,192,89426,1,0,0:0:0:0:
256,192,89626,1,0,0:0:0:0:
256,192,89826,1,8,0:0:0:0:
256,192,90226,1,0,0:0:0:0:
256,192,90426,1,8,0:0:0:0:
256,192,90626,1,8,0:0:0:0:
256,192,90726,1,8,0:0:0:0:
256,192,90826,1,8,0:0:0:0:
256,192,91026,1,0,0:0:0:0:
256,192,91226,1,8,0:0:0:0:
256,192,91426,1,0,0:0:0:0:
256,192,91826,1,0,0:0:0:0:
256,192,92026,1,8,0:0:0:0:
256,192,92226,1,8,0:0:0:0:
256,192,92326,1,8,0:0:0:0:
256,192,92426,1,8,0:0:0:0:
256,192,92626,1,0,0:0:0:0:
256,192,92826,1,0,0:0:0:0:
256,192,93026,1,8,0:0:0:0:
256,192,93226,1,8,0:0:0:0:
256,192,93426,1,4,0:0:0:0:
256,192,93626,12,0,95626,0:0:0:0:
256,192,95826,5,8,0:0:0:0:
256,192,96226,1,8,0:0:0:0:
256,192,96626,1,4,0:0:0:0:
256,192,97026,1,8,0:0:0:0:
256,192,97226,1,8,0:0:0:0:
256,192,97426,1,0,0:0:0:0:
256,192,97626,1,0,0:0:0:0:
256,192,97826,1,8,0:0:0:0:
256,192,98226,1,0,0:0:0:0:
256,192,98426,1,0,0:0:0:0:
256,192,98626,1,8,0:0:0:0:
256,192,98726,1,8,0:0:0:0:
256,192,98826,1,8,0:0:0:0:
256,192,99026,1,0,0:0:0:0:
256,192,99226,1,0,0:0:0:0:
256,192,99426,1,8,0:0:0:0:
256,192,99826,1,4,0:0:0:0:
256,192,100226,1,8,0:0:0:0:
256,192,100426,1,0,0:0:0:0:
256,192,100626,1,0,0:0:0:0:
256,192,100826,1,0,0:0:0:0:
256,192,101026,1,8,0:0:0:0:
256,192,101226,1,8,0:0:0:0:
256,192,101426,1,0,0:0:0:0:
256,192,101826,1,8,0:0:0:0:
256,192,101926,1,8,0:0:0:0:
256,192,102026,1,8,0:0:0:0:
256,192,102226,1,0,0:0:0:0:
256,192,102626,1,8,0:0:0:0:
256,192,102826,1,8,0:0:0:0:
256,192,103026,1,4,0:0:0:0:
256,192,103426,1,8,0:0:0:0:
256,192,103826,1,0,0:0:0:0:
256,192,104026,1,0,0:0:0:0:
256,192,104226,1,8,0:0:0:0:
256,192,104626,1,0,0:0:0:0:
256,192,104826,1,0,0:0:0:0:
256,192,105026,1,8,0:0:0:0:
256,192,105126,1,8,0:0:0:0:
256,192,105226,1,8,0:0:0:0:
256,192,105426,1,0,0:0:0:0:
256,192,105626,1,0,0:0:0:0:
256,192,105826,1,8,0:0:0:0:
256,192,106226,1,4,0:0:0:0:
256,192,106626,1,8,0:0:0:0:
256,192,106826,1,8,0:0:0:0:
256,192,107026,1,0,0:0:0:0:
256,192,107226,1,0,0:0:0:0:
256,192,107426,1,8,0:0:0:0:
256,192,107626,1,8,0:0:0:0:
256,192,107826,1,0,0:0:0:0:
256,192,108226,1,0,0:0:0:0:
256,192,108326,1,0,0:0:0:0:
256,192,108426,1,0,0:0:0:0:
256,192,108626,1,8,0:0:0:0:
256,192,108826,1,0,0:0:0:0:
256,192,109026,1,8,0:0:0:0:
256,192,109226,1,8,0:0:0:0:
256,192,109426,1,4,0:0:0:0:
256,192,109826,1,8,0:0:0:0:
256,192,110226,1,0,0:0:0:0:
256,192,110626,1,8,0:0:0:0:
256,192,110826,1,8,0:0:0:0:
256,192,111026,1,0,0:0:0:0:
256,192,111426,1,8,0:0:0:0:
256,192,111826,1,0,0:0:0:0:
256,192,112026,1,8,0:0:0:0:
256,192,112126,1,8,0:0:0:0:
256,192,112226,1,0,0:0:0:0:
256,192,112426,1,0,0:0:0:0:
256,192,112626,1,4,0:0:0:0:
256,192,113026,1,8,0:0:0:0:
256,192,113426,1,0,0:0:0:0:
256,192,113626,1,0,0:0:0:0:
256,192,113826,1,8,0:0:0:0:
256,192,114026,1,8,0:0:0:0:
256,192,114226,1,0,0:0:0:0:
256,192,114626,1,8,0:0:0:0:
256,192,115026,1,0,0:0:0:0:
256,192,115426,1,8,0:0:0:0:
256,192,115626,1,8,0:0:0:0:
256,192,115826,1,4,0:0:0:0:
256,192,116226,1,8,0:0:0:0:
256,192,116626,1,0,0:0:0:0:
256,192,117026,1,8,0:0:0:0:
256,192,117226,1,8,0:0:0:0:
256,192,117426,1,0,0:0:0:0:
256,192,117526,1,0,0:0:0:0:
256,192,117626,1,8,0:0:0:0:
256,192,117826,1,0,0:0:0:0:
256,192,117926,1,0,0:0:0:0:
256,192,118026,1,8,0:0:0:0:
256,192,118226,1,0,0:0:0:0:
256,192,118426,1,8,0:0:0:0:
256,192,118626,1,0,0:0:0:0:
256,192,119026,1,4,0:0:0:0:
256,192,119426,1,0,0:0:0:0:
256,192,119626,1,0,0:0:0:0:
256,192,119826,1,8,0:0:0:0:
256,192,119926,1,8,0:0:0:0:
256,192,120026,1,0,0:0:0:0:
256,192,120226,1,0,0:0:0:0:
256,192,120426,1,0,0:0:0:0:
256,192,120626,1,12,0:0:0:0:
256,192,121026,1,12,0:0:0:0:
256,192,121426,1,12,0:0:0:0:
256,192,121626,1,8,0:0:0:0:
256,192,121826,1,0,0:0:0:0:
256,192,122226,1,4,0:0:0:0:
256,192,122426,1,8,0:0:0:0:
256,192,122526,1,8,0:0:0:0:
256,192,122626,1,8,0:0:0:0:
256,192,122826,1,8,0:0:0:0:
256,192,123026,1,0,0:0:0:0:
256,192,123426,1,8,0:0:0:0:
256,192,123626,1,8,0:0:0:0:
256,192,123826,1,0,0:0:0:0:
256,192,124026,1,0,0:0:0:0:
256,192,124126,1,0,0:0:0:0:
256,192,124226,1,8,0:0:0:0:
256,192,124426,1,8,0:0:0:0:
256,192,124626,1,0,0:0:0:0:
256,192,125026,1,8,0:0:0:0:
256,192,125426,1,4,0:0:0:0:
256,192,125626,1,8,0:0:0:0:
256,192,125726,1,8,0:0:0:0:
256,192,125826,1,8,0:0:0:0:
256,192,126026,1,8,0:0:0:0:
256,192,126226,1,0,0:0:0:0:
256,192,126626,1,8,0:0:0:0:
256,192,126826,1,8,0:0:0:0:
256,192,127026,1,0,0:0:0:0:
256,192,127226,1,8,0:0:0:0:
256,192,127426,1,0,0:0:0:0:
256,192,127626,1,0,0:0:0:0:
256,192,127726,1,0,0:0:0:0:
256,192,127826,1,0,0:0:0:0:
256,192,127926,1,0,0:0:0:0:
256,192,128026,1,8,0:0:0:0:
256,192,128226,1,0,0:0:0:0:
256,192,128626,1,4,0:0:0:0:
256,192,128826,1,8,0:0:0:0:
256,192,128926,1,8,0:0:0:0:
256,192,129026,1,8,0:0:0:0:
256,192,129226,1,8,0:0:0:0:
256,192,129426,1,0,0:0:0:0:
256,192,129826,1,8,0:0:0:0:
256,192,130026,1,8,0:0:0:0:
256,192,130226,1,0,0:0:0:0:
256,192,130426,1,0,0:0:0:0:
256,192,130526,1,0,0:0:0:0:
256,192,130626,1,8,0:0:0:0:
256,192,130826,1,8,0:0:0:0:
256,192,131026,1,0,0:0:0:0:
256,192,131426,1,8,0:0:0:0:
256,192,131826,1,4,0:0:0:0:
256,192,132026,1,8,0:0:0:0:
256,192,132126,1,8,0:0:0:0:
256,192,132226,1,8,0:0:0:0:
256,192,132426,1,8,0:0:0:0:
256,192,132626,1,0,0:0:0:0:
256,192,133026,1,8,0:0:0:0:
256,192,133226,1,8,0:0:0:0:
256,192,133426,1,0,0:0:0:0:
256,192,133626,1,0,0:0:0:0:
256,192,133726,1,0,0:0:0:0:
256,192,133826,1,0,0:0:0:0:
256,192,134026,1,0,0:0:0:0:
256,192,134226,1,8,0:0:0:0:
256,192,134426,1,8,0:0:0:0:
256,192,134526,1,8,0:0:0:0:
256,192,134626,1,8,0:0:0:0:
256,192,135026,1,4,0:0:0:0:
256,192,135426,1,0,0:0:0:0:
256,192,135826,1,0,0:0:0:0:
256,192,136226,1,0,0:0:0:0:
256,192,136426,1,8,0:0:0:0:
256,192,136626,1,0,0:0:0:0:
256,192,137026,1,0,0:0:0:0:
256,192,137426,1,0,0:0:0:0:
256,192,137626,1,8,0:0:0:0:
256,192,137726,1,0,0:0:0:0:
256,192,137826,1,8,0:0:0:0:
256,192,138026,1,0,0:0:0:0:
256,192,138126,1,8,0:0:0:0:
256,192,138226,1,0,0:0:0:0:
256,192,138626,1,0,0:0:0:0:
256,192,139026,1,0,0:0:0:0:
256,192,139426,1,0,0:0:0:0:
256,192,139626,1,8,0:0:0:0:
256,192,139826,1,0,0:0:0:0:
256,192,139926,1,0,0:0:0:0:
256,192,140026,1,0,0:0:0:0:
256,192,140226,1,8,0:0:0:0:
256,192,140426,1,8,0:0:0:0:
256,192,140626,1,0,0:0:0:0:
256,192,140726,1,0,0:0:0:0:
256,192,140826,1,8,0:0:0:0:
256,192,141026,1,8,0:0:0:0:
256,192,141126,1,8,0:0:0:0:
256,192,141226,1,8,0:0:0:0:
256,192,141426,1,4,0:0:0:0:
256,192,141826,1,8,0:0:0:0:
256,192,142226,1,0,0:0:0:0:
256,192,142626,1,0,0:0:0:0:
256,192,142826,1,8,0:0:0:0:
256,192,143026,1,0,0:0:0:0:
256,192,143226,1,8,0:0:0:0:
256,192,143626,1,8,0:0:0:0:
256,192,143826,1,0,0:0:0:0:
256,192,144026,1,8,0:0:0:0:
256,192,144126,1,0,0:0:0:0:
256,192,144226,1,8,0:0:0:0:
256,192,144426,1,0,0:0:0:0:
256,192,144526,1,8,0:0:0:0:
256,192,144626,1,0,0:0:0:0:
256,192,145026,1,0,0:0:0:0:
256,192,145226,1,8,0:0:0:0:
256,192,145426,1,0,0:0:0:0:
256,192,145826,1,8,0:0:0:0:
256,192,146026,1,8,0:0:0:0:
256,192,146226,1,0,0:0:0:0:
256,192,146526,1,0,0:0:0:0:
256,192,146826,1,0,0:0:0:0:
256,192,147026,1,8,0:0:0:0:
256,192,147226,1,8,0:0:0:0:
256,192,147426,1,0,0:0:0:0:
256,192,147826,1,4,0:0:0:0:
256,192,148226,1,0,0:0:0:0:
256,192,148626,1,0,0:0:0:0:
256,192,149026,1,0,0:0:0:0:
256,192,149226,1,8,0:0:0:0:
256,192,149426,1,0,0:0:0:0:
256,192,149826,1,0,0:0:0:0:
256,192,150226,1,0,0:0:0:0:
256,192,150426,1,8,0:0:0:0:
256,192,150526,1,0,0:0:0:0:
256,192,150626,1,8,0:0:0:0:
256,192,150826,1,0,0:0:0:0:
256,192,150926,1,8,0:0:0:0:
256,192,151026,1,0,0:0:0:0:
256,192,151426,1,0,0:0:0:0:
256,192,151826,1,0,0:0:0:0:
256,192,152226,1,0,0:0:0:0:
256,192,152426,1,8,0:0:0:0:
256,192,152526,1,8,0:0:0:0:
256,192,152626,1,0,0:0:0:0:
256,192,152826,1,0,0:0:0:0:
256,192,153026,1,8,0:0:0:0:
256,192,153126,1,8,0:0:0:0:
256,192,153226,1,8,0:0:0:0:
256,192,153426,1,0,0:0:0:0:
256,192,153626,1,0,0:0:0:0:
256,192,153826,1,8,0:0:0:0:
256,192,154226,1,4,0:0:0:0:
256,192,154626,1,8,0:0:0:0:
256,192,154826,1,0,0:0:0:0:
256,192,154926,1,0,0:0:0:0:
256,192,155026,1,0,0:0:0:0:
256,192,155226,1,0,0:0:0:0:
256,192,155426,1,8,0:0:0:0:
256,192,155626,1,8,0:0:0:0:
256,192,155826,1,0,0:0:0:0:
256,192,156126,1,8,0:0:0:0:
256,192,156426,1,0,0:0:0:0:
256,192,156726,1,8,0:0:0:0:
256,192,157026,1,0,0:0:0:0:
256,192,157126,1,0,0:0:0:0:
256,192,157226,1,0,0:0:0:0:
256,192,157426,1,8,0:0:0:0:
256,192,157626,1,8,0:0:0:0:
256,192,157826,1,0,0:0:0:0:
256,192,158226,1,0,0:0:0:0:
256,192,158426,1,0,0:0:0:0:
256,192,158626,1,8,0:0:0:0:
256,192,158826,1,8,0:0:0:0:
256,192,159026,1,0,0:0:0:0:
256,192,159326,1,8,0:0:0:0:
256,192,159626,1,0,0:0:0:0:
256,192,159926,1,8,0:0:0:0:
256,192,160226,1,0,0:0:0:0:
256,192,160426,1,8,0:0:0:0:
256,192,160626,1,4,0:0:0:0:
256,192,161026,1,8,0:0:0:0:
256,192,161226,1,8,0:0:0:0:
256,192,161426,1,0,0:0:0:0:
256,192,161626,1,0,0:0:0:0:
256,192,161826,1,8,0:0:0:0:
256,192,162226,1,0,0:0:0:0:
256,192,162426,1,0,0:0:0:0:
256,192,162626,1,8,0:0:0:0:
256,192,162826,1,8,0:0:0:0:
256,192,163026,1,0,0:0:0:0:
256,192,163226,1,0,0:0:0:0:
256,192,163426,1,8,0:0:0:0:
256,192,163826,1,4,0:0:0:0:
256,192,164226,1,8,0:0:0:0:
256,192,164426,1,8,0:0:0:0:
256,192,164626,1,0,0:0:0:0:
256,192,164826,1,0,0:0:0:0:
256,192,165026,1,8,0:0:0:0:
256,192,165126,1,8,0:0:0:0:
256,192,165226,1,8,0:0:0:0:
256,192,165426,1,0,0:0:0:0:
256,192,165626,1,0,0:0:0:0:
256,192,165826,1,8,0:0:0:0:
256,192,166226,1,0,0:0:0:0:
256,192,166426,1,8,0:0:0:0:
256,192,166726,1,8,0:0:0:0:
256,192,167026,1,4,0:0:0:0:
256,192,167226,1,0,0:0:0:0:
256,192,167426,1,8,0:0:0:0:
256,192,167826,1,0,0:0:0:0:
256,192,168026,1,8,0:0:0:0:
256,192,168226,1,0,0:0:0:0:
256,192,168626,1,0,0:0:0:0:
256,192,169026,1,8,0:0:0:0:
256,192,169226,1,8,0:0:0:0:
256,192,169426,1,0,0:0:0:0:
256,192,169626,1,0,0:0:0:0:
256,192,169826,1,8,0:0:0:0:
256,192,169926,1,8,0:0:0:0:
256,192,170026,1,8,0:0:0:0:
256,192,170226,1,4,0:0:0:0:
256,192,170626,1,8,0:0:0:0:
256,192,170826,1,0,0:0:0:0:
256,192,171026,1,8,0:0:0:0:
256,192,171426,1,8,0:0:0:0:
256,192,171626,1,8,0:0:0:0:
256,192,171826,1,0,0:0:0:0:
256,192,172026,1,8,0:0:0:0:
256,192,172226,1,0,0:0:0:0:
256,192,172426,1,0,0:0:0:0:
256,192,172626,1,8,0:0:0:0:
256,192,172826,1,0,0:0:0:0:
256,192,173026,1,8,0:0:0:0:
256,192,173126,1,8,0:0:0:0:
256,192,173226,1,8,0:0:0:0:
256,192,173326,1,8,0:0:0:0:
256,192,173426,2,4,L|288:192,20,24.4999992523194
256,192,174626,1,8,0:0:0:0:
256,192,174726,1,8,0:0:0:0:
256,192,174826,1,8,0:0:0:0:
256,192,175026,12,0,176226,0:0:0:0:
256,192,176626,5,0,0:0:0:0:
256,192,176826,1,0,0:0:0:0:
256,192,177026,1,8,0:0:0:0:
256,192,177426,1,0,0:0:0:0:
256,192,177826,1,8,0:0:0:0:
256,192,178026,1,8,0:0:0:0:
256,192,178226,1,0,0:0:0:0:
256,192,178626,1,8,0:0:0:0:
256,192,179026,1,0,0:0:0:0:
256,192,179226,1,0,0:0:0:0:
256,192,179426,1,8,0:0:0:0:
256,192,179826,1,4,0:0:0:0:
256,192,180226,1,8,0:0:0:0:
256,192,180626,1,0,0:0:0:0:
256,192,180926,1,8,0:0:0:0:
256,192,181026,1,0,0:0:0:0:
256,192,181226,1,0,0:0:0:0:
256,192,181426,1,8,0:0:0:0:
256,192,181826,1,0,0:0:0:0:
256,192,182026,1,0,0:0:0:0:
256,192,182226,1,8,0:0:0:0:
256,192,182626,1,0,0:0:0:0:
256,192,183026,1,4,0:0:0:0:
256,192,183226,1,8,0:0:0:0:
256,192,183426,1,8,0:0:0:0:
256,192,183526,1,8,0:0:0:0:
256,192,183626,1,8,0:0:0:0:
256,192,183826,1,0,0:0:0:0:
256,192,184026,1,8,0:0:0:0:
256,192,184226,1,0,0:0:0:0:
256,192,184626,1,0,0:0:0:0:
256,192,184826,1,8,0:0:0:0:
256,192,185026,1,8,0:0:0:0:
256,192,185126,1,8,0:0:0:0:
256,192,185226,1,8,0:0:0:0:
256,192,185426,1,0,0:0:0:0:
256,192,185626,1,0,0:0:0:0:
256,192,185826,1,8,0:0:0:0:
256,192,186226,1,0,0:0:0:0:
256,192,186426,1,8,0:0:0:0:
256,192,186626,1,8,0:0:0:0:
256,192,186726,1,8,0:0:0:0:
256,192,186826,1,8,0:0:0:0:
256,192,187026,1,0,0:0:0:0:
256,192,187226,1,8,0:0:0:0:
256,192,187426,1,0,0:0:0:0:
256,192,187826,1,0,0:0:0:0:
256,192,188026,1,8,0:0:0:0:
256,192,188226,1,8,0:0:0:0:
256,192,188326,1,8,0:0:0:0:
256,192,188426,1,8,0:0:0:0:
256,192,188626,1,0,0:0:0:0:
256,192,188826,1,0,0:0:0:0:
256,192,189026,1,8,0:0:0:0:
256,192,189226,1,8,0:0:0:0:
256,192,189426,1,4,0:0:0:0:
256,192,189626,12,0,191626,0:0:0:0:
256,192,191826,5,8,0:0:0:0:
256,192,192226,1,8,0:0:0:0:
256,192,192426,1,8,0:0:0:0:
256,192,192626,1,0,0:0:0:0:
256,192,193026,1,8,0:0:0:0:
256,192,193426,1,0,0:0:0:0:
256,192,193526,1,0,0:0:0:0:
256,192,193626,1,0,0:0:0:0:
256,192,193726,1,0,0:0:0:0:
256,192,193826,1,8,0:0:0:0:
256,192,194226,1,4,0:0:0:0:
256,192,194626,1,8,0:0:0:0:
256,192,194826,1,8,0:0:0:0:
256,192,195026,1,0,0:0:0:0:
256,192,195226,1,0,0:0:0:0:
256,192,195426,1,8,0:0:0:0:
256,192,195826,1,0,0:0:0:0:
256,192,196226,1,8,0:0:0:0:
256,192,196326,1,8,0:0:0:0:
256,192,196426,1,8,0:0:0:0:
256,192,196626,1,0,0:0:0:0:
256,192,196726,1,0,0:0:0:0:
256,192,196826,1,0,0:0:0:0:
256,192,197026,1,8,0:0:0:0:
256,192,197426,1,4,0:0:0:0:
256,192,197826,1,8,0:0:0:0:
256,192,198026,1,0,0:0:0:0:
256,192,198226,1,0,0:0:0:0:
256,192,198426,1,0,0:0:0:0:
256,192,198626,1,8,0:0:0:0:
256,192,198826,1,8,0:0:0:0:
256,192,199026,1,0,0:0:0:0:
256,192,199426,1,8,0:0:0:0:
256,192,199526,1,8,0:0:0:0:
256,192,199626,1,8,0:0:0:0:
256,192,199826,1,0,0:0:0:0:
256,192,200226,1,8,0:0:0:0:
256,192,200426,1,8,0:0:0:0:
256,192,200626,1,4,0:0:0:0:
256,192,201026,1,8,0:0:0:0:
256,192,201426,1,0,0:0:0:0:
256,192,201626,1,0,0:0:0:0:
256,192,201826,1,8,0:0:0:0:
256,192,202226,1,0,0:0:0:0:
256,192,202626,1,8,0:0:0:0:
256,192,202726,1,8,0:0:0:0:
256,192,202826,1,8,0:0:0:0:
256,192,203026,1,0,0:0:0:0:
256,192,203126,1,0,0:0:0:0:
256,192,203226,1,0,0:0:0:0:
256,192,203426,1,8,0:0:0:0:
256,192,203826,1,4,0:0:0:0:
256,192,204226,1,8,0:0:0:0:
256,192,204426,1,8,0:0:0:0:
256,192,204626,1,0,0:0:0:0:
256,192,204826,1,0,0:0:0:0:
256,192,205026,1,8,0:0:0:0:
256,192,205226,1,8,0:0:0:0:
256,192,205426,1,0,0:0:0:0:
256,192,205826,1,0,0:0:0:0:
256,192,205926,1,0,0:0:0:0:
256,192,206026,1,0,0:0:0:0:
256,192,206226,1,8,0:0:0:0:
256,192,206326,1,8,0:0:0:0:
256,192,206426,1,0,0:0:0:0:
256,192,206626,1,8,0:0:0:0:
256,192,207026,1,4,0:0:0:0:
256,192,207426,1,8,0:0:0:0:
256,192,207626,1,0,0:0:0:0:
256,192,208026,1,0,0:0:0:0:
256,192,208226,1,8,0:0:0:0:
256,192,208426,1,8,0:0:0:0:
256,192,208626,1,0,0:0:0:0:
256,192,209026,1,8,0:0:0:0:
256,192,209426,1,0,0:0:0:0:
256,192,209626,1,8,0:0:0:0:
256,192,209726,1,8,0:0:0:0:
256,192,209826,1,8,0:0:0:0:
256,192,210026,1,8,0:0:0:0:
256,192,210226,1,4,0:0:0:0:
256,192,210626,1,8,0:0:0:0:
256,192,210826,1,0,0:0:0:0:
256,192,211026,1,0,0:0:0:0:
256,192,211226,1,0,0:0:0:0:
256,192,211426,1,8,0:0:0:0:
256,192,211626,1,8,0:0:0:0:
256,192,211826,1,0,0:0:0:0:
256,192,212226,1,8,0:0:0:0:
256,192,212626,1,0,0:0:0:0:
256,192,212726,1,0,0:0:0:0:
256,192,212826,1,0,0:0:0:0:
256,192,213026,1,8,0:0:0:0:
256,192,213226,1,8,0:0:0:0:
256,192,213426,1,4,0:0:0:0:
256,192,213826,1,8,0:0:0:0:
256,192,214226,1,0,0:0:0:0:
256,192,214626,1,8,0:0:0:0:
256,192,214826,1,8,0:0:0:0:
256,192,215026,1,0,0:0:0:0:
256,192,215126,1,0,0:0:0:0:
256,192,215226,1,8,0:0:0:0:
256,192,215426,1,0,0:0:0:0:
256,192,215526,1,0,0:0:0:0:
256,192,215626,1,8,0:0:0:0:
256,192,215826,1,0,0:0:0:0:
256,192,216226,1,8,0:0:0:0:
256,192,216426,1,8,0:0:0:0:
256,192,216626,1,4,0:0:0:0:
256,192,217026,1,8,0:0:0:0:
256,192,217826,1,0,0:0:0:0:
256,192,218026,1,0,0:0:0:0:
256,192,218226,1,12,0:0:0:0:
256,192,218626,1,12,0:0:0:0:
256,192,219026,1,12,0:0:0:0:
256,192,219426,1,8,0:0:0:0:
256,192,219626,1,8,0:0:0:0:
256,192,219826,1,4,0:0:0:0:
256,192,220026,1,8,0:0:0:0:
256,192,220226,1,0,0:0:0:0:
256,192,220426,1,0,0:0:0:0:
256,192,220626,1,8,0:0:0:0:
256,192,220726,1,8,0:0:0:0:
256,192,220826,1,8,0:0:0:0:
256,192,221026,1,0,0:0:0:0:
256,192,221426,1,0,0:0:0:0:
256,192,221626,1,8,0:0:0:0:
256,192,221826,1,0,0:0:0:0:
256,192,221926,1,0,0:0:0:0:
256,192,222026,1,0,0:0:0:0:
256,192,222226,1,8,0:0:0:0:
256,192,222326,1,8,0:0:0:0:
256,192,222426,1,8,0:0:0:0:
256,192,222626,1,0,0:0:0:0:
256,192,223026,1,4,0:0:0:0:
256,192,223226,1,8,0:0:0:0:
256,192,223426,1,0,0:0:0:0:
256,192,223626,1,0,0:0:0:0:
256,192,223826,1,8,0:0:0:0:
256,192,223926,1,8,0:0:0:0:
256,192,224026,1,8,0:0:0:0:
256,192,224226,1,0,0:0:0:0:
256,192,224626,1,0,0:0:0:0:
256,192,224826,1,8,0:0:0:0:
256,192,225026,1,0,0:0:0:0:
256,192,225126,1,0,0:0:0:0:
256,192,225226,1,0,0:0:0:0:
256,192,225426,1,8,0:0:0:0:
256,192,225526,1,8,0:0:0:0:
256,192,225626,1,8,0:0:0:0:
256,192,225826,1,0,0:0:0:0:
256,192,226226,1,4,0:0:0:0:
256,192,226426,1,8,0:0:0:0:
256,192,226626,1,0,0:0:0:0:
256,192,226826,1,8,0:0:0:0:
256,192,227026,1,8,0:0:0:0:
256,192,227126,1,8,0:0:0:0:
256,192,227226,1,8,0:0:0:0:
256,192,227426,1,0,0:0:0:0:
256,192,227826,1,0,0:0:0:0:
256,192,228026,1,8,0:0:0:0:
256,192,228226,1,0,0:0:0:0:
256,192,228326,1,0,0:0:0:0:
256,192,228426,1,8,0:0:0:0:
256,192,228626,1,8,0:0:0:0:
256,192,228726,1,8,0:0:0:0:
256,192,228826,1,8,0:0:0:0:
256,192,229026,1,0,0:0:0:0:
256,192,229426,1,4,0:0:0:0:
256,192,229626,1,8,0:0:0:0:
256,192,229826,1,0,0:0:0:0:
256,192,230026,1,8,0:0:0:0:
256,192,230226,1,8,0:0:0:0:
256,192,230326,1,8,0:0:0:0:
256,192,230426,1,8,0:0:0:0:
256,192,230626,1,0,0:0:0:0:
256,192,231026,1,0,0:0:0:0:
256,192,231226,1,8,0:0:0:0:
256,192,231426,1,0,0:0:0:0:
256,192,231526,1,0,0:0:0:0:
256,192,231626,1,8,0:0:0:0:
256,192,231826,1,8,0:0:0:0:
256,192,231926,1,8,0:0:0:0:
256,192,232026,1,8,0:0:0:0:
256,192,232126,1,8,0:0:0:0:
256,192,232226,1,8,0:0:0:0:
256,192,232426,1,4,0:0:0:0:
