osu file format v14

[General]
AudioFilename: hirefuse.mp3
AudioLeadIn: 0
PreviewTime: 26226
Countdown: 1
SampleSet: Normal
StackLeniency: 0.7
Mode: 1
LetterboxInBreaks: 0
WidescreenStoryboard: 1

[Editor]
DistanceSpacing: 0.5
BeatDivisor: 2
GridSize: 32
TimelineZoom: 3.599999

[Metadata]
Title:Hirefuse Gumin domo! Himesama-go Ranshin All Night Hourai LIVE
TitleUnicode:ひれ伏せ愚民どもっ! 姫様ご乱心オールナイト蓬莱ライブ
Artist:IOSYS
ArtistUnicode:IOSYS
Creator:Dainesl
Version:Hell Oni
Source:東方永夜抄 ~ Imperishable Night.
Tags:Vulkin Taiko イオシス 東方Project Touhou 竹取飛翔 ~ Lunatic Princess Taketori Hishou Kaguya Houraisan 蓬莱山輝夜 ARM miko quim Yuuno Yoshimi 夕野ヨシミ 東方想幽森雛 Souyuu Shinpi
BeatmapID:2261211
BeatmapSetID:665384

[Difficulty]
HPDrainRate:4
CircleSize:5
OverallDifficulty:8
ApproachRate:5
SliderMultiplier:1.4
SliderTickRate:1

[Events]
//Background and Video events
0,0,"19282aa007_p0.jpg",0,100
//Break Periods
//Storyboard Layer 0 (Background)
//Storyboard Layer 1 (Fail)
//Storyboard Layer 2 (Pass)
//Storyboard Layer 3 (Foreground)
//Storyboard Layer 4 (Overlay)
//Storyboard Sound Samples

[TimingPoints]
626,200,4,1,0,100,1,0
13426,-100,4,1,0,100,0,1
26226,-100,4,1,0,100,0,0
96626,-100,4,1,0,100,0,1
109426,-100,4,1,0,100,0,0
122226,-100,4,1,0,100,0,1
135026,-100,4,1,0,100,0,0
194226,-100,4,1,0,100,0,1
207026,-100,4,1,0,100,0,0

[HitObjects]
256,192,626,12,0,1326,0:0:0:0:
256,192,1426,5,0,0:0:0:0:
256,192,1526,1,8,0:0:0:0:
256,192,1576,1,8,0:0:0:0:
256,192,1626,1,0,0:0:0:0:
256,192,1726,1,8,0:0:0:0:
256,192,1776,1,8,0:0:0:0:
256,192,1826,1,0,0:0:0:0:
256,192,1926,1,8,0:0:0:0:
256,192,1976,1,8,0:0:0:0:
256,192,2026,1,0,0:0:0:0:
256,192,2126,1,8,0:0:0:0:
256,192,2226,12,0,2926,0:0:0:0:
256,192,3026,5,0,0:0:0:0:
256,192,3126,1,8,0:0:0:0:
256,192,3176,1,8,0:0:0:0:
256,192,3226,1,8,0:0:0:0:
256,192,3326,1,8,0:0:0:0:
256,192,3426,1,0,0:0:0:0:
256,192,3626,1,0,0:0:0:0:
256,192,3726,1,8,0:0:0:0:
256,192,3826,12,0,4526,0:0:0:0:
256,192,4626,5,8,0:0:0:0:
256,192,4726,1,0,0:0:0:0:
256,192,4826,1,8,0:0:0:0:
256,192,4926,1,8,0:0:0:0:
256,192,5026,1,0,0:0:0:0:
256,192,5126,1,0,0:0:0:0:
256,192,5326,1,8,0:0:0:0:
256,192,5426,12,0,6126,0:0:0:0:
256,192,6226,5,8,0:0:0:0:
256,192,6259,1,8,0:0:0:0:
256,192,6292,1,8,0:0:0:0:
256,192,6326,1,8,0:0:0:0:
256,192,6426,1,0,0:0:0:0:
256,192,6526,1,8,0:0:0:0:
256,192,6626,1,0,0:0:0:0:
256,192,6726,1,0,0:0:0:0:
256,192,6826,1,8,0:0:0:0:
256,192,6876,1,8,0:0:0:0:
256,192,6926,1,8,0:0:0:0:
256,192,7026,12,0,7726,0:0:0:0:
256,192,7826,5,0,0:0:0:0:
256,192,7926,1,8,0:0:0:0:
256,192,7976,1,8,0:0:0:0:
256,192,8026,1,0,0:0:0:0:
256,192,8126,1,8,0:0:0:0:
256,192,8176,1,8,0:0:0:0:
256,192,8226,1,0,0:0:0:0:
256,192,8326,1,8,0:0:0:0:
256,192,8376,1,8,0:0:0:0:
256,192,8426,1,0,0:0:0:0:
256,192,8526,1,8,0:0:0:0:
256,192,8626,12,0,9326,0:0:0:0:
256,192,9426,5,0,0:0:0:0:
256,192,9526,1,8,0:0:0:0:
256,192,9576,1,8,0:0:0:0:
256,192,9626,1,8,0:0:0:0:
256,192,9726,1,8,0:0:0:0:
256,192,9826,1,0,0:0:0:0:
256,192,10026,1,0,0:0:0:0:
256,192,10126,1,8,0:0:0:0:
256,192,10226,12,0,10926,0:0:0:0:
256,192,11026,5,8,0:0:0:0:
256,192,11126,1,0,0:0:0:0:
256,192,11226,1,8,0:0:0:0:
256,192,11326,1,8,0:0:0:0:
256,192,11426,1,0,0:0:0:0:
256,192,11526,1,0,0:0:0:0:
256,192,11726,1,8,0:0:0:0:
256,192,11826,12,0,12526,0:0:0:0:
256,192,12626,5,8,0:0:0:0:
256,192,12659,1,8,0:0:0:0:
256,192,12692,1,8,0:0:0:0:
256,192,12726,1,8,0:0:0:0:
256,192,12826,1,0,0:0:0:0:
256,192,12926,1,8,0:0:0:0:
256,192,13026,1,0,0:0:0:0:
256,192,13126,1,0,0:0:0:0:
256,192,13226,1,8,0:0:0:0:
256,192,13276,1,8,0:0:0:0:
256,192,13326,1,8,0:0:0:0:
256,192,13426,1,4,0:0:0:0:
256,192,13526,1,0,0:0:0:0:
256,192,13626,1,8,0:0:0:0:
256,192,13726,1,8,0:0:0:0:
256,192,13826,1,0,0:0:0:0:
256,192,13926,1,0,0:0:0:0:
256,192,14026,1,8,0:0:0:0:
256,192,14076,1,8,0:0:0:0:
256,192,14126,1,8,0:0:0:0:
256,192,14226,1,0,0:0:0:0:
256,192,14326,1,0,0:0:0:0:
256,192,14526,1,0,0:0:0:0:
256,192,14576,1,0,0:0:0:0:
256,192,14626,1,8,0:0:0:0:
256,192,14726,1,8,0:0:0:0:
256,192,14826,1,8,0:0:0:0:
256,192,14926,1,8,0:0:0:0:
256,192,15026,1,0,0:0:0:0:
256,192,15076,1,0,0:0:0:0:
256,192,15126,1,8,0:0:0:0:
256,192,15176,1,0,0:0:0:0:
256,192,15226,1,8,0:0:0:0:
256,192,15326,1,0,0:0:0:0:
256,192,15426,1,8,0:0:0:0:
256,192,15526,1,8,0:0:0:0:
256,192,15626,1,0,0:0:0:0:
256,192,15676,1,0,0:0:0:0:
256,192,15726,1,0,0:0:0:0:
256,192,15776,1,0,0:0:0:0:
256,192,15826,1,8,0:0:0:0:
256,192,15926,1,0,0:0:0:0:
256,192,16026,1,8,0:0:0:0:
256,192,16076,1,8,0:0:0:0:
256,192,16126,1,0,0:0:0:0:
256,192,16226,1,0,0:0:0:0:
256,192,16326,1,8,0:0:0:0:
256,192,16376,1,8,0:0:0:0:
256,192,16426,1,8,0:0:0:0:
256,192,16526,1,8,0:0:0:0:
256,192,16626,1,4,0:0:0:0:
256,192,16726,1,0,0:0:0:0:
256,192,16826,1,8,0:0:0:0:
256,192,16876,1,8,0:0:0:0:
256,192,16926,1,0,0:0:0:0:
256,192,17026,1,8,0:0:0:0:
256,192,17059,1,8,0:0:0:0:
256,192,17092,1,8,0:0:0:0:
256,192,17126,1,0,0:0:0:0:
256,192,17226,1,0,0:0:0:0:
256,192,17326,1,0,0:0:0:0:
256,192,17376,1,0,0:0:0:0:
256,192,17426,1,8,0:0:0:0:
256,192,17526,1,8,0:0:0:0:
256,192,17726,1,0,0:0:0:0:
256,192,17776,1,0,0:0:0:0:
256,192,17826,1,8,0:0:0:0:
256,192,17876,1,8,0:0:0:0:
256,192,17926,1,8,0:0:0:0:
256,192,17976,1,8,0:0:0:0:
256,192,18026,1,0,0:0:0:0:
256,192,18076,1,0,0:0:0:0:
256,192,18126,1,8,0:0:0:0:
256,192,18226,1,0,0:0:0:0:
256,192,18276,1,0,0:0:0:0:
256,192,18326,1,0,0:0:0:0:
256,192,18376,1,0,0:0:0:0:
256,192,18426,1,8,0:0:0:0:
256,192,18526,1,8,0:0:0:0:
256,192,18576,1,8,0:0:0:0:
256,192,18626,1,8,0:0:0:0:
256,192,18726,1,0,0:0:0:0:
256,192,18826,1,8,0:0:0:0:
256,192,18876,1,8,0:0:0:0:
256,192,18926,1,8,0:0:0:0:
256,192,18976,1,8,0:0:0:0:
256,192,19026,1,0,0:0:0:0:
256,192,19076,1,0,0:0:0:0:
256,192,19126,1,0,0:0:0:0:
256,192,19176,1,0,0:0:0:0:
256,192,19226,1,8,0:0:0:0:
256,192,19326,1,0,0:0:0:0:
256,192,19426,1,8,0:0:0:0:
256,192,19459,1,8,0:0:0:0:
256,192,19492,1,8,0:0:0:0:
256,192,19526,1,8,0:0:0:0:
256,192,19626,1,0,0:0:0:0:
256,192,19826,1,4,0:0:0:0:
256,192,19926,1,8,0:0:0:0:
256,192,20026,1,0,0:0:0:0:
256,192,20126,1,0,0:0:0:0:
256,192,20226,1,8,0:0:0:0:
256,192,20326,1,0,0:0:0:0:
256,192,20426,1,8,0:0:0:0:
256,192,20476,1,8,0:0:0:0:
256,192,20526,1,8,0:0:0:0:
256,192,20626,1,0,0:0:0:0:
256,192,20726,1,0,0:0:0:0:
256,192,20926,1,0,0:0:0:0:
256,192,20976,1,0,0:0:0:0:
256,192,21026,1,8,0:0:0:0:
256,192,21126,1,8,0:0:0:0:
256,192,21226,1,8,0:0:0:0:
256,192,21326,1,8,0:0:0:0:
256,192,21426,1,0,0:0:0:0:
256,192,21476,1,0,0:0:0:0:
256,192,21526,1,8,0:0:0:0:
256,192,21576,1,0,0:0:0:0:
256,192,21626,1,8,0:0:0:0:
256,192,21726,1,0,0:0:0:0:
256,192,21826,1,8,0:0:0:0:
256,192,21926,1,8,0:0:0:0:
256,192,22026,1,0,0:0:0:0:
256,192,22076,1,0,0:0:0:0:
256,192,22126,1,0,0:0:0:0:
256,192,22176,1,0,0:0:0:0:
256,192,22226,1,8,0:0:0:0:
256,192,22326,1,0,0:0:0:0:
256,192,22426,1,8,0:0:0:0:
256,192,22476,1,8,0:0:0:0:
256,192,22526,1,0,0:0:0:0:
256,192,22576,1,0,0:0:0:0:
256,192,22626,1,0,0:0:0:0:
256,192,22726,1,8,0:0:0:0:
256,192,22776,1,8,0:0:0:0:
256,192,22826,1,8,0:0:0:0:
256,192,22926,1,8,0:0:0:0:
256,192,23026,1,4,0:0:0:0:
256,192,23126,1,0,0:0:0:0:
256,192,23226,1,8,0:0:0:0:
256,192,23276,1,8,0:0:0:0:
256,192,23326,1,0,0:0:0:0:
256,192,23376,1,0,0:0:0:0:
256,192,23426,1,8,0:0:0:0:
256,192,23459,1,8,0:0:0:0:
256,192,23492,1,8,0:0:0:0:
256,192,23526,1,0,0:0:0:0:
256,192,23626,1,0,0:0:0:0:
256,192,23726,1,0,0:0:0:0:
256,192,23776,1,0,0:0:0:0:
256,192,23826,1,8,0:0:0:0:
256,192,23926,1,8,0:0:0:0:
256,192,24126,1,0,0:0:0:0:
256,192,24176,1,0,0:0:0:0:
256,192,24226,1,8,0:0:0:0:
256,192,24276,1,8,0:0:0:0:
256,192,24326,1,8,0:0:0:0:
256,192,24376,1,8,0:0:0:0:
256,192,24426,1,0,0:0:0:0:
256,192,24476,1,0,0:0:0:0:
256,192,24526,1,8,0:0:0:0:
256,192,24626,1,0,0:0:0:0:
256,192,24676,1,0,0:0:0:0:
256,192,24726,1,0,0:0:0:0:
256,192,24776,1,0,0:0:0:0:
256,192,24826,1,8,0:0:0:0:
256,192,24926,1,8,0:0:0:0:
256,192,24976,1,8,0:0:0:0:
256,192,25026,1,8,0:0:0:0:
256,192,25126,1,0,0:0:0:0:
256,192,25226,1,8,0:0:0:0:
256,192,25276,1,8,0:0:0:0:
256,192,25326,1,8,0:0:0:0:
256,192,25376,1,8,0:0:0:0:
256,192,25426,1,0,0:0:0:0:
256,192,25476,1,0,0:0:0:0:
256,192,25526,1,0,0:0:0:0:
256,192,25626,1,8,0:0:0:0:
256,192,25676,1,8,0:0:0:0:
256,192,25726,1,0,0:0:0:0:
256,192,25826,1,8,0:0:0:0:
256,192,25859,1,8,0:0:0:0:
256,192,25892,1,8,0:0:0:0:
256,192,25926,1,8,0:0:0:0:
256,192,26026,1,0,0:0:0:0:
256,192,26076,1,0,0:0:0:0:
256,192,26126,1,8,0:0:0:0:
256,192,26226,1,4,0:0:0:0:
256,192,26326,1,0,0:0:0:0:
256,192,26426,1,8,0:0:0:0:
256,192,26626,1,0,0:0:0:0:
256,192,26726,1,0,0:0:0:0:
256,192,26826,1,8,0:0:0:0:
256,192,27026,1,0,0:0:0:0:
256,192,27126,1,0,0:0:0:0:
256,192,27226,1,8,0:0:0:0:
256,192,27426,1,0,0:0:0:0:
256,192,27526,1,0,0:0:0:0:
256,192,27626,1,8,0:0:0:0:
256,192,27726,1,0,0:0:0:0:
256,192,27826,1,0,0:0:0:0:
256,192,27926,1,0,0:0:0:0:
256,192,28026,1,8,0:0:0:0:
256,192,28226,1,0,0:0:0:0:
256,192,28326,1,0,0:0:0:0:
256,192,28426,1,8,0:0:0:0:
256,192,28626,1,0,0:0:0:0:
256,192,28726,1,8,0:0:0:0:
256,192,28776,1,8,0:0:0:0:
256,192,28826,1,0,0:0:0:0:
256,192,28926,1,8,0:0:0:0:
256,192,28976,1,8,0:0:0:0:
256,192,29026,1,0,0:0:0:0:
256,192,29126,1,8,0:0:0:0:
256,192,29176,1,8,0:0:0:0:
256,192,29226,1,0,0:0:0:0:
256,192,29326,1,8,0:0:0:0:
256,192,29376,1,8,0:0:0:0:
256,192,29426,1,0,0:0:0:0:
256,192,29526,1,0,0:0:0:0:
256,192,29626,1,8,0:0:0:0:
256,192,29826,1,0,0:0:0:0:
256,192,29926,1,0,0:0:0:0:
256,192,30026,1,8,0:0:0:0:
256,192,30226,1,0,0:0:0:0:
256,192,30326,1,0,0:0:0:0:
256,192,30426,1,8,0:0:0:0:
256,192,30626,1,0,0:0:0:0:
256,192,30726,1,0,0:0:0:0:
256,192,30826,1,8,0:0:0:0:
256,192,30926,1,0,0:0:0:0:
256,192,31026,1,0,0:0:0:0:
256,192,31126,1,0,0:0:0:0:
256,192,31226,1,8,0:0:0:0:
256,192,31326,1,8,0:0:0:0:
256,192,31376,1,8,0:0:0:0:
256,192,31426,1,0,0:0:0:0:
256,192,31526,1,0,0:0:0:0:
256,192,31626,1,8,0:0:0:0:
256,192,31726,1,8,0:0:0:0:
256,192,31826,1,0,0:0:0:0:
256,192,31876,1,0,0:0:0:0:
256,192,31926,1,0,0:0:0:0:
256,192,31976,1,0,0:0:0:0:
256,192,32026,1,8,0:0:0:0:
256,192,32126,1,0,0:0:0:0:
256,192,32226,1,8,0:0:0:0:
256,192,32276,1,8,0:0:0:0:
256,192,32326,1,0,0:0:0:0:
256,192,32376,1,0,0:0:0:0:
256,192,32426,1,8,0:0:0:0:
256,192,32476,1,8,0:0:0:0:
256,192,32526,1,8,0:0:0:0:
256,192,32626,1,4,0:0:0:0:
256,192,32726,1,0,0:0:0:0:
256,192,32826,1,8,0:0:0:0:
256,192,33026,1,0,0:0:0:0:
256,192,33126,1,0,0:0:0:0:
256,192,33226,1,8,0:0:0:0:
256,192,33426,1,0,0:0:0:0:
256,192,33526,1,0,0:0:0:0:
256,192,33626,1,8,0:0:0:0:
256,192,33826,1,0,0:0:0:0:
256,192,33926,1,0,0:0:0:0:
256,192,34026,1,8,0:0:0:0:
256,192,34126,1,0,0:0:0:0:
256,192,34226,1,0,0:0:0:0:
256,192,34326,1,0,0:0:0:0:
256,192,34426,1,8,0:0:0:0:
256,192,34626,1,0,0:0:0:0:
256,192,34726,1,0,0:0:0:0:
256,192,34826,1,8,0:0:0:0:
256,192,35026,1,0,0:0:0:0:
256,192,35126,1,8,0:0:0:0:
256,192,35176,1,8,0:0:0:0:
256,192,35226,1,0,0:0:0:0:
256,192,35326,1,8,0:0:0:0:
256,192,35376,1,8,0:0:0:0:
256,192,35426,1,0,0:0:0:0:
256,192,35526,1,8,0:0:0:0:
256,192,35576,1,8,0:0:0:0:
256,192,35626,1,0,0:0:0:0:
256,192,35726,1,8,0:0:0:0:
256,192,35776,1,8,0:0:0:0:
256,192,35826,1,0,0:0:0:0:
256,192,35876,1,0,0:0:0:0:
256,192,35926,1,0,0:0:0:0:
256,192,35976,1,0,0:0:0:0:
256,192,36026,1,8,0:0:0:0:
256,192,36126,1,8,0:0:0:0:
256,192,36226,1,0,0:0:0:0:
256,192,36426,1,8,0:0:0:0:
256,192,36476,1,8,0:0:0:0:
256,192,36526,1,8,0:0:0:0:
256,192,36626,1,0,0:0:0:0:
256,192,36726,1,0,0:0:0:0:
256,192,36826,1,8,0:0:0:0:
256,192,36859,1,8,0:0:0:0:
256,192,36892,1,8,0:0:0:0:
256,192,36926,1,8,0:0:0:0:
256,192,37026,1,0,0:0:0:0:
256,192,37126,1,0,0:0:0:0:
256,192,37176,1,0,0:0:0:0:
256,192,37226,1,8,0:0:0:0:
256,192,37326,1,8,0:0:0:0:
256,192,37426,1,0,0:0:0:0:
256,192,37526,1,0,0:0:0:0:
256,192,37626,1,8,0:0:0:0:
256,192,37676,1,8,0:0:0:0:
256,192,37726,1,8,0:0:0:0:
256,192,37826,1,0,0:0:0:0:
256,192,37876,1,8,0:0:0:0:
256,192,37926,1,8,0:0:0:0:
256,192,37976,1,8,0:0:0:0:
256,192,38026,1,0,0:0:0:0:
256,192,38076,1,8,0:0:0:0:
256,192,38126,1,8,0:0:0:0:
256,192,38176,1,8,0:0:0:0:
256,192,38226,1,0,0:0:0:0:
256,192,38326,1,8,0:0:0:0:
256,192,38426,1,8,0:0:0:0:
256,192,38526,1,0,0:0:0:0:
256,192,38626,1,8,0:0:0:0:
256,192,38726,1,8,0:0:0:0:
256,192,38826,1,8,0:0:0:0:
256,192,38926,1,8,0:0:0:0:
256,192,39026,1,4,0:0:0:0:
256,192,39226,1,0,0:0:0:0:
256,192,39259,1,0,0:0:0:0:
256,192,39292,1,0,0:0:0:0:
256,192,39326,1,0,0:0:0:0:
256,192,39426,1,8,0:0:0:0:
256,192,39526,1,8,0:0:0:0:
256,192,39626,1,0,0:0:0:0:
256,192,39726,1,8,0:0:0:0:
256,192,39826,1,0,0:0:0:0:
256,192,39926,1,0,0:0:0:0:
256,192,40026,1,8,0:0:0:0:
256,192,40126,1,8,0:0:0:0:
256,192,40226,1,0,0:0:0:0:
256,192,40276,1,0,0:0:0:0:
256,192,40326,1,0,0:0:0:0:
256,192,40426,1,8,0:0:0:0:
256,192,40526,1,8,0:0:0:0:
256,192,40626,1,0,0:0:0:0:
256,192,40676,1,0,0:0:0:0:
256,192,40726,1,0,0:0:0:0:
256,192,40826,1,0,0:0:0:0:
256,192,40926,1,8,0:0:0:0:
256,192,40976,1,8,0:0:0:0:
256,192,41026,1,8,0:0:0:0:
256,192,41126,1,8,0:0:0:0:
256,192,41226,1,0,0:0:0:0:
256,192,41276,1,0,0:0:0:0:
256,192,41326,1,0,0:0:0:0:
256,192,41426,1,0,0:0:0:0:
256,192,41526,1,8,0:0:0:0:
256,192,41576,1,8,0:0:0:0:
256,192,41626,1,8,0:0:0:0:
256,192,41726,1,0,0:0:0:0:
256,192,41826,1,8,0:0:0:0:
256,192,41876,1,8,0:0:0:0:
256,192,41926,1,8,0:0:0:0:
256,192,42026,1,0,0:0:0:0:
256,192,42076,1,0,0:0:0:0:
256,192,42126,1,0,0:0:0:0:
256,192,42226,1,8,0:0:0:0:
256,192,42259,1,8,0:0:0:0:
256,192,42292,1,8,0:0:0:0:
256,192,42326,1,0,0:0:0:0:
256,192,42426,1,8,0:0:0:0:
256,192,42626,1,0,0:0:0:0:
256,192,42726,1,0,0:0:0:0:
256,192,42826,1,0,0:0:0:0:
256,192,42926,1,8,0:0:0:0:
256,192,43126,1,0,0:0:0:0:
256,192,43176,1,0,0:0:0:0:
256,192,43226,1,8,0:0:0:0:
256,192,43326,1,8,0:0:0:0:
256,192,43426,1,0,0:0:0:0:
256,192,43526,1,0,0:0:0:0:
256,192,43626,1,8,0:0:0:0:
256,192,43726,1,8,0:0:0:0:
256,192,43826,1,0,0:0:0:0:
256,192,43876,1,0,0:0:0:0:
256,192,43926,1,0,0:0:0:0:
256,192,44026,1,0,0:0:0:0:
256,192,44126,1,8,0:0:0:0:
256,192,44176,1,8,0:0:0:0:
256,192,44226,1,8,0:0:0:0:
256,192,44326,1,8,0:0:0:0:
256,192,44426,1,0,0:0:0:0:
256,192,44476,1,0,0:0:0:0:
256,192,44526,1,0,0:0:0:0:
256,192,44626,1,0,0:0:0:0:
256,192,44726,1,8,0:0:0:0:
256,192,44776,1,8,0:0:0:0:
256,192,44826,1,8,0:0:0:0:
256,192,44876,1,8,0:0:0:0:
256,192,44926,1,0,0:0:0:0:
256,192,45026,1,8,0:0:0:0:
256,192,45076,1,8,0:0:0:0:
256,192,45126,1,0,0:0:0:0:
256,192,45226,1,0,0:0:0:0:
256,192,45276,1,0,0:0:0:0:
256,192,45326,1,8,0:0:0:0:
256,192,45426,1,4,0:0:0:0:
256,192,45526,1,0,0:0:0:0:
256,192,45626,1,8,0:0:0:0:
256,192,45726,1,0,0:0:0:0:
256,192,45826,1,8,0:0:0:0:
256,192,46026,1,0,0:0:0:0:
256,192,46226,1,0,0:0:0:0:
256,192,46326,1,0,0:0:0:0:
256,192,46426,1,8,0:0:0:0:
256,192,46526,1,0,0:0:0:0:
256,192,46626,1,8,0:0:0:0:
256,192,46826,1,0,0:0:0:0:
256,192,47026,1,0,0:0:0:0:
256,192,47126,1,0,0:0:0:0:
256,192,47226,1,8,0:0:0:0:
256,192,47326,1,0,0:0:0:0:
256,192,47426,1,8,0:0:0:0:
256,192,47626,1,0,0:0:0:0:
256,192,47826,1,0,0:0:0:0:
256,192,47926,1,8,0:0:0:0:
256,192,47976,1,8,0:0:0:0:
256,192,48026,1,0,0:0:0:0:
256,192,48126,1,8,0:0:0:0:
256,192,48176,1,8,0:0:0:0:
256,192,48226,1,0,0:0:0:0:
256,192,48326,1,8,0:0:0:0:
256,192,48376,1,8,0:0:0:0:
256,192,48426,1,0,0:0:0:0:
256,192,48526,1,8,0:0:0:0:
256,192,48576,1,8,0:0:0:0:
256,192,48626,1,0,0:0:0:0:
256,192,48726,1,0,0:0:0:0:
256,192,48826,1,8,0:0:0:0:
256,192,48926,1,0,0:0:0:0:
256,192,49026,1,8,0:0:0:0:
256,192,49226,1,0,0:0:0:0:
256,192,49426,1,0,0:0:0:0:
256,192,49526,1,0,0:0:0:0:
256,192,49626,1,8,0:0:0:0:
256,192,49726,1,0,0:0:0:0:
256,192,49826,1,8,0:0:0:0:
256,192,50026,1,0,0:0:0:0:
256,192,50226,1,0,0:0:0:0:
256,192,50326,1,0,0:0:0:0:
256,192,50376,1,0,0:0:0:0:
256,192,50426,1,8,0:0:0:0:
256,192,50526,1,0,0:0:0:0:
256,192,50626,1,8,0:0:0:0:
256,192,50726,1,8,0:0:0:0:
256,192,50776,1,8,0:0:0:0:
256,192,50826,1,0,0:0:0:0:
256,192,51026,1,0,0:0:0:0:
256,192,51076,1,0,0:0:0:0:
256,192,51126,1,0,0:0:0:0:
256,192,51176,1,0,0:0:0:0:
256,192,51226,1,8,0:0:0:0:
256,192,51276,1,8,0:0:0:0:
256,192,51326,1,8,0:0:0:0:
256,192,51426,1,8,0:0:0:0:
256,192,51459,1,8,0:0:0:0:
256,192,51493,1,8,0:0:0:0:
256,192,51526,1,8,0:0:0:0:
256,192,51626,1,0,0:0:0:0:
256,192,51826,1,4,0:0:0:0:
256,192,51926,1,0,0:0:0:0:
256,192,52026,1,8,0:0:0:0:
256,192,52126,1,0,0:0:0:0:
256,192,52226,1,8,0:0:0:0:
256,192,52426,1,0,0:0:0:0:
256,192,52626,1,0,0:0:0:0:
256,192,52726,1,0,0:0:0:0:
256,192,52826,1,8,0:0:0:0:
256,192,52926,1,0,0:0:0:0:
256,192,53026,1,8,0:0:0:0:
256,192,53226,1,0,0:0:0:0:
256,192,53426,1,8,0:0:0:0:
256,192,53459,1,8,0:0:0:0:
256,192,53492,1,8,0:0:0:0:
256,192,53526,1,0,0:0:0:0:
256,192,53626,1,8,0:0:0:0:
256,192,53676,1,8,0:0:0:0:
256,192,53726,1,0,0:0:0:0:
256,192,53826,1,8,0:0:0:0:
256,192,53859,1,8,0:0:0:0:
256,192,53892,1,8,0:0:0:0:
256,192,53926,1,0,0:0:0:0:
256,192,54026,1,0,0:0:0:0:
256,192,54126,1,0,0:0:0:0:
256,192,54226,1,0,0:0:0:0:
256,192,54326,1,8,0:0:0:0:
256,192,54376,1,8,0:0:0:0:
256,192,54426,1,0,0:0:0:0:
256,192,54526,1,8,0:0:0:0:
256,192,54576,1,8,0:0:0:0:
256,192,54626,1,0,0:0:0:0:
256,192,54726,1,8,0:0:0:0:
256,192,54776,1,8,0:0:0:0:
256,192,54826,1,0,0:0:0:0:
256,192,54926,1,8,0:0:0:0:
256,192,54976,1,8,0:0:0:0:
256,192,55026,1,0,0:0:0:0:
256,192,55126,1,0,0:0:0:0:
256,192,55226,1,8,0:0:0:0:
256,192,55326,1,0,0:0:0:0:
256,192,55426,1,8,0:0:0:0:
256,192,55626,1,0,0:0:0:0:
256,192,55826,1,0,0:0:0:0:
256,192,55926,1,0,0:0:0:0:
256,192,56026,1,8,0:0:0:0:
256,192,56126,1,0,0:0:0:0:
256,192,56226,1,8,0:0:0:0:
256,192,56426,1,0,0:0:0:0:
256,192,56626,1,0,0:0:0:0:
256,192,56726,1,0,0:0:0:0:
256,192,56826,1,8,0:0:0:0:
256,192,56876,1,8,0:0:0:0:
256,192,56926,1,0,0:0:0:0:
256,192,57026,1,8,0:0:0:0:
256,192,57126,1,0,0:0:0:0:
256,192,57226,1,8,0:0:0:0:
256,192,57276,1,8,0:0:0:0:
256,192,57326,1,8,0:0:0:0:
256,192,57376,1,8,0:0:0:0:
256,192,57426,1,0,0:0:0:0:
256,192,57526,1,0,0:0:0:0:
256,192,57626,1,8,0:0:0:0:
256,192,57659,1,8,0:0:0:0:
256,192,57692,1,8,0:0:0:0:
256,192,57726,1,8,0:0:0:0:
256,192,57826,1,0,0:0:0:0:
256,192,57876,1,0,0:0:0:0:
256,192,57926,1,0,0:0:0:0:
256,192,58026,1,8,0:0:0:0:
256,192,58226,1,4,0:0:0:0:
256,192,58426,1,8,0:0:0:0:
256,192,58526,1,8,0:0:0:0:
256,192,58626,1,0,0:0:0:0:
256,192,58726,1,0,0:0:0:0:
256,192,58826,1,8,0:0:0:0:
256,192,58926,1,0,0:0:0:0:
256,192,59126,1,0,0:0:0:0:
256,192,59226,1,8,0:0:0:0:
256,192,59326,1,8,0:0:0:0:
256,192,59426,1,0,0:0:0:0:
256,192,59526,1,0,0:0:0:0:
256,192,59626,1,8,0:0:0:0:
256,192,59726,1,8,0:0:0:0:
256,192,59826,1,0,0:0:0:0:
256,192,59876,1,0,0:0:0:0:
256,192,59926,1,0,0:0:0:0:
256,192,60026,1,0,0:0:0:0:
256,192,60126,1,8,0:0:0:0:
256,192,60176,1,8,0:0:0:0:
256,192,60226,1,8,0:0:0:0:
256,192,60326,1,8,0:0:0:0:
256,192,60426,1,0,0:0:0:0:
256,192,60476,1,0,0:0:0:0:
256,192,60526,1,0,0:0:0:0:
256,192,60626,1,0,0:0:0:0:
256,192,60726,1,8,0:0:0:0:
256,192,60776,1,8,0:0:0:0:
256,192,60826,1,8,0:0:0:0:
256,192,60926,1,0,0:0:0:0:
256,192,61026,1,8,0:0:0:0:
256,192,61076,1,8,0:0:0:0:
256,192,61126,1,8,0:0:0:0:
256,192,61226,1,0,0:0:0:0:
256,192,61276,1,0,0:0:0:0:
256,192,61326,1,0,0:0:0:0:
256,192,61426,1,8,0:0:0:0:
256,192,61459,1,8,0:0:0:0:
256,192,61492,1,8,0:0:0:0:
256,192,61526,1,0,0:0:0:0:
256,192,61626,1,0,0:0:0:0:
256,192,61826,1,0,0:0:0:0:
256,192,61926,1,0,0:0:0:0:
256,192,62026,1,8,0:0:0:0:
256,192,62126,1,0,0:0:0:0:
256,192,62326,1,0,0:0:0:0:
256,192,62376,1,0,0:0:0:0:
256,192,62426,1,8,0:0:0:0:
256,192,62526,1,8,0:0:0:0:
256,192,62626,1,0,0:0:0:0:
256,192,62726,1,0,0:0:0:0:
256,192,62826,1,8,0:0:0:0:
256,192,62926,1,8,0:0:0:0:
256,192,63026,1,0,0:0:0:0:
256,192,63076,1,0,0:0:0:0:
256,192,63126,1,0,0:0:0:0:
256,192,63226,1,0,0:0:0:0:
256,192,63326,1,8,0:0:0:0:
256,192,63376,1,8,0:0:0:0:
256,192,63426,1,8,0:0:0:0:
256,192,63526,1,8,0:0:0:0:
256,192,63626,1,0,0:0:0:0:
256,192,63676,1,0,0:0:0:0:
256,192,63726,1,0,0:0:0:0:
256,192,63826,1,0,0:0:0:0:
256,192,63926,1,8,0:0:0:0:
256,192,63976,1,8,0:0:0:0:
256,192,64026,1,8,0:0:0:0:
256,192,64076,1,8,0:0:0:0:
256,192,64126,1,8,0:0:0:0:
256,192,64226,1,0,0:0:0:0:
256,192,64326,1,0,0:0:0:0:
256,192,64426,1,8,0:0:0:0:
256,192,64459,1,8,0:0:0:0:
256,192,64492,1,8,0:0:0:0:
256,192,64526,1,8,0:0:0:0:
256,192,64626,1,4,0:0:0:0:
256,192,65426,1,0,0:0:0:0:
256,192,65526,1,0,0:0:0:0:
256,192,65626,1,8,0:0:0:0:
256,192,65726,1,8,0:0:0:0:
256,192,65826,1,0,0:0:0:0:
256,192,65926,1,8,0:0:0:0:
256,192,66026,1,8,0:0:0:0:
256,192,66126,1,8,0:0:0:0:
256,192,66226,1,0,0:0:0:0:
256,192,67026,1,0,0:0:0:0:
256,192,67126,1,8,0:0:0:0:
256,192,67226,1,8,0:0:0:0:
256,192,67326,1,8,0:0:0:0:
256,192,67426,1,0,0:0:0:0:
256,192,67526,1,8,0:0:0:0:
256,192,67626,1,8,0:0:0:0:
256,192,67726,1,8,0:0:0:0:
256,192,67826,1,4,0:0:0:0:
256,192,68626,1,0,0:0:0:0:
256,192,68726,1,0,0:0:0:0:
256,192,68826,1,8,0:0:0:0:
256,192,68926,1,8,0:0:0:0:
256,192,69026,1,0,0:0:0:0:
256,192,69126,1,0,0:0:0:0:
256,192,69226,1,8,0:0:0:0:
256,192,69326,1,8,0:0:0:0:
256,192,69426,1,0,0:0:0:0:
256,192,69476,1,0,0:0:0:0:
256,192,69526,1,0,0:0:0:0:
256,192,69626,1,8,0:0:0:0:
256,192,69726,1,0,0:0:0:0:
256,192,69826,1,8,0:0:0:0:
256,192,69876,1,8,0:0:0:0:
256,192,69926,1,8,0:0:0:0:
256,192,70026,1,0,0:0:0:0:
256,192,70126,1,8,0:0:0:0:
256,192,70226,1,0,0:0:0:0:
256,192,70326,1,8,0:0:0:0:
256,192,70426,1,8,0:0:0:0:
256,192,70526,1,8,0:0:0:0:
256,192,70626,1,0,0:0:0:0:
256,192,70726,1,8,0:0:0:0:
256,192,70826,1,8,0:0:0:0:
256,192,70926,1,8,0:0:0:0:
256,192,71026,1,4,0:0:0:0:
256,192,71126,1,8,0:0:0:0:
256,192,71226,1,0,0:0:0:0:
256,192,71326,1,0,0:0:0:0:
256,192,71426,1,8,0:0:0:0:
256,192,71526,1,0,0:0:0:0:
256,192,71626,1,8,0:0:0:0:
256,192,71726,1,8,0:0:0:0:
256,192,71826,1,0,0:0:0:0:
256,192,71926,1,0,0:0:0:0:
256,192,72026,1,8,0:0:0:0:
256,192,72126,1,8,0:0:0:0:
256,192,72226,1,0,0:0:0:0:
256,192,72326,1,8,0:0:0:0:
256,192,72426,1,8,0:0:0:0:
256,192,72526,1,8,0:0:0:0:
256,192,72626,1,0,0:0:0:0:
256,192,72726,1,8,0:0:0:0:
256,192,72826,1,0,0:0:0:0:
256,192,72926,1,0,0:0:0:0:
256,192,73026,1,8,0:0:0:0:
256,192,73126,1,8,0:0:0:0:
256,192,73226,1,8,0:0:0:0:
256,192,73326,1,0,0:0:0:0:
256,192,73426,1,8,0:0:0:0:
256,192,73476,1,8,0:0:0:0:
256,192,73526,1,0,0:0:0:0:
256,192,73626,1,8,0:0:0:0:
256,192,73676,1,8,0:0:0:0:
256,192,73726,1,0,0:0:0:0:
256,192,73826,1,0,0:0:0:0:
256,192,73926,1,8,0:0:0:0:
256,192,74026,1,8,0:0:0:0:
256,192,74126,1,8,0:0:0:0:
256,192,74226,1,4,0:0:0:0:
256,192,74326,1,8,0:0:0:0:
256,192,74426,1,0,0:0:0:0:
256,192,74526,1,0,0:0:0:0:
256,192,74626,1,8,0:0:0:0:
256,192,74726,1,0,0:0:0:0:
256,192,74826,1,8,0:0:0:0:
256,192,74926,1,8,0:0:0:0:
256,192,75026,1,0,0:0:0:0:
256,192,75126,1,0,0:0:0:0:
256,192,75226,1,8,0:0:0:0:
256,192,75326,1,8,0:0:0:0:
256,192,75426,1,0,0:0:0:0:
256,192,75526,1,8,0:0:0:0:
256,192,75626,1,8,0:0:0:0:
256,192,75726,1,8,0:0:0:0:
256,192,75826,1,0,0:0:0:0:
256,192,75926,1,8,0:0:0:0:
256,192,76026,1,0,0:0:0:0:
256,192,76126,1,8,0:0:0:0:
256,192,76226,1,0,0:0:0:0:
256,192,76326,1,8,0:0:0:0:
256,192,76426,1,8,0:0:0:0:
256,192,76526,1,8,0:0:0:0:
256,192,76626,1,8,0:0:0:0:
256,192,76676,1,8,0:0:0:0:
256,192,76726,1,0,0:0:0:0:
256,192,76826,1,8,0:0:0:0:
256,192,76876,1,8,0:0:0:0:
256,192,76926,1,0,0:0:0:0:
256,192,77026,1,0,0:0:0:0:
256,192,77126,1,0,0:0:0:0:
256,192,77226,1,8,0:0:0:0:
256,192,77326,1,8,0:0:0:0:
256,192,77426,2,4,L|320:192,22,35
256,192,78626,1,8,0:0:0:0:
256,192,78676,1,8,0:0:0:0:
256,192,78726,1,8,0:0:0:0:
256,192,78776,1,8,0:0:0:0:
256,192,78826,1,0,0:0:0:0:
256,192,78876,1,0,0:0:0:0:
256,192,78926,1,0,0:0:0:0:
256,192,79026,12,0,80126,0:0:0:0:
256,192,80226,5,8,0:0:0:0:
256,192,80426,1,8,0:0:0:0:
256,192,80626,1,4,0:0:0:0:
256,192,81026,1,8,0:0:0:0:
256,192,81426,1,0,0:0:0:0:
256,192,81526,1,0,0:0:0:0:
256,192,81626,1,0,0:0:0:0:
256,192,81726,1,0,0:0:0:0:
256,192,81826,1,8,0:0:0:0:
256,192,82026,1,8,0:0:0:0:
256,192,82126,1,8,0:0:0:0:
256,192,82226,1,0,0:0:0:0:
256,192,82526,1,0,0:0:0:0:
256,192,82626,1,8,0:0:0:0:
256,192,82726,1,0,0:0:0:0:
256,192,82826,1,8,0:0:0:0:
256,192,82926,1,8,0:0:0:0:
256,192,83026,1,0,0:0:0:0:
256,192,83226,1,8,0:0:0:0:
256,192,83426,1,0,0:0:0:0:
256,192,83626,1,8,0:0:0:0:
256,192,83726,1,8,0:0:0:0:
256,192,83826,1,4,0:0:0:0:
256,192,84226,1,8,0:0:0:0:
256,192,84626,1,0,0:0:0:0:
256,192,84926,1,0,0:0:0:0:
256,192,85026,1,8,0:0:0:0:
256,192,85226,1,0,0:0:0:0:
256,192,85326,1,0,0:0:0:0:
256,192,85426,1,8,0:0:0:0:
256,192,85726,1,0,0:0:0:0:
256,192,85826,1,8,0:0:0:0:
256,192,85926,1,8,0:0:0:0:
256,192,86026,1,0,0:0:0:0:
256,192,86126,1,0,0:0:0:0:
256,192,86226,1,8,0:0:0:0:
256,192,86276,1,8,0:0:0:0:
256,192,86326,1,8,0:0:0:0:
256,192,86376,1,8,0:0:0:0:
256,192,86426,1,8,0:0:0:0:
256,192,86476,1,8,0:0:0:0:
256,192,86526,1,8,0:0:0:0:
256,192,86626,1,0,0:0:0:0:
256,192,86826,1,8,0:0:0:0:
256,192,87026,1,4,0:0:0:0:
256,192,87126,1,0,0:0:0:0:
256,192,87226,1,8,0:0:0:0:
256,192,87426,1,0,0:0:0:0:
256,192,87526,1,0,0:0:0:0:
256,192,87626,1,8,0:0:0:0:
256,192,87826,1,0,0:0:0:0:
256,192,87926,1,0,0:0:0:0:
256,192,88026,1,8,0:0:0:0:
256,192,88126,1,8,0:0:0:0:
256,192,88226,1,0,0:0:0:0:
256,192,88426,1,8,0:0:0:0:
256,192,88526,1,0,0:0:0:0:
256,192,88626,1,0,0:0:0:0:
256,192,88726,1,0,0:0:0:0:
256,192,88826,1,8,0:0:0:0:
256,192,89026,1,0,0:0:0:0:
256,192,89126,1,0,0:0:0:0:
256,192,89226,1,8,0:0:0:0:
256,192,89426,1,0,0:0:0:0:
256,192,89526,1,8,0:0:0:0:
256,192,89626,1,8,0:0:0:0:
256,192,89726,1,8,0:0:0:0:
256,192,89826,1,0,0:0:0:0:
256,192,90026,1,8,0:0:0:0:
256,192,90126,1,8,0:0:0:0:
256,192,90226,1,0,0:0:0:0:
256,192,90326,1,0,0:0:0:0:
256,192,90426,1,8,0:0:0:0:
256,192,90626,1,0,0:0:0:0:
256,192,90726,1,0,0:0:0:0:
256,192,90826,1,8,0:0:0:0:
256,192,91026,1,0,0:0:0:0:
256,192,91126,1,0,0:0:0:0:
256,192,91226,1,8,0:0:0:0:
256,192,91326,1,8,0:0:0:0:
256,192,91426,1,0,0:0:0:0:
256,192,91626,1,8,0:0:0:0:
256,192,91726,1,0,0:0:0:0:
256,192,91826,1,0,0:0:0:0:
256,192,91926,1,0,0:0:0:0:
256,192,92026,1,8,0:0:0:0:
256,192,92226,1,0,0:0:0:0:
256,192,92326,1,0,0:0:0:0:
256,192,92426,1,8,0:0:0:0:
256,192,92626,1,0,0:0:0:0:
256,192,92726,1,0,0:0:0:0:
256,192,92826,1,8,0:0:0:0:
256,192,92926,1,8,0:0:0:0:
256,192,93026,1,0,0:0:0:0:
256,192,93226,1,8,0:0:0:0:
256,192,93326,1,8,0:0:0:0:
256,192,93426,1,4,0:0:0:0:
256,192,93526,12,0,95726,0:0:0:0:
256,192,95826,5,8,0:0:0:0:
256,192,95926,1,8,0:0:0:0:
256,192,96026,1,8,0:0:0:0:
256,192,96126,1,8,0:0:0:0:
256,192,96226,1,0,0:0:0:0:
256,192,96326,1,0,0:0:0:0:
256,192,96426,1,0,0:0:0:0:
256,192,96526,1,0,0:0:0:0:
256,192,96626,1,12,0:0:0:0:
256,192,96726,1,0,0:0:0:0:
256,192,96776,1,0,0:0:0:0:
256,192,96826,1,8,0:0:0:0:
256,192,96926,1,8,0:0:0:0:
256,192,97026,1,0,0:0:0:0:
256,192,97126,1,0,0:0:0:0:
256,192,97226,1,8,0:0:0:0:
256,192,97276,1,8,0:0:0:0:
256,192,97326,1,8,0:0:0:0:
256,192,97426,1,0,0:0:0:0:
256,192,97526,1,0,0:0:0:0:
256,192,97626,1,8,0:0:0:0:
256,192,97676,1,8,0:0:0:0:
256,192,97726,1,0,0:0:0:0:
256,192,97826,1,8,0:0:0:0:
256,192,97926,1,0,0:0:0:0:
256,192,98026,1,0,0:0:0:0:
256,192,98126,1,0,0:0:0:0:
256,192,98226,1,8,0:0:0:0:
256,192,98276,1,0,0:0:0:0:
256,192,98326,1,0,0:0:0:0:
256,192,98376,1,0,0:0:0:0:
256,192,98426,1,8,0:0:0:0:
256,192,98526,1,8,0:0:0:0:
256,192,98626,1,0,0:0:0:0:
256,192,98726,1,0,0:0:0:0:
256,192,98826,1,8,0:0:0:0:
256,192,98926,1,8,0:0:0:0:
256,192,99026,1,0,0:0:0:0:
256,192,99126,1,0,0:0:0:0:
256,192,99226,1,8,0:0:0:0:
256,192,99276,1,8,0:0:0:0:
256,192,99326,1,8,0:0:0:0:
256,192,99426,1,0,0:0:0:0:
256,192,99626,1,8,0:0:0:0:
256,192,99726,1,8,0:0:0:0:
256,192,99826,1,4,0:0:0:0:
256,192,99926,1,0,0:0:0:0:
256,192,100026,1,8,0:0:0:0:
256,192,100126,1,0,0:0:0:0:
256,192,100176,1,0,0:0:0:0:
256,192,100226,1,8,0:0:0:0:
256,192,100276,1,8,0:0:0:0:
256,192,100326,1,8,0:0:0:0:
256,192,100376,1,8,0:0:0:0:
256,192,100426,1,0,0:0:0:0:
256,192,100526,1,0,0:0:0:0:
256,192,100626,1,8,0:0:0:0:
256,192,100726,1,0,0:0:0:0:
256,192,100826,1,8,0:0:0:0:
256,192,100926,1,8,0:0:0:0:
256,192,101026,1,0,0:0:0:0:
256,192,101076,1,0,0:0:0:0:
256,192,101126,1,0,0:0:0:0:
256,192,101176,1,0,0:0:0:0:
256,192,101226,1,8,0:0:0:0:
256,192,101326,1,0,0:0:0:0:
256,192,101426,1,8,0:0:0:0:
256,192,101476,1,8,0:0:0:0:
256,192,101526,1,8,0:0:0:0:
256,192,101626,1,0,0:0:0:0:
256,192,101726,1,0,0:0:0:0:
256,192,101826,1,8,0:0:0:0:
256,192,101926,1,0,0:0:0:0:
256,192,102026,1,8,0:0:0:0:
256,192,102126,1,8,0:0:0:0:
256,192,102226,1,0,0:0:0:0:
256,192,102276,1,0,0:0:0:0:
256,192,102326,1,8,0:0:0:0:
256,192,102376,1,8,0:0:0:0:
256,192,102426,1,8,0:0:0:0:
256,192,102526,1,8,0:0:0:0:
256,192,102626,1,0,0:0:0:0:
256,192,102659,1,0,0:0:0:0:
256,192,102692,1,0,0:0:0:0:
256,192,102726,1,0,0:0:0:0:
256,192,102826,1,8,0:0:0:0:
256,192,103026,1,12,0:0:0:0:
256,192,103126,1,0,0:0:0:0:
256,192,103176,1,0,0:0:0:0:
256,192,103226,1,8,0:0:0:0:
256,192,103259,1,8,0:0:0:0:
256,192,103292,1,8,0:0:0:0:
256,192,103326,1,8,0:0:0:0:
256,192,103426,1,0,0:0:0:0:
256,192,103526,1,0,0:0:0:0:
256,192,103626,1,8,0:0:0:0:
256,192,103676,1,8,0:0:0:0:
256,192,103726,1,8,0:0:0:0:
256,192,103826,1,0,0:0:0:0:
256,192,103926,1,0,0:0:0:0:
256,192,104026,1,8,0:0:0:0:
256,192,104076,1,8,0:0:0:0:
256,192,104126,1,0,0:0:0:0:
256,192,104226,1,8,0:0:0:0:
256,192,104326,1,0,0:0:0:0:
256,192,104426,1,8,0:0:0:0:
256,192,104526,1,8,0:0:0:0:
256,192,104626,1,0,0:0:0:0:
256,192,104676,1,0,0:0:0:0:
256,192,104726,1,0,0:0:0:0:
256,192,104776,1,0,0:0:0:0:
256,192,104826,1,8,0:0:0:0:
256,192,104926,1,8,0:0:0:0:
256,192,105026,1,0,0:0:0:0:
256,192,105126,1,0,0:0:0:0:
256,192,105226,1,8,0:0:0:0:
256,192,105326,1,8,0:0:0:0:
256,192,105426,1,0,0:0:0:0:
256,192,105476,1,0,0:0:0:0:
256,192,105526,1,0,0:0:0:0:
256,192,105626,1,8,0:0:0:0:
256,192,105726,1,8,0:0:0:0:
256,192,105826,1,0,0:0:0:0:
256,192,106026,1,8,0:0:0:0:
256,192,106126,1,8,0:0:0:0:
256,192,106226,1,4,0:0:0:0:
256,192,106326,1,0,0:0:0:0:
256,192,106426,1,8,0:0:0:0:
256,192,106526,1,0,0:0:0:0:
256,192,106576,1,0,0:0:0:0:
256,192,106626,1,8,0:0:0:0:
256,192,106676,1,8,0:0:0:0:
256,192,106726,1,8,0:0:0:0:
256,192,106776,1,8,0:0:0:0:
256,192,106826,1,0,0:0:0:0:
256,192,106926,1,0,0:0:0:0:
256,192,107026,1,8,0:0:0:0:
256,192,107126,1,0,0:0:0:0:
256,192,107226,1,8,0:0:0:0:
256,192,107326,1,8,0:0:0:0:
256,192,107426,1,0,0:0:0:0:
256,192,107476,1,0,0:0:0:0:
256,192,107526,1,0,0:0:0:0:
256,192,107576,1,0,0:0:0:0:
256,192,107626,1,8,0:0:0:0:
256,192,107726,1,0,0:0:0:0:
256,192,107826,1,8,0:0:0:0:
256,192,107876,1,8,0:0:0:0:
256,192,107926,1,8,0:0:0:0:
256,192,108026,1,0,0:0:0:0:
256,192,108126,1,0,0:0:0:0:
256,192,108226,1,8,0:0:0:0:
256,192,108326,1,0,0:0:0:0:
256,192,108426,1,8,0:0:0:0:
256,192,108526,1,8,0:0:0:0:
256,192,108626,1,0,0:0:0:0:
256,192,108676,1,0,0:0:0:0:
256,192,108726,1,0,0:0:0:0:
256,192,108776,1,0,0:0:0:0:
256,192,108826,1,8,0:0:0:0:
256,192,108926,1,0,0:0:0:0:
256,192,109026,1,8,0:0:0:0:
256,192,109059,1,8,0:0:0:0:
256,192,109092,1,8,0:0:0:0:
256,192,109126,1,0,0:0:0:0:
256,192,109226,1,8,0:0:0:0:
256,192,109426,1,4,0:0:0:0:
256,192,109626,1,8,0:0:0:0:
256,192,109826,1,0,0:0:0:0:
256,192,110026,1,8,0:0:0:0:
256,192,110226,1,0,0:0:0:0:
256,192,110326,1,0,0:0:0:0:
256,192,110426,1,8,0:0:0:0:
256,192,110526,1,8,0:0:0:0:
256,192,110626,1,0,0:0:0:0:
256,192,110826,1,8,0:0:0:0:
256,192,111026,1,0,0:0:0:0:
256,192,111226,1,8,0:0:0:0:
256,192,111426,1,0,0:0:0:0:
256,192,111626,1,8,0:0:0:0:
256,192,111826,1,0,0:0:0:0:
256,192,111926,1,8,0:0:0:0:
256,192,111959,1,8,0:0:0:0:
256,192,111992,1,8,0:0:0:0:
256,192,112026,1,8,0:0:0:0:
256,192,112126,1,8,0:0:0:0:
256,192,112226,1,0,0:0:0:0:
256,192,112426,1,8,0:0:0:0:
256,192,112476,1,8,0:0:0:0:
256,192,112526,1,8,0:0:0:0:
256,192,112626,1,4,0:0:0:0:
256,192,112826,1,8,0:0:0:0:
256,192,113026,1,0,0:0:0:0:
256,192,113226,1,8,0:0:0:0:
256,192,113426,1,0,0:0:0:0:
256,192,113526,1,0,0:0:0:0:
256,192,113626,1,8,0:0:0:0:
256,192,113726,1,8,0:0:0:0:
256,192,113826,1,0,0:0:0:0:
256,192,114026,1,8,0:0:0:0:
256,192,114226,1,0,0:0:0:0:
256,192,114426,1,8,0:0:0:0:
256,192,114626,1,0,0:0:0:0:
256,192,114826,1,8,0:0:0:0:
256,192,115026,1,0,0:0:0:0:
256,192,115126,1,0,0:0:0:0:
256,192,115226,1,8,0:0:0:0:
256,192,115326,1,0,0:0:0:0:
256,192,115426,1,0,0:0:0:0:
256,192,115626,1,8,0:0:0:0:
256,192,115826,1,4,0:0:0:0:
256,192,116026,1,8,0:0:0:0:
256,192,116226,1,0,0:0:0:0:
256,192,116426,1,8,0:0:0:0:
256,192,116626,1,0,0:0:0:0:
256,192,116726,1,0,0:0:0:0:
256,192,116826,1,8,0:0:0:0:
256,192,116926,1,8,0:0:0:0:
256,192,117026,1,0,0:0:0:0:
256,192,117226,1,8,0:0:0:0:
256,192,117426,1,0,0:0:0:0:
256,192,117526,1,8,0:0:0:0:
256,192,117626,1,8,0:0:0:0:
256,192,117826,1,0,0:0:0:0:
256,192,117926,1,8,0:0:0:0:
256,192,118026,1,8,0:0:0:0:
256,192,118226,1,0,0:0:0:0:
256,192,118326,1,8,0:0:0:0:
256,192,118359,1,8,0:0:0:0:
256,192,118392,1,8,0:0:0:0:
256,192,118426,1,8,0:0:0:0:
256,192,118526,1,8,0:0:0:0:
256,192,118626,1,0,0:0:0:0:
256,192,118826,1,8,0:0:0:0:
256,192,118876,1,8,0:0:0:0:
256,192,118926,1,8,0:0:0:0:
256,192,119026,1,4,0:0:0:0:
256,192,119226,1,8,0:0:0:0:
256,192,119426,1,0,0:0:0:0:
256,192,119626,1,8,0:0:0:0:
256,192,119826,1,0,0:0:0:0:
256,192,119926,1,0,0:0:0:0:
256,192,120026,1,8,0:0:0:0:
256,192,120126,1,8,0:0:0:0:
256,192,120226,1,0,0:0:0:0:
256,192,120426,1,0,0:0:0:0:
256,192,120626,1,12,0:0:0:0:
256,192,121026,1,12,0:0:0:0:
256,192,121426,1,12,0:0:0:0:
256,192,121626,1,8,0:0:0:0:
256,192,121659,1,8,0:0:0:0:
256,192,121692,1,8,0:0:0:0:
256,192,121726,1,8,0:0:0:0:
256,192,121826,1,0,0:0:0:0:
256,192,121926,1,0,0:0:0:0:
256,192,122026,1,8,0:0:0:0:
256,192,122076,1,8,0:0:0:0:
256,192,122126,1,8,0:0:0:0:
256,192,122226,1,4,0:0:0:0:
256,192,122326,1,0,0:0:0:0:
256,192,122426,1,8,0:0:0:0:
256,192,122526,1,8,0:0:0:0:
256,192,122626,1,0,0:0:0:0:
256,192,122726,1,0,0:0:0:0:
256,192,122826,1,8,0:0:0:0:
256,192,122876,1,8,0:0:0:0:
256,192,122926,1,8,0:0:0:0:
256,192,123026,1,0,0:0:0:0:
256,192,123126,1,0,0:0:0:0:
256,192,123326,1,0,0:0:0:0:
256,192,123376,1,0,0:0:0:0:
256,192,123426,1,8,0:0:0:0:
256,192,123526,1,8,0:0:0:0:
256,192,123626,1,8,0:0:0:0:
256,192,123726,1,8,0:0:0:0:
256,192,123826,1,0,0:0:0:0:
256,192,123876,1,0,0:0:0:0:
256,192,123926,1,8,0:0:0:0:
256,192,123976,1,0,0:0:0:0:
256,192,124026,1,8,0:0:0:0:
256,192,124126,1,0,0:0:0:0:
256,192,124226,1,8,0:0:0:0:
256,192,124326,1,8,0:0:0:0:
256,192,124426,1,0,0:0:0:0:
256,192,124476,1,0,0:0:0:0:
256,192,124526,1,0,0:0:0:0:
256,192,124576,1,0,0:0:0:0:
256,192,124626,1,8,0:0:0:0:
256,192,124726,1,0,0:0:0:0:
256,192,124826,1,8,0:0:0:0:
256,192,124876,1,8,0:0:0:0:
256,192,124926,1,0,0:0:0:0:
256,192,125026,1,0,0:0:0:0:
256,192,125126,1,8,0:0:0:0:
256,192,125176,1,8,0:0:0:0:
256,192,125226,1,8,0:0:0:0:
256,192,125326,1,8,0:0:0:0:
256,192,125426,1,4,0:0:0:0:
256,192,125526,1,0,0:0:0:0:
256,192,125626,1,8,0:0:0:0:
256,192,125676,1,8,0:0:0:0:
256,192,125726,1,0,0:0:0:0:
256,192,125826,1,8,0:0:0:0:
256,192,125859,1,8,0:0:0:0:
256,192,125892,1,8,0:0:0:0:
256,192,125926,1,0,0:0:0:0:
256,192,126026,1,0,0:0:0:0:
256,192,126126,1,0,0:0:0:0:
256,192,126176,1,0,0:0:0:0:
256,192,126226,1,8,0:0:0:0:
256,192,126326,1,8,0:0:0:0:
256,192,126526,1,0,0:0:0:0:
256,192,126576,1,0,0:0:0:0:
256,192,126626,1,8,0:0:0:0:
256,192,126676,1,8,0:0:0:0:
256,192,126726,1,8,0:0:0:0:
256,192,126776,1,8,0:0:0:0:
256,192,126826,1,0,0:0:0:0:
256,192,126876,1,0,0:0:0:0:
256,192,126926,1,8,0:0:0:0:
256,192,127026,1,0,0:0:0:0:
256,192,127076,1,0,0:0:0:0:
256,192,127126,1,0,0:0:0:0:
256,192,127176,1,0,0:0:0:0:
256,192,127226,1,8,0:0:0:0:
256,192,127326,1,8,0:0:0:0:
256,192,127376,1,8,0:0:0:0:
256,192,127426,1,8,0:0:0:0:
256,192,127526,1,0,0:0:0:0:
256,192,127626,1,8,0:0:0:0:
256,192,127676,1,8,0:0:0:0:
256,192,127726,1,8,0:0:0:0:
256,192,127776,1,8,0:0:0:0:
256,192,127826,1,0,0:0:0:0:
256,192,127876,1,0,0:0:0:0:
256,192,127926,1,0,0:0:0:0:
256,192,127976,1,0,0:0:0:0:
256,192,128026,1,8,0:0:0:0:
256,192,128126,1,0,0:0:0:0:
256,192,128226,1,8,0:0:0:0:
256,192,128259,1,8,0:0:0:0:
256,192,128292,1,8,0:0:0:0:
256,192,128326,1,8,0:0:0:0:
256,192,128426,1,0,0:0:0:0:
256,192,128626,1,4,0:0:0:0:
256,192,128726,1,8,0:0:0:0:
256,192,128826,1,0,0:0:0:0:
256,192,128926,1,0,0:0:0:0:
256,192,129026,1,8,0:0:0:0:
256,192,129126,1,0,0:0:0:0:
256,192,129226,1,8,0:0:0:0:
256,192,129276,1,8,0:0:0:0:
256,192,129326,1,8,0:0:0:0:
256,192,129426,1,0,0:0:0:0:
256,192,129526,1,0,0:0:0:0:
256,192,129726,1,0,0:0:0:0:
256,192,129776,1,0,0:0:0:0:
256,192,129826,1,8,0:0:0:0:
256,192,129926,1,8,0:0:0:0:
256,192,130026,1,8,0:0:0:0:
256,192,130126,1,8,0:0:0:0:
256,192,130226,1,0,0:0:0:0:
256,192,130276,1,0,0:0:0:0:
256,192,130326,1,8,0:0:0:0:
256,192,130376,1,0,0:0:0:0:
256,192,130426,1,8,0:0:0:0:
256,192,130526,1,0,0:0:0:0:
256,192,130626,1,8,0:0:0:0:
256,192,130726,1,8,0:0:0:0:
256,192,130826,1,0,0:0:0:0:
256,192,130876,1,0,0:0:0:0:
256,192,130926,1,0,0:0:0:0:
256,192,130976,1,0,0:0:0:0:
256,192,131026,1,8,0:0:0:0:
256,192,131126,1,0,0:0:0:0:
256,192,131226,1,8,0:0:0:0:
256,192,131276,1,8,0:0:0:0:
256,192,131326,1,0,0:0:0:0:
256,192,131376,1,0,0:0:0:0:
256,192,131426,1,0,0:0:0:0:
256,192,131526,1,8,0:0:0:0:
256,192,131576,1,8,0:0:0:0:
256,192,131626,1,8,0:0:0:0:
256,192,131726,1,8,0:0:0:0:
256,192,131826,1,4,0:0:0:0:
256,192,131926,1,0,0:0:0:0:
256,192,132026,1,8,0:0:0:0:
256,192,132076,1,8,0:0:0:0:
256,192,132126,1,0,0:0:0:0:
256,192,132176,1,0,0:0:0:0:
256,192,132226,1,8,0:0:0:0:
256,192,132259,1,8,0:0:0:0:
256,192,132292,1,8,0:0:0:0:
256,192,132326,1,0,0:0:0:0:
256,192,132426,1,0,0:0:0:0:
256,192,132526,1,0,0:0:0:0:
256,192,132576,1,0,0:0:0:0:
256,192,132626,1,8,0:0:0:0:
256,192,132726,1,8,0:0:0:0:
256,192,132926,1,0,0:0:0:0:
256,192,132976,1,0,0:0:0:0:
256,192,133026,1,8,0:0:0:0:
256,192,133076,1,8,0:0:0:0:
256,192,133126,1,8,0:0:0:0:
256,192,133176,1,8,0:0:0:0:
256,192,133226,1,0,0:0:0:0:
256,192,133276,1,0,0:0:0:0:
256,192,133326,1,8,0:0:0:0:
256,192,133426,1,0,0:0:0:0:
256,192,133476,1,0,0:0:0:0:
256,192,133526,1,0,0:0:0:0:
256,192,133576,1,0,0:0:0:0:
256,192,133626,1,8,0:0:0:0:
256,192,133726,1,8,0:0:0:0:
256,192,133776,1,8,0:0:0:0:
256,192,133826,1,8,0:0:0:0:
256,192,133926,1,0,0:0:0:0:
256,192,134026,1,8,0:0:0:0:
256,192,134076,1,8,0:0:0:0:
256,192,134126,1,8,0:0:0:0:
256,192,134176,1,8,0:0:0:0:
256,192,134226,1,0,0:0:0:0:
256,192,134276,1,0,0:0:0:0:
256,192,134326,1,0,0:0:0:0:
256,192,134426,1,8,0:0:0:0:
256,192,134476,1,8,0:0:0:0:
256,192,134526,1,0,0:0:0:0:
256,192,134626,1,8,0:0:0:0:
256,192,134659,1,8,0:0:0:0:
256,192,134692,1,8,0:0:0:0:
256,192,134726,1,8,0:0:0:0:
256,192,134826,1,0,0:0:0:0:
256,192,134876,1,0,0:0:0:0:
256,192,134926,1,8,0:0:0:0:
256,192,135026,1,4,0:0:0:0:
256,192,135126,1,0,0:0:0:0:
256,192,135226,1,8,0:0:0:0:
256,192,135426,1,0,0:0:0:0:
256,192,135526,1,0,0:0:0:0:
256,192,135626,1,8,0:0:0:0:
256,192,135826,1,0,0:0:0:0:
256,192,135926,1,0,0:0:0:0:
256,192,136026,1,8,0:0:0:0:
256,192,136226,1,0,0:0:0:0:
256,192,136326,1,0,0:0:0:0:
256,192,136426,1,8,0:0:0:0:
256,192,136526,1,0,0:0:0:0:
256,192,136626,1,0,0:0:0:0:
256,192,136726,1,0,0:0:0:0:
256,192,136826,1,8,0:0:0:0:
256,192,137026,1,0,0:0:0:0:
256,192,137126,1,0,0:0:0:0:
256,192,137226,1,8,0:0:0:0:
256,192,137426,1,0,0:0:0:0:
256,192,137526,1,8,0:0:0:0:
256,192,137576,1,8,0:0:0:0:
256,192,137626,1,0,0:0:0:0:
256,192,137726,1,8,0:0:0:0:
256,192,137776,1,8,0:0:0:0:
256,192,137826,1,0,0:0:0:0:
256,192,137926,1,8,0:0:0:0:
256,192,137976,1,8,0:0:0:0:
256,192,138026,1,0,0:0:0:0:
256,192,138126,1,8,0:0:0:0:
256,192,138176,1,8,0:0:0:0:
256,192,138226,1,0,0:0:0:0:
256,192,138326,1,0,0:0:0:0:
256,192,138426,1,8,0:0:0:0:
256,192,138626,1,0,0:0:0:0:
256,192,138726,1,0,0:0:0:0:
256,192,138826,1,8,0:0:0:0:
256,192,139026,1,0,0:0:0:0:
256,192,139126,1,0,0:0:0:0:
256,192,139226,1,8,0:0:0:0:
256,192,139426,1,0,0:0:0:0:
256,192,139526,1,0,0:0:0:0:
256,192,139626,1,8,0:0:0:0:
256,192,139726,1,0,0:0:0:0:
256,192,139826,1,8,0:0:0:0:
256,192,139926,1,8,0:0:0:0:
256,192,140026,1,8,0:0:0:0:
256,192,140126,1,8,0:0:0:0:
256,192,140176,1,8,0:0:0:0:
256,192,140226,1,0,0:0:0:0:
256,192,140326,1,0,0:0:0:0:
256,192,140426,1,8,0:0:0:0:
256,192,140526,1,8,0:0:0:0:
256,192,140626,1,0,0:0:0:0:
256,192,140676,1,0,0:0:0:0:
256,192,140726,1,0,0:0:0:0:
256,192,140776,1,0,0:0:0:0:
256,192,140826,1,8,0:0:0:0:
256,192,140926,1,0,0:0:0:0:
256,192,141026,1,8,0:0:0:0:
256,192,141059,1,8,0:0:0:0:
256,192,141092,1,8,0:0:0:0:
256,192,141126,1,0,0:0:0:0:
256,192,141226,1,8,0:0:0:0:
256,192,141426,1,4,0:0:0:0:
256,192,141526,1,0,0:0:0:0:
256,192,141626,1,8,0:0:0:0:
256,192,141676,1,8,0:0:0:0:
256,192,141726,1,8,0:0:0:0:
256,192,141826,1,0,0:0:0:0:
256,192,141926,1,0,0:0:0:0:
256,192,142026,1,8,0:0:0:0:
256,192,142226,1,0,0:0:0:0:
256,192,142326,1,0,0:0:0:0:
256,192,142426,1,8,0:0:0:0:
256,192,142526,1,0,0:0:0:0:
256,192,142626,1,0,0:0:0:0:
256,192,142726,1,0,0:0:0:0:
256,192,142826,1,8,0:0:0:0:
256,192,142926,1,8,0:0:0:0:
256,192,143026,1,0,0:0:0:0:
256,192,143126,1,8,0:0:0:0:
256,192,143326,1,8,0:0:0:0:
256,192,143526,1,8,0:0:0:0:
256,192,143726,1,8,0:0:0:0:
256,192,143826,1,0,0:0:0:0:
256,192,143926,1,8,0:0:0:0:
256,192,143976,1,8,0:0:0:0:
256,192,144026,1,0,0:0:0:0:
256,192,144126,1,8,0:0:0:0:
256,192,144176,1,8,0:0:0:0:
256,192,144226,1,0,0:0:0:0:
256,192,144326,1,8,0:0:0:0:
256,192,144376,1,8,0:0:0:0:
256,192,144426,1,0,0:0:0:0:
256,192,144526,1,8,0:0:0:0:
256,192,144576,1,8,0:0:0:0:
256,192,144626,1,0,0:0:0:0:
256,192,144676,1,0,0:0:0:0:
256,192,144726,1,0,0:0:0:0:
256,192,144776,1,0,0:0:0:0:
256,192,144826,1,8,0:0:0:0:
256,192,144926,1,8,0:0:0:0:
256,192,145026,1,0,0:0:0:0:
256,192,145226,1,8,0:0:0:0:
256,192,145276,1,8,0:0:0:0:
256,192,145326,1,8,0:0:0:0:
256,192,145426,1,0,0:0:0:0:
256,192,145526,1,0,0:0:0:0:
256,192,145626,1,8,0:0:0:0:
256,192,145726,1,0,0:0:0:0:
256,192,145826,1,0,0:0:0:0:
256,192,145926,1,0,0:0:0:0:
256,192,146026,1,8,0:0:0:0:
256,192,146226,1,0,0:0:0:0:
256,192,146276,1,0,0:0:0:0:
256,192,146326,1,0,0:0:0:0:
256,192,146526,1,8,0:0:0:0:
256,192,146576,1,8,0:0:0:0:
256,192,146626,1,8,0:0:0:0:
256,192,146726,1,0,0:0:0:0:
256,192,146826,1,0,0:0:0:0:
256,192,146926,1,0,0:0:0:0:
256,192,147026,1,8,0:0:0:0:
256,192,147126,1,0,0:0:0:0:
256,192,147226,1,0,0:0:0:0:
256,192,147326,1,0,0:0:0:0:
256,192,147426,1,8,0:0:0:0:
256,192,147526,1,0,0:0:0:0:
256,192,147626,1,8,0:0:0:0:
256,192,147676,1,8,0:0:0:0:
256,192,147726,1,8,0:0:0:0:
256,192,147826,1,4,0:0:0:0:
256,192,147926,1,0,0:0:0:0:
256,192,148026,1,8,0:0:0:0:
256,192,148226,1,0,0:0:0:0:
256,192,148326,1,0,0:0:0:0:
256,192,148426,1,8,0:0:0:0:
256,192,148626,1,0,0:0:0:0:
256,192,148726,1,0,0:0:0:0:
256,192,148826,1,8,0:0:0:0:
256,192,149026,1,0,0:0:0:0:
256,192,149126,1,0,0:0:0:0:
256,192,149226,1,8,0:0:0:0:
256,192,149326,1,0,0:0:0:0:
256,192,149426,1,0,0:0:0:0:
256,192,149526,1,0,0:0:0:0:
256,192,149626,1,8,0:0:0:0:
256,192,149826,1,0,0:0:0:0:
256,192,149926,1,0,0:0:0:0:
256,192,150026,1,8,0:0:0:0:
256,192,150226,1,0,0:0:0:0:
256,192,150326,1,8,0:0:0:0:
256,192,150376,1,8,0:0:0:0:
256,192,150426,1,0,0:0:0:0:
256,192,150526,1,8,0:0:0:0:
256,192,150576,1,8,0:0:0:0:
256,192,150626,1,0,0:0:0:0:
256,192,150726,1,8,0:0:0:0:
256,192,150776,1,8,0:0:0:0:
256,192,150826,1,0,0:0:0:0:
256,192,150926,1,8,0:0:0:0:
256,192,150976,1,8,0:0:0:0:
256,192,151026,1,0,0:0:0:0:
256,192,151126,1,0,0:0:0:0:
256,192,151226,1,8,0:0:0:0:
256,192,151426,1,0,0:0:0:0:
256,192,151526,1,0,0:0:0:0:
256,192,151626,1,8,0:0:0:0:
256,192,151826,1,0,0:0:0:0:
256,192,151926,1,0,0:0:0:0:
256,192,152026,1,8,0:0:0:0:
256,192,152226,1,0,0:0:0:0:
256,192,152326,1,0,0:0:0:0:
256,192,152426,1,8,0:0:0:0:
256,192,152526,1,0,0:0:0:0:
256,192,152626,1,8,0:0:0:0:
256,192,152726,1,8,0:0:0:0:
256,192,152826,1,0,0:0:0:0:
256,192,152926,1,8,0:0:0:0:
256,192,152976,1,8,0:0:0:0:
256,192,153026,1,0,0:0:0:0:
256,192,153126,1,0,0:0:0:0:
256,192,153226,1,8,0:0:0:0:
256,192,153326,1,0,0:0:0:0:
256,192,153426,1,8,0:0:0:0:
256,192,153476,1,8,0:0:0:0:
256,192,153526,1,0,0:0:0:0:
256,192,153576,1,0,0:0:0:0:
256,192,153626,1,8,0:0:0:0:
256,192,153726,1,0,0:0:0:0:
256,192,153826,1,8,0:0:0:0:
256,192,153876,1,8,0:0:0:0:
256,192,153926,1,0,0:0:0:0:
256,192,153976,1,0,0:0:0:0:
256,192,154026,1,8,0:0:0:0:
256,192,154226,1,4,0:0:0:0:
256,192,154426,1,8,0:0:0:0:
256,192,154526,1,8,0:0:0:0:
256,192,154626,1,0,0:0:0:0:
256,192,154726,1,0,0:0:0:0:
256,192,154826,1,8,0:0:0:0:
256,192,154926,1,0,0:0:0:0:
256,192,155126,1,0,0:0:0:0:
256,192,155226,1,8,0:0:0:0:
256,192,155326,1,0,0:0:0:0:
256,192,155426,1,0,0:0:0:0:
256,192,155526,1,0,0:0:0:0:
256,192,155626,1,8,0:0:0:0:
256,192,155726,1,8,0:0:0:0:
256,192,155826,1,0,0:0:0:0:
256,192,155876,1,0,0:0:0:0:
256,192,155926,1,0,0:0:0:0:
256,192,156026,1,0,0:0:0:0:
256,192,156126,1,8,0:0:0:0:
256,192,156176,1,8,0:0:0:0:
256,192,156226,1,8,0:0:0:0:
256,192,156326,1,8,0:0:0:0:
256,192,156426,1,0,0:0:0:0:
256,192,156476,1,0,0:0:0:0:
256,192,156526,1,0,0:0:0:0:
256,192,156626,1,0,0:0:0:0:
256,192,156726,1,8,0:0:0:0:
256,192,156776,1,8,0:0:0:0:
256,192,156826,1,8,0:0:0:0:
256,192,156926,1,0,0:0:0:0:
256,192,157026,1,8,0:0:0:0:
256,192,157076,1,8,0:0:0:0:
256,192,157126,1,8,0:0:0:0:
256,192,157226,1,0,0:0:0:0:
256,192,157276,1,0,0:0:0:0:
256,192,157326,1,0,0:0:0:0:
256,192,157426,1,8,0:0:0:0:
256,192,157459,1,8,0:0:0:0:
256,192,157492,1,8,0:0:0:0:
256,192,157526,1,0,0:0:0:0:
256,192,157626,1,8,0:0:0:0:
256,192,157826,1,0,0:0:0:0:
256,192,157926,1,0,0:0:0:0:
256,192,158026,1,8,0:0:0:0:
256,192,158126,1,0,0:0:0:0:
256,192,158326,1,0,0:0:0:0:
256,192,158376,1,0,0:0:0:0:
256,192,158426,1,8,0:0:0:0:
256,192,158476,1,8,0:0:0:0:
256,192,158526,1,8,0:0:0:0:
256,192,158626,1,0,0:0:0:0:
256,192,158726,1,0,0:0:0:0:
256,192,158826,1,8,0:0:0:0:
256,192,158926,1,8,0:0:0:0:
256,192,159026,1,0,0:0:0:0:
256,192,159076,1,0,0:0:0:0:
256,192,159126,1,0,0:0:0:0:
256,192,159226,1,0,0:0:0:0:
256,192,159326,1,8,0:0:0:0:
256,192,159376,1,8,0:0:0:0:
256,192,159426,1,8,0:0:0:0:
256,192,159526,1,8,0:0:0:0:
256,192,159626,1,0,0:0:0:0:
256,192,159676,1,0,0:0:0:0:
256,192,159726,1,0,0:0:0:0:
256,192,159826,1,0,0:0:0:0:
256,192,159926,1,8,0:0:0:0:
256,192,159976,1,8,0:0:0:0:
256,192,160026,1,8,0:0:0:0:
256,192,160076,1,8,0:0:0:0:
256,192,160126,1,0,0:0:0:0:
256,192,160226,1,8,0:0:0:0:
256,192,160326,1,0,0:0:0:0:
256,192,160426,1,0,0:0:0:0:
256,192,160626,1,4,0:0:0:0:
256,192,160726,1,0,0:0:0:0:
256,192,160826,1,8,0:0:0:0:
256,192,160926,1,0,0:0:0:0:
256,192,161026,1,8,0:0:0:0:
256,192,161226,1,8,0:0:0:0:
256,192,161326,1,8,0:0:0:0:
256,192,161426,1,0,0:0:0:0:
256,192,161526,1,8,0:0:0:0:
256,192,161626,1,8,0:0:0:0:
256,192,161726,1,8,0:0:0:0:
256,192,161826,1,0,0:0:0:0:
256,192,161926,1,0,0:0:0:0:
256,192,162026,1,8,0:0:0:0:
256,192,162076,1,8,0:0:0:0:
256,192,162126,1,8,0:0:0:0:
256,192,162226,1,0,0:0:0:0:
256,192,162259,1,0,0:0:0:0:
256,192,162292,1,0,0:0:0:0:
256,192,162326,1,0,0:0:0:0:
256,192,162426,1,8,0:0:0:0:
256,192,162526,1,8,0:0:0:0:
256,192,162626,1,0,0:0:0:0:
256,192,162726,1,8,0:0:0:0:
256,192,162926,1,8,0:0:0:0:
256,192,163026,1,0,0:0:0:0:
256,192,163126,1,8,0:0:0:0:
256,192,163226,1,8,0:0:0:0:
256,192,163326,1,8,0:0:0:0:
256,192,163426,1,0,0:0:0:0:
256,192,163526,1,0,0:0:0:0:
256,192,163626,1,8,0:0:0:0:
256,192,163726,1,8,0:0:0:0:
256,192,163826,1,4,0:0:0:0:
256,192,163926,1,0,0:0:0:0:
256,192,164026,1,8,0:0:0:0:
256,192,164126,1,8,0:0:0:0:
256,192,164226,1,0,0:0:0:0:
256,192,164426,1,8,0:0:0:0:
256,192,164626,1,0,0:0:0:0:
256,192,164726,1,0,0:0:0:0:
256,192,164826,1,8,0:0:0:0:
256,192,164876,1,8,0:0:0:0:
256,192,164926,1,8,0:0:0:0:
256,192,164976,1,8,0:0:0:0:
256,192,165026,1,0,0:0:0:0:
256,192,165126,1,0,0:0:0:0:
256,192,165226,1,8,0:0:0:0:
256,192,165259,1,8,0:0:0:0:
256,192,165292,1,8,0:0:0:0:
256,192,165326,1,8,0:0:0:0:
256,192,165426,1,0,0:0:0:0:
256,192,165526,1,0,0:0:0:0:
256,192,165626,1,8,0:0:0:0:
256,192,165726,1,0,0:0:0:0:
256,192,165826,1,8,0:0:0:0:
256,192,166026,1,0,0:0:0:0:
256,192,166226,1,0,0:0:0:0:
256,192,166326,1,0,0:0:0:0:
256,192,166426,1,8,0:0:0:0:
256,192,166526,1,0,0:0:0:0:
256,192,166576,1,0,0:0:0:0:
256,192,166626,1,0,0:0:0:0:
256,192,166726,1,0,0:0:0:0:
256,192,166826,1,8,0:0:0:0:
256,192,166876,1,8,0:0:0:0:
256,192,166926,1,8,0:0:0:0:
256,192,167026,1,4,0:0:0:0:
256,192,167126,1,0,0:0:0:0:
256,192,167226,1,8,0:0:0:0:
256,192,167326,1,8,0:0:0:0:
256,192,167426,1,8,0:0:0:0:
256,192,167626,1,0,0:0:0:0:
256,192,167726,1,8,0:0:0:0:
256,192,167826,1,0,0:0:0:0:
256,192,167926,1,0,0:0:0:0:
256,192,168026,1,0,0:0:0:0:
256,192,168126,1,0,0:0:0:0:
256,192,168226,1,8,0:0:0:0:
256,192,168426,1,8,0:0:0:0:
256,192,168526,1,8,0:0:0:0:
256,192,168626,1,0,0:0:0:0:
256,192,168676,1,0,0:0:0:0:
256,192,168726,1,0,0:0:0:0:
256,192,168776,1,0,0:0:0:0:
256,192,168826,1,8,0:0:0:0:
256,192,168876,1,8,0:0:0:0:
256,192,168926,1,8,0:0:0:0:
256,192,168976,1,8,0:0:0:0:
256,192,169026,1,0,0:0:0:0:
256,192,169126,1,8,0:0:0:0:
256,192,169226,1,8,0:0:0:0:
256,192,169326,1,8,0:0:0:0:
256,192,169426,1,0,0:0:0:0:
256,192,169526,1,0,0:0:0:0:
256,192,169626,1,0,0:0:0:0:
256,192,169726,1,0,0:0:0:0:
256,192,169826,1,8,0:0:0:0:
256,192,169876,1,8,0:0:0:0:
256,192,169926,1,8,0:0:0:0:
256,192,169976,1,8,0:0:0:0:
256,192,170026,1,8,0:0:0:0:
256,192,170126,1,8,0:0:0:0:
256,192,170226,1,0,0:0:0:0:
256,192,170259,1,0,0:0:0:0:
256,192,170292,1,0,0:0:0:0:
256,192,170326,1,0,0:0:0:0:
256,192,170426,1,8,0:0:0:0:
256,192,170626,1,0,0:0:0:0:
256,192,170726,1,0,0:0:0:0:
256,192,170826,1,8,0:0:0:0:
256,192,170926,1,0,0:0:0:0:
256,192,171026,1,8,0:0:0:0:
256,192,171076,1,8,0:0:0:0:
256,192,171126,1,0,0:0:0:0:
256,192,171226,1,0,0:0:0:0:
256,192,171326,1,0,0:0:0:0:
256,192,171426,1,8,0:0:0:0:
256,192,171476,1,8,0:0:0:0:
256,192,171526,1,0,0:0:0:0:
256,192,171626,1,8,0:0:0:0:
256,192,171676,1,8,0:0:0:0:
256,192,171726,1,0,0:0:0:0:
256,192,171826,1,0,0:0:0:0:
256,192,171926,1,0,0:0:0:0:
256,192,172026,1,0,0:0:0:0:
256,192,172126,1,0,0:0:0:0:
256,192,172226,1,8,0:0:0:0:
256,192,172426,1,8,0:0:0:0:
256,192,172526,1,8,0:0:0:0:
256,192,172626,1,0,0:0:0:0:
256,192,172726,1,0,0:0:0:0:
256,192,172776,1,0,0:0:0:0:
256,192,172826,1,8,0:0:0:0:
256,192,172926,1,0,0:0:0:0:
256,192,173026,1,8,0:0:0:0:
256,192,173126,1,8,0:0:0:0:
256,192,173226,1,8,0:0:0:0:
256,192,173326,1,8,0:0:0:0:
256,192,173426,2,4,L|320:192,22,35
256,192,174626,1,8,0:0:0:0:
256,192,174676,1,8,0:0:0:0:
256,192,174726,1,8,0:0:0:0:
256,192,174776,1,8,0:0:0:0:
256,192,174826,1,0,0:0:0:0:
256,192,174876,1,0,0:0:0:0:
256,192,174926,1,0,0:0:0:0:
256,192,175026,12,0,176126,0:0:0:0:
256,192,176226,5,8,0:0:0:0:
256,192,176426,1,8,0:0:0:0:
256,192,176626,1,4,0:0:0:0:
256,192,176826,1,0,0:0:0:0:
256,192,176926,1,0,0:0:0:0:
256,192,177026,1,8,0:0:0:0:
256,192,177126,1,8,0:0:0:0:
256,192,177226,1,8,0:0:0:0:
256,192,177426,1,0,0:0:0:0:
256,192,177726,1,0,0:0:0:0:
256,192,177826,1,8,0:0:0:0:
256,192,178026,1,8,0:0:0:0:
256,192,178126,1,8,0:0:0:0:
256,192,178226,1,0,0:0:0:0:
256,192,178526,1,0,0:0:0:0:
256,192,178626,1,8,0:0:0:0:
256,192,178726,1,0,0:0:0:0:
256,192,178826,1,8,0:0:0:0:
256,192,178926,1,8,0:0:0:0:
256,192,179026,1,0,0:0:0:0:
256,192,179226,1,8,0:0:0:0:
256,192,179426,1,0,0:0:0:0:
256,192,179626,1,8,0:0:0:0:
256,192,179726,1,8,0:0:0:0:
256,192,179826,1,4,0:0:0:0:
256,192,180226,1,8,0:0:0:0:
256,192,180626,1,0,0:0:0:0:
256,192,180926,1,0,0:0:0:0:
256,192,181026,1,8,0:0:0:0:
256,192,181226,1,0,0:0:0:0:
256,192,181326,1,0,0:0:0:0:
256,192,181426,1,8,0:0:0:0:
256,192,181726,1,0,0:0:0:0:
256,192,181826,1,8,0:0:0:0:
256,192,181926,1,8,0:0:0:0:
256,192,182026,1,0,0:0:0:0:
256,192,182126,1,0,0:0:0:0:
256,192,182226,1,8,0:0:0:0:
256,192,182626,1,0,0:0:0:0:
256,192,182826,1,8,0:0:0:0:
256,192,183026,1,4,0:0:0:0:
256,192,183126,1,0,0:0:0:0:
256,192,183226,1,8,0:0:0:0:
256,192,183426,1,0,0:0:0:0:
256,192,183526,1,0,0:0:0:0:
256,192,183626,1,8,0:0:0:0:
256,192,183826,1,0,0:0:0:0:
256,192,183926,1,0,0:0:0:0:
256,192,184026,1,8,0:0:0:0:
256,192,184126,1,8,0:0:0:0:
256,192,184226,1,0,0:0:0:0:
256,192,184426,1,8,0:0:0:0:
256,192,184526,1,0,0:0:0:0:
256,192,184626,1,0,0:0:0:0:
256,192,184726,1,0,0:0:0:0:
256,192,184826,1,8,0:0:0:0:
256,192,185026,1,0,0:0:0:0:
256,192,185126,1,0,0:0:0:0:
256,192,185226,1,8,0:0:0:0:
256,192,185426,1,0,0:0:0:0:
256,192,185526,1,8,0:0:0:0:
256,192,185626,1,8,0:0:0:0:
256,192,185726,1,8,0:0:0:0:
256,192,185826,1,0,0:0:0:0:
256,192,186026,1,8,0:0:0:0:
256,192,186126,1,8,0:0:0:0:
256,192,186226,1,0,0:0:0:0:
256,192,186326,1,0,0:0:0:0:
256,192,186426,1,8,0:0:0:0:
256,192,186626,1,0,0:0:0:0:
256,192,186726,1,0,0:0:0:0:
256,192,186826,1,8,0:0:0:0:
256,192,187026,1,0,0:0:0:0:
256,192,187126,1,0,0:0:0:0:
256,192,187226,1,8,0:0:0:0:
256,192,187326,1,8,0:0:0:0:
256,192,187426,1,0,0:0:0:0:
256,192,187626,1,8,0:0:0:0:
256,192,187726,1,0,0:0:0:0:
256,192,187826,1,0,0:0:0:0:
256,192,187926,1,0,0:0:0:0:
256,192,188026,1,8,0:0:0:0:
256,192,188226,1,0,0:0:0:0:
256,192,188326,1,0,0:0:0:0:
256,192,188426,1,8,0:0:0:0:
256,192,188626,1,0,0:0:0:0:
256,192,188726,1,0,0:0:0:0:
256,192,188826,1,8,0:0:0:0:
256,192,188926,1,8,0:0:0:0:
256,192,189026,1,0,0:0:0:0:
256,192,189226,1,8,0:0:0:0:
256,192,189326,1,8,0:0:0:0:
256,192,189426,1,4,0:0:0:0:
256,192,189526,12,0,191726,0:0:0:0:
256,192,191826,5,8,0:0:0:0:
256,192,191926,1,8,0:0:0:0:
256,192,192026,1,8,0:0:0:0:
256,192,192126,1,8,0:0:0:0:
256,192,192226,1,0,0:0:0:0:
256,192,192326,1,0,0:0:0:0:
256,192,192426,1,0,0:0:0:0:
256,192,192526,1,0,0:0:0:0:
256,192,192626,1,8,0:0:0:0:
256,192,192692,1,8,0:0:0:0:
256,192,192759,1,8,0:0:0:0:
256,192,192826,1,0,0:0:0:0:
256,192,192892,1,0,0:0:0:0:
256,192,192959,1,0,0:0:0:0:
256,192,193026,1,0,0:0:0:0:
256,192,193426,1,0,0:0:0:0:
256,192,193476,1,0,0:0:0:0:
256,192,193526,1,0,0:0:0:0:
256,192,193576,1,0,0:0:0:0:
256,192,193626,1,8,0:0:0:0:
256,192,193676,1,8,0:0:0:0:
256,192,193726,1,0,0:0:0:0:
256,192,193776,1,0,0:0:0:0:
256,192,193826,1,8,0:0:0:0:
256,192,194226,1,12,0:0:0:0:
256,192,194326,1,0,0:0:0:0:
256,192,194376,1,0,0:0:0:0:
256,192,194426,1,8,0:0:0:0:
256,192,194526,1,8,0:0:0:0:
256,192,194626,1,0,0:0:0:0:
256,192,194726,1,0,0:0:0:0:
256,192,194826,1,8,0:0:0:0:
256,192,194876,1,8,0:0:0:0:
256,192,194926,1,8,0:0:0:0:
256,192,195026,1,0,0:0:0:0:
256,192,195126,1,0,0:0:0:0:
256,192,195226,1,8,0:0:0:0:
256,192,195276,1,8,0:0:0:0:
256,192,195326,1,0,0:0:0:0:
256,192,195426,1,8,0:0:0:0:
256,192,195526,1,0,0:0:0:0:
256,192,195626,1,8,0:0:0:0:
256,192,195726,1,8,0:0:0:0:
256,192,195826,1,0,0:0:0:0:
256,192,195876,1,0,0:0:0:0:
256,192,195926,1,0,0:0:0:0:
256,192,196026,1,8,0:0:0:0:
256,192,196126,1,0,0:0:0:0:
256,192,196226,1,8,0:0:0:0:
256,192,196326,1,0,0:0:0:0:
256,192,196426,1,8,0:0:0:0:
256,192,196526,1,8,0:0:0:0:
256,192,196626,1,0,0:0:0:0:
256,192,196726,1,0,0:0:0:0:
256,192,196826,1,0,0:0:0:0:
256,192,196926,1,0,0:0:0:0:
256,192,197026,1,8,0:0:0:0:
256,192,197226,1,8,0:0:0:0:
256,192,197326,1,8,0:0:0:0:
256,192,197426,1,4,0:0:0:0:
256,192,197526,1,0,0:0:0:0:
256,192,197626,1,8,0:0:0:0:
256,192,197726,1,0,0:0:0:0:
256,192,197776,1,0,0:0:0:0:
256,192,197826,1,8,0:0:0:0:
256,192,197876,1,8,0:0:0:0:
256,192,197926,1,8,0:0:0:0:
256,192,198026,1,0,0:0:0:0:
256,192,198126,1,0,0:0:0:0:
256,192,198176,1,0,0:0:0:0:
256,192,198226,1,0,0:0:0:0:
256,192,198326,1,0,0:0:0:0:
256,192,198426,1,8,0:0:0:0:
256,192,198526,1,8,0:0:0:0:
256,192,198626,1,0,0:0:0:0:
256,192,198676,1,0,0:0:0:0:
256,192,198726,1,0,0:0:0:0:
256,192,198776,1,0,0:0:0:0:
256,192,198826,1,8,0:0:0:0:
256,192,198926,1,0,0:0:0:0:
256,192,199026,1,8,0:0:0:0:
256,192,199076,1,8,0:0:0:0:
256,192,199126,1,8,0:0:0:0:
256,192,199226,1,0,0:0:0:0:
256,192,199326,1,0,0:0:0:0:
256,192,199426,1,8,0:0:0:0:
256,192,199526,1,0,0:0:0:0:
256,192,199626,1,8,0:0:0:0:
256,192,199726,1,8,0:0:0:0:
256,192,199826,1,0,0:0:0:0:
256,192,199876,1,0,0:0:0:0:
256,192,199926,1,8,0:0:0:0:
256,192,199976,1,8,0:0:0:0:
256,192,200026,1,8,0:0:0:0:
256,192,200126,1,8,0:0:0:0:
256,192,200226,1,0,0:0:0:0:
256,192,200259,1,0,0:0:0:0:
256,192,200292,1,0,0:0:0:0:
256,192,200326,1,0,0:0:0:0:
256,192,200426,1,8,0:0:0:0:
256,192,200626,1,12,0:0:0:0:
256,192,200726,1,0,0:0:0:0:
256,192,200759,1,0,0:0:0:0:
256,192,200792,1,0,0:0:0:0:
256,192,200826,1,0,0:0:0:0:
256,192,200926,1,8,0:0:0:0:
256,192,201026,1,0,0:0:0:0:
256,192,201126,1,0,0:0:0:0:
256,192,201226,1,8,0:0:0:0:
256,192,201276,1,8,0:0:0:0:
256,192,201326,1,8,0:0:0:0:
256,192,201426,1,0,0:0:0:0:
256,192,201526,1,0,0:0:0:0:
256,192,201626,1,8,0:0:0:0:
256,192,201676,1,8,0:0:0:0:
256,192,201726,1,0,0:0:0:0:
256,192,201826,1,8,0:0:0:0:
256,192,201926,1,0,0:0:0:0:
256,192,202026,1,8,0:0:0:0:
256,192,202126,1,8,0:0:0:0:
256,192,202226,1,0,0:0:0:0:
256,192,202276,1,0,0:0:0:0:
256,192,202326,1,0,0:0:0:0:
256,192,202376,1,0,0:0:0:0:
256,192,202426,1,8,0:0:0:0:
256,192,202526,1,8,0:0:0:0:
256,192,202626,1,0,0:0:0:0:
256,192,202726,1,0,0:0:0:0:
256,192,202826,1,8,0:0:0:0:
256,192,202926,1,0,0:0:0:0:
256,192,203026,1,0,0:0:0:0:
256,192,203126,1,0,0:0:0:0:
256,192,203226,1,8,0:0:0:0:
256,192,203326,1,8,0:0:0:0:
256,192,203426,1,0,0:0:0:0:
256,192,203626,1,8,0:0:0:0:
256,192,203726,1,8,0:0:0:0:
256,192,203826,1,4,0:0:0:0:
256,192,203926,1,0,0:0:0:0:
256,192,204026,1,8,0:0:0:0:
256,192,204126,1,0,0:0:0:0:
256,192,204176,1,0,0:0:0:0:
256,192,204226,1,8,0:0:0:0:
256,192,204276,1,8,0:0:0:0:
256,192,204326,1,8,0:0:0:0:
256,192,204376,1,8,0:0:0:0:
256,192,204426,1,0,0:0:0:0:
256,192,204526,1,0,0:0:0:0:
256,192,204626,1,8,0:0:0:0:
256,192,204726,1,0,0:0:0:0:
256,192,204826,1,8,0:0:0:0:
256,192,204926,1,0,0:0:0:0:
256,192,205026,1,8,0:0:0:0:
256,192,205076,1,8,0:0:0:0:
256,192,205126,1,0,0:0:0:0:
256,192,205176,1,0,0:0:0:0:
256,192,205226,1,8,0:0:0:0:
256,192,205326,1,0,0:0:0:0:
256,192,205426,1,8,0:0:0:0:
256,192,205476,1,8,0:0:0:0:
256,192,205526,1,8,0:0:0:0:
256,192,205626,1,0,0:0:0:0:
256,192,205726,1,0,0:0:0:0:
256,192,205826,1,8,0:0:0:0:
256,192,205926,1,8,0:0:0:0:
256,192,206026,1,0,0:0:0:0:
256,192,206126,1,8,0:0:0:0:
256,192,206226,1,0,0:0:0:0:
256,192,206276,1,0,0:0:0:0:
256,192,206326,1,0,0:0:0:0:
256,192,206376,1,0,0:0:0:0:
256,192,206426,1,8,0:0:0:0:
256,192,206476,1,8,0:0:0:0:
256,192,206526,1,0,0:0:0:0:
256,192,206626,1,8,0:0:0:0:
256,192,206659,1,8,0:0:0:0:
256,192,206692,1,8,0:0:0:0:
256,192,206726,1,0,0:0:0:0:
256,192,206826,1,8,0:0:0:0:
256,192,207026,1,4,0:0:0:0:
256,192,207226,1,8,0:0:0:0:
256,192,207426,1,0,0:0:0:0:
256,192,207476,1,0,0:0:0:0:
256,192,207526,1,0,0:0:0:0:
256,192,207626,1,8,0:0:0:0:
256,192,207826,1,0,0:0:0:0:
256,192,207926,1,0,0:0:0:0:
256,192,208026,1,0,0:0:0:0:
256,192,208126,1,0,0:0:0:0:
256,192,208226,1,8,0:0:0:0:
256,192,208426,1,8,0:0:0:0:
256,192,208626,1,0,0:0:0:0:
256,192,208826,1,8,0:0:0:0:
256,192,208926,1,8,0:0:0:0:
256,192,209026,1,0,0:0:0:0:
256,192,209226,1,8,0:0:0:0:
256,192,209426,1,0,0:0:0:0:
256,192,209526,1,8,0:0:0:0:
256,192,209559,1,8,0:0:0:0:
256,192,209592,1,8,0:0:0:0:
256,192,209626,1,8,0:0:0:0:
256,192,209726,1,8,0:0:0:0:
256,192,209826,1,0,0:0:0:0:
256,192,210026,1,8,0:0:0:0:
256,192,210076,1,8,0:0:0:0:
256,192,210126,1,8,0:0:0:0:
256,192,210226,1,4,0:0:0:0:
256,192,210326,1,0,0:0:0:0:
256,192,210376,1,0,0:0:0:0:
256,192,210426,1,8,0:0:0:0:
256,192,210526,1,0,0:0:0:0:
256,192,210626,1,0,0:0:0:0:
256,192,210676,1,0,0:0:0:0:
256,192,210726,1,0,0:0:0:0:
256,192,210776,1,0,0:0:0:0:
256,192,210826,1,8,0:0:0:0:
256,192,210926,1,8,0:0:0:0:
256,192,211026,1,0,0:0:0:0:
256,192,211126,1,0,0:0:0:0:
256,192,211226,1,0,0:0:0:0:
256,192,211326,1,0,0:0:0:0:
256,192,211426,1,8,0:0:0:0:
256,192,211626,1,8,0:0:0:0:
256,192,211826,1,0,0:0:0:0:
256,192,212026,1,0,0:0:0:0:
256,192,212126,1,0,0:0:0:0:
256,192,212226,1,8,0:0:0:0:
256,192,212426,1,8,0:0:0:0:
256,192,212476,1,8,0:0:0:0:
256,192,212526,1,8,0:0:0:0:
256,192,212626,1,0,0:0:0:0:
256,192,212676,1,0,0:0:0:0:
256,192,212726,1,0,0:0:0:0:
256,192,212776,1,0,0:0:0:0:
256,192,212826,1,8,0:0:0:0:
256,192,212926,1,8,0:0:0:0:
256,192,213026,1,0,0:0:0:0:
256,192,213226,1,8,0:0:0:0:
256,192,213326,1,8,0:0:0:0:
256,192,213426,1,4,0:0:0:0:
256,192,213626,1,8,0:0:0:0:
256,192,213826,1,0,0:0:0:0:
256,192,214026,1,8,0:0:0:0:
256,192,214226,1,0,0:0:0:0:
256,192,214326,1,0,0:0:0:0:
256,192,214426,1,0,0:0:0:0:
256,192,214626,1,8,0:0:0:0:
256,192,214726,1,8,0:0:0:0:
256,192,214826,1,8,0:0:0:0:
256,192,215026,1,0,0:0:0:0:
256,192,215126,1,8,0:0:0:0:
256,192,215226,1,8,0:0:0:0:
256,192,215426,1,0,0:0:0:0:
256,192,215526,1,8,0:0:0:0:
256,192,215626,1,8,0:0:0:0:
256,192,215826,1,0,0:0:0:0:
256,192,215926,1,8,0:0:0:0:
256,192,216026,1,8,0:0:0:0:
256,192,216126,1,8,0:0:0:0:
256,192,216226,1,0,0:0:0:0:
256,192,216426,1,8,0:0:0:0:
256,192,216476,1,8,0:0:0:0:
256,192,216526,1,8,0:0:0:0:
256,192,216626,1,4,0:0:0:0:
256,192,216826,1,8,0:0:0:0:
256,192,217026,1,0,0:0:0:0:
256,192,217226,1,8,0:0:0:0:
256,192,217426,1,0,0:0:0:0:
256,192,217526,1,0,0:0:0:0:
256,192,217626,1,0,0:0:0:0:
256,192,217726,1,0,0:0:0:0:
256,192,217826,1,8,0:0:0:0:
256,192,217876,1,8,0:0:0:0:
256,192,217926,1,8,0:0:0:0:
256,192,218026,1,0,0:0:0:0:
256,192,218059,1,0,0:0:0:0:
256,192,218092,1,0,0:0:0:0:
256,192,218126,1,0,0:0:0:0:
256,192,218226,1,12,0:0:0:0:
256,192,218626,1,12,0:0:0:0:
256,192,219026,1,12,0:0:0:0:
256,192,219226,1,0,0:0:0:0:
256,192,219426,1,8,0:0:0:0:
256,192,219526,1,0,0:0:0:0:
256,192,219626,1,8,0:0:0:0:
256,192,219726,1,8,0:0:0:0:
256,192,219826,1,4,0:0:0:0:
256,192,219926,1,0,0:0:0:0:
256,192,220026,1,8,0:0:0:0:
256,192,220226,1,0,0:0:0:0:
256,192,220326,1,0,0:0:0:0:
256,192,220426,1,8,0:0:0:0:
256,192,220626,1,0,0:0:0:0:
256,192,220726,1,0,0:0:0:0:
256,192,220826,1,8,0:0:0:0:
256,192,220926,1,8,0:0:0:0:
256,192,221026,1,0,0:0:0:0:
256,192,221226,1,8,0:0:0:0:
256,192,221426,1,0,0:0:0:0:
256,192,221526,1,0,0:0:0:0:
256,192,221626,1,8,0:0:0:0:
256,192,221826,1,0,0:0:0:0:
256,192,221926,1,0,0:0:0:0:
256,192,222026,1,8,0:0:0:0:
256,192,222226,1,0,0:0:0:0:
256,192,222326,1,0,0:0:0:0:
256,192,222426,1,8,0:0:0:0:
256,192,222526,1,8,0:0:0:0:
256,192,222626,1,0,0:0:0:0:
256,192,222826,1,8,0:0:0:0:
256,192,222926,1,8,0:0:0:0:
256,192,223026,1,4,0:0:0:0:
256,192,223126,1,0,0:0:0:0:
256,192,223226,1,8,0:0:0:0:
256,192,223426,1,0,0:0:0:0:
256,192,223526,1,0,0:0:0:0:
256,192,223626,1,8,0:0:0:0:
256,192,223826,1,0,0:0:0:0:
256,192,223926,1,0,0:0:0:0:
256,192,224026,1,8,0:0:0:0:
256,192,224126,1,8,0:0:0:0:
256,192,224226,1,0,0:0:0:0:
256,192,224426,1,8,0:0:0:0:
256,192,224626,1,0,0:0:0:0:
256,192,224726,1,0,0:0:0:0:
256,192,224826,1,8,0:0:0:0:
256,192,225026,1,0,0:0:0:0:
256,192,225126,1,0,0:0:0:0:
256,192,225226,1,8,0:0:0:0:
256,192,225326,1,0,0:0:0:0:
256,192,225426,1,0,0:0:0:0:
256,192,225526,1,0,0:0:0:0:
256,192,225626,1,8,0:0:0:0:
256,192,225726,1,8,0:0:0:0:
256,192,225826,1,0,0:0:0:0:
256,192,226026,1,8,0:0:0:0:
256,192,226126,1,8,0:0:0:0:
256,192,226226,1,4,0:0:0:0:
256,192,226326,1,8,0:0:0:0:
256,192,226426,1,8,0:0:0:0:
256,192,226626,1,0,0:0:0:0:
256,192,226726,1,8,0:0:0:0:
256,192,226826,1,8,0:0:0:0:
256,192,227026,1,0,0:0:0:0:
256,192,227126,1,8,0:0:0:0:
256,192,227226,1,8,0:0:0:0:
256,192,227326,1,0,0:0:0:0:
256,192,227426,1,8,0:0:0:0:
256,192,227626,1,8,0:0:0:0:
256,192,227726,1,8,0:0:0:0:
256,192,227826,1,0,0:0:0:0:
256,192,227926,1,8,0:0:0:0:
256,192,228026,1,8,0:0:0:0:
256,192,228226,1,0,0:0:0:0:
256,192,228326,1,8,0:0:0:0:
256,192,228426,1,8,0:0:0:0:
256,192,228626,1,0,0:0:0:0:
256,192,228726,1,8,0:0:0:0:
256,192,228826,1,8,0:0:0:0:
256,192,228926,1,0,0:0:0:0:
256,192,229026,1,8,0:0:0:0:
256,192,229226,1,8,0:0:0:0:
256,192,229326,1,8,0:0:0:0:
256,192,229426,1,4,0:0:0:0:
256,192,229526,1,8,0:0:0:0:
256,192,229626,1,8,0:0:0:0:
256,192,229826,1,0,0:0:0:0:
256,192,229926,1,8,0:0:0:0:
256,192,230026,1,8,0:0:0:0:
256,192,230226,1,0,0:0:0:0:
256,192,230326,1,8,0:0:0:0:
256,192,230426,1,8,0:0:0:0:
256,192,230526,1,0,0:0:0:0:
256,192,230626,1,8,0:0:0:0:
256,192,230826,1,8,0:0:0:0:
256,192,230926,1,8,0:0:0:0:
256,192,231026,1,0,0:0:0:0:
256,192,231126,1,8,0:0:0:0:
256,192,231226,1,8,0:0:0:0:
256,192,231426,1,0,0:0:0:0:
256,192,231526,1,8,0:0:0:0:
256,192,231626,1,8,0:0:0:0:
256,192,231826,1,8,0:0:0:0:
256,192,231926,1,8,0:0:0:0:
256,192,232026,1,8,0:0:0:0:
256,192,232126,1,8,0:0:0:0:
256,192,232226,1,8,0:0:0:0:
256,192,232426,1,4,0:0:0:0:
