osu file format v14

[General]
AudioFilename: audio.mp3
AudioLeadIn: 0
PreviewTime: 10219
Countdown: 0
SampleSet: Normal
StackLeniency: 0
Mode: 1
LetterboxInBreaks: 0
WidescreenStoryboard: 0

[Editor]
Bookmarks: 11590,34904,62332,88389
DistanceSpacing: 0.8
BeatDivisor: 4
GridSize: 32
TimelineZoom: 1.800001

[Metadata]
Title:Hinarin no Yakui Kankei (Cut Ver.)
TitleUnicode:ひなりんのヤクい関係 (Cut Ver.)
Artist:IOSYS
ArtistUnicode:IOSYS
Creator:Genjuro
Version:Kantan
Source:東方風神録 ~ Mountain of Faith.
Tags:electronic japanese 東方Project touhou th10 Fuujinroku mof stage 2 theme 厄神様の通り道 ~ Dark Road Yakujinsama no toorimichi The Road of the Misfortune God ~ Dark Road 運命のダークサイド Unmei no Dark Side of Fate 鍵山雛 かぎやまひな Hina Kagiyama 東方アゲハ Touhou Ageha ARM 一ノ瀬 月琉 monotone Ruru Ichinose Cradle2 sound sepher comiket 77 c77 Hinarin's Relation of Misfortune Unfortunate Connection yassu-
BeatmapID:4040108
BeatmapSetID:1944467

[Difficulty]
HPDrainRate:7
CircleSize:2
OverallDifficulty:3
ApproachRate:10
SliderMultiplier:1.4
SliderTickRate:1

[Events]
//Background and Video events
0,0,"bg.jpg",0,30
//Break Periods
//Storyboard Layer 0 (Background)
//Storyboard Layer 1 (Fail)
//Storyboard Layer 2 (Pass)
//Storyboard Layer 3 (Foreground)
//Storyboard Layer 4 (Overlay)
//Storyboard Sound Samples

[TimingPoints]
619,342.857142857143,4,1,0,100,1,0
11590,-100,4,1,0,100,0,1
32847,-100,4,1,0,100,0,0
34904,342.857142857143,4,1,0,100,1,0
62332,-100,4,1,0,100,0,1
82903,342.857142857143,4,1,0,100,1,0
87103,-100,4,1,0,75,0,0
88303,-100,4,1,0,100,0,0
88388,-100,4,1,0,100,0,1
110331,-100,4,1,0,100,0,0

[HitObjects]
256,192,619,5,0,0:0:0:0:
256,192,3019,1,8,0:0:0:0:
256,192,3361,1,0,0:0:0:0:
256,192,5419,1,8,0:0:0:0:
256,192,5761,1,8,0:0:0:0:
256,192,6104,1,0,0:0:0:0:
256,192,8504,1,8,0:0:0:0:
256,192,8847,1,0,0:0:0:0:
256,192,9533,1,0,0:0:0:0:
256,192,10219,1,8,0:0:0:0:
256,192,11590,12,0,13647,0:0:0:0:
256,192,14333,12,0,16390,0:0:0:0:
256,192,17076,12,0,19133,0:0:0:0:
256,192,19819,12,0,21190,0:0:0:0:
256,192,22561,5,8,0:0:0:0:
256,192,22904,1,8,0:0:0:0:
256,192,23247,1,0,0:0:0:0:
256,192,23933,1,8,0:0:0:0:
256,192,24619,1,0,0:0:0:0:
256,192,25304,1,8,0:0:0:0:
256,192,25647,1,8,0:0:0:0:
256,192,25990,1,0,0:0:0:0:
256,192,26333,1,0,0:0:0:0:
256,192,26676,1,8,0:0:0:0:
256,192,28047,1,8,0:0:0:0:
256,192,28390,1,0,0:0:0:0:
256,192,28733,1,8,0:0:0:0:
256,192,29419,1,0,0:0:0:0:
256,192,30104,1,8,0:0:0:0:
256,192,30790,1,0,0:0:0:0:
256,192,31133,1,0,0:0:0:0:
256,192,31476,1,8,0:0:0:0:
256,192,32161,1,8,0:0:0:0:
256,192,32504,1,8,0:0:0:0:
256,192,32847,1,0,0:0:0:0:
256,192,34904,1,0,0:0:0:0:
256,192,35589,1,0,0:0:0:0:
256,192,36275,1,8,0:0:0:0:
256,192,37646,1,8,0:0:0:0:
256,192,38332,1,8,0:0:0:0:
256,192,39018,1,0,0:0:0:0:
256,192,40389,1,0,0:0:0:0:
256,192,41075,1,0,0:0:0:0:
256,192,41761,1,8,0:0:0:0:
256,192,42446,1,0,0:0:0:0:
256,192,43132,1,8,0:0:0:0:
256,192,43818,1,8,0:0:0:0:
256,192,44504,1,0,0:0:0:0:
256,192,45875,1,8,0:0:0:0:
256,192,46218,1,0,0:0:0:0:
256,192,46561,1,8,0:0:0:0:
256,192,46904,1,8,0:0:0:0:
256,192,47246,1,0,0:0:0:0:
256,192,47932,1,0,0:0:0:0:
256,192,48618,1,8,0:0:0:0:
256,192,48961,1,8,0:0:0:0:
256,192,49304,1,0,0:0:0:0:
256,192,49989,1,8,0:0:0:0:
256,192,51361,1,0,0:0:0:0:
256,192,51704,1,8,0:0:0:0:
256,192,52046,1,0,0:0:0:0:
256,192,52389,1,0,0:0:0:0:
256,192,52732,1,8,0:0:0:0:
256,192,53418,1,8,0:0:0:0:
256,192,54104,1,0,0:0:0:0:
256,192,54446,1,0,0:0:0:0:
256,192,54789,1,8,0:0:0:0:
256,192,55475,1,0,0:0:0:0:
256,192,56846,1,8,0:0:0:0:
256,192,57532,1,0,0:0:0:0:
256,192,58218,1,8,0:0:0:0:
256,192,58904,1,0,0:0:0:0:
256,192,59589,1,8,0:0:0:0:
256,192,59932,1,0,0:0:0:0:
256,192,60275,1,8,0:0:0:0:
256,192,60618,1,0,0:0:0:0:
256,192,60961,1,8,0:0:0:0:
256,192,62332,1,0,0:0:0:0:
256,192,62675,1,0,0:0:0:0:
256,192,63018,1,8,0:0:0:0:
256,192,63704,1,0,0:0:0:0:
256,192,64046,1,0,0:0:0:0:
256,192,64389,1,8,0:0:0:0:
256,192,64732,1,8,0:0:0:0:
256,192,65075,1,0,0:0:0:0:
256,192,65761,1,8,0:0:0:0:
256,192,66446,1,0,0:0:0:0:
256,192,67818,1,8,0:0:0:0:
256,192,68161,1,8,0:0:0:0:
256,192,68504,1,0,0:0:0:0:
256,192,69189,1,8,0:0:0:0:
256,192,69532,1,8,0:0:0:0:
256,192,69875,1,0,0:0:0:0:
256,192,70218,1,0,0:0:0:0:
256,192,70561,1,8,0:0:0:0:
256,192,71246,1,0,0:0:0:0:
256,192,71932,1,8,0:0:0:0:
256,192,73304,1,0,0:0:0:0:
256,192,73646,1,8,0:0:0:0:
256,192,73989,1,0,0:0:0:0:
256,192,74675,1,0,0:0:0:0:
256,192,75018,1,0,0:0:0:0:
256,192,75361,1,8,0:0:0:0:
256,192,76046,1,8,0:0:0:0:
256,192,76389,1,8,0:0:0:0:
256,192,76732,1,0,0:0:0:0:
256,192,77075,1,0,0:0:0:0:
256,192,77418,1,8,0:0:0:0:
256,192,78789,1,8,0:0:0:0:
256,192,79132,1,0,0:0:0:0:
256,192,79475,1,8,0:0:0:0:
256,192,80161,1,8,0:0:0:0:
256,192,80504,1,8,0:0:0:0:
256,192,80846,1,0,0:0:0:0:
256,192,81532,1,8,0:0:0:0:
256,192,82218,1,8,0:0:0:0:
256,192,82903,1,8,0:0:0:0:
256,192,84274,1,8,0:0:0:0:
256,192,85645,1,0,0:0:0:0:
256,192,85988,1,0,0:0:0:0:
256,192,86331,1,0,0:0:0:0:
256,192,86674,1,0,0:0:0:0:
256,192,87017,1,8,0:0:0:0:
256,192,88388,12,0,90445,0:0:0:0:
256,192,91131,12,0,93188,0:0:0:0:
256,192,93874,12,0,95931,0:0:0:0:
256,192,96617,12,0,97988,0:0:0:0:
256,192,99360,5,8,0:0:0:0:
256,192,99703,1,8,0:0:0:0:
256,192,100045,1,0,0:0:0:0:
256,192,100731,1,8,0:0:0:0:
256,192,101417,1,0,0:0:0:0:
256,192,102103,1,8,0:0:0:0:
256,192,102445,1,8,0:0:0:0:
256,192,102788,1,0,0:0:0:0:
256,192,103131,1,0,0:0:0:0:
256,192,103474,1,8,0:0:0:0:
256,192,104845,1,8,0:0:0:0:
256,192,105188,1,0,0:0:0:0:
256,192,105531,1,8,0:0:0:0:
256,192,106217,1,0,0:0:0:0:
256,192,106903,1,8,0:0:0:0:
256,192,107588,1,0,0:0:0:0:
256,192,107931,1,0,0:0:0:0:
256,192,108274,1,8,0:0:0:0:
256,192,108960,1,8,0:0:0:0:
256,192,109303,1,8,0:0:0:0:
256,192,109645,1,0,0:0:0:0:
256,192,110331,1,12,0:0:0:0:
