osu file format v14

[General]
AudioFilename: audio.mp3
AudioLeadIn: 0
PreviewTime: 10219
Countdown: 0
SampleSet: Normal
StackLeniency: 0
Mode: 1
LetterboxInBreaks: 0
WidescreenStoryboard: 0

[Editor]
Bookmarks: 11590,34904,62332,88389
DistanceSpacing: 0.8
BeatDivisor: 4
GridSize: 32
TimelineZoom: 2.7

[Metadata]
Title:Hinarin no Yakui Kankei (Cut Ver.)
TitleUnicode:ひなりんのヤクい関係 (Cut Ver.)
Artist:IOSYS
ArtistUnicode:IOSYS
Creator:Genjuro
Version:Inner Oni
Source:東方風神録 ~ Mountain of Faith.
Tags:electronic japanese 東方Project touhou th10 Fuujinroku mof stage 2 theme 厄神様の通り道 ~ Dark Road Yakujinsama no toorimichi The Road of the Misfortune God ~ Dark Road 運命のダークサイド Unmei no Dark Side of Fate 鍵山雛 かぎやまひな Hina Kagiyama 東方アゲハ Touhou Ageha ARM 一ノ瀬 月琉 monotone Ruru Ichinose Cradle2 sound sepher comiket 77 c77 Hinarin's Relation of Misfortune Unfortunate Connection yassu-
BeatmapID:4022635
BeatmapSetID:1944467

[Difficulty]
HPDrainRate:6
CircleSize:2
OverallDifficulty:6
ApproachRate:10
SliderMultiplier:1.4
SliderTickRate:1

[Events]
//Background and Video events
0,0,"bg.jpg",0,30
//Break Periods
//Storyboard Layer 0 (Background)
//Storyboard Layer 1 (Fail)
//Storyboard Layer 2 (Pass)
//Storyboard Layer 3 (Foreground)
//Storyboard Layer 4 (Overlay)
//Storyboard Sound Samples

[TimingPoints]
619,342.857142857143,4,1,0,100,1,0
11547,-95.2380952380952,4,1,0,100,0,0
11590,-95.2380952380952,4,1,0,100,0,1
33304,-95.2380952380952,4,1,0,100,0,0
33619,-100,4,1,0,100,0,0
34904,342.857142857143,4,1,0,100,1,0
56418,-81.3008130081301,4,1,0,100,0,0
56589,-100,4,1,0,100,0,0
62246,-95.2380952380952,4,1,0,100,0,0
62332,-95.2380952380952,4,1,0,100,0,1
82903,342.857142857143,4,1,0,100,1,0
82903,-95.2380952380952,4,1,0,100,0,0
87103,-75.187969924812,4,1,0,75,0,0
88303,-95.2380952380952,4,1,0,100,0,0
88388,-95.2380952380952,4,1,0,100,0,1
110245,-75,4,1,0,100,0,1
110331,-75,4,1,0,100,0,0

[HitObjects]
256,192,619,5,12,0:0:0:0:
256,192,790,1,0,0:0:0:0:
256,192,876,1,0,0:0:0:0:
256,192,961,1,0,0:0:0:0:
256,192,1133,1,8,0:0:0:0:
256,192,1476,1,0,0:0:0:0:
256,192,1819,1,8,0:0:0:0:
256,192,2161,1,0,0:0:0:0:
256,192,2247,1,8,0:0:0:0:
256,192,2333,1,0,0:0:0:0:
256,192,2504,1,8,0:0:0:0:
256,192,2847,1,8,0:0:0:0:
256,192,3019,1,4,0:0:0:0:
256,192,3361,1,0,0:0:0:0:
256,192,3533,1,8,0:0:0:0:
256,192,3619,1,8,0:0:0:0:
256,192,3704,1,0,0:0:0:0:
256,192,3876,1,8,0:0:0:0:
256,192,4047,1,0,0:0:0:0:
256,192,4219,1,8,0:0:0:0:
256,192,4390,1,0,0:0:0:0:
256,192,4561,1,8,0:0:0:0:
256,192,4904,1,0,0:0:0:0:
256,192,4990,1,0,0:0:0:0:
256,192,5076,1,8,0:0:0:0:
256,192,5247,1,8,0:0:0:0:
256,192,5419,1,4,0:0:0:0:
256,192,5761,1,4,0:0:0:0:
256,192,6104,1,12,0:0:0:0:
256,192,6276,1,0,0:0:0:0:
256,192,6361,1,0,0:0:0:0:
256,192,6447,1,0,0:0:0:0:
256,192,6619,1,8,0:0:0:0:
256,192,6961,1,0,0:0:0:0:
256,192,7304,1,8,0:0:0:0:
256,192,7647,1,0,0:0:0:0:
256,192,7733,1,8,0:0:0:0:
256,192,7819,1,0,0:0:0:0:
256,192,7990,1,8,0:0:0:0:
256,192,8333,1,8,0:0:0:0:
256,192,8504,1,4,0:0:0:0:
256,192,8847,1,0,0:0:0:0:
256,192,8933,1,8,0:0:0:0:
256,192,9104,1,8,0:0:0:0:
256,192,9190,1,0,0:0:0:0:
256,192,9276,1,0,0:0:0:0:
256,192,9361,1,8,0:0:0:0:
256,192,9533,1,0,0:0:0:0:
256,192,9704,1,8,0:0:0:0:
256,192,9761,1,8,0:0:0:0:
256,192,9819,1,8,0:0:0:0:
256,192,9876,1,0,0:0:0:0:
256,192,10047,1,0,0:0:0:0:
256,192,10219,1,8,0:0:0:0:
256,192,10276,1,0,0:0:0:0:
256,192,10333,1,0,0:0:0:0:
256,192,10390,1,8,0:0:0:0:
256,192,10447,1,0,0:0:0:0:
256,192,10504,1,0,0:0:0:0:
256,192,10561,1,8,0:0:0:0:
256,192,10733,1,8,0:0:0:0:
256,192,10904,1,4,0:0:0:0:
256,192,11247,1,4,0:0:0:0:
256,192,11590,1,12,0:0:0:0:
256,192,11761,1,0,0:0:0:0:
256,192,11847,1,0,0:0:0:0:
256,192,11933,1,8,0:0:0:0:
256,192,12019,1,8,0:0:0:0:
256,192,12104,1,0,0:0:0:0:
256,192,12276,1,8,0:0:0:0:
256,192,12447,1,0,0:0:0:0:
256,192,12533,1,8,0:0:0:0:
256,192,12704,1,8,0:0:0:0:
256,192,12790,1,0,0:0:0:0:
256,192,12961,1,8,0:0:0:0:
256,192,13133,1,0,0:0:0:0:
256,192,13219,1,0,0:0:0:0:
256,192,13304,1,8,0:0:0:0:
256,192,13476,1,8,0:0:0:0:
256,192,13561,1,0,0:0:0:0:
256,192,13647,1,8,0:0:0:0:
256,192,13733,1,8,0:0:0:0:
256,192,13819,1,0,0:0:0:0:
256,192,13990,1,8,0:0:0:0:
256,192,14076,1,8,0:0:0:0:
256,192,14161,1,8,0:0:0:0:
256,192,14333,1,0,0:0:0:0:
256,192,14504,1,0,0:0:0:0:
256,192,14590,1,0,0:0:0:0:
256,192,14676,1,0,0:0:0:0:
256,192,14761,1,8,0:0:0:0:
256,192,14847,1,0,0:0:0:0:
256,192,15019,1,8,0:0:0:0:
256,192,15104,1,0,0:0:0:0:
256,192,15190,1,0,0:0:0:0:
256,192,15276,1,8,0:0:0:0:
256,192,15447,1,8,0:0:0:0:
256,192,15533,1,0,0:0:0:0:
256,192,15704,1,8,0:0:0:0:
256,192,15876,1,0,0:0:0:0:
256,192,15961,1,8,0:0:0:0:
256,192,16047,1,8,0:0:0:0:
256,192,16219,1,8,0:0:0:0:
256,192,16304,1,8,0:0:0:0:
256,192,16390,1,0,0:0:0:0:
256,192,16476,1,8,0:0:0:0:
256,192,16561,1,0,0:0:0:0:
256,192,16647,1,0,0:0:0:0:
256,192,16733,1,8,0:0:0:0:
256,192,16819,1,0,0:0:0:0:
256,192,16904,1,0,0:0:0:0:
256,192,17076,1,12,0:0:0:0:
256,192,17247,1,0,0:0:0:0:
256,192,17333,1,0,0:0:0:0:
256,192,17419,1,8,0:0:0:0:
256,192,17504,1,8,0:0:0:0:
256,192,17590,1,0,0:0:0:0:
256,192,17761,1,8,0:0:0:0:
256,192,17933,1,0,0:0:0:0:
256,192,18019,1,8,0:0:0:0:
256,192,18190,1,8,0:0:0:0:
256,192,18276,1,0,0:0:0:0:
256,192,18447,1,8,0:0:0:0:
256,192,18619,1,0,0:0:0:0:
256,192,18704,1,0,0:0:0:0:
256,192,18790,1,8,0:0:0:0:
256,192,18876,1,0,0:0:0:0:
256,192,18961,1,0,0:0:0:0:
256,192,19133,1,8,0:0:0:0:
256,192,19219,1,8,0:0:0:0:
256,192,19304,1,0,0:0:0:0:
256,192,19476,1,8,0:0:0:0:
256,192,19561,1,8,0:0:0:0:
256,192,19647,1,8,0:0:0:0:
256,192,19819,1,0,0:0:0:0:
256,192,19990,1,0,0:0:0:0:
256,192,20076,1,0,0:0:0:0:
256,192,20161,1,0,0:0:0:0:
256,192,20247,1,8,0:0:0:0:
256,192,20333,1,0,0:0:0:0:
256,192,20504,1,8,0:0:0:0:
256,192,20590,1,0,0:0:0:0:
256,192,20676,1,0,0:0:0:0:
256,192,20761,1,8,0:0:0:0:
256,192,20933,1,8,0:0:0:0:
256,192,21019,1,0,0:0:0:0:
256,192,21190,1,0,0:0:0:0:
256,192,21276,1,8,0:0:0:0:
256,192,21361,1,0,0:0:0:0:
256,192,21447,1,0,0:0:0:0:
256,192,21533,1,8,0:0:0:0:
256,192,21619,1,0,0:0:0:0:
256,192,21704,1,8,0:0:0:0:
256,192,21790,1,8,0:0:0:0:
256,192,21876,1,0,0:0:0:0:
256,192,22047,1,0,0:0:0:0:
256,192,22133,1,8,0:0:0:0:
256,192,22219,1,0,0:0:0:0:
256,192,22304,1,8,0:0:0:0:
256,192,22390,1,0,0:0:0:0:
256,192,22561,1,12,0:0:0:0:
256,192,22733,1,0,0:0:0:0:
256,192,22819,1,8,0:0:0:0:
256,192,22904,1,8,0:0:0:0:
256,192,22990,1,0,0:0:0:0:
256,192,23076,1,0,0:0:0:0:
256,192,23247,1,8,0:0:0:0:
256,192,23333,1,8,0:0:0:0:
256,192,23419,1,0,0:0:0:0:
256,192,23504,1,8,0:0:0:0:
256,192,23676,1,8,0:0:0:0:
256,192,23761,1,0,0:0:0:0:
256,192,23933,1,8,0:0:0:0:
256,192,24104,1,0,0:0:0:0:
256,192,24190,1,0,0:0:0:0:
256,192,24276,1,8,0:0:0:0:
256,192,24447,1,8,0:0:0:0:
256,192,24533,1,0,0:0:0:0:
256,192,24619,1,0,0:0:0:0:
256,192,24704,1,8,0:0:0:0:
256,192,24790,1,0,0:0:0:0:
256,192,24876,1,0,0:0:0:0:
256,192,24961,1,8,0:0:0:0:
256,192,25047,1,8,0:0:0:0:
256,192,25133,1,0,0:0:0:0:
256,192,25304,1,8,0:0:0:0:
256,192,25476,1,0,0:0:0:0:
256,192,25561,1,8,0:0:0:0:
256,192,25647,1,0,0:0:0:0:
256,192,25733,1,0,0:0:0:0:
256,192,25819,1,0,0:0:0:0:
256,192,25990,1,8,0:0:0:0:
256,192,26076,1,0,0:0:0:0:
256,192,26161,1,0,0:0:0:0:
256,192,26247,1,8,0:0:0:0:
256,192,26419,1,8,0:0:0:0:
256,192,26504,1,8,0:0:0:0:
256,192,26590,1,0,0:0:0:0:
256,192,26676,1,0,0:0:0:0:
256,192,26847,1,8,0:0:0:0:
256,192,26933,1,0,0:0:0:0:
256,192,27019,1,8,0:0:0:0:
256,192,27190,1,0,0:0:0:0:
256,192,27276,1,8,0:0:0:0:
256,192,27361,1,8,0:0:0:0:
256,192,27447,1,8,0:0:0:0:
256,192,27533,1,0,0:0:0:0:
256,192,27619,1,0,0:0:0:0:
256,192,27704,1,8,0:0:0:0:
256,192,27790,1,8,0:0:0:0:
256,192,27876,1,0,0:0:0:0:
256,192,28047,1,12,0:0:0:0:
256,192,28219,1,0,0:0:0:0:
256,192,28304,1,8,0:0:0:0:
256,192,28390,1,8,0:0:0:0:
256,192,28476,1,0,0:0:0:0:
256,192,28561,1,0,0:0:0:0:
256,192,28733,1,8,0:0:0:0:
256,192,28819,1,8,0:0:0:0:
256,192,28904,1,0,0:0:0:0:
256,192,28990,1,8,0:0:0:0:
256,192,29161,1,8,0:0:0:0:
256,192,29247,1,0,0:0:0:0:
256,192,29419,1,8,0:0:0:0:
256,192,29590,1,0,0:0:0:0:
256,192,29676,1,0,0:0:0:0:
256,192,29761,1,8,0:0:0:0:
256,192,29847,1,0,0:0:0:0:
256,192,29933,1,8,0:0:0:0:
256,192,30104,1,8,0:0:0:0:
256,192,30190,1,8,0:0:0:0:
256,192,30276,1,0,0:0:0:0:
256,192,30361,1,0,0:0:0:0:
256,192,30447,1,8,0:0:0:0:
256,192,30619,1,0,0:0:0:0:
256,192,30790,1,8,0:0:0:0:
256,192,30876,1,0,0:0:0:0:
256,192,30961,1,0,0:0:0:0:
256,192,31047,1,0,0:0:0:0:
256,192,31133,1,8,0:0:0:0:
256,192,31219,1,0,0:0:0:0:
256,192,31304,1,0,0:0:0:0:
256,192,31390,1,0,0:0:0:0:
256,192,31476,1,8,0:0:0:0:
256,192,31561,1,0,0:0:0:0:
256,192,31733,1,0,0:0:0:0:
256,192,31904,1,0,0:0:0:0:
256,192,32076,1,0,0:0:0:0:
256,192,32161,1,8,0:0:0:0:
256,192,32247,1,8,0:0:0:0:
256,192,32333,1,0,0:0:0:0:
256,192,32419,1,0,0:0:0:0:
256,192,32504,1,8,0:0:0:0:
256,192,32590,1,8,0:0:0:0:
256,192,32676,1,0,0:0:0:0:
256,192,32761,1,0,0:0:0:0:
256,192,32847,1,8,0:0:0:0:
256,192,33019,1,8,0:0:0:0:
256,192,33076,1,0,0:0:0:0:
256,192,33133,1,8,0:0:0:0:
256,192,33190,1,0,0:0:0:0:
256,192,33247,1,8,0:0:0:0:
256,192,33304,1,0,0:0:0:0:
256,192,34561,1,0,0:0:0:0:
256,192,34904,1,12,0:0:0:0:
256,192,35132,1,0,0:0:0:0:
256,192,35246,1,8,0:0:0:0:
256,192,35589,1,8,0:0:0:0:
256,192,35818,1,8,0:0:0:0:
256,192,35932,1,0,0:0:0:0:
256,192,36275,1,8,0:0:0:0:
256,192,36504,1,0,0:0:0:0:
256,192,36618,1,8,0:0:0:0:
256,192,36961,1,8,0:0:0:0:
256,192,37075,1,0,0:0:0:0:
256,192,37189,1,0,0:0:0:0:
256,192,37304,1,8,0:0:0:0:
256,192,37532,1,8,0:0:0:0:
256,192,37646,1,0,0:0:0:0:
256,192,37875,1,0,0:0:0:0:
256,192,37989,1,8,0:0:0:0:
256,192,38332,1,0,0:0:0:0:
256,192,38561,1,8,0:0:0:0:
256,192,38675,1,0,0:0:0:0:
256,192,39018,1,0,0:0:0:0:
256,192,39246,1,8,0:0:0:0:
256,192,39361,1,8,0:0:0:0:
256,192,39589,1,8,0:0:0:0:
256,192,39704,1,0,0:0:0:0:
256,192,40046,1,0,0:0:0:0:
256,192,40389,1,12,0:0:0:0:
256,192,40618,1,0,0:0:0:0:
256,192,40732,1,8,0:0:0:0:
256,192,41075,1,8,0:0:0:0:
256,192,41304,1,8,0:0:0:0:
256,192,41418,1,0,0:0:0:0:
256,192,41761,1,8,0:0:0:0:
256,192,41989,1,0,0:0:0:0:
256,192,42104,1,8,0:0:0:0:
256,192,42446,1,8,0:0:0:0:
256,192,42561,1,0,0:0:0:0:
256,192,42675,1,0,0:0:0:0:
256,192,42789,1,8,0:0:0:0:
256,192,43018,1,8,0:0:0:0:
256,192,43132,1,0,0:0:0:0:
256,192,43361,1,0,0:0:0:0:
256,192,43475,1,8,0:0:0:0:
256,192,43818,1,0,0:0:0:0:
256,192,44046,1,8,0:0:0:0:
256,192,44161,1,0,0:0:0:0:
256,192,44504,1,0,0:0:0:0:
256,192,44618,1,8,0:0:0:0:
256,192,44732,1,8,0:0:0:0:
256,192,44846,1,0,0:0:0:0:
256,192,45075,1,8,0:0:0:0:
256,192,45189,1,0,0:0:0:0:
256,192,45304,1,8,0:0:0:0:
256,192,45532,1,0,0:0:0:0:
256,192,45875,1,8,0:0:0:0:
256,192,45989,1,8,0:0:0:0:
256,192,46104,1,0,0:0:0:0:
256,192,46218,1,8,0:0:0:0:
256,192,46332,1,8,0:0:0:0:
256,192,46446,1,0,0:0:0:0:
256,192,46561,1,8,0:0:0:0:
256,192,46675,1,0,0:0:0:0:
256,192,46789,1,0,0:0:0:0:
256,192,46904,1,8,0:0:0:0:
256,192,47132,1,0,0:0:0:0:
256,192,47246,1,8,0:0:0:0:
256,192,47361,1,0,0:0:0:0:
256,192,47475,1,0,0:0:0:0:
256,192,47589,1,8,0:0:0:0:
256,192,47704,1,0,0:0:0:0:
256,192,47932,1,8,0:0:0:0:
256,192,48046,1,8,0:0:0:0:
256,192,48161,1,8,0:0:0:0:
256,192,48275,1,0,0:0:0:0:
256,192,48504,1,0,0:0:0:0:
256,192,48618,1,8,0:0:0:0:
256,192,48846,1,8,0:0:0:0:
256,192,48961,1,0,0:0:0:0:
256,192,49075,1,8,0:0:0:0:
256,192,49189,1,8,0:0:0:0:
256,192,49304,1,0,0:0:0:0:
256,192,49532,1,0,0:0:0:0:
256,192,49646,1,8,0:0:0:0:
256,192,49761,1,0,0:0:0:0:
256,192,49875,1,0,0:0:0:0:
256,192,49989,1,8,0:0:0:0:
256,192,50218,1,8,0:0:0:0:
256,192,50446,1,8,0:0:0:0:
256,192,50675,1,0,0:0:0:0:
256,192,51018,1,0,0:0:0:0:
256,192,51361,1,8,0:0:0:0:
256,192,51475,1,8,0:0:0:0:
256,192,51589,1,0,0:0:0:0:
256,192,51704,1,8,0:0:0:0:
256,192,51818,1,8,0:0:0:0:
256,192,51932,1,0,0:0:0:0:
256,192,52046,1,8,0:0:0:0:
256,192,52161,1,0,0:0:0:0:
256,192,52275,1,0,0:0:0:0:
256,192,52389,1,8,0:0:0:0:
256,192,52504,1,0,0:0:0:0:
256,192,52618,1,0,0:0:0:0:
256,192,52732,1,8,0:0:0:0:
256,192,52846,1,8,0:0:0:0:
256,192,52961,1,0,0:0:0:0:
256,192,53075,1,8,0:0:0:0:
256,192,53189,1,0,0:0:0:0:
256,192,53418,1,8,0:0:0:0:
256,192,53532,1,8,0:0:0:0:
256,192,53646,1,8,0:0:0:0:
256,192,53761,1,0,0:0:0:0:
256,192,53989,1,0,0:0:0:0:
256,192,54104,1,8,0:0:0:0:
256,192,54332,1,8,0:0:0:0:
256,192,54446,1,0,0:0:0:0:
256,192,54561,1,8,0:0:0:0:
256,192,54675,1,8,0:0:0:0:
256,192,54789,1,0,0:0:0:0:
256,192,55018,1,0,0:0:0:0:
256,192,55075,1,0,0:0:0:0:
256,192,55132,1,8,0:0:0:0:
256,192,55246,1,8,0:0:0:0:
256,192,55361,1,0,0:0:0:0:
256,192,55418,1,0,0:0:0:0:
256,192,55475,1,8,0:0:0:0:
256,192,55589,1,8,0:0:0:0:
256,192,55704,1,0,0:0:0:0:
256,192,55818,1,8,0:0:0:0:
256,192,56046,1,8,0:0:0:0:
256,192,56161,1,0,0:0:0:0:
256,192,56504,1,12,0:0:0:0:
256,192,56846,1,0,0:0:0:0:
256,192,57018,1,8,0:0:0:0:
256,192,57189,1,8,0:0:0:0:
256,192,57361,1,0,0:0:0:0:
256,192,57532,1,0,0:0:0:0:
256,192,57704,1,8,0:0:0:0:
256,192,57875,1,8,0:0:0:0:
256,192,58046,1,0,0:0:0:0:
256,192,58218,1,0,0:0:0:0:
256,192,58389,1,8,0:0:0:0:
256,192,58561,1,8,0:0:0:0:
256,192,58732,1,0,0:0:0:0:
256,192,58904,1,0,0:0:0:0:
256,192,59075,1,8,0:0:0:0:
256,192,59246,1,8,0:0:0:0:
256,192,59418,1,0,0:0:0:0:
256,192,59589,1,0,0:0:0:0:
256,192,59675,1,0,0:0:0:0:
256,192,59761,1,8,0:0:0:0:
256,192,59846,1,0,0:0:0:0:
256,192,59932,1,8,0:0:0:0:
256,192,60018,1,8,0:0:0:0:
256,192,60104,1,0,0:0:0:0:
256,192,60189,1,8,0:0:0:0:
256,192,60275,1,0,0:0:0:0:
256,192,60361,1,0,0:0:0:0:
256,192,60446,1,8,0:0:0:0:
256,192,60532,1,0,0:0:0:0:
256,192,60618,1,8,0:0:0:0:
256,192,60704,1,8,0:0:0:0:
256,192,60789,1,0,0:0:0:0:
256,192,60875,1,8,0:0:0:0:
256,192,60961,1,0,0:0:0:0:
256,192,61018,1,0,0:0:0:0:
256,192,61075,1,0,0:0:0:0:
256,192,61132,1,8,0:0:0:0:
256,192,61218,1,8,0:0:0:0:
256,192,61304,1,0,0:0:0:0:
256,192,61361,1,0,0:0:0:0:
256,192,61418,1,0,0:0:0:0:
256,192,61475,1,8,0:0:0:0:
256,192,61561,1,8,0:0:0:0:
256,192,61646,1,0,0:0:0:0:
256,192,61818,1,0,0:0:0:0:
256,192,61904,1,8,0:0:0:0:
256,192,61989,1,0,0:0:0:0:
256,192,62161,1,0,0:0:0:0:
256,192,62332,1,12,0:0:0:0:
256,192,62504,1,0,0:0:0:0:
256,192,62589,1,0,0:0:0:0:
256,192,62675,1,8,0:0:0:0:
256,192,62846,1,8,0:0:0:0:
256,192,62932,1,8,0:0:0:0:
256,192,63018,1,0,0:0:0:0:
256,192,63189,1,0,0:0:0:0:
256,192,63275,1,0,0:0:0:0:
256,192,63361,1,8,0:0:0:0:
256,192,63446,1,8,0:0:0:0:
256,192,63532,1,0,0:0:0:0:
256,192,63704,1,8,0:0:0:0:
256,192,63875,1,0,0:0:0:0:
256,192,63961,1,0,0:0:0:0:
256,192,64046,1,8,0:0:0:0:
256,192,64132,1,0,0:0:0:0:
256,192,64218,1,8,0:0:0:0:
256,192,64304,1,8,0:0:0:0:
256,192,64389,1,0,0:0:0:0:
256,192,64561,1,8,0:0:0:0:
256,192,64646,1,0,0:0:0:0:
256,192,64818,1,0,0:0:0:0:
256,192,64904,1,8,0:0:0:0:
256,192,64989,1,8,0:0:0:0:
256,192,65075,1,0,0:0:0:0:
256,192,65246,1,8,0:0:0:0:
256,192,65418,1,0,0:0:0:0:
256,192,65589,1,8,0:0:0:0:
256,192,65675,1,8,0:0:0:0:
256,192,65761,1,0,0:0:0:0:
256,192,65846,1,8,0:0:0:0:
256,192,65932,1,0,0:0:0:0:
256,192,66104,1,8,0:0:0:0:
256,192,66275,1,0,0:0:0:0:
256,192,66361,1,0,0:0:0:0:
256,192,66446,1,8,0:0:0:0:
256,192,66618,1,0,0:0:0:0:
256,192,66704,1,8,0:0:0:0:
256,192,66875,1,8,0:0:0:0:
256,192,66961,1,0,0:0:0:0:
256,192,67132,1,0,0:0:0:0:
256,192,67218,1,8,0:0:0:0:
256,192,67304,1,0,0:0:0:0:
256,192,67389,1,0,0:0:0:0:
256,192,67475,1,8,0:0:0:0:
256,192,67646,1,0,0:0:0:0:
256,192,67818,1,12,0:0:0:0:
256,192,67989,1,0,0:0:0:0:
256,192,68075,1,0,0:0:0:0:
256,192,68161,1,8,0:0:0:0:
256,192,68246,1,8,0:0:0:0:
256,192,68332,1,0,0:0:0:0:
256,192,68504,1,8,0:0:0:0:
256,192,68589,1,0,0:0:0:0:
256,192,68675,1,8,0:0:0:0:
256,192,68846,1,0,0:0:0:0:
256,192,68932,1,0,0:0:0:0:
256,192,69018,1,8,0:0:0:0:
256,192,69189,1,0,0:0:0:0:
256,192,69361,1,8,0:0:0:0:
256,192,69446,1,8,0:0:0:0:
256,192,69532,1,0,0:0:0:0:
256,192,69618,1,8,0:0:0:0:
256,192,69704,1,0,0:0:0:0:
256,192,69789,1,0,0:0:0:0:
256,192,69875,1,8,0:0:0:0:
256,192,70046,1,8,0:0:0:0:
256,192,70132,1,0,0:0:0:0:
256,192,70304,1,0,0:0:0:0:
256,192,70389,1,8,0:0:0:0:
256,192,70475,1,8,0:0:0:0:
256,192,70561,1,0,0:0:0:0:
256,192,70732,1,8,0:0:0:0:
256,192,70904,1,0,0:0:0:0:
256,192,71075,1,8,0:0:0:0:
256,192,71161,1,0,0:0:0:0:
256,192,71246,1,8,0:0:0:0:
256,192,71332,1,8,0:0:0:0:
256,192,71418,1,0,0:0:0:0:
256,192,71589,1,0,0:0:0:0:
256,192,71675,1,8,0:0:0:0:
256,192,71761,1,0,0:0:0:0:
256,192,71932,1,8,0:0:0:0:
256,192,72104,1,0,0:0:0:0:
256,192,72189,1,0,0:0:0:0:
256,192,72275,1,0,0:0:0:0:
256,192,72361,1,0,0:0:0:0:
256,192,72446,1,8,0:0:0:0:
256,192,72532,1,8,0:0:0:0:
256,192,72618,1,0,0:0:0:0:
256,192,72789,1,0,0:0:0:0:
256,192,72875,1,0,0:0:0:0:
256,192,72961,1,8,0:0:0:0:
256,192,73046,1,8,0:0:0:0:
256,192,73132,1,0,0:0:0:0:
256,192,73304,1,12,0:0:0:0:
256,192,73475,1,0,0:0:0:0:
256,192,73561,1,0,0:0:0:0:
256,192,73646,1,8,0:0:0:0:
256,192,73818,1,8,0:0:0:0:
256,192,73989,1,0,0:0:0:0:
256,192,74161,1,8,0:0:0:0:
256,192,74246,1,8,0:0:0:0:
256,192,74332,1,0,0:0:0:0:
256,192,74504,1,0,0:0:0:0:
256,192,74675,1,8,0:0:0:0:
256,192,74761,1,0,0:0:0:0:
256,192,74846,1,8,0:0:0:0:
256,192,74932,1,8,0:0:0:0:
256,192,75018,1,0,0:0:0:0:
256,192,75104,1,8,0:0:0:0:
256,192,75189,1,0,0:0:0:0:
256,192,75275,1,0,0:0:0:0:
256,192,75361,1,8,0:0:0:0:
256,192,75532,1,0,0:0:0:0:
256,192,75618,1,0,0:0:0:0:
256,192,75704,1,8,0:0:0:0:
256,192,75875,1,0,0:0:0:0:
256,192,76046,1,8,0:0:0:0:
256,192,76132,1,8,0:0:0:0:
256,192,76218,1,0,0:0:0:0:
256,192,76304,1,8,0:0:0:0:
256,192,76389,1,8,0:0:0:0:
256,192,76561,1,0,0:0:0:0:
256,192,76732,1,8,0:0:0:0:
256,192,76818,1,8,0:0:0:0:
256,192,76904,1,0,0:0:0:0:
256,192,77075,1,8,0:0:0:0:
256,192,77161,1,0,0:0:0:0:
256,192,77246,1,8,0:0:0:0:
256,192,77418,1,0,0:0:0:0:
256,192,77589,1,8,0:0:0:0:
256,192,77761,1,0,0:0:0:0:
256,192,77932,1,8,0:0:0:0:
256,192,78104,1,8,0:0:0:0:
256,192,78361,1,8,0:0:0:0:
256,192,78446,1,0,0:0:0:0:
256,192,78618,1,0,0:0:0:0:
256,192,78789,1,12,0:0:0:0:
256,192,78961,1,0,0:0:0:0:
256,192,79046,1,0,0:0:0:0:
256,192,79132,1,8,0:0:0:0:
256,192,79218,1,8,0:0:0:0:
256,192,79304,1,0,0:0:0:0:
256,192,79475,1,8,0:0:0:0:
256,192,79561,1,0,0:0:0:0:
256,192,79646,1,0,0:0:0:0:
256,192,79732,1,8,0:0:0:0:
256,192,79818,1,0,0:0:0:0:
256,192,79904,1,0,0:0:0:0:
256,192,79989,1,8,0:0:0:0:
256,192,80161,1,8,0:0:0:0:
256,192,80246,1,8,0:0:0:0:
256,192,80332,1,0,0:0:0:0:
256,192,80504,1,8,0:0:0:0:
256,192,80589,1,0,0:0:0:0:
256,192,80675,1,8,0:0:0:0:
256,192,80761,1,8,0:0:0:0:
256,192,80846,1,0,0:0:0:0:
256,192,81018,1,0,0:0:0:0:
256,192,81104,1,8,0:0:0:0:
256,192,81189,1,8,0:0:0:0:
256,192,81275,1,8,0:0:0:0:
256,192,81361,1,0,0:0:0:0:
256,192,81532,1,12,0:0:0:0:
256,192,81704,1,0,0:0:0:0:
256,192,82046,1,0,0:0:0:0:
256,192,82218,1,12,0:0:0:0:
256,192,82389,1,0,0:0:0:0:
256,192,82732,1,0,0:0:0:0:
256,192,82903,1,12,0:0:0:0:
256,192,83074,2,0,L|256:128,12,36.749998878479
256,192,84274,1,12,0:0:0:0:
256,192,84445,2,0,L|256:128,12,36.749998878479
256,192,85645,1,12,0:0:0:0:
256,192,85817,1,0,0:0:0:0:
256,192,85988,1,0,0:0:0:0:
256,192,86160,1,0,0:0:0:0:
256,192,86331,1,0,0:0:0:0:
256,192,86503,1,0,0:0:0:0:
256,192,86674,1,0,0:0:0:0:
256,192,86845,1,0,0:0:0:0:
256,192,87017,1,4,0:0:0:0:
256,192,87188,12,0,88217,0:0:0:0:
256,192,88388,5,12,0:0:0:0:
256,192,88560,1,0,0:0:0:0:
256,192,88645,1,0,0:0:0:0:
256,192,88731,1,8,0:0:0:0:
256,192,88817,1,8,0:0:0:0:
256,192,88903,1,0,0:0:0:0:
256,192,89074,1,8,0:0:0:0:
256,192,89160,1,0,0:0:0:0:
256,192,89245,1,0,0:0:0:0:
256,192,89331,1,8,0:0:0:0:
256,192,89503,1,8,0:0:0:0:
256,192,89588,1,0,0:0:0:0:
256,192,89760,1,8,0:0:0:0:
256,192,89931,1,0,0:0:0:0:
256,192,90017,1,0,0:0:0:0:
256,192,90103,1,8,0:0:0:0:
256,192,90274,1,8,0:0:0:0:
256,192,90360,1,0,0:0:0:0:
256,192,90445,1,8,0:0:0:0:
256,192,90531,1,8,0:0:0:0:
256,192,90617,1,0,0:0:0:0:
256,192,90788,1,8,0:0:0:0:
256,192,90874,1,8,0:0:0:0:
256,192,90960,1,8,0:0:0:0:
256,192,91131,1,0,0:0:0:0:
256,192,91303,1,0,0:0:0:0:
256,192,91388,1,0,0:0:0:0:
256,192,91474,1,0,0:0:0:0:
256,192,91560,1,8,0:0:0:0:
256,192,91645,1,0,0:0:0:0:
256,192,91817,1,8,0:0:0:0:
256,192,91903,1,8,0:0:0:0:
256,192,91988,1,0,0:0:0:0:
256,192,92074,1,8,0:0:0:0:
256,192,92245,1,8,0:0:0:0:
256,192,92331,1,0,0:0:0:0:
256,192,92503,1,8,0:0:0:0:
256,192,92674,1,0,0:0:0:0:
256,192,92760,1,8,0:0:0:0:
256,192,92845,1,8,0:0:0:0:
256,192,93017,1,8,0:0:0:0:
256,192,93103,1,8,0:0:0:0:
256,192,93188,1,0,0:0:0:0:
256,192,93274,1,8,0:0:0:0:
256,192,93360,1,0,0:0:0:0:
256,192,93445,1,0,0:0:0:0:
256,192,93531,1,8,0:0:0:0:
256,192,93617,1,0,0:0:0:0:
256,192,93703,1,0,0:0:0:0:
256,192,93874,1,12,0:0:0:0:
256,192,94045,1,0,0:0:0:0:
256,192,94131,1,0,0:0:0:0:
256,192,94217,1,8,0:0:0:0:
256,192,94303,1,8,0:0:0:0:
256,192,94388,1,0,0:0:0:0:
256,192,94560,1,8,0:0:0:0:
256,192,94645,1,0,0:0:0:0:
256,192,94731,1,0,0:0:0:0:
256,192,94817,1,8,0:0:0:0:
256,192,94988,1,8,0:0:0:0:
256,192,95074,1,0,0:0:0:0:
256,192,95245,1,8,0:0:0:0:
256,192,95417,1,0,0:0:0:0:
256,192,95503,1,0,0:0:0:0:
256,192,95588,1,8,0:0:0:0:
256,192,95674,1,0,0:0:0:0:
256,192,95760,1,0,0:0:0:0:
256,192,95931,1,8,0:0:0:0:
256,192,96017,1,8,0:0:0:0:
256,192,96103,1,0,0:0:0:0:
256,192,96274,1,8,0:0:0:0:
256,192,96360,1,8,0:0:0:0:
256,192,96445,1,8,0:0:0:0:
256,192,96617,1,0,0:0:0:0:
256,192,96788,1,0,0:0:0:0:
256,192,96874,1,0,0:0:0:0:
256,192,96960,1,0,0:0:0:0:
256,192,97045,1,8,0:0:0:0:
256,192,97131,1,0,0:0:0:0:
256,192,97303,1,8,0:0:0:0:
256,192,97388,1,8,0:0:0:0:
256,192,97474,1,0,0:0:0:0:
256,192,97560,1,8,0:0:0:0:
256,192,97731,1,8,0:0:0:0:
256,192,97817,1,0,0:0:0:0:
256,192,97988,1,0,0:0:0:0:
256,192,98074,1,8,0:0:0:0:
256,192,98160,1,0,0:0:0:0:
256,192,98245,1,0,0:0:0:0:
256,192,98331,1,8,0:0:0:0:
256,192,98417,1,0,0:0:0:0:
256,192,98503,1,8,0:0:0:0:
256,192,98588,1,8,0:0:0:0:
256,192,98674,1,0,0:0:0:0:
256,192,98845,1,0,0:0:0:0:
256,192,98931,1,8,0:0:0:0:
256,192,99017,1,0,0:0:0:0:
256,192,99103,1,8,0:0:0:0:
256,192,99188,1,0,0:0:0:0:
256,192,99360,1,12,0:0:0:0:
256,192,99531,1,0,0:0:0:0:
256,192,99617,1,8,0:0:0:0:
256,192,99703,1,8,0:0:0:0:
256,192,99788,1,0,0:0:0:0:
256,192,99874,1,0,0:0:0:0:
256,192,100045,1,8,0:0:0:0:
256,192,100131,1,8,0:0:0:0:
256,192,100217,1,0,0:0:0:0:
256,192,100303,1,8,0:0:0:0:
256,192,100388,1,8,0:0:0:0:
256,192,100474,1,0,0:0:0:0:
256,192,100560,1,8,0:0:0:0:
256,192,100731,1,8,0:0:0:0:
256,192,100903,1,0,0:0:0:0:
256,192,100988,1,0,0:0:0:0:
256,192,101074,1,8,0:0:0:0:
256,192,101245,1,8,0:0:0:0:
256,192,101331,1,0,0:0:0:0:
256,192,101417,1,0,0:0:0:0:
256,192,101503,1,8,0:0:0:0:
256,192,101588,1,0,0:0:0:0:
256,192,101674,1,0,0:0:0:0:
256,192,101760,1,8,0:0:0:0:
256,192,101845,1,8,0:0:0:0:
256,192,101931,1,0,0:0:0:0:
256,192,102103,1,8,0:0:0:0:
256,192,102274,1,0,0:0:0:0:
256,192,102360,1,8,0:0:0:0:
256,192,102445,1,0,0:0:0:0:
256,192,102531,1,0,0:0:0:0:
256,192,102617,1,0,0:0:0:0:
256,192,102788,1,8,0:0:0:0:
256,192,102874,1,8,0:0:0:0:
256,192,102960,1,0,0:0:0:0:
256,192,103045,1,8,0:0:0:0:
256,192,103131,1,0,0:0:0:0:
256,192,103217,1,0,0:0:0:0:
256,192,103303,1,8,0:0:0:0:
256,192,103388,1,8,0:0:0:0:
256,192,103474,1,0,0:0:0:0:
256,192,103645,1,8,0:0:0:0:
256,192,103731,1,0,0:0:0:0:
256,192,103817,1,8,0:0:0:0:
256,192,103988,1,0,0:0:0:0:
256,192,104074,1,8,0:0:0:0:
256,192,104160,1,8,0:0:0:0:
256,192,104245,1,8,0:0:0:0:
256,192,104331,1,0,0:0:0:0:
256,192,104417,1,0,0:0:0:0:
256,192,104503,1,8,0:0:0:0:
256,192,104588,1,8,0:0:0:0:
256,192,104674,1,0,0:0:0:0:
256,192,104845,1,12,0:0:0:0:
256,192,105017,1,0,0:0:0:0:
256,192,105103,1,8,0:0:0:0:
256,192,105188,1,8,0:0:0:0:
256,192,105274,1,0,0:0:0:0:
256,192,105360,1,0,0:0:0:0:
256,192,105531,1,8,0:0:0:0:
256,192,105617,1,8,0:0:0:0:
256,192,105703,1,0,0:0:0:0:
256,192,105788,1,8,0:0:0:0:
256,192,105874,1,8,0:0:0:0:
256,192,105960,1,0,0:0:0:0:
256,192,106045,1,8,0:0:0:0:
256,192,106217,1,8,0:0:0:0:
256,192,106388,1,0,0:0:0:0:
256,192,106474,1,0,0:0:0:0:
256,192,106560,1,8,0:0:0:0:
256,192,106645,1,0,0:0:0:0:
256,192,106731,1,8,0:0:0:0:
256,192,106903,1,8,0:0:0:0:
256,192,106988,1,8,0:0:0:0:
256,192,107074,1,0,0:0:0:0:
256,192,107160,1,0,0:0:0:0:
256,192,107245,1,8,0:0:0:0:
256,192,107417,1,0,0:0:0:0:
256,192,107588,1,8,0:0:0:0:
256,192,107674,1,0,0:0:0:0:
256,192,107760,1,0,0:0:0:0:
256,192,107845,1,0,0:0:0:0:
256,192,107931,1,8,0:0:0:0:
256,192,108017,1,0,0:0:0:0:
256,192,108103,1,0,0:0:0:0:
256,192,108188,1,0,0:0:0:0:
256,192,108274,1,8,0:0:0:0:
256,192,108360,1,0,0:0:0:0:
256,192,108531,1,0,0:0:0:0:
256,192,108703,1,0,0:0:0:0:
256,192,108874,1,0,0:0:0:0:
256,192,108960,1,8,0:0:0:0:
256,192,109045,1,8,0:0:0:0:
256,192,109131,1,0,0:0:0:0:
256,192,109217,1,0,0:0:0:0:
256,192,109303,1,8,0:0:0:0:
256,192,109388,1,8,0:0:0:0:
256,192,109474,1,0,0:0:0:0:
256,192,109560,1,0,0:0:0:0:
256,192,109645,1,8,0:0:0:0:
256,192,109817,1,8,0:0:0:0:
256,192,109874,1,0,0:0:0:0:
256,192,109931,1,8,0:0:0:0:
256,192,109988,1,0,0:0:0:0:
256,192,110045,1,8,0:0:0:0:
256,192,110103,1,0,0:0:0:0:
256,192,110331,1,12,0:0:0:0:
