osu file format v14

[General]
AudioFilename: audio.mp3
AudioLeadIn: 0
PreviewTime: 39865
Countdown: 0
SampleSet: None
StackLeniency: 0.7
Mode: 0
LetterboxInBreaks: 0
WidescreenStoryboard: 1

[Editor]
DistanceSpacing: 0.8
BeatDivisor: 4
GridSize: 8
TimelineZoom: 2.4

[Metadata]
Title:Doutei Korose
TitleUnicode:童テイ殺セ
Artist:IOSYS
ArtistUnicode:IOSYS
Creator:Ilhamuharam
Version:Easy
Source:
Tags:
BeatmapID:1542283
BeatmapSetID:663649

[Difficulty]
HPDrainRate:3.5
CircleSize:2.7
OverallDifficulty:4
ApproachRate:7
SliderMultiplier:1.4
SliderTickRate:2

[Events]
//Background and Video events
0,0,"doutei.jpg",0,0
//Break Periods
2,64090,72890
//Storyboard Layer 0 (Background)
//Storyboard Layer 1 (Fail)
//Storyboard Layer 2 (Pass)
//Storyboard Layer 3 (Foreground)
//Storyboard Sound Samples

[TimingPoints]
5390,300,4,2,0,100,1,0
11390,-133.333333333333,4,2,0,100,0,0
39816,-100,4,2,0,100,0,1
54590,-133.333333333333,4,2,0,100,0,1
59390,-100,4,2,0,100,0,0
97492,-100,4,2,0,100,0,1
112190,-133.333333333333,4,2,0,100,0,1
116990,-100,4,2,0,100,0,0

[Colours]
Combo1 : 94,217,253
Combo2 : 0,255,255
Combo3 : 0,170,170
Combo4 : 214,18,174
Combo5 : 236,0,118
Combo6 : 255,43,149
Combo7 : 255,130,192
Combo8 : 210,184,235

[HitObjects]
256,192,5390,12,0,9890,0:0:0:0:
168,192,10190,5,0,0:0:0:0:
184,152,10490,1,0,0:0:0:0:
200,112,10790,1,0,0:0:0:0:
216,72,11090,1,0,0:0:0:0:
264,72,11390,6,0,P|320:80|352:128,1,105.000004005432
256,176,11990,2,0,P|184:160|176:120,1,105.000004005432
256,72,12590,2,0,P|200:48|152:64,1,105.000004005432
192,160,13190,2,0,P|152:168|112:216,1,105.000004005432
216,264,13790,6,0,P|208:304|248:368,1,105.000004005432
320,304,14390,2,0,P|376:296|408:248,1,105.000004005432
304,208,14990,2,0,P|328:176|400:160,1,105.000004005432
432,248,15590,1,0,0:0:0:0:
448,296,15890,1,0,0:0:0:0:
280,312,16190,6,0,B|216:304|184:272|176:264,1,105.000004005432
272,200,16790,2,0,P|216:168|160:160,1,105.000004005432
144,248,17390,2,0,P|104:224|80:160,1,105.000004005432
192,152,17990,2,0,P|232:136|296:152,1,105.000004005432
392,200,18590,5,0,0:0:0:0:
384,256,18890,1,0,0:0:0:0:
352,296,19190,1,0,0:0:0:0:
304,312,19490,1,0,0:0:0:0:
160,304,19790,2,0,L|104:272,1,52.5000020027161
168,224,20090,2,0,L|112:192,1,52.5000020027161
40,216,20390,5,0,0:0:0:0:
64,160,20690,1,0,0:0:0:0:
120,128,20990,2,0,B|192:128|232:160|224:152,1,105.000004005432
160,232,21590,2,0,P|216:248|280:248,1,105.000004005432
264,160,22190,2,0,P|296:152|368:144,1,105.000004005432
360,240,22790,2,0,P|400:240|448:200,1,105.000004005432
344,144,23390,6,0,P|376:112|432:72,1,105.000004005432
280,56,23990,2,0,P|256:96|240:160,1,105.000004005432
152,152,24590,2,0,P|136:112|152:40,1,105.000004005432
160,240,25190,2,0,P|112:224|72:168,1,105.000004005432
288,216,25790,6,0,P|336:208|352:192,1,52.5000020027161
328,144,26090,2,0,P|360:128|384:128,1,52.5000020027161
432,200,26390,1,0,0:0:0:0:
400,248,26690,1,0,0:0:0:0:
256,296,26990,6,0,P|216:304|192:288,1,52.5000020027161
192,248,27290,2,0,P|152:232|120:240,1,52.5000020027161
112,312,27590,1,0,0:0:0:0:
80,264,27890,1,0,0:0:0:0:
184,168,28190,6,0,P|208:104|256:80,1,105.000004005432
280,200,28790,2,0,P|336:208|376:168,1,105.000004005432
288,80,29390,1,0,0:0:0:0:
240,80,29690,1,0,0:0:0:0:
200,104,29990,1,0,0:0:0:0:
168,136,30290,1,0,0:0:0:0:
200,288,30590,6,0,P|264:296|304:256,1,105.000004005432
240,192,31190,2,0,P|224:128|248:96,1,105.000004005432
352,160,31790,2,0,P|400:208|408:248,1,105.000004005432
288,256,32390,2,0,P|256:288|192:280,1,105.000004005432
208,176,32990,6,0,P|144:160|104:184,1,105.000004005432
160,272,33590,2,0,P|208:304|272:288,1,105.000004005432
248,200,34190,2,0,P|272:144|320:128,1,105.000004005432
368,232,34790,2,0,P|416:200|432:152,1,105.000004005432
248,176,35390,6,0,L|208:136,3,52.5000020027161
224,200,35990,2,0,L|184:160,3,52.5000020027161
200,224,36590,2,0,L|160:184,3,52.5000020027161
176,248,37190,2,0,L|136:208,3,52.5000020027161
296,288,37790,6,0,L|336:240,1,52.5000020027161
256,288,38090,2,0,L|296:240,1,52.5000020027161
216,288,38390,2,0,L|256:240,1,52.5000020027161
176,288,38690,2,0,L|216:240,1,52.5000020027161
80,256,38990,6,0,L|56:200,1,52.5000020027161
104,192,39290,2,0,L|72:128,1,52.5000020027161
32,136,39590,1,0,0:0:0:0:
168,72,39890,1,0,0:0:0:0:
384,128,40190,6,0,P|408:168|384:264,1,140
312,192,40790,2,0,P|216:184|192:224,1,140
256,288,41390,2,0,P|208:320|128:288,1,140
96,192,41990,1,0,0:0:0:0:
120,136,42290,1,0,0:0:0:0:
296,96,42590,6,0,P|392:120|416:152,1,140
320,192,43190,2,0,P|312:232|224:280,1,140
208,176,43790,2,0,P|128:184|88:120,1,140
152,72,44390,1,0,0:0:0:0:
208,56,44690,1,0,0:0:0:0:
376,88,44990,6,0,P|424:152|440:224,2,140
312,80,45890,1,0,0:0:0:0:
248,80,46190,1,0,0:0:0:0:
120,160,46490,2,0,P|152:216|224:216,1,140
200,120,47090,1,0,0:0:0:0:
328,96,47390,6,0,P|400:128|424:192,1,140
312,192,47990,2,0,P|272:216|240:304,1,140
360,296,48590,2,0,P|408:256|432:176,1,140
368,96,49190,2,0,L|288:72,1,70
264,64,49490,1,0,0:0:0:0:
112,128,49790,6,0,P|88:208|128:272,1,140
184,192,50390,2,0,P|248:192|280:120,1,140
376,160,50990,2,0,P|392:208|360:288,1,140
296,304,51590,1,0,0:0:0:0:
232,304,51890,1,0,0:0:0:0:
80,264,52190,6,0,B|72:176|112:120|112:112,1,140
184,160,52790,2,0,P|256:120|320:120,1,140
296,216,53390,2,0,P|352:232|448:200,1,140
344,120,53990,1,0,0:0:0:0:
304,72,54290,1,0,0:0:0:0:
136,120,54590,6,0,P|88:168|104:216,2,105.000004005432
248,112,55490,1,0,0:0:0:0:
368,112,55790,2,0,P|408:144|424:216,2,105.000004005432
248,112,56690,1,0,0:0:0:0:
120,192,56990,6,0,P|144:224|208:256,1,105.000004005432
216,152,57590,2,0,P|272:168|312:200,1,105.000004005432
224,272,58190,2,0,P|288:312|336:304,2,105.000004005432
160,176,59090,1,0,0:0:0:0:
248,56,59390,6,0,P|312:64|448:232,1,280
392,304,60290,1,0,0:0:0:0:
232,320,60590,2,0,P|168:304|104:112,1,280
200,80,61490,1,0,0:0:0:0:
360,104,61790,2,0,P|416:176|312:304,1,280
160,312,62690,5,0,0:0:0:0:
168,256,62990,1,0,0:0:0:0:
176,192,63290,1,0,0:0:0:0:
184,128,63590,2,0,P|216:96|320:80,1,140
256,192,73790,12,0,77990,0:0:0:0:
64,256,78590,5,0,0:0:0:0:
96,200,78890,1,0,0:0:0:0:
128,152,79190,1,0,0:0:0:0:
160,104,79490,1,0,0:0:0:0:
224,104,79790,2,0,B|288:96|360:128|376:152,1,140
408,176,80390,1,0,0:0:0:0:
448,232,80690,1,0,0:0:0:0:
288,288,80990,5,0,0:0:0:0:
240,240,81290,1,0,0:0:0:0:
192,200,81590,1,0,0:0:0:0:
144,160,81890,1,0,0:0:0:0:
104,112,82190,2,0,P|120:64|200:40,1,140
256,72,82790,1,0,0:0:0:0:
320,96,83090,1,0,0:0:0:0:
416,208,83390,6,0,B|376:272|288:312|288:304,1,140
296,176,83990,2,0,P|248:208|184:280,1,140
112,328,84590,2,0,P|80:288|80:192,1,140
192,224,85190,2,0,P|208:184|160:96,1,140
88,176,85790,5,0,0:0:0:0:
80,232,86090,1,0,0:0:0:0:
120,288,86390,1,0,0:0:0:0:
184,296,86690,1,0,0:0:0:0:
344,272,86990,1,0,0:0:0:0:
384,224,87290,1,0,0:0:0:0:
376,160,87590,1,0,0:0:0:0:
320,128,87890,1,0,0:0:0:0:
168,64,88190,6,0,P|104:120|80:176,1,140
224,176,88790,2,0,P|200:232|128:288,1,140
80,184,89390,2,0,P|104:136|184:80,1,140
240,80,89990,1,0,0:0:0:0:
304,80,90290,1,0,0:0:0:0:
440,184,90590,6,0,P|440:232|376:320,1,140
336,232,91190,2,0,P|280:264|184:280,1,140
216,184,91790,2,0,P|160:184|80:128,1,140
72,96,92390,1,0,0:0:0:0:
48,40,92690,1,0,0:0:0:0:
200,40,92990,6,0,P|256:32|288:40,1,70
288,80,93290,2,0,P|328:96|360:88,1,70
400,128,93590,1,0,0:0:0:0:
432,192,93890,1,0,0:0:0:0:
328,288,94190,2,0,P|288:312|248:304,1,70
248,264,94490,2,0,P|200:248|152:256,1,70
136,208,94790,1,0,0:0:0:0:
120,152,95090,1,0,0:0:0:0:
232,80,95390,6,0,L|320:80,3,70
264,120,95990,6,0,L|352:120,3,70
288,160,96590,6,0,L|376:160,3,70
240,160,97190,1,0,0:0:0:0:
104,224,97490,1,0,0:0:0:0:
280,288,97790,6,0,P|344:264|384:184,1,140
272,184,98390,2,0,P|280:120|352:64,1,140
408,168,98990,2,0,P|368:240|304:288,1,140
280,240,99590,1,0,0:0:0:0:
240,200,99890,1,0,0:0:0:0:
104,288,100190,6,0,P|72:240|72:160,1,140
152,184,100790,2,0,P|192:128|256:88,1,140
272,192,101390,2,0,P|336:184|408:128,1,140
360,96,101990,1,0,0:0:0:0:
296,80,102290,1,0,0:0:0:0:
112,104,102590,6,0,P|72:176|72:240,1,140
176,200,103190,2,0,P|216:272|288:280,1,140
336,208,103790,1,0,0:0:0:0:
312,160,104090,1,0,0:0:0:0:
288,112,104390,1,0,0:0:0:0:
264,64,104690,1,0,0:0:0:0:
368,88,104990,6,0,P|432:128|448:200,1,140
360,200,105590,2,0,P|344:272|408:312,1,140
480,216,106190,2,0,P|488:160|432:96,1,140
264,96,106790,2,0,P|216:128|208:168,1,70
192,176,107090,1,0,0:0:0:0:
136,320,107390,6,0,P|80:288|64:200,1,140
160,224,107990,2,0,P|216:192|224:112,1,140
112,136,108590,2,0,P|96:104|168:48,1,140
232,88,109190,1,0,0:0:0:0:
272,136,109490,1,0,0:0:0:0:
416,128,109790,6,0,P|464:184|464:256,1,140
360,224,110390,2,0,P|336:264|248:288,1,140
256,192,110990,2,0,P|184:200|144:152,1,140
224,80,111590,1,0,0:0:0:0:
288,64,111890,1,0,0:0:0:0:
400,248,112190,6,0,L|424:192,1,52.5000020027161
320,192,112490,2,0,L|288:144,1,52.5000020027161
400,128,112790,1,0,0:0:0:0:
352,88,113090,1,0,0:0:0:0:
184,80,113390,6,0,L|128:120,1,52.5000020027161
208,176,113690,2,0,L|192:248,1,52.5000020027161
104,224,113990,1,0,0:0:0:0:
128,280,114290,1,0,0:0:0:0:
384,296,114590,6,0,P|440:256|440:200,1,105.000004005432
352,184,115190,2,0,P|352:144|312:80,1,105.000004005432
224,168,115790,2,0,B|152:176|120:144|120:136,1,105.000004005432
120,72,116390,1,0,0:0:0:0:
184,56,116690,1,0,0:0:0:0:
320,112,116990,6,0,P|360:152|384:232,1,140
288,264,117590,1,0,0:0:0:0:
256,208,117890,1,0,0:0:0:0:
168,288,118190,6,0,P|136:256|104:168,1,140
176,128,118790,1,0,0:0:0:0:
208,184,119090,1,0,0:0:0:0:
280,72,119390,6,0,P|344:80|392:136,3,140
408,240,120590,1,0,0:0:0:0:
368,288,120890,1,0,0:0:0:0:
240,304,121190,2,0,L|168:280,1,70
128,264,121490,1,0,0:0:0:0:
80,136,121790,6,0,P|112:96|200:72,1,140
184,176,122390,2,0,P|240:176|312:136,1,140
208,72,122990,2,0,P|136:80|88:128,1,140
96,240,123590,1,0,0:0:0:0:
144,200,123890,1,0,0:0:0:0:
224,296,124190,6,0,P|288:312|352:272,1,140
264,200,124790,2,0,P|304:168|400:152,1,140
368,280,125390,2,0,P|328:312|232:304,1,140
80,280,125990,2,0,P|56:248|56:216,1,70
192,208,126290,2,0,P|224:192|232:160,1,70
96,152,126590,6,0,P|104:96|200:64,1,140
216,168,127190,2,0,P|264:160|344:104,1,140
224,72,127790,2,0,P|128:104|96:160,1,140
104,256,128390,1,0,0:0:0:0:
152,208,128690,1,0,0:0:0:0:
216,320,128990,6,0,P|312:320|360:272,1,140
272,224,129590,2,0,P|304:200|408:176,1,140
384,296,130190,2,0,P|352:320|240:320,1,140
80,296,130790,2,0,L|40:216,1,70
48,192,131090,1,0,0:0:0:0:
