osu file format v14

[General]
AudioFilename: audio.mp3
AudioLeadIn: 0
PreviewTime: 39747
Countdown: 0
SampleSet: Soft
StackLeniency: 0.6
Mode: 3
LetterboxInBreaks: 0
SpecialStyle: 0
WidescreenStoryboard: 0

[Editor]
DistanceSpacing: 1
BeatDivisor: 4
GridSize: 4
TimelineZoom: 2.2

[Metadata]
Title:Doutei Korose
TitleUnicode:童テイ殺セ
Artist:IOSYS
ArtistUnicode:IOSYS
Creator:Draftnell
Version:Normal
Source:
Tags:はいぱぁ電波これくしょん!Hyper Denpa Collection! Amazing Burst into Flames 山本椛 Yamamoto Momiji Aste- Hamids-
BeatmapID:1133968
BeatmapSetID:530923

[Difficulty]
HPDrainRate:7
CircleSize:4
OverallDifficulty:7
ApproachRate:5
SliderMultiplier:1.4
SliderTickRate:1

[Events]
//Background and Video events
0,0,"BG.jpg",0,0
//Break Periods
//Storyboard Layer 0 (Background)
//Storyboard Layer 1 (Fail)
//Storyboard Layer 2 (Pass)
//Storyboard Layer 3 (Foreground)
//Storyboard Sound Samples

[TimingPoints]
597,300,4,2,1,40,1,0
40197,-100,4,2,1,40,0,1
64197,-100,4,2,1,40,0,0
97797,-100,4,2,1,40,0,1
121797,-100,4,2,1,40,0,0

[HitObjects]
64,192,597,5,2,0:0:0:0:
448,192,597,1,0,0:0:0:0:
192,192,897,1,8,0:0:0:0:
320,192,897,1,0,0:0:0:0:
64,192,1197,1,2,0:0:0:0:
192,192,1347,1,2,0:0:0:0:
448,192,1497,1,8,0:0:0:0:
320,192,1497,1,0,0:0:0:0:
64,192,1647,128,2,1947:0:0:0:0:
448,192,1947,1,2,0:0:0:0:
320,192,2097,1,8,0:0:0:0:
192,192,2097,1,0,0:0:0:0:
448,192,2397,1,2,0:0:0:0:
448,192,2547,1,2,0:0:0:0:
320,192,2697,1,8,0:0:0:0:
64,192,2697,1,0,0:0:0:0:
192,192,2847,1,0,0:0:0:0:
448,192,2997,1,2,0:0:0:0:
64,192,3297,1,8,0:0:0:0:
192,192,3297,1,0,0:0:0:0:
320,192,3597,1,2,0:0:0:0:
64,192,3747,1,2,0:0:0:0:
192,192,3897,1,8,0:0:0:0:
448,192,3897,1,0,0:0:0:0:
320,192,4047,128,2,4347:0:0:0:0:
448,192,4347,1,2,0:0:0:0:
64,192,4497,1,8,0:0:0:0:
192,192,4497,1,0,0:0:0:0:
320,192,4797,1,0,0:0:0:40:Bass Drum.wav
448,192,4797,1,0,0:0:0:0:
320,192,5097,1,0,0:0:0:40:Bass Drum.wav
448,192,5097,1,0,0:0:0:0:
64,192,5397,1,2,0:0:0:0:
448,192,5397,1,4,0:0:0:0:
192,192,5697,1,8,0:0:0:0:
320,192,5697,1,0,0:0:0:0:
448,192,5997,1,2,0:0:0:0:
320,192,6147,1,2,0:0:0:0:
192,192,6297,1,8,0:0:0:0:
64,192,6297,1,0,0:0:0:0:
320,192,6447,128,2,6747:0:0:0:0:
64,192,6747,1,2,0:0:0:0:
448,192,6897,1,8,0:0:0:0:
192,192,6897,1,0,0:0:0:0:
64,192,7197,1,2,0:0:0:0:
192,192,7347,1,2,0:0:0:0:
320,192,7497,1,8,0:0:0:0:
448,192,7497,1,0,0:0:0:0:
192,192,7647,1,0,0:0:0:0:
64,192,7797,1,2,0:0:0:0:
192,192,8097,1,8,0:0:0:0:
448,192,8097,1,0,0:0:0:0:
320,192,8397,1,2,0:0:0:0:
192,192,8547,1,2,0:0:0:0:
64,192,8697,1,8,0:0:0:0:
448,192,8697,1,0,0:0:0:0:
320,192,8847,1,2,0:0:0:0:
64,192,9147,1,2,0:0:0:0:
192,192,9147,1,0,0:0:0:0:
320,192,9297,1,2,0:0:0:0:
448,192,9297,1,0,0:0:0:0:
192,192,9597,1,2,0:0:0:0:
192,192,9747,1,2,0:0:0:0:
64,192,9897,1,8,0:0:0:0:
448,192,9897,1,0,0:0:0:0:
320,192,10197,1,0,0:0:0:0:
320,192,10497,1,0,0:0:0:0:
320,192,10797,1,0,0:0:0:0:
320,192,11097,1,0,0:0:0:0:
192,192,11397,1,4,0:0:0:0:
448,192,11397,1,2,0:0:0:0:
64,192,11697,1,8,0:0:0:0:
320,192,11697,1,0,0:0:0:0:
448,192,11997,1,2,0:0:0:0:
320,192,12147,1,2,0:0:0:0:
64,192,12297,1,8,0:0:0:0:
448,192,12297,1,0,0:0:0:0:
192,192,12447,1,2,0:0:0:0:
320,192,12747,1,2,0:0:0:0:
192,192,12897,1,8,0:0:0:0:
64,192,12897,1,0,0:0:0:0:
64,192,13197,1,2,0:0:0:0:
192,192,13347,1,2,0:0:0:0:
448,192,13497,1,8,0:0:0:0:
64,192,13497,1,0,0:0:0:0:
320,192,13647,1,0,0:0:0:0:
192,192,13797,1,2,0:0:0:0:
320,192,14097,1,8,0:0:0:0:
448,192,14097,1,0,0:0:0:0:
64,192,14397,1,2,0:0:0:0:
192,192,14547,1,2,0:0:0:0:
64,192,14697,1,8,0:0:0:0:
448,192,14697,1,0,0:0:0:0:
320,192,14847,1,2,0:0:0:0:
448,192,15147,1,2,0:0:0:0:
192,192,15297,1,8,0:0:0:0:
64,192,15297,1,0,0:0:0:0:
320,192,15597,128,2,15897:0:0:0:0:
64,192,15897,1,8,0:0:0:0:
448,192,15897,1,4,0:0:0:0:
192,192,16197,1,2,0:0:0:0:
64,192,16197,1,0,0:0:0:0:
320,192,16497,1,8,0:0:0:0:
448,192,16497,1,0,0:0:0:0:
64,192,16797,1,2,0:0:0:0:
448,192,16947,1,2,0:0:0:0:
320,192,17097,1,8,0:0:0:0:
192,192,17097,1,0,0:0:0:0:
64,192,17247,1,2,0:0:0:0:
448,192,17547,1,2,0:0:0:0:
64,192,17697,1,8,0:0:0:0:
320,192,17697,1,0,0:0:0:0:
192,192,17997,1,2,0:0:0:0:
320,192,18147,1,2,0:0:0:0:
448,192,18297,1,8,0:0:0:0:
64,192,18297,1,0,0:0:0:0:
192,192,18447,1,0,0:0:0:0:
320,192,18597,1,2,0:0:0:0:
192,192,18897,1,8,0:0:0:0:
64,192,18897,1,0,0:0:0:0:
320,192,19197,1,2,0:0:0:0:
64,192,19347,1,2,0:0:0:0:
192,192,19497,1,8,0:0:0:0:
448,192,19497,1,0,0:0:0:0:
320,192,19647,1,2,0:0:0:0:
64,192,19797,1,2,0:0:0:0:
448,192,19947,1,2,0:0:0:0:
192,192,20097,1,2,0:0:0:0:
448,192,20247,1,2,0:0:0:0:
320,192,20397,128,0,20697:0:0:0:0:
64,192,20397,1,2,0:0:0:0:
64,192,20997,1,4,0:0:0:0:
448,192,20997,1,0,0:0:0:0:
192,192,21297,1,0,0:0:0:0:
448,192,21447,1,0,0:0:0:0:
320,192,21597,1,8,0:0:0:0:
64,192,21597,1,0,0:0:0:0:
192,192,21897,1,0,0:0:0:0:
320,192,22197,1,0,0:0:0:0:
64,192,22497,1,0,0:0:0:0:
192,192,22647,1,0,0:0:0:0:
448,192,22797,1,8,0:0:0:0:
320,192,22797,1,0,0:0:0:0:
192,192,23097,1,0,0:0:0:0:
64,192,23397,1,0,0:0:0:0:
448,192,23697,1,0,0:0:0:0:
320,192,23847,1,0,0:0:0:0:
192,192,23997,1,8,0:0:0:0:
64,192,23997,1,0,0:0:0:0:
448,192,24297,1,0,0:0:0:0:
320,192,24597,1,0,0:0:0:0:
64,192,24897,1,0,0:0:0:0:
448,192,25047,1,0,0:0:0:0:
320,192,25197,1,8,0:0:0:0:
192,192,25197,1,0,0:0:0:0:
448,192,25497,1,0,0:0:0:0:
64,192,25797,1,0,0:0:0:0:
320,192,26097,1,0,0:0:0:0:
192,192,26247,1,0,0:0:0:0:
64,192,26397,1,8,0:0:0:0:
448,192,26397,1,0,0:0:0:0:
192,192,26697,1,0,0:0:0:0:
320,192,26997,1,0,0:0:0:0:
192,192,27297,1,0,0:0:0:0:
64,192,27447,1,0,0:0:0:0:
320,192,27597,1,8,0:0:0:0:
448,192,27597,1,0,0:0:0:0:
64,192,27897,1,0,0:0:0:0:
192,192,28197,1,0,0:0:0:0:
320,192,28497,1,0,0:0:0:0:
192,192,28647,1,0,0:0:0:0:
64,192,28797,1,8,0:0:0:0:
448,192,28797,1,0,0:0:0:0:
192,192,29097,1,0,0:0:0:0:
320,192,29397,1,0,0:0:0:0:
64,192,29547,1,8,0:0:0:0:
448,192,29697,1,2,0:0:0:0:
192,192,29847,1,2,0:0:0:0:
320,192,29997,1,8,0:0:0:0:
64,192,30147,1,8,0:0:0:0:
448,192,30297,1,8,0:0:0:0:
320,192,30447,1,8,0:0:0:0:
192,192,30597,1,4,0:0:0:0:
64,192,30597,1,2,0:0:0:0:
448,192,30747,1,0,0:0:0:0:
64,192,30897,1,0,0:0:0:0:
320,192,31047,1,0,0:0:0:0:
192,192,31197,1,0,0:0:0:0:
448,192,31347,1,0,0:0:0:0:
320,192,31497,1,0,0:0:0:0:
192,192,31647,1,0,0:0:0:0:
64,192,31797,1,4,0:0:0:0:
448,192,31797,1,2,0:0:0:0:
320,192,31947,1,0,0:0:0:0:
192,192,32097,1,0,0:0:0:0:
320,192,32247,1,0,0:0:0:0:
448,192,32397,1,0,0:0:0:0:
64,192,32547,1,0,0:0:0:0:
192,192,32697,1,0,0:0:0:0:
320,192,32847,1,0,0:0:0:0:
192,192,32997,1,2,0:0:0:0:
64,192,32997,1,4,0:0:0:0:
448,192,33147,1,0,0:0:0:0:
320,192,33297,1,0,0:0:0:0:
64,192,33447,1,0,0:0:0:0:
192,192,33597,1,0,0:0:0:0:
320,192,33747,1,0,0:0:0:0:
64,192,33897,1,0,0:0:0:0:
448,192,34047,1,0,0:0:0:0:
192,192,34197,1,2,0:0:0:0:
320,192,34197,1,4,0:0:0:0:
64,192,34347,1,0,0:0:0:0:
192,192,34497,1,0,0:0:0:0:
448,192,34647,1,0,0:0:0:0:
320,192,34797,1,0,0:0:0:0:
192,192,34947,1,0,0:0:0:0:
448,192,35097,1,0,0:0:0:0:
64,192,35247,1,0,0:0:0:0:
192,192,35397,1,2,0:0:0:0:
320,192,35397,1,4,0:0:0:0:
320,192,35997,1,2,0:0:0:0:
448,192,35997,1,4,0:0:0:0:
192,192,36597,1,4,0:0:0:0:
64,192,36597,1,2,0:0:0:0:
320,192,37197,1,4,0:0:0:0:
192,192,37197,1,2,0:0:0:0:
448,192,37797,1,2,0:0:0:0:
64,192,37947,1,2,0:0:0:0:
320,192,38097,1,2,0:0:0:0:
192,192,38247,1,2,0:0:0:0:
448,192,38397,1,2,0:0:0:0:
64,192,38547,1,2,0:0:0:0:
320,192,38697,1,2,0:0:0:0:
64,192,38847,1,2,0:0:0:0:
192,192,38997,1,2,0:0:0:0:
448,192,38997,128,0,39597:0:0:0:0:
320,192,39297,128,0,39597:0:0:0:0:
64,192,39597,1,2,0:0:0:0:
320,192,39897,1,0,0:0:0:0:
192,192,39897,1,0,0:0:0:0:
64,192,40197,1,4,0:0:0:0:
448,192,40197,1,2,0:0:0:0:
192,192,40497,1,8,0:0:0:0:
448,192,40497,1,0,0:0:0:0:
320,192,40797,1,2,0:0:0:0:
192,192,41097,1,8,0:0:0:0:
64,192,41097,1,0,0:0:0:0:
448,192,41397,1,2,0:0:0:0:
192,192,41547,128,0,41697:0:0:0:0:
192,192,41847,128,0,42147:0:0:0:0:
320,192,42297,1,8,0:0:0:0:
64,192,42597,1,2,0:0:0:0:
192,192,42897,1,8,0:0:0:0:
320,192,42897,1,0,0:0:0:0:
448,192,43197,1,2,0:0:0:0:
192,192,43497,1,8,0:0:0:0:
64,192,43497,1,0,0:0:0:0:
320,192,43797,1,2,0:0:0:0:
448,192,43947,128,0,44097:0:0:0:0:
448,192,44247,128,0,44547:0:0:0:0:
64,192,44697,1,8,0:0:0:0:
320,192,44997,1,2,0:0:0:0:
192,192,45297,1,8,0:0:0:0:
448,192,45297,1,0,0:0:0:0:
64,192,45597,1,2,0:0:0:0:
320,192,45897,1,8,0:0:0:0:
448,192,45897,1,0,0:0:0:0:
192,192,46197,1,2,0:0:0:0:
64,192,46497,1,8,0:0:0:0:
448,192,46497,1,0,0:0:0:0:
320,192,46797,128,2,47397:0:0:0:0:
192,192,46797,1,0,0:0:0:0:
448,192,47097,1,8,0:0:0:0:
192,192,47397,128,2,47997:0:0:0:0:
64,192,47397,1,0,0:0:0:0:
320,192,47697,1,8,0:0:0:0:
448,192,47997,128,2,48597:0:0:0:0:
64,192,47997,1,0,0:0:0:0:
320,192,48297,1,8,0:0:0:0:
64,192,48597,128,2,49197:0:0:0:0:
192,192,48597,1,0,0:0:0:0:
320,192,48897,1,8,0:0:0:0:
448,192,49197,1,2,0:0:0:0:
320,192,49497,1,8,0:0:0:0:
192,192,49497,1,0,0:0:0:0:
64,192,49797,1,2,0:0:0:0:
448,192,49797,1,4,0:0:0:0:
192,192,50097,1,8,0:0:0:0:
64,192,50097,1,0,0:0:0:0:
320,192,50397,1,2,0:0:0:0:
64,192,50697,1,8,0:0:0:0:
448,192,50697,1,0,0:0:0:0:
192,192,50997,1,2,0:0:0:0:
320,192,51147,128,0,51297:0:0:0:0:
320,192,51447,128,0,51747:0:0:0:0:
448,192,51897,1,8,0:0:0:0:
64,192,52197,1,2,0:0:0:0:
192,192,52497,1,8,0:0:0:0:
448,192,52497,1,0,0:0:0:0:
320,192,52797,1,2,0:0:0:0:
192,192,53097,1,8,0:0:0:0:
64,192,53097,1,0,0:0:0:0:
448,192,53397,1,2,0:0:0:0:
64,192,53547,128,0,53697:0:0:0:0:
64,192,53847,128,0,54147:0:0:0:0:
320,192,54297,1,8,0:0:0:0:
192,192,54597,1,4,0:0:0:0:
448,192,54597,1,8,0:0:0:0:
64,192,54897,1,8,0:0:0:0:
320,192,54897,1,0,0:0:0:0:
448,192,55197,128,2,55497:0:0:0:0:
192,192,55197,1,0,0:0:0:0:
64,192,55497,1,8,0:0:0:0:
192,192,55797,1,4,0:0:0:0:
320,192,55797,1,2,0:0:0:0:
64,192,56097,1,8,0:0:0:0:
448,192,56097,1,0,0:0:0:0:
192,192,56397,128,2,56697:0:0:0:0:
320,192,56397,1,0,0:0:0:0:
64,192,56697,1,8,0:0:0:0:
320,192,56997,1,4,0:0:0:0:
448,192,56997,1,2,0:0:0:0:
64,192,57447,1,2,0:0:0:0:
320,192,57597,1,8,0:0:0:0:
192,192,57597,1,0,0:0:0:0:
448,192,57897,1,2,0:0:0:0:
64,192,58197,1,2,0:0:0:0:
192,192,58347,1,8,0:0:0:0:
448,192,58497,1,2,0:0:0:0:
320,192,58647,1,2,0:0:0:0:
192,192,58797,1,8,0:0:0:0:
64,192,58797,128,0,59097:0:0:0:0:
448,192,59097,1,8,0:0:0:0:
192,192,59397,1,4,0:0:0:0:
320,192,59397,128,0,60597:0:0:0:0:
64,192,59847,1,2,0:0:0:0:
192,192,59997,1,8,0:0:0:0:
448,192,60297,1,2,0:0:0:0:
64,192,60597,128,2,61797:0:0:0:0:
192,192,60597,1,0,0:0:0:0:
448,192,60897,1,0,0:0:0:0:
192,192,61047,1,2,0:0:0:0:
320,192,61197,1,8,0:0:0:0:
192,192,61497,1,8,0:0:0:0:
192,192,61647,1,8,0:0:0:0:
448,192,61797,128,0,62097:0:0:0:0:
320,192,61797,1,0,0:0:0:0:
192,192,62247,128,0,63897:0:0:0:0:
448,192,62997,1,4,0:0:0:0:
448,192,63297,1,4,0:0:0:0:
320,192,63597,128,0,63897:0:0:0:0:
64,192,63897,1,8,0:0:0:0:
448,192,63897,1,0,0:0:0:0:
64,192,64197,1,2,0:0:0:0:
320,192,64197,1,0,0:0:0:0:
192,192,64497,1,8,0:0:0:0:
448,192,64497,1,0,0:0:0:0:
320,192,64797,1,2,0:0:0:0:
192,192,65097,1,8,0:0:0:0:
64,192,65097,1,0,0:0:0:0:
448,192,65397,1,2,0:0:0:0:
320,192,65697,1,8,0:0:0:0:
192,192,65697,1,0,0:0:0:0:
64,192,65997,1,2,0:0:0:0:
320,192,66297,1,8,0:0:0:0:
448,192,66297,1,0,0:0:0:0:
192,192,66597,1,2,0:0:0:0:
64,192,66897,1,8,0:0:0:0:
448,192,66897,1,0,0:0:0:0:
320,192,67197,1,2,0:0:0:0:
192,192,67497,1,8,0:0:0:0:
64,192,67497,1,0,0:0:0:0:
448,192,67797,1,2,0:0:0:0:
320,192,68097,1,8,0:0:0:0:
192,192,68097,1,0,0:0:0:0:
64,192,68397,1,2,0:0:0:0:
192,192,68697,1,8,0:0:0:0:
448,192,68697,1,0,0:0:0:0:
64,192,68997,1,2,0:0:0:0:
448,192,68997,1,0,0:0:0:0:
320,192,69147,1,0,0:0:0:0:
192,192,69297,1,8,0:0:0:0:
448,192,69447,1,0,0:0:0:0:
64,192,69597,1,2,0:0:0:0:
320,192,69747,1,0,0:0:0:0:
192,192,69897,1,8,0:0:0:0:
448,192,70047,1,0,0:0:0:0:
64,192,70197,1,2,0:0:0:0:
192,192,70347,1,0,0:0:0:0:
320,192,70497,1,8,0:0:0:0:
64,192,70647,1,0,0:0:0:0:
448,192,70797,1,2,0:0:0:0:
192,192,70947,1,0,0:0:0:0:
320,192,71097,1,8,0:0:0:0:
64,192,71247,1,0,0:0:0:0:
448,192,71397,1,2,0:0:0:0:
320,192,71547,1,0,0:0:0:0:
192,192,71697,1,8,0:0:0:0:
320,192,71847,1,0,0:0:0:0:
448,192,71997,1,2,0:0:0:0:
64,192,72147,1,0,0:0:0:0:
192,192,72297,1,8,0:0:0:0:
320,192,72447,1,0,0:0:0:0:
192,192,72597,1,2,0:0:0:0:
64,192,72747,1,0,0:0:0:0:
448,192,72897,1,8,0:0:0:0:
320,192,73047,1,0,0:0:0:0:
64,192,73197,1,2,0:0:0:0:
192,192,73347,1,0,0:0:0:0:
448,192,73497,128,8,73647:0:0:0:0:
320,192,73647,128,0,73797:0:0:0:0:
192,192,73797,128,4,75897:0:0:0:0:
64,192,73797,1,2,0:0:0:0:
448,192,75897,128,0,76197:0:0:0:0:
64,192,76197,128,4,77997:0:0:0:0:
320,192,76197,1,0,0:0:0:0:
320,192,77997,128,0,78597:0:0:0:0:
64,192,78597,1,2,0:0:0:0:
448,192,78597,1,4,0:0:0:0:
192,192,78897,1,0,0:0:0:0:
320,192,79497,1,0,0:0:0:0:
64,192,79947,128,0,80097:0:0:0:0:
64,192,80247,128,0,80547:0:0:0:0:
448,192,80697,1,0,0:0:0:0:
192,192,81297,1,0,0:0:0:0:
320,192,81897,1,0,0:0:0:0:
448,192,82347,128,0,82497:0:0:0:0:
448,192,82647,128,0,82947:0:0:0:0:
64,192,83097,1,0,0:0:0:0:
320,192,83697,1,0,0:0:0:0:
192,192,84297,1,0,0:0:0:0:
448,192,84897,1,0,0:0:0:0:
64,192,85497,1,0,0:0:0:0:
320,192,86097,1,0,0:0:0:0:
192,192,86697,1,0,0:0:0:0:
448,192,87147,1,2,0:0:0:0:
192,192,87297,1,8,0:0:0:0:
320,192,87297,1,0,0:0:0:0:
64,192,87597,128,2,87897:0:0:0:0:
448,192,87897,1,8,0:0:0:0:
320,192,88197,1,4,0:0:0:0:
192,192,88197,1,2,0:0:0:0:
64,192,88497,1,2,0:0:0:0:
448,192,88797,1,2,0:0:0:0:
64,192,89097,1,2,0:0:0:0:
320,192,89397,1,2,0:0:0:0:
192,192,89547,128,0,89697:0:0:0:0:
192,192,89847,128,0,90147:0:0:0:0:
448,192,90297,1,8,0:0:0:0:
320,192,90297,1,0,0:0:0:0:
64,192,90597,1,2,0:0:0:0:
320,192,90897,1,2,0:0:0:0:
192,192,91197,1,2,0:0:0:0:
448,192,91497,1,2,0:0:0:0:
64,192,91797,1,2,0:0:0:0:
320,192,91947,128,0,92097:0:0:0:0:
320,192,92247,128,0,92547:0:0:0:0:
64,192,92697,1,8,0:0:0:0:
448,192,92697,1,4,0:0:0:0:
192,192,92997,1,2,0:0:0:0:
64,192,92997,1,4,0:0:0:0:
320,192,93297,1,8,0:0:0:0:
448,192,93297,1,0,0:0:0:0:
64,192,93597,128,2,93897:0:0:0:0:
192,192,93597,1,0,0:0:0:0:
448,192,93897,1,8,0:0:0:0:
320,192,94197,1,2,0:0:0:0:
64,192,94497,1,8,0:0:0:0:
192,192,94497,1,0,0:0:0:0:
448,192,94797,128,2,95097:0:0:0:0:
320,192,94797,1,0,0:0:0:0:
64,192,95097,1,8,0:0:0:0:
192,192,95397,128,8,96597:0:0:0:0:
448,192,96597,1,2,0:0:0:0:
320,192,96597,1,4,0:0:0:0:
64,192,96897,1,4,0:0:0:0:
192,192,96897,1,0,0:0:0:0:
448,192,97197,128,0,97497:0:0:0:0:
320,192,97497,1,8,0:0:0:0:
192,192,97797,1,4,0:0:0:0:
448,192,97797,1,2,0:0:0:0:
64,192,98097,1,8,0:0:0:0:
448,192,98097,1,0,0:0:0:0:
320,192,98397,1,2,0:0:0:0:
64,192,98697,1,8,0:0:0:0:
192,192,98697,1,0,0:0:0:0:
448,192,98997,1,2,0:0:0:0:
192,192,99147,128,0,99297:0:0:0:0:
192,192,99447,128,0,99747:0:0:0:0:
320,192,99897,1,8,0:0:0:0:
64,192,100197,1,2,0:0:0:0:
320,192,100497,1,8,0:0:0:0:
192,192,100497,1,0,0:0:0:0:
448,192,100797,1,2,0:0:0:0:
64,192,101097,1,8,0:0:0:0:
192,192,101097,1,0,0:0:0:0:
320,192,101397,1,2,0:0:0:0:
448,192,101547,128,0,101697:0:0:0:0:
448,192,101847,128,0,102147:0:0:0:0:
64,192,102297,1,8,0:0:0:0:
320,192,102597,1,2,0:0:0:0:
448,192,102897,1,8,0:0:0:0:
192,192,102897,1,0,0:0:0:0:
64,192,103197,1,2,0:0:0:0:
320,192,103497,1,8,0:0:0:0:
448,192,103497,1,0,0:0:0:0:
192,192,103797,1,2,0:0:0:0:
448,192,104097,1,8,0:0:0:0:
64,192,104097,1,0,0:0:0:0:
192,192,104397,1,2,0:0:0:0:
320,192,104397,128,0,104997:0:0:0:0:
448,192,104697,1,8,0:0:0:0:
64,192,104997,1,2,0:0:0:0:
192,192,104997,128,0,105597:0:0:0:0:
320,192,105297,1,8,0:0:0:0:
64,192,105597,1,2,0:0:0:0:
448,192,105597,128,0,106197:0:0:0:0:
320,192,105897,1,8,0:0:0:0:
192,192,106197,1,2,0:0:0:0:
64,192,106197,128,0,106797:0:0:0:0:
320,192,106497,1,8,0:0:0:0:
448,192,106797,1,2,0:0:0:0:
192,192,107097,1,8,0:0:0:0:
320,192,107097,1,0,0:0:0:0:
64,192,107397,1,2,0:0:0:0:
448,192,107397,1,4,0:0:0:0:
64,192,107697,1,8,0:0:0:0:
192,192,107697,1,0,0:0:0:0:
320,192,107997,1,2,0:0:0:0:
64,192,108297,1,8,0:0:0:0:
448,192,108297,1,0,0:0:0:0:
192,192,108597,1,2,0:0:0:0:
320,192,108747,128,0,108897:0:0:0:0:
320,192,109047,128,0,109347:0:0:0:0:
448,192,109497,1,8,0:0:0:0:
64,192,109797,1,2,0:0:0:0:
192,192,110097,1,8,0:0:0:0:
448,192,110097,1,0,0:0:0:0:
320,192,110397,1,2,0:0:0:0:
64,192,110697,1,8,0:0:0:0:
192,192,110697,1,0,0:0:0:0:
448,192,110997,1,2,0:0:0:0:
64,192,111147,128,0,111297:0:0:0:0:
64,192,111447,128,0,111747:0:0:0:0:
320,192,111897,1,8,0:0:0:0:
192,192,112197,1,4,0:0:0:0:
448,192,112197,1,2,0:0:0:0:
320,192,112497,1,8,0:0:0:0:
64,192,112497,1,0,0:0:0:0:
192,192,112797,1,2,0:0:0:0:
448,192,112797,128,0,113097:0:0:0:0:
64,192,113097,1,8,0:0:0:0:
320,192,113397,1,2,0:0:0:0:
192,192,113397,1,0,0:0:0:0:
448,192,113697,1,8,0:0:0:0:
64,192,113697,1,0,0:0:0:0:
320,192,113997,1,2,0:0:0:0:
192,192,113997,128,0,114297:0:0:0:0:
64,192,114297,1,8,0:0:0:0:
320,192,114597,1,2,0:0:0:0:
192,192,114597,1,4,0:0:0:0:
448,192,115047,1,2,0:0:0:0:
64,192,115197,1,8,0:0:0:0:
320,192,115197,1,0,0:0:0:0:
192,192,115497,1,2,0:0:0:0:
448,192,115797,1,2,0:0:0:0:
320,192,115947,1,8,0:0:0:0:
192,192,116097,1,2,0:0:0:0:
64,192,116247,1,2,0:0:0:0:
448,192,116397,1,8,0:0:0:0:
320,192,116397,128,0,116697:0:0:0:0:
64,192,116697,1,2,0:0:0:0:
448,192,116997,128,4,118197:0:0:0:0:
192,192,116997,1,2,0:0:0:0:
64,192,117447,1,2,0:0:0:0:
192,192,117597,1,8,0:0:0:0:
320,192,117897,1,2,0:0:0:0:
64,192,118197,128,4,119397:0:0:0:0:
192,192,118197,1,0,0:0:0:0:
320,192,118497,1,2,0:0:0:0:
448,192,118647,1,2,0:0:0:0:
192,192,118797,1,4,0:0:0:0:
320,192,119097,1,2,0:0:0:0:
320,192,119247,1,2,0:0:0:0:
448,192,119397,128,0,119697:0:0:0:0:
192,192,119397,1,0,0:0:0:0:
192,192,119847,128,0,121497:0:0:0:0:
320,192,120597,1,4,0:0:0:0:
320,192,120897,1,4,0:0:0:0:
448,192,121197,128,0,121497:0:0:0:0:
64,192,121497,1,8,0:0:0:0:
320,192,121497,1,0,0:0:0:0:
64,192,121797,1,4,0:0:0:0:
448,192,121797,1,2,0:0:0:0:
320,192,122097,1,8,0:0:0:0:
192,192,122097,1,0,0:0:0:0:
64,192,122397,1,2,0:0:0:0:
192,192,122697,1,8,0:0:0:0:
448,192,122697,1,0,0:0:0:0:
320,192,122847,128,0,123147:0:0:0:0:
448,192,123147,1,0,0:0:0:0:
64,192,123297,1,8,0:0:0:0:
192,192,123297,1,0,0:0:0:0:
320,192,123447,1,0,0:0:0:0:
448,192,123597,1,2,0:0:0:0:
64,192,123747,1,0,0:0:0:0:
448,192,123897,1,8,0:0:0:0:
192,192,123897,1,0,0:0:0:0:
320,192,124047,1,0,0:0:0:0:
192,192,124197,1,2,0:0:0:0:
320,192,124497,1,8,0:0:0:0:
64,192,124497,1,0,0:0:0:0:
448,192,124797,1,2,0:0:0:0:
320,192,125097,1,8,0:0:0:0:
192,192,125097,1,0,0:0:0:0:
64,192,125247,128,0,125547:0:0:0:0:
448,192,125547,1,0,0:0:0:0:
320,192,125697,1,8,0:0:0:0:
192,192,125697,1,0,0:0:0:0:
64,192,125847,1,0,0:0:0:0:
192,192,125997,1,0,0:0:0:40:Bass Drum.wav
448,192,125997,1,0,0:0:0:0:
448,192,126297,1,0,0:0:0:40:Bass Drum.wav
192,192,126297,1,0,0:0:0:0:
64,192,126597,1,2,0:0:0:0:
320,192,126597,1,4,0:0:0:0:
320,192,126897,1,8,0:0:0:0:
448,192,126897,1,0,0:0:0:0:
192,192,127197,1,2,0:0:0:0:
64,192,127497,1,8,0:0:0:0:
448,192,127497,1,0,0:0:0:0:
320,192,127647,128,0,127947:0:0:0:0:
192,192,127947,1,0,0:0:0:0:
448,192,128097,1,8,0:0:0:0:
64,192,128097,1,0,0:0:0:0:
192,192,128247,1,0,0:0:0:0:
320,192,128397,1,2,0:0:0:0:
192,192,128547,1,0,0:0:0:0:
64,192,128697,1,8,0:0:0:0:
448,192,128697,1,0,0:0:0:0:
320,192,128847,1,0,0:0:0:0:
192,192,128997,1,2,0:0:0:0:
448,192,129297,1,8,0:0:0:0:
320,192,129297,1,0,0:0:0:0:
64,192,129597,1,2,0:0:0:0:
192,192,129897,1,8,0:0:0:0:
448,192,129897,1,0,0:0:0:0:
320,192,130047,1,0,0:0:0:0:
64,192,130347,1,2,0:0:0:0:
192,192,130347,1,0,0:0:0:0:
320,192,130497,1,2,0:0:0:0:
448,192,130497,1,0,0:0:0:0:
192,192,130797,1,2,0:0:0:0:
320,192,130947,1,2,0:0:0:0:
64,192,131097,1,8,0:0:0:0:
448,192,131097,1,0,0:0:0:0:
