osu file format v14

[General]
AudioFilename: audio.mp3
AudioLeadIn: 0
PreviewTime: 39597
Countdown: 0
SampleSet: Soft
StackLeniency: 0.7
Mode: 0
LetterboxInBreaks: 0
WidescreenStoryboard: 0

[Editor]
Bookmarks: 78597,88197
DistanceSpacing: 1.2
BeatDivisor: 4
GridSize: 4
TimelineZoom: 2

[Metadata]
Title:Doutei Korose (Cut Ver.)
TitleUnicode:童テイ殺セ (Cut Ver.)
Artist:IOSYS
ArtistUnicode:イオシス
Creator:Appetible
Version:Korose
Source:
Tags:はいぱぁ電波これくしょん!hyper denpa collection! amazing burst into flames 山本椛 yamamoto momiji leominexd electronic japanese
BeatmapID:2665060
BeatmapSetID:1283252

[Difficulty]
HPDrainRate:7
CircleSize:5
OverallDifficulty:8
ApproachRate:9
SliderMultiplier:1.8
SliderTickRate:2

[Events]
//Background and Video events
0,0,"background2.jpg",0,0
//Break Periods
2,78797,87597
//Storyboard Layer 0 (Background)
//Storyboard Layer 1 (Fail)
//Storyboard Layer 2 (Pass)
//Storyboard Layer 3 (Foreground)
//Storyboard Layer 4 (Overlay)
//Storyboard Sound Samples

[TimingPoints]
597,300,4,2,1,70,1,0
4797,-100,4,2,1,50,0,0
5397,-100,4,2,1,70,0,0
8997,-100,4,2,1,50,0,0
11397,-100,4,2,1,50,0,0
15597,-100,4,2,1,60,0,0
16047,-100,4,2,1,60,0,0
17397,-100,4,2,1,65,0,0
18597,-100,4,2,1,55,0,0
19797,-100,4,2,1,65,0,0
20397,-1000,4,2,1,55,0,0
20847,-100,4,2,1,55,0,0
20997,-125,4,2,1,55,0,0
30597,-100,4,2,1,60,0,0
35397,-100,4,2,1,65,0,0
36597,-100,4,2,1,70,0,0
37797,-100,4,2,1,75,0,0
38997,-100,4,2,1,80,0,0
39597,-200,4,2,1,80,0,0
40197,-100,4,2,1,80,0,1
49722,-100,4,2,1,80,0,0
49797,-100,4,2,1,80,0,1
58797,-100,4,2,1,65,0,1
59397,-200,4,2,1,70,0,0
61797,-133.333333333333,4,2,1,70,0,0
62697,-100,4,2,1,80,0,0
63897,-1000,4,2,1,80,0,0
64197,-100,4,2,1,70,0,0
73797,-200,4,2,1,50,0,0
76197,-200,4,2,1,50,0,0
77997,-200,4,2,1,50,0,0
88197,-100,4,2,1,60,0,0
95397,-100,4,2,1,65,0,0
95997,-100,4,2,1,70,0,0
96597,-100,4,2,1,60,0,0
97197,-100,4,2,1,65,0,0
97797,-100,4,2,1,80,0,1
107322,-100,4,2,1,80,0,0
107397,-100,4,2,1,80,0,1
116397,-100,4,2,1,65,0,1
116997,-200,4,2,1,80,0,0
119397,-133.333333333333,4,2,1,70,0,0
120297,-100,4,2,1,70,0,0
121197,-100,4,2,1,70,0,0
121497,-1000,4,2,1,70,0,0
121797,-100,4,2,1,70,0,0
125997,-100,4,2,1,50,0,0
126597,-100,4,2,1,70,0,0
130197,-100,4,2,1,50,0,0

[Colours]
Combo1 : 97,126,243
Combo2 : 111,191,230
Combo3 : 213,175,228
Combo4 : 231,164,152
SliderBorder : 64,159,255
SliderTrackOverride : 170,170,220

[HitObjects]
221,157,597,6,0,P|207:114|220:72,1,90,4|0,0:0|0:0,0:0:0:0:
255,38,822,1,0,0:0:0:0:
255,38,897,1,8,0:0:0:0:
351,9,1047,1,2,0:0:0:0:
446,38,1197,1,0,1:0:0:0:
446,38,1272,1,0,0:0:0:0:
446,38,1347,2,0,P|459:79|446:121,1,90,2|8,0:0|0:0,0:0:0:0:
375,191,1647,6,0,P|347:274|375:358,1,180,0|0,1:0|1:0,0:0:0:0:
448,271,2097,1,10,0:0:0:0:
255,231,2247,2,0,P|244:274|255:317,1,90,2|0,0:0|1:0,0:0:0:0:
164,357,2547,1,2,0:0:0:0:
164,357,2622,1,0,0:0:0:0:
164,357,2697,1,10,0:0:0:0:
73,317,2847,1,2,0:0:0:0:
164,278,2997,6,0,B|185:214|185:214|164:150,1,135,0|0,1:0|0:0,0:0:0:0:
128,114,3297,1,8,0:0:0:0:
57,43,3447,1,2,0:0:0:0:
128,114,3597,2,0,P|168:130|208:114,1,90,0|2,1:0|0:0,0:0:0:0:
256,43,3897,1,10,0:0:0:0:
384,114,4047,6,0,P|344:130|304:114,1,90,0|0,1:0|0:0,0:0:0:0:
256,32,4347,1,0,1:0:0:0:
128,114,4497,2,0,P|168:130|208:114,1,90,10|2,0:0|0:0,0:0:0:0:
256,200,4797,5,8,0:3:0:0:
256,200,5097,1,8,0:3:0:0:
256,200,5397,6,0,B|284:242|259:285|256:285|252:285|227:328|256:370,1,180,0|8,1:0|0:0,0:0:0:0:
332,328,5847,1,2,0:0:0:0:
180,244,5997,2,0,P|138:230|96:244,1,90,0|2,1:0|0:0,0:0:0:0:
180,328,6297,1,10,0:0:0:0:
332,244,6447,6,0,P|373:200|415:244,1,135,0|0,1:0|0:0,0:0:0:0:
450,279,6747,1,0,1:0:0:0:
497,192,6897,1,10,0:0:0:0:
450,105,7047,1,2,0:0:0:0:
497,18,7197,1,0,1:0:0:0:
450,105,7347,5,2,0:0:0:0:
450,105,7422,1,0,0:0:0:0:
450,105,7497,1,10,0:0:0:0:
402,18,7647,1,2,0:0:0:0:
330,174,7797,6,0,P|341:130|330:87,1,90,0|0,1:0|0:0,0:0:0:0:
216,240,8097,1,8,0:0:0:0:
296,240,8247,1,2,0:0:0:0:
180,88,8398,2,0,P|169:130|180:174,1,90,0|2,1:0|0:0,0:0:0:0:
330,174,8697,5,8,0:0:0:0:
256,0,8847,1,0,1:0:0:0:
179,173,9147,5,8,0:0:0:0:
256,0,9297,1,8,0:0:0:0:
256,320,9597,6,0,B|227:277|252:234|256:234|259:234|284:192|256:149,1,180,4|8,0:0|0:0,0:0:0:0:
245,139,10197,5,0,0:3:0:0:
235,129,10497,1,0,0:3:0:0:
225,119,10797,1,0,0:3:0:0:
215,109,11097,1,0,0:3:0:0:
205,99,11397,6,0,P|163:112|121:99,1,90,0|2,1:0|0:0,0:0:0:0:
51,28,11697,1,8,0:0:0:0:
121,98,11847,1,2,0:0:0:0:
191,27,11997,2,0,P|233:13|274:27,1,90,0|2,1:0|0:0,0:0:0:0:
344,97,12297,2,0,P|385:111|427:97,1,90,10|2,0:0|0:0,0:0:0:0:
498,27,12597,5,0,1:0:0:0:
427,97,12747,2,0,B|464:134|464:134|518:188|487:248,1,180,2|0,0:0|0:0,0:0:0:0:
417,319,13197,1,0,1:0:0:0:
346,248,13347,1,2,0:0:0:0:
275,318,13497,2,0,P|233:332|191:318,1,90,8|2,0:0|0:0,0:0:0:0:
191,218,13797,6,0,L|45:324,2,180,0|8|0,1:0|0:0|1:0,0:0:0:0:
191,318,14547,1,2,0:0:0:0:
95,193,14697,2,0,P|53:179|11:193,1,90,10|2,0:0|0:0,0:0:0:0:
191,148,14997,5,0,1:0:0:0:
192,148,15147,1,0,1:0:0:0:
95,103,15297,2,0,P|53:89|11:103,1,90,8|0,0:0|0:0,0:0:0:0:
171,40,15597,2,0,L|217:40,4,45,0|0|0|0|8,1:0|0:0|0:0|0:0|0:0,0:0:0:0:
341,40,16047,1,0,0:0:0:0:
341,40,16197,6,0,B|376:40|376:40|382:42|382:42|382:37|382:37|387:40|387:40|423:40,1,90,0|0,1:0|0:0,0:0:0:0:
494,110,16497,1,10,0:0:0:0:
423,180,16647,2,0,B|387:180|387:180|381:182|381:182|381:177|381:177|376:180|376:180|340:180,1,90,2|0,0:0|1:0,0:0:0:0:
270,109,16947,1,2,0:0:0:0:
423,180,17097,2,0,B|433:223|433:223|422:267,1,90,8|2,0:0|0:0,0:0:0:0:
217,268,17397,6,0,B|242:287|256:311|256:345|256:345|256:311|270:287|295:268,1,180,0|10,1:0|0:0,0:0:0:0:
89,267,17847,1,2,0:0:0:0:
89,117,17997,2,0,B|79:74|79:74|89:29,1,90,0|2,1:0|0:0,0:0:0:0:
40,192,18297,1,8,0:0:0:0:
217,268,18447,1,2,0:0:0:0:
295,267,18597,6,0,B|295:190|213:190|213:114,1,180,0|10,1:0|0:0,0:0:0:0:
256,32,19047,1,2,0:0:0:0:
299,114,19197,2,0,B|299:190|217:190|217:267,1,180,0|10,1:0|0:0,0:0:0:0:
256,352,19647,1,2,0:0:0:0:
295,267,19797,5,8,0:0:0:0:
256,32,19947,1,8,0:0:0:0:
216,267,20097,1,8,0:0:0:0:
256,16,20247,1,8,0:0:0:0:
295,267,20397,6,0,L|322:267,1,27,8|0,0:0|0:0,0:0:0:0:
378,324,20997,6,0,P|415:267|378:211,1,144,4|0,0:0|0:0,0:0:0:0:
321,155,21447,1,0,0:0:0:0:
377,98,21597,2,0,L|486:0,1,144,8|0,0:0|0:0,0:0:0:0:
325,1,22197,6,0,B|287:1|287:1|232:1|204:56,1,144,0|0,1:0|1:0,0:0:0:0:
125,57,22647,2,0,B|162:57|162:57|217:57|245:112,1,144,2|0,0:0|0:0,0:0:0:0:
256,192,23097,1,0,0:0:0:0:
124,281,23397,6,0,B|183:281|183:281|163:320|183:360,1,144,0|0,1:0|0:0,0:0:0:0:
256,320,23847,1,0,0:0:0:0:
328,360,23997,2,0,B|348:320|328:281|328:281|388:281,1,144,8|0,0:0|0:0,0:0:0:0:
388,103,24597,6,0,B|328:103|328:103|348:63|328:23,1,144,0|0,1:0|1:0,0:0:0:0:
256,64,25046,1,2,0:0:0:0:
183,23,25197,2,0,B|163:63|183:103|183:103|124:103,1,144,8|0,0:0|0:0,0:0:0:0:
67,46,25647,1,0,0:0:0:0:
10,102,25797,6,0,L|86:178,1,108,0|0,1:0|0:0,0:0:0:0:
55,203,26097,2,0,P|88:195|123:204,1,72,0|2,1:0|0:0,0:0:0:0:
323,248,26397,2,0,P|256:271|189:249,1,144,10|0,0:0|0:0,0:0:0:0:
124,204,26847,1,0,0:0:0:0:
189,160,26997,6,0,P|256:137|323:160,1,144,0|0,1:0|1:0,0:0:0:0:
358,88,27447,2,0,B|256:28|153:88,1,216,2|0,0:0|0:0,0:0:0:0:
189,224,28197,6,0,P|256:246|323:223,1,144,0|0,1:0|0:0,0:0:0:0:
358,296,28647,2,0,B|256:355|153:296,1,216,0|0,0:0|0:0,0:0:0:0:
32,192,29397,5,0,1:0:0:0:
88,135,29547,2,0,B|118:135|118:135|122:131|122:131|125:135|125:135|156:135,1,72,10|0,0:0|1:0,0:0:0:0:
213,191,29847,1,2,0:0:0:0:
269,134,29997,2,0,B|299:134|299:134|303:130|303:130|306:134|306:134|337:134,1,72,8|0,0:0|0:0,0:0:0:0:
394,190,30297,1,0,0:0:0:0:
338,134,30447,1,0,0:0:0:0:
394,190,30597,6,0,B|394:280|394:280|353:360,1,180,0|0,1:0|0:0,0:0:0:0:
212,265,31047,2,0,P|254:254|297:265,1,90,8|0,0:0|0:0,0:0:0:0:
158,360,31347,2,0,B|118:280|118:280|118:190,1,180,2|2,0:0|0:0,0:0:0:0:
40,127,31797,6,0,P|117:88|194:127,1,180,0|0,1:0|0:0,0:0:0:0:
299,29,32247,2,0,P|255:40|213:29,1,90,8|0,0:0|0:0,0:0:0:0:
316,127,32547,1,2,0:0:0:0:
256,208,32697,1,2,0:0:0:0:
195,127,32847,1,2,0:0:0:0:
256,378,32997,6,0,B|284:335|259:292|256:292|252:292|227:250|256:207,1,180,0|0,1:0|0:0,0:0:0:0:
212,28,33447,2,0,P|255:40|299:29,1,90,8|0,0:0|0:0,0:0:0:0:
255,207,33747,1,2,0:0:0:0:
299,29,33897,1,2,0:0:0:0:
163,127,34047,1,2,0:0:0:0:
349,127,34197,6,0,B|406:184|406:184|414:186|414:186|423:189|423:189|480:246,1,180,0|2,1:0|0:0,0:0:0:0:
163,127,34647,2,0,B|105:184|105:184|97:186|97:186|88:189|88:189|31:246,1,180,8|2,0:0|0:0,0:0:0:0:
298,355,35097,2,0,P|254:366|212:354,1,90,8|0,0:0|0:0,0:0:0:0:
162,246,35397,5,8,0:0:0:0:
350,246,35697,1,0,0:0:0:0:
212,354,35997,1,8,0:0:0:0:
256,172,36297,1,0,0:0:0:0:
305,364,36597,5,8,0:0:0:0:
145,236,36897,1,0,0:0:0:0:
366,236,37197,1,8,0:0:0:0:
204,363,37497,1,0,0:0:0:0:
254,157,37797,5,8,0:0:0:0:
254,157,37947,1,2,0:0:0:0:
303,372,38097,5,8,0:0:0:0:
303,372,38247,1,2,0:0:0:0:
143,244,38397,5,8,0:0:0:0:
143,244,38547,1,2,0:0:0:0:
364,244,38697,5,8,0:0:0:0:
364,244,38847,1,2,0:0:0:0:
143,244,38997,5,8,0:0:0:0:
130,226,39072,1,8,0:0:0:0:
120,206,39147,1,8,0:0:0:0:
114,184,39222,1,8,0:0:0:0:
112,162,39297,1,8,0:0:0:0:
114,140,39372,1,8,0:0:0:0:
119,118,39447,1,8,0:0:0:0:
129,98,39522,1,8,0:0:0:0:
145,82,39597,6,0,B|133:82|125:89|125:89|117:82|105:82,1,45,8|0,0:0|0:0,0:0:0:0:
80,58,39822,1,0,0:0:0:0:
104,33,39897,2,0,B|115:33|123:25|123:25|131:33|143:33,1,45,8|0,0:0|0:0,0:0:0:0:
256,25,40197,6,0,P|297:11|339:25,1,90,4|0,0:0|0:0,0:0:0:0:
416,101,40497,1,8,0:0:0:0:
339,177,40647,2,0,P|296:190|255:176,1,90,2|0,0:0|1:0,0:0:0:0:
416,101,40947,2,0,P|458:87|499:101,1,90,0|10,0:0|0:0,0:0:0:0:
339,177,41247,2,0,L|434:272,1,135,2|0,0:0|0:0,0:0:0:0:
472,310,41547,6,0,P|409:289|346:310,1,135,2|0,0:0|0:0,0:0:0:0:
298,335,41847,2,0,P|256:349|214:335,1,90,2|0,0:0|1:0,0:0:0:0:
137,259,42147,1,0,0:0:0:0:
60,335,42297,1,8,0:0:0:0:
137,259,42447,1,0,0:0:0:0:
60,182,42597,6,0,B|45:139|45:139|60:97,1,90,0|0,1:0|0:0,0:0:0:0:
136,20,42897,1,8,0:0:0:0:
212,96,43047,2,0,B|226:138|226:138|212:180,1,90,2|0,0:0|1:0,0:0:0:0:
137,259,43347,2,0,P|194:230|252:259,1,135,0|0,0:0|0:0,0:0:0:0:
291,298,43647,2,0,L|361:362,1,90,2|0,0:0|1:0,0:0:0:0:
444,287,43947,6,0,P|474:229|445:171,1,135,2|0,0:0|0:0,0:0:0:0:
483,132,44247,1,2,0:0:0:0:
406,55,44397,2,0,P|364:68|322:55,1,90,0|0,1:0|0:0,0:0:0:0:
256,141,44697,1,8,0:0:0:0:
322,54,44847,1,0,0:0:0:0:
189,54,44997,6,0,P|148:68|106:55,1,90,0|0,1:0|0:0,0:0:0:0:
29,136,45297,1,8,0:0:0:0:
105,217,45447,2,0,P|147:203|188:217,1,90,2|0,0:0|1:0,0:0:0:0:
298,312,45747,2,0,P|256:327|214:312,1,90,0|8,0:0|0:0,0:0:0:0:
323,217,46047,2,0,P|364:203|406:217,1,90,0|0,0:0|1:0,0:0:0:0:
457,304,46347,5,2,0:0:0:0:
504,207,46497,2,0,B|517:164|517:164|503:122,1,90,8|2,0:0|0:0,0:0:0:0:
403,80,46797,2,0,B|403:33|356:9|356:9|309:33|309:80,1,180,0|8,1:0|0:0,0:0:0:0:
203,80,47247,1,2,0:0:0:0:
126,3,47397,6,0,B|98:12|81:49|91:77|91:77|64:87|46:124|56:151,1,180,0|8,1:0|0:0,0:0:0:0:
160,192,47847,1,0,0:0:0:0:
56,232,47997,2,0,B|46:259|64:296|91:306|91:306|81:334|98:371|126:381,1,180,0|10,1:0|0:0,0:0:0:0:
256,291,48447,1,2,0:0:0:0:
160,227,48597,6,0,L|160:317,1,90,0|0,1:0|0:0,0:0:0:0:
352,317,48897,2,0,L|352:227,1,90,8|0,0:0|0:0,0:0:0:0:
256,381,49197,1,0,1:0:0:0:
352,317,49347,1,0,1:0:0:0:
256,291,49497,1,8,0:0:0:0:
352,227,49647,1,8,0:0:0:0:
352,52,49797,6,0,B|271:52|271:52|263:56|263:56|255:60|255:60|174:60,1,180,4|8,0:0|0:0,0:0:0:0:
65,17,50247,2,0,P|54:60|65:103,1,90,2|0,0:0|1:0,0:0:0:0:
163,235,50547,2,0,P|174:192|163:149,1,90,0|8,0:0|0:0,0:0:0:0:
65,281,50847,2,0,L|182:349,1,135,2|0,0:0|0:0,0:0:0:0:
231,370,51147,6,0,B|249:355|256:333|256:333|263:355|281:370,1,90,2|8,0:0|0:0,0:0:0:0:
483,368,51447,2,0,B|465:353|458:331|458:331|451:353|433:368,1,90,2|0,0:0|1:0,0:0:0:0:
357,292,51746,1,0,0:0:0:0:
280,369,51897,1,8,0:0:0:0:
357,292,52047,1,0,0:0:0:0:
433,215,52197,6,0,P|472:137|433:59,1,180,0|8,1:0|0:0,0:0:0:0:
325,59,52647,2,0,P|286:136|325:214,2,180,2|0|2,0:0|0:0|0:0,0:0:0:0:
380,136,53397,1,0,1:0:0:0:
325,59,53547,6,0,L|235:59,1,90,2|8,0:0|0:0,0:0:0:0:
160,137,53847,1,2,0:0:0:0:
234,215,53997,2,0,L|368:215,1,135,0|0,1:0|0:0,0:0:0:0:
423,215,54297,1,8,0:0:0:0:
256,352,54597,5,0,1:0:0:0:
5,215,54897,2,0,P|46:201|89:215,1,90,8|2,0:0|0:0,0:0:0:0:
297,150,55197,2,0,P|255:164|213:152,1,90,0|0,1:0|0:0,0:0:0:0:
423,215,55497,1,8,0:0:0:0:
256,352,55797,5,0,1:0:0:0:
5,215,56097,2,0,P|46:201|89:215,1,90,8|2,0:0|0:0,0:0:0:0:
297,150,56397,2,0,P|255:164|213:152,1,90,0|0,1:0|0:0,0:0:0:0:
423,215,56697,1,8,0:0:0:0:
499,138,56847,1,0,0:0:0:0:
499,30,56997,6,0,B|478:9|437:9|417:29|417:29|396:9|355:9|335:30,1,180,0|0,1:0|0:0,0:0:0:0:
256,96,57447,1,0,0:0:0:0:
178,30,57597,2,0,B|137:60|126:101|126:101|137:142|178:172,1,180,8|0,0:0|0:0,0:0:0:0:
256,96,58047,1,0,0:0:0:0:
334,172,58197,6,0,B|374:142|385:101|385:101|374:60|334:30,2,180,0|0|8,1:0|1:0|0:0,0:0:0:0:
307,198,58872,1,8,0:0:0:0:
281,223,58947,1,8,0:0:0:0:
255,247,59022,1,8,0:0:0:0:
231,273,59097,1,8,0:0:0:0:
142,359,59247,1,0,0:0:0:0:
178,170,59397,6,0,B|178:113|112:160|64:80|104:0|192:-8|216:56,1,270,0|0,1:0|0:0,0:0:0:0:
334,170,60597,2,0,B|334:113|400:160|448:80|408:0|320:-8|296:56,1,270,0|0,1:0|0:0,0:0:0:0:
178,170,61797,6,0,B|256:234|256:234|334:170,2,202.500007724762,2|2|2,0:0|0:0|0:0,0:0:0:0:
168,160,62997,1,0,0:0:0:0:
158,150,63297,1,0,0:0:0:0:
62,73,63597,5,0,1:0:0:0:
33,107,63672,1,0,1:0:0:0:
23,150,63747,1,0,1:0:0:0:
33,194,63822,1,0,1:0:0:0:
62,228,63897,6,0,L|70:237,1,9,8|0,0:0|0:0,0:0:0:0:
143,294,64197,6,0,P|128:335|142:377,1,90,0|2,1:0|0:0,0:0:0:0:
304,336,64497,1,10,0:0:0:0:
208,336,64647,1,2,0:0:0:0:
369,377,64797,2,0,P|383:335|369:294,1,90,0|2,1:0|0:0,0:0:0:0:
439,223,65097,1,8,0:0:0:0:
509,293,65247,1,2,0:0:0:0:
439,223,65397,6,0,B|411:195|411:195|408:185|408:185|401:192|401:192|397:181|397:181|384:168|384:168|370:154|370:154|366:144|366:144|360:150|360:150|356:140|356:140|329:113,1,180,0|8,1:0|0:0,0:0:0:0:
256,45,65847,1,0,0:0:0:0:
182,113,65997,2,0,B|155:140|155:140|151:150|151:150|145:144|145:144|141:154|141:154|127:168|127:168|114:181|114:181|110:192|110:192|103:185|103:185|100:195|100:195|71:224,1,180,0|10,1:0|0:0,0:0:0:0:
2,293,66447,1,0,0:0:0:0:
84,348,66597,6,0,L|174:348,1,90,0|2,1:0|0:0,0:0:0:0:
256,293,66897,1,10,0:0:0:0:
256,194,67047,2,0,B|227:151|252:108|256:108|259:108|284:66|256:23,1,180,2|2,0:0|0:0,0:0:0:0:
191,68,67497,1,8,0:0:0:0:
323,152,67647,6,0,B|361:171|396:142|396:142|386:161|386:161|420:132|459:152,1,180,2|0,0:0|0:0,0:0:0:0:
459,252,68097,1,8,0:0:0:0:
459,351,68247,2,0,B|420:370|385:341|385:341|395:360|395:360|361:331|322:351,1,180,0|2,0:0|0:0,0:0:0:0:
256,276,68697,1,10,0:0:0:0:
190,351,68847,1,2,0:0:0:0:
214,213,68997,6,0,P|255:199|297:213,1,90,0|2,1:0|0:0,0:0:0:0:
321,351,69297,1,8,0:0:0:0:
190,351,69447,1,0,0:0:0:0:
322,351,69597,5,0,1:0:0:0:
298,192,69747,2,0,P|256:178|215:193,1,90,2|8,0:0|0:0,0:0:0:0:
191,351,70047,1,0,0:0:0:0:
214,173,70197,6,0,P|255:159|297:173,1,90,0|2,1:0|0:0,0:0:0:0:
321,351,70497,1,8,0:0:0:0:
297,153,70647,2,0,P|255:138|213:153,1,90,2|0,0:0|1:0,0:0:0:0:
190,351,70947,5,0,1:0:0:0:
321,351,71097,1,8,0:0:0:0:
190,351,71247,1,0,0:0:0:0:
214,171,71397,6,0,B|256:188|256:188|297:171,1,90,0|2,1:0|0:0,0:0:0:0:
321,33,71697,1,8,0:0:0:0:
190,33,71847,1,0,0:0:0:0:
322,33,71997,5,0,1:0:0:0:
297,191,72147,2,0,B|256:208|256:208|214:191,1,90,2|8,0:0|0:0,0:0:0:0:
191,33,72447,1,0,0:0:0:0:
214,211,72597,6,0,B|255:228|255:228|297:211,1,90,0|2,1:0|0:0,0:0:0:0:
321,33,72897,1,10,0:0:0:0:
297,231,73047,2,0,B|255:246|255:246|213:231,1,90,2|0,0:0|1:0,0:0:0:0:
190,33,73347,5,0,1:0:0:0:
256,124,73497,1,8,0:0:0:0:
321,33,73647,1,2,0:0:0:0:
256,315,73797,6,0,P|193:295|130:315,1,135,4|0,0:0|0:0,0:0:0:0:
74,378,74397,2,0,P|95:316|74:253,1,135,2|0,0:0|0:0,0:0:0:0:
11,198,74997,2,0,P|73:219|136:198,1,135,2|0,0:0|0:0,0:0:0:0:
192,135,75597,2,0,P|171:198|192:261,1,135,2|0,0:0|0:0,0:0:0:0:
256,315,76197,2,0,P|318:295|381:315,1,135,2|0,0:0|0:0,0:0:0:0:
438,378,76797,6,0,B|415:316|415:316|436:252,1,135,2|0,0:0|0:0,0:0:0:0:
501,198,77397,2,0,B|438:221|438:221|374:200,1,135,2|0,0:0|0:0,0:0:0:0:
320,124,77997,5,0,1:0:0:0:
304,109,78072,1,0,1:0:0:0:
288,93,78147,1,0,1:0:0:0:
272,77,78222,1,0,1:0:0:0:
256,61,78297,1,8,0:0:0:0:
192,124,78447,1,0,0:0:0:0:
256,216,78597,5,4,0:0:0:0:
125,146,88197,6,0,B|92:91|125:37|173:37|173:37|206:37,1,180,0|0,1:0|0:0,0:0:0:0:
305,37,88647,2,0,B|338:37|338:37|387:37|419:91|387:146,2,180,0|0|0,0:0|0:0|0:0,0:0:0:0:
256,123,89397,1,0,1:0:0:0:
305,192,89547,6,0,B|268:204|256:233|256:233|244:204|204:192,1,135,2|0,0:0|0:0,0:0:0:0:
148,239,89847,1,2,0:0:0:0:
61,192,89997,1,2,0:0:0:0:
148,145,90147,1,0,0:0:0:0:
148,239,90297,2,0,B|147:280|147:280|114:314,1,90,0|0,0:0|0:0,0:0:0:0:
201,348,90597,6,0,B|242:350|256:323|256:292|256:292|256:323|269:350|310:348,1,180,0|0,1:0|0:0,0:0:0:0:
397,314,91047,2,0,B|364:280|364:280|364:239,1,90,0|0,0:0|0:0,0:0:0:0:
295,166,91347,2,0,B|279:150|255:146|255:146|232:150|216:166,1,90,0|0,0:0|0:0,0:0:0:0:
148,239,91647,2,0,B|148:280|148:280|114:314,1,90,0|0,0:0|1:0,0:0:0:0:
38,378,91947,6,0,P|17:315|38:252,1,135,2|0,0:0|0:0,0:0:0:0:
38,192,92247,1,2,0:0:0:0:
38,89,92397,2,0,P|24:48|38:6,1,90,2|0,0:0|0:0,0:0:0:0:
127,48,92697,6,0,B|148:79|129:111|127:111|124:111|105:143|127:175,1,135,0|0,0:0|0:0,0:0:0:0:
162,211,92997,2,0,B|147:253|147:253|162:295,1,90,8|0,0:0|0:0,0:0:0:0:
350,295,93297,2,0,B|364:253|364:253|350:211,1,90,0|0,0:0|0:0,0:0:0:0:
256,162,93597,2,0,L|256:252,1,90,8|0,0:0|0:0,0:0:0:0:
385,48,93897,6,0,B|363:79|382:111|385:111|387:111|406:143|385:175,1,135,0|0,0:0|0:0,0:0:0:0:
350,211,94197,2,0,B|364:253|364:253|350:295,1,90,8|0,0:0|0:0,0:0:0:0:
162,295,94497,2,0,B|147:253|147:253|162:211,1,90,0|0,0:0|0:0,0:0:0:0:
256,162,94797,2,0,L|256:252,1,90,8|0,0:0|0:0,0:0:0:0:
214,76,95097,2,0,B|256:61|256:61|298:76,1,90,0|0,0:0|0:0,0:0:0:0:
384,32,95397,5,8,0:0:0:0:
418,14,95472,1,8,0:0:0:0:
457,18,95547,1,8,0:0:0:0:
486,43,95622,1,8,0:0:0:0:
497,80,95697,1,8,0:0:0:0:
486,117,95772,1,8,0:0:0:0:
456,141,95847,1,8,0:0:0:0:
417,145,95922,1,8,0:0:0:0:
383,127,95997,6,0,L|355:165,3,45,8|8|8|8,0:0|0:0|0:0|0:0,0:0:0:0:
356,213,96297,2,0,L|384:250,3,45,8|8|8|8,0:0|0:0|0:0|0:0,0:0:0:0:
416,283,96597,5,0,1:0:0:0:
256,148,96897,1,0,1:0:0:0:
96,283,97197,5,0,1:0:0:0:
96,283,97272,1,0,1:0:0:0:
96,283,97347,2,0,L|141:283,1,45,0|0,1:0|1:0,0:0:0:0:
256,359,97497,1,2,0:0:0:0:
416,283,97647,1,0,0:0:0:0:
294,191,97797,6,0,P|255:211|216:191,1,90,4|0,0:0|0:0,0:0:0:0:
139,114,98097,1,8,0:0:0:0:
217,37,98247,2,0,P|255:17|294:36,1,90,2|0,0:0|1:0,0:0:0:0:
450,113,98547,2,0,P|412:133|373:114,1,90,0|10,0:0|0:0,0:0:0:0:
294,191,98847,2,0,L|348:314,1,135,2|0,0:0|0:0,0:0:0:0:
403,312,99147,6,0,B|353:312|353:312|324:339,1,90,2|8,0:0|0:0,0:0:0:0:
256,255,99447,1,2,0:0:0:0:
109,312,99597,2,0,B|159:312|159:312|187:339,1,90,0|0,1:0|0:0,0:0:0:0:
256,129,99897,1,8,0:0:0:0:
256,255,100047,1,0,0:0:0:0:
215,20,100197,6,0,P|255:3|295:20,1,90,0|0,1:0|0:0,0:0:0:0:
367,129,100497,1,8,0:0:0:0:
296,237,100647,2,0,P|255:254|215:238,1,90,2|0,0:0|1:0,0:0:0:0:
63,129,100947,2,0,P|103:112|144:128,1,90,0|10,0:0|0:0,0:0:0:0:
256,192,101247,2,0,L|166:293,1,135,2|0,0:0|0:0,0:0:0:0:
125,342,101547,6,0,P|166:358|207:342,1,90,2|8,0:0|0:0,0:0:0:0:
256,192,101847,1,2,0:0:0:0:
386,342,101997,2,0,P|345:358|305:342,1,90,0|0,1:0|0:0,0:0:0:0:
166,293,102297,1,8,0:0:0:0:
256,192,102447,1,0,0:0:0:0:
346,293,102597,6,0,B|387:293|387:293|421:259,1,90,0|0,1:0|0:0,0:0:0:0:
508,192,102897,1,8,0:0:0:0:
421,124,103047,2,0,B|387:91|387:91|346:91,1,90,2|0,0:0|1:0,0:0:0:0:
270,326,103347,2,0,B|304:293|304:293|346:293,1,90,0|8,0:0|0:0,0:0:0:0:
346,91,103647,2,0,B|304:91|304:91|270:57,1,90,2|0,0:0|1:0,0:0:0:0:
193,133,103947,5,2,0:0:0:0:
40,89,104097,2,0,B|82:89|82:89|116:56,1,90,10|2,0:0|0:0,0:0:0:0:
193,133,104397,2,0,B|221:175|196:214|193:218|189:221|164:261|193:303,1,180,0|8,1:0|0:0,0:0:0:0:
256,368,104847,1,0,0:0:0:0:
319,303,104997,6,0,B|347:261|322:221|319:218|315:214|290:175|319:133,1,180,0|8,1:0|0:0,0:0:0:0:
256,68,105447,1,0,0:0:0:0:
319,133,105597,2,0,P|257:187|193:133,1,180,0|8,1:0|0:0,0:0:0:0:
256,68,106047,1,2,0:0:0:0:
319,251,106197,6,0,B|339:264|359:268|359:268|380:264|400:251,1,90,0|0,1:0|0:0,0:0:0:0:
400,133,106497,2,0,B|380:119|359:115|359:115|339:119|319:133,1,90,8|0,0:0|0:0,0:0:0:0:
193,251,106797,1,0,1:0:0:0:
111,133,106947,1,0,1:0:0:0:
111,251,107097,1,8,0:0:0:0:
193,133,107247,1,8,0:0:0:0:
400,249,107397,6,0,B|401:207|432:192|456:192|456:192|432:192|401:177|400:133,1,180,4|8,0:0|0:0,0:0:0:0:
441,20,107847,2,0,P|399:6|357:20,1,90,2|0,0:0|1:0,0:0:0:0:
214,132,108147,2,0,P|256:145|297:131,1,90,0|8,0:0|0:0,0:0:0:0:
256,20,108447,2,0,B|256:75|256:75|259:82|259:82|252:82|252:82|256:89|256:89|256:145,1,135,2|0,0:0|0:0,0:0:0:0:
297,199,108747,6,0,P|255:213|213:199,1,90,2|8,0:0|0:0,0:0:0:0:
136,276,109047,1,2,0:0:0:0:
213,352,109197,2,0,P|255:338|296:352,1,90,0|0,1:0|0:0,0:0:0:0:
376,276,109497,1,8,0:0:0:0:
297,199,109647,5,0,0:0:0:0:
213,352,109797,2,0,B|213:302|213:302|213:253|180:221|131:221,1,180,0|8,1:0|0:0,0:0:0:0:
299,352,110247,2,0,B|299:302|299:302|299:253|331:221|380:221,2,180,2|0|2,0:0|0:0|0:0,0:0:0:0:
256,192,110997,5,0,1:0:0:0:
213,352,111147,2,0,B|170:366|170:366|128:352,1,90,2|8,0:0|0:0,0:0:0:0:
50,274,111447,1,2,0:0:0:0:
126,197,111597,2,0,B|168:145|168:145|211:197,1,135,0|0,1:0|0:0,0:0:0:0:
256,192,111897,1,8,0:0:0:0:
457,81,112197,5,0,1:0:0:0:
305,234,112497,2,0,P|318:275|305:317,1,90,8|2,0:0|0:0,0:0:0:0:
207,317,112797,2,0,P|193:276|207:234,1,90,0|0,1:0|0:0,0:0:0:0:
256,192,113097,1,8,0:0:0:0:
55,81,113397,5,0,1:0:0:0:
304,150,113697,2,0,P|318:107|304:66,1,90,8|2,0:0|0:0,0:0:0:0:
207,66,113998,2,0,P|193:107|207:150,1,90,0|0,1:0|0:0,0:0:0:0:
99,150,114297,1,8,0:0:0:0:
22,226,114447,1,0,0:0:0:0:
13,353,114597,6,0,B|94:316|94:316|176:353,1,180,0|0,1:0|0:0,0:0:0:0:
256,288,115047,1,0,0:0:0:0:
336,354,115197,2,0,B|336:303|375:278|375:278|336:253|336:202,1,180,8|0,0:0|0:0,0:0:0:0:
256,288,115647,1,0,0:0:0:0:
176,202,115797,6,0,B|176:253|136:278|136:278|176:303|176:354,2,180,0|0|8,1:0|1:0|0:0,0:0:0:0:
198,179,116472,1,8,0:0:0:0:
224,154,116547,1,8,0:0:0:0:
250,130,116622,1,8,0:0:0:0:
274,104,116697,1,8,0:0:0:0:
370,25,116847,1,0,0:0:0:0:
335,200,116997,6,0,B|334:231|355:252|355:252|376:283|418:283|439:252|418:220|376:220|355:252|355:252|334:273|334:304,1,270,0|0,1:0|0:0,0:0:0:0:
177,200,118197,2,0,B|177:231|156:252|156:252|135:283|93:283|72:252|93:220|135:220|156:252|156:252|177:273|177:304,1,270,0|0,1:0|0:0,0:0:0:0:
335,202,119397,6,0,B|284:202|256:148|256:148|228:202|177:202,2,202.500007724762,2|2|2,0:0|0:0|0:0,0:0:0:0:
344,224,120597,1,0,0:0:0:0:
355,245,120897,1,0,0:0:0:0:
450,312,121197,5,0,1:0:0:0:
478,277,121272,1,0,1:0:0:0:
488,234,121347,1,0,1:0:0:0:
478,190,121422,1,0,1:0:0:0:
450,156,121497,6,0,L|442:147,1,9,8|0,0:0|0:0,0:0:0:0:
291,227,121797,6,0,P|305:270|292:312,1,90,4|0,0:0|0:0,0:0:0:0:
257,346,122022,1,0,0:0:0:0:
257,346,122097,1,8,0:0:0:0:
161,375,122247,1,2,0:0:0:0:
66,346,122397,1,0,1:0:0:0:
66,346,122472,1,0,0:0:0:0:
66,346,122547,2,0,P|53:305|66:263,1,90,2|10,0:0|0:0,0:0:0:0:
137,193,122847,6,0,P|165:110|137:26,1,180,0|0,1:0|1:0,0:0:0:0:
64,113,123297,1,8,0:0:0:0:
257,153,123447,2,0,P|268:110|257:67,1,90,2|0,0:0|1:0,0:0:0:0:
348,27,123747,1,2,0:0:0:0:
348,27,123822,1,0,0:0:0:0:
348,27,123897,1,10,0:0:0:0:
439,67,124047,1,2,0:0:0:0:
348,106,124197,6,0,B|327:170|327:170|348:234,1,135,0|0,1:0|0:0,0:0:0:0:
384,270,124497,1,8,0:0:0:0:
455,341,124647,1,2,0:0:0:0:
384,270,124797,2,0,P|344:254|304:270,1,90,0|2,1:0|0:0,0:0:0:0:
256,341,125097,1,8,0:0:0:0:
128,270,125247,6,0,P|168:254|208:270,1,90,0|0,1:0|0:0,0:0:0:0:
256,352,125547,1,0,1:0:0:0:
384,270,125697,2,0,P|344:254|304:270,1,90,8|2,0:0|0:0,0:0:0:0:
256,184,125997,5,8,0:3:0:0:
256,184,126297,1,8,0:3:0:0:
256,184,126597,6,0,B|228:142|253:99|256:99|260:99|285:56|256:14,1,180,0|8,1:0|0:0,0:0:0:0:
180,56,127047,1,2,0:0:0:0:
332,140,127197,2,0,P|374:154|416:140,1,90,0|2,1:0|0:0,0:0:0:0:
332,56,127497,1,8,0:0:0:0:
180,140,127647,6,0,P|139:184|97:140,1,135,0|0,1:0|0:0,0:0:0:0:
62,105,127947,1,0,1:0:0:0:
15,192,128097,1,8,0:0:0:0:
62,279,128247,1,2,0:0:0:0:
15,366,128397,5,0,1:0:0:0:
62,279,128547,1,2,0:0:0:0:
62,279,128622,1,0,0:0:0:0:
62,279,128697,1,10,0:0:0:0:
110,366,128847,1,2,0:0:0:0:
181,210,128997,6,0,P|170:253|181:296,1,90,0|0,1:0|0:0,0:0:0:0:
256,366,129297,1,8,0:0:0:0:
332,210,129447,2,0,P|343:253|331:296,1,90,2|0,0:0|1:0,0:0:0:0:
256,376,129747,1,2,0:0:0:0:
181,190,129897,5,8,0:0:0:0:
256,384,130047,1,0,1:0:0:0:
331,190,130347,5,8,0:0:0:0:
256,384,130497,1,8,0:0:0:0:
256,64,130797,6,0,B|285:107|260:150|256:150|253:150|228:192|256:235,1,180,4|2,0:0|1:3,0:0:0:0:
