osu file format v14

[General]
AudioFilename: audio.mp3
AudioLeadIn: 0
PreviewTime: 39597
Countdown: 0
SampleSet: Soft
StackLeniency: 0.7
Mode: 0
LetterboxInBreaks: 0
WidescreenStoryboard: 1

[Editor]
Bookmarks: 78597,88197
DistanceSpacing: 1.1
BeatDivisor: 2
GridSize: 4
TimelineZoom: 2

[Metadata]
Title:Doutei Korose (Cut Ver.)
TitleUnicode:童テイ殺セ (Cut Ver.)
Artist:IOSYS
ArtistUnicode:イオシス
Creator:Appetible
Version:Insane
Source:
Tags:はいぱぁ電波これくしょん!hyper denpa collection! amazing burst into flames 山本椛 yamamoto momiji leominexd electronic japanese
BeatmapID:2696002
BeatmapSetID:1283252

[Difficulty]
HPDrainRate:6.5
CircleSize:4.5
OverallDifficulty:7
ApproachRate:8.5
SliderMultiplier:1.6
SliderTickRate:2

[Events]
//Background and Video events
0,0,"background2.jpg",0,0
//Break Periods
2,78797,87522
//Storyboard Layer 0 (Background)
//Storyboard Layer 1 (Fail)
//Storyboard Layer 2 (Pass)
//Storyboard Layer 3 (Foreground)
//Storyboard Layer 4 (Overlay)
//Storyboard Sound Samples

[TimingPoints]
597,300,4,2,1,70,1,0
4797,-100,4,2,1,50,0,0
5397,-100,4,2,1,70,0,0
8997,-100,4,2,1,50,0,0
11397,-100,4,2,1,50,0,0
15597,-100,4,2,1,60,0,0
16047,-100,4,2,1,60,0,0
17397,-100,4,2,1,65,0,0
18597,-100,4,2,1,55,0,0
19797,-100,4,2,1,65,0,0
20397,-100,4,2,1,55,0,0
20847,-100,4,2,1,55,0,0
20997,-100,4,2,1,55,0,0
30597,-100,4,2,1,60,0,0
35397,-100,4,2,1,65,0,0
36597,-100,4,2,1,70,0,0
37797,-100,4,2,1,75,0,0
38997,-100,4,2,1,80,0,0
39597,-100,4,2,1,80,0,0
40197,-100,4,2,1,80,0,1
49722,-100,4,2,1,80,0,0
49797,-100,4,2,1,80,0,1
58797,-100,4,2,1,65,0,1
59397,-200,4,2,1,70,0,0
61797,-100,4,2,1,70,0,0
62697,-100,4,2,1,80,0,0
63897,-100,4,2,1,80,0,0
64197,-100,4,2,1,70,0,0
73797,-100,4,2,1,50,0,0
88197,-100,4,2,1,60,0,0
95397,-100,4,2,1,65,0,0
95997,-100,4,2,1,70,0,0
96597,-100,4,2,1,60,0,0
97197,-100,4,2,1,65,0,0
97797,-100,4,2,1,80,0,1
107322,-100,4,2,1,80,0,0
107397,-100,4,2,1,80,0,1
116397,-100,4,2,1,65,0,1
116997,-200,4,2,1,80,0,0
119397,-100,4,2,1,70,0,0
120297,-100,4,2,1,70,0,0
125997,-100,4,2,1,50,0,0
126597,-100,4,2,1,70,0,0
130197,-100,4,2,1,50,0,0

[Colours]
Combo1 : 97,126,243
Combo2 : 111,191,230
Combo3 : 213,175,228
Combo4 : 231,164,152
SliderBorder : 64,159,255
SliderTrackOverride : 213,213,255

[HitObjects]
189,42,597,6,0,B|214:79|192:117|189:117|185:117|163:155|188:193,1,160,4|8,0:0|0:0,0:0:0:0:
257,238,1047,1,2,0:0:0:0:
325,193,1197,1,0,1:0:0:0:
325,193,1272,1,0,0:0:0:0:
325,193,1347,1,2,0:0:0:0:
257,255,1497,1,8,0:0:0:0:
189,193,1647,6,0,B|126:193|126:193|115:198|115:198|115:187|115:187|105:193|105:193|42:193,1,160,0|0,1:0|1:0,0:0:0:0:
41,273,2097,2,0,L|121:273,1,80,10|2,0:0|0:0,0:0:0:0:
121,353,2396,1,0,1:0:0:0:
189,310,2547,1,2,0:0:0:0:
189,310,2622,1,0,0:0:0:0:
189,310,2697,1,10,0:0:0:0:
257,352,2847,1,2,0:0:0:0:
325,310,2997,6,0,B|325:274|350:248|395:248|395:248|448:248,1,160,0|8,1:0|0:0,0:0:0:0:
505,193,3447,1,2,0:0:0:0:
449,138,3597,2,0,B|436:100|436:100|449:63,1,80,0|2,1:0|0:0,0:0:0:0:
392,5,3897,1,10,0:0:0:0:
335,61,4047,6,0,B|257:61|257:61|197:116,1,160,0|0,1:0|1:0,0:0:0:0:
126,78,4497,2,0,P|116:116|126:154,1,80,10|2,0:0|0:0,0:0:0:0:
56,193,4797,1,8,0:3:0:0:
56,193,5097,1,8,0:3:0:0:
189,344,5397,6,0,B|214:306|192:268|189:268|185:268|163:230|188:192,1,160,0|8,1:0|0:0,0:0:0:0:
257,148,5847,1,2,0:0:0:0:
325,193,5997,1,0,1:0:0:0:
325,193,6072,1,0,0:0:0:0:
325,193,6147,1,2,0:0:0:0:
257,131,6297,1,10,0:0:0:0:
189,193,6447,6,0,B|126:193|126:193|115:187|115:187|115:198|115:198|105:193|105:193|42:193,1,160,0|0,1:0|1:0,0:0:0:0:
41,111,6897,2,0,L|121:111,1,80,10|2,0:0|0:0,0:0:0:0:
121,31,7196,1,0,1:0:0:0:
189,76,7347,1,2,0:0:0:0:
189,76,7422,1,0,0:0:0:0:
189,76,7497,1,10,0:0:0:0:
257,34,7647,1,2,0:0:0:0:
325,76,7797,6,0,B|325:111|350:137|395:137|395:137|448:137,1,160,0|8,1:0|0:0,0:0:0:0:
505,193,8247,1,2,0:0:0:0:
449,248,8397,2,0,B|436:285|436:285|449:322,1,80,0|2,1:0|0:0,0:0:0:0:
392,381,8697,1,8,0:0:0:0:
335,325,8847,6,0,B|257:325|257:325|197:270,1,160,0|8,1:0|0:0,0:0:0:0:
126,308,9297,2,0,P|116:269|126:231,1,80,8|0,0:0|0:0,0:0:0:0:
125,152,9597,1,4,0:0:0:0:
126,308,9897,1,8,0:0:0:0:
216,152,10197,5,0,0:3:0:0:
256,16,10497,1,0,0:3:0:0:
296,152,10797,1,0,0:3:0:0:
176,64,11097,1,0,0:3:0:0:
336,64,11397,6,0,P|373:76|410:64,1,80,0|2,1:0|0:0,0:0:0:0:
467,121,11697,1,8,0:0:0:0:
410,177,11847,1,2,0:0:0:0:
353,233,11997,2,0,L|418:289,1,80,0|2,1:0|0:0,0:0:0:0:
296,288,12297,2,0,L|357:341,1,80,10|2,0:0|0:0,0:0:0:0:
256,352,12597,5,0,1:0:0:0:
216,288,12747,2,0,B|142:288|142:288|82:348,1,160,2|0,0:0|0:0,0:0:0:0:
1,349,13197,2,0,B|1:323|1:323|7:310|7:310|1:298|1:298|1:272,1,80,0|2,1:0|0:0,0:0:0:0:
1,191,13497,1,8,0:0:0:0:
69,122,13647,1,2,0:0:0:0:
136,53,13797,6,0,B|174:43|174:43|212:53,1,80,0|0,1:0|0:0,0:0:0:0:
375,53,14097,2,0,B|336:43|336:43|298:53,1,80,8|2,0:0|0:0,0:0:0:0:
213,134,14397,1,0,1:0:0:0:
299,134,14547,1,2,0:0:0:0:
378,134,14697,2,0,B|416:124|416:124|455:134,1,80,10|2,0:0|0:0,0:0:0:0:
377,214,14997,6,0,B|377:289|377:289|339:364,1,160,0|8,1:0|0:0,0:0:0:0:
256,365,15447,1,0,0:0:0:0:
172,364,15597,2,0,B|135:289|135:289|135:214,1,160,0|8,1:0|0:0,0:0:0:0:
78,156,16047,1,0,0:0:0:0:
134,99,16197,6,0,B|124:60|124:60|134:22,1,80,0|0,1:0|0:0,0:0:0:0:
214,21,16497,1,10,0:0:0:0:
298,21,16647,1,2,0:0:0:0:
377,22,16797,2,0,B|387:60|387:60|378:99,1,80,0|2,1:0|0:0,0:0:0:0:
435,230,17097,2,0,B|426:192|426:192|436:154,1,80,8|2,0:0|0:0,0:0:0:0:
378,285,17397,6,0,B|388:324|388:324|378:362,1,80,0|2,1:0|0:0,0:0:0:0:
298,363,17697,1,10,0:0:0:0:
214,363,17847,1,2,0:0:0:0:
135,362,17997,2,0,B|125:324|125:324|134:285,1,80,0|2,1:0|0:0,0:0:0:0:
77,154,18297,2,0,B|86:192|86:192|76:230,1,80,8|2,0:0|0:0,0:0:0:0:
134,100,18597,6,0,B|101:59|134:18|166:18|166:18|215:18,1,160,0|10,1:0|0:0,0:0:0:0:
256,88,19047,1,2,0:0:0:0:
296,18,19197,2,0,L|376:18,1,80,0|0,1:0|0:0,0:0:0:0:
216,18,19497,2,0,L|136:18,1,80,10|2,0:0|0:0,0:0:0:0:
256,88,19797,5,8,0:0:0:0:
308,249,19947,1,8,0:0:0:0:
171,150,20097,1,8,0:0:0:0:
340,150,20247,1,8,0:0:0:0:
204,249,20397,6,0,P|256:335|308:249,1,240,8|0,0:0|0:0,0:0:0:0:
256,192,20997,2,0,B|281:154|259:116|256:116|252:116|230:78|256:40,1,160,4|0,0:0|0:0,0:0:0:0:
325,80,21447,1,0,0:0:0:0:
394,40,21597,6,0,B|406:65|426:78|458:78|458:78|426:78|406:91|394:116,1,160,8|0,0:0|0:0,0:0:0:0:
476,272,22197,6,0,B|421:272|421:272|366:272|339:326,1,160,0|0,1:0|1:0,0:0:0:0:
256,326,22647,2,0,B|256:280|256:280|240:250|240:250|256:219|256:219|256:174,1,160,2|0,0:0|0:0,0:0:0:0:
176,173,23097,1,0,0:0:0:0:
36,272,23397,6,0,B|91:272|91:272|146:272|173:326,1,160,0|0,1:0|0:0,0:0:0:0:
256,326,23847,2,0,B|256:280|256:280|241:250|241:250|256:219|256:219|256:174,1,160,0|0,0:0|0:0,0:0:0:0:
336,172,24297,1,0,0:0:0:0:
410,30,24597,6,0,B|359:30|359:30|352:34|352:34|345:30|345:30|295:30|295:30|295:73,1,160,0|0,1:0|1:0,0:0:0:0:
217,73,25047,2,0,B|217:30|217:30|167:30|167:30|160:34|160:34|153:30|153:30|102:30,1,160,2|0,0:0|0:0,0:0:0:0:
22,30,25497,1,0,0:0:0:0:
72,88,25647,1,0,0:0:0:0:
22,141,25797,6,0,P|47:192|22:243,1,120,0|0,1:0|0:0,0:0:0:0:
65,280,26097,2,0,B|107:280|107:280|133:306,1,80,0|2,1:0|0:0,0:0:0:0:
190,363,26397,2,0,B|241:354|256:324|256:324|271:354|322:363,1,160,10|0,0:0|0:0,0:0:0:0:
378,306,26847,1,0,0:0:0:0:
321,250,26997,6,0,B|363:193|324:137|321:137|317:137|278:81|321:24,2,240,0|2|0,1:0|0:0|0:0,0:0:0:0:
191,250,28197,2,0,B|148:193|187:137|191:137|194:137|233:81|191:24,2,240,0|0|0,1:0|0:0|0:0,0:0:0:0:
191,250,29397,6,0,L|108:250,1,80,0|10,1:0|0:0,0:0:0:0:
56,192,29697,1,0,1:0:0:0:
111,250,29847,1,2,0:0:0:0:
111,134,29997,2,0,L|191:134,1,80,8|0,0:0|0:0,0:0:0:0:
256,80,30297,1,0,0:0:0:0:
191,134,30447,1,0,0:0:0:0:
321,134,30597,6,0,B|372:134|372:134|424:134|445:102|445:71,1,160,0|0,1:0|0:0,0:0:0:0:
497,154,31047,2,0,B|487:192|487:192|497:230,1,80,8|0,0:0|0:0,0:0:0:0:
445,312,31347,2,0,B|445:281|424:250|372:250|372:250|321:250,1,160,2|2,0:0|0:0,0:0:0:0:
218,319,31797,6,0,B|256:309|256:309|294:319,1,80,0|0,1:0|0:0,0:0:0:0:
191,250,32097,1,0,0:0:0:0:
256,203,32247,2,0,B|230:165|252:127|256:127|259:127|281:89|256:51,1,160,8|2,0:0|0:0,0:0:0:0:
187,91,32697,1,2,0:0:0:0:
256,51,32847,1,2,0:0:0:0:
187,91,32997,6,0,B|149:65|111:87|111:91|111:94|73:116|35:91,1,160,0|0,1:0|0:0,0:0:0:0:
32,216,33447,2,0,B|64:192|64:192|32:168,1,80,8|0,0:0|0:0,0:0:0:0:
35,293,33747,1,2,0:0:0:0:
35,373,33897,2,0,L|116:373,1,80,2|2,0:0|0:0,0:0:0:0:
115,293,34197,6,0,B|171:293|171:293|228:293|247:236,1,160,0|2,1:0|0:0,0:0:0:0:
247,147,34647,2,0,B|228:91|171:91|171:91|115:91,1,160,8|2,0:0|0:0,0:0:0:0:
114,213,35097,2,0,B|128:196|147:192|147:192|128:188|114:171,1,80,8|0,0:0|0:0,0:0:0:0:
114,91,35397,6,0,P|101:54|114:17,1,80,8|0,0:0|0:0,0:0:0:0:
310,53,35697,2,0,P|323:90|311:128,1,80,0|0,0:0|0:0,0:0:0:0:
200,127,35997,2,0,P|188:90|201:53,1,80,8|0,0:0|0:0,0:0:0:0:
397,16,36296,2,0,P|410:53|398:91,1,80,0|0,0:0|0:0,0:0:0:0:
200,127,36597,6,0,B|200:164|200:164|181:201,1,80,8|0,0:0|0:0,0:0:0:0:
311,127,36897,2,0,B|311:164|311:164|329:201,1,80,0|0,0:0|0:0,0:0:0:0:
114,91,37197,2,0,B|114:128|114:128|95:165,1,80,8|0,0:0|0:0,0:0:0:0:
398,90,37497,2,0,B|398:127|398:127|416:164,1,80,0|0,0:0|0:0,0:0:0:0:
397,16,37797,5,8,0:0:0:0:
397,16,37947,1,2,0:0:0:0:
310,53,38097,1,8,0:0:0:0:
310,53,38247,1,2,0:0:0:0:
202,53,38397,5,8,0:0:0:0:
202,53,38547,1,2,0:0:0:0:
115,16,38697,1,8,0:0:0:0:
115,16,38847,1,2,0:0:0:0:
114,91,38997,5,8,0:0:0:0:
82,114,39072,1,8,0:0:0:0:
64,149,39147,1,8,0:0:0:0:
64,189,39222,1,8,0:0:0:0:
82,224,39297,6,0,L|49:250,3,40,8|8|8|8,0:0|0:0|0:0|0:0,0:0:0:0:
114,247,39597,6,0,L|130:234,8,20,8|0|0|0|0|0|0|0|8,0:0|0:0|0:0|0:0|0:0|0:0|0:0|0:0|0:0,0:0:0:0:
170,303,40047,1,0,0:0:0:0:
256,303,40197,6,0,L|256:223,1,80,4|0,0:0|0:0,0:0:0:0:
342,303,40497,1,8,0:0:0:0:
170,303,40647,2,0,B|170:340|170:340|151:377,1,80,2|0,0:0|1:0,0:0:0:0:
342,303,40947,2,0,B|342:340|342:340|360:377,1,80,0|10,0:0|0:0,0:0:0:0:
256,223,41247,6,0,B|239:194|253:166|256:166|260:166|274:137|256:109,1,120,2|0,0:0|0:0,0:0:0:0:
218,86,41547,2,0,P|254:98|291:86,1,80,2|8,0:0|0:0,0:0:0:0:
330,154,41847,2,0,P|365:85|331:16,1,160,2|0,0:0|0:0,0:0:0:0:
256,16,42297,1,8,0:0:0:0:
181,16,42447,1,0,0:0:0:0:
119,78,42597,6,0,B|131:115|131:115|119:153,1,80,0|0,1:0|0:0,0:0:0:0:
196,192,42897,1,8,0:0:0:0:
119,306,43047,2,0,B|131:268|131:268|119:230,1,80,2|0,0:0|1:0,0:0:0:0:
31,154,43347,2,0,B|18:192|18:192|31:230,1,80,0|10,0:0|0:0,0:0:0:0:
119,306,43647,2,0,B|157:306|157:306|196:306|211:329|211:352,1,120,2|0,0:0|0:0,0:0:0:0:
255,353,43947,6,0,L|334:353,1,80,2|8,0:0|0:0,0:0:0:0:
397,290,44247,1,2,0:0:0:0:
459,352,44397,2,0,P|475:287|459:238,1,120,0|0,1:0|0:0,0:0:0:0:
427,207,44697,1,8,0:0:0:0:
489,144,44847,1,0,0:0:0:0:
426,81,44997,6,0,P|389:93|352:81,1,80,0|0,1:0|0:0,0:0:0:0:
256,80,45297,1,8,0:0:0:0:
86,81,45447,2,0,P|122:93|159:81,1,80,2|0,0:0|1:0,0:0:0:0:
351,80,45747,2,0,B|351:117|351:117|369:154,1,80,0|8,0:0|0:0,0:0:0:0:
161,80,46047,2,0,B|161:117|161:117|142:154,1,80,0|0,0:0|1:0,0:0:0:0:
208,192,46347,5,2,0:0:0:0:
256,80,46497,1,8,0:0:0:0:
304,192,46647,1,2,0:0:0:0:
204,305,46797,2,0,B|166:330|128:308|128:305|128:301|90:279|52:305,1,160,0|8,1:0|0:0,0:0:0:0:
304,192,47247,1,2,0:0:0:0:
308,305,47397,6,0,B|345:330|383:308|383:305|383:301|421:279|459:305,1,160,0|8,1:0|0:0,0:0:0:0:
208,192,47847,1,0,0:0:0:0:
129,304,47997,2,0,P|166:317|204:305,1,80,0|2,1:0|0:0,0:0:0:0:
304,191,48297,2,0,P|341:179|378:192,1,80,10|2,0:0|0:0,0:0:0:0:
382,304,48597,6,0,P|345:317|308:305,1,80,0|0,1:0|0:0,0:0:0:0:
133,192,48897,2,0,P|170:179|207:191,1,80,8|0,0:0|0:0,0:0:0:0:
256,118,49197,1,0,1:0:0:0:
304,191,49347,1,0,1:0:0:0:
352,118,49497,1,8,0:0:0:0:
401,192,49647,1,8,0:0:0:0:
207,191,49797,6,0,B|178:191|178:191|171:194|171:194|171:187|171:187|164:191|164:191|136:191,1,80,4|0,0:0|0:0,0:0:0:0:
73,128,50097,1,8,0:0:0:0:
10,190,50247,2,0,B|-2:227|-2:227|10:264,1,80,2|0,0:0|1:0,0:0:0:0:
136,191,50547,2,0,B|148:228|148:228|136:266,1,80,0|8,0:0|0:0,0:0:0:0:
73,128,50847,2,0,B|73:95|51:74|51:74|73:52|73:20,1,120,2|0,0:0|0:0,0:0:0:0:
117,19,51147,6,0,L|197:19,1,80,2|8,0:0|0:0,0:0:0:0:
256,84,51447,1,2,0:0:0:0:
395,19,51597,2,0,L|315:19,1,80,0|0,1:0|0:0,0:0:0:0:
256,95,51897,1,8,0:0:0:0:
201,25,52047,1,0,0:0:0:0:
256,105,52197,6,0,B|327:105|327:105|334:108|334:108|341:112|341:112|413:112,1,160,0|8,1:0|0:0,0:0:0:0:
476,174,52647,2,0,B|488:211|488:211|476:248,1,80,2|0,0:0|1:0,0:0:0:0:
387,323,52947,2,0,B|399:286|399:286|387:249,1,80,0|8,0:0|0:0,0:0:0:0:
324,185,53247,2,0,L|255:282,1,120,2|0,0:0|0:0,0:0:0:0:
223,313,53547,6,0,P|185:325|148:313,1,80,2|8,0:0|0:0,0:0:0:0:
86,251,53847,1,2,0:0:0:0:
148,188,53997,2,0,P|185:175|222:187,1,80,0|0,1:0|0:0,0:0:0:0:
292,81,54297,2,0,P|254:93|217:81,1,80,8|0,0:0|0:0,0:0:0:0:
364,188,54597,5,0,1:0:0:0:
217,81,54897,2,0,B|179:81|179:81|150:110,1,80,8|2,0:0|0:0,0:0:0:0:
150,273,55197,2,0,B|179:303|179:303|217:303,1,80,0|0,1:0|0:0,0:0:0:0:
362,273,55497,2,0,B|333:303|333:303|295:303,1,80,8|0,0:0|0:0,0:0:0:0:
364,188,55797,5,0,1:0:0:0:
217,81,56097,2,0,B|179:81|179:81|150:110,1,80,8|2,0:0|0:0,0:0:0:0:
150,273,56397,2,0,B|179:303|179:303|217:303,1,80,0|0,1:0|0:0,0:0:0:0:
280,365,56697,1,8,0:0:0:0:
342,302,56847,1,0,0:0:0:0:
404,364,56997,6,0,B|483:364|483:364|483:284,1,160,0|0,1:0|0:0,0:0:0:0:
483,192,57447,1,0,0:0:0:0:
408,82,57597,2,0,B|445:101|445:101|483:101,1,80,8|0,0:0|0:0,0:0:0:0:
483,283,57897,2,0,B|445:283|445:283|408:301,1,80,0|0,0:0|0:0,0:0:0:0:
320,135,58197,2,0,B|358:135|358:135|395:154,1,80,0|0,1:0|0:0,0:0:0:0:
395,230,58497,2,0,B|358:249|358:249|320:249,1,80,0|0,1:0|0:0,0:0:0:0:
256,296,58797,5,8,0:0:0:0:
256,266,58872,1,8,0:0:0:0:
256,236,58947,1,8,0:0:0:0:
256,206,59022,1,8,0:0:0:0:
256,176,59097,1,8,0:0:0:0:
167,176,59247,1,0,0:0:0:0:
167,75,59397,6,0,B|208:99|251:75|254:31|254:31|256:75|299:99|341:75,1,240,0|0,1:0|0:0,0:0:0:0:
342,309,60597,6,0,B|299:285|256:309|254:353|254:353|251:309|208:285|167:309,1,240,0|0,1:0|0:0,0:0:0:0:
8,192,61797,5,2,0:0:0:0:
8,192,62247,1,2,0:0:0:0:
8,192,62997,5,0,0:0:0:0:
183,192,63297,1,0,0:0:0:0:
8,192,63597,1,0,1:0:0:0:
8,192,63672,1,0,1:0:0:0:
8,192,63747,1,0,1:0:0:0:
8,104,63897,1,8,0:0:0:0:
7,280,64197,6,0,P|-4:317|8:354,1,80,0|2,1:0|0:0,0:0:0:0:
159,316,64497,1,10,0:0:0:0:
79,316,64647,1,2,0:0:0:0:
228,355,64797,2,0,P|240:317|228:280,1,80,0|2,1:0|0:0,0:0:0:0:
171,223,65097,2,0,P|158:185|170:148,1,80,8|2,0:0|0:0,0:0:0:0:
122,83,65397,6,0,B|151:53|196:53|226:83|226:83|256:112,1,160,0|8,1:0|0:0,0:0:0:0:
393,83,65847,2,0,B|363:53|318:53|288:83|288:83|258:112,1,160,0|2,0:0|0:0,0:0:0:0:
341,148,66297,2,0,P|353:185|341:222,1,80,10|0,0:0|0:0,0:0:0:0:
282,277,66597,2,0,P|294:315|282:353,1,80,0|2,1:0|0:0,0:0:0:0:
198,317,66897,1,10,0:0:0:0:
116,278,67047,2,0,B|116:206|116:206|112:198|112:198|108:191|108:191|108:119,1,160,2|2,0:0|0:0,0:0:0:0:
73,51,67497,1,8,0:0:0:0:
145,50,67647,6,0,B|192:50|215:81|215:128|215:128|215:167,1,160,2|0,0:0|0:0,0:0:0:0:
256,237,68097,1,8,0:0:0:0:
296,168,68247,2,0,B|296:129|296:129|296:82|319:51|367:51,1,160,0|2,0:0|0:0,0:0:0:0:
424,107,68697,1,10,0:0:0:0:
480,50,68847,1,2,0:0:0:0:
424,116,68997,6,0,P|433:154|424:192,1,80,0|2,1:0|0:0,0:0:0:0:
422,305,69297,2,0,P|430:343|421:382,2,80,8|0|0,0:0|0:0|1:0,0:0:0:0:
366,249,69747,1,2,0:0:0:0:
366,249,69897,1,8,0:0:0:0:
309,305,70047,1,0,0:0:0:0:
256,249,70197,6,0,B|256:182|256:182|260:174|260:174|251:174|251:174|256:166|256:166|256:99,1,160,0|8,1:0|0:0,0:0:0:0:
322,34,70647,2,0,B|289:67|289:67|256:67|256:67|223:67|223:67|190:34,1,160,2|0,0:0|1:0,0:0:0:0:
88,34,71097,2,0,B|49:24|49:24|11:34,1,80,8|0,0:0|0:0,0:0:0:0:
88,116,71397,6,0,P|78:154|88:192,1,80,0|2,1:0|0:0,0:0:0:0:
89,305,71697,2,0,P|79:343|89:381,2,80,8|0|0,0:0|0:0|1:0,0:0:0:0:
146,249,72146,1,2,0:0:0:0:
146,249,72297,1,8,0:0:0:0:
203,305,72447,1,0,0:0:0:0:
256,249,72597,6,0,B|256:182|256:182|260:174|260:174|251:174|251:174|256:166|256:166|256:99,1,160,0|10,1:0|0:0,0:0:0:0:
189,34,73047,2,0,B|222:67|222:67|255:67|255:67|288:67|288:67|322:34,1,160,2|0,0:0|1:0,0:0:0:0:
424,34,73497,2,0,B|462:24|462:24|500:34,1,80,8|2,0:0|0:0,0:0:0:0:
460,103,73797,6,0,P|479:180|460:257,1,160,4|0,0:0|0:0,0:0:0:0:
422,103,74397,2,0,P|441:180|422:257,1,160,2|0,0:0|0:0,0:0:0:0:
384,103,74997,2,0,P|403:180|384:257,1,160,2|0,0:0|0:0,0:0:0:0:
346,103,75597,2,0,P|365:180|346:257,1,160,2|0,0:0|0:0,0:0:0:0:
303,103,76197,2,0,P|322:179|302:256,1,160,2|0,0:0|0:0,0:0:0:0:
128,103,76797,6,0,B|108:180|108:180|128:257,1,160,2|0,0:0|0:0,0:0:0:0:
90,103,77397,2,0,B|70:180|70:180|90:257,1,160,2|0,0:0|0:0,0:0:0:0:
302,267,77997,5,0,1:0:0:0:
302,267,78072,1,0,1:0:0:0:
302,267,78147,1,0,1:0:0:0:
210,267,78297,1,8,0:0:0:0:
256,342,78447,1,0,0:0:0:0:
256,192,78597,5,4,0:0:0:0:
64,52,88197,6,0,B|101:26|139:48|139:52|139:55|177:77|215:52,1,160,0|0,1:0|0:0,0:0:0:0:
297,51,88647,2,0,P|309:87|297:124,1,80,0|0,0:0|0:0,0:0:0:0:
216,126,88947,2,0,P|203:88|215:51,1,80,0|0,0:0|0:0,0:0:0:0:
256,192,89247,2,0,L|256:272,1,80,0|0,0:0|1:0,0:0:0:0:
296,125,89547,6,0,B|350:125|350:125|403:87,1,120,2|0,0:0|0:0,0:0:0:0:
432,58,89847,1,2,0:0:0:0:
488,114,89997,2,0,B|488:180|488:180|492:188|492:188|483:188|483:188|488:196|488:196|488:263,1,160,2|0,0:0|0:0,0:0:0:0:
408,266,90447,1,0,0:0:0:0:
448,332,90597,6,0,B|410:357|372:335|372:332|372:328|334:306|296:332,1,160,0|0,1:0|0:0,0:0:0:0:
215,333,91047,2,0,P|202:296|215:259,1,80,0|0,0:0|0:0,0:0:0:0:
296,258,91347,2,0,P|308:295|296:332,1,80,0|0,0:0|0:0,0:0:0:0:
256,192,91647,2,0,L|256:112,1,80,0|0,0:0|1:0,0:0:0:0:
216,259,91947,6,0,B|161:259|161:259|108:296,1,120,2|0,0:0|0:0,0:0:0:0:
80,326,92247,1,2,0:0:0:0:
24,270,92397,2,0,B|24:203|24:203|19:195|19:195|28:195|28:195|24:187|24:187|24:120,1,160,2|0,0:0|0:0,0:0:0:0:
104,118,92847,1,0,0:0:0:0:
160,61,92997,5,8,0:0:0:0:
297,186,93297,2,0,B|297:207|311:221|311:221|297:236|297:257,1,80,0|0,0:0|0:0,0:0:0:0:
215,257,93597,2,0,B|215:236|200:221|200:221|215:207|215:186,1,80,8|0,0:0|0:0,0:0:0:0:
352,61,93897,1,0,0:0:0:0:
160,61,94197,5,8,0:0:0:0:
297,186,94497,2,0,B|297:207|311:221|311:221|297:236|297:257,1,80,0|0,0:0|0:0,0:0:0:0:
215,257,94797,2,0,B|215:236|200:221|200:221|215:207|215:186,1,80,8|0,0:0|0:0,0:0:0:0:
352,61,95097,1,0,0:0:0:0:
160,61,95397,5,8,0:0:0:0:
131,54,95472,1,8,0:0:0:0:
102,62,95547,1,8,0:0:0:0:
82,83,95622,1,8,0:0:0:0:
74,112,95697,1,8,0:0:0:0:
82,141,95772,1,8,0:0:0:0:
103,162,95847,1,8,0:0:0:0:
132,170,95922,1,8,0:0:0:0:
160,163,95997,6,0,L|182:198,3,40,8|8|8|8,0:0|0:0|0:0|0:0,0:0:0:0:
215,185,96297,2,0,L|236:219,3,40,8|8|8|8,0:0|0:0|0:0|0:0,0:0:0:0:
256,256,96597,5,0,1:0:0:0:
352,61,96897,1,0,1:0:0:0:
256,161,97197,5,0,1:0:0:0:
256,161,97272,1,0,1:0:0:0:
256,161,97347,1,0,1:0:0:0:
170,81,97497,1,2,0:0:0:0:
342,81,97647,1,0,0:0:0:0:
207,26,97797,6,0,P|170:13|133:26,1,80,4|0,0:0|0:0,0:0:0:0:
256,161,98097,1,8,0:0:0:0:
305,26,98247,2,0,P|341:13|378:26,1,80,2|0,0:0|1:0,0:0:0:0:
294,223,98547,2,0,P|256:235|219:223,1,80,0|10,0:0|0:0,0:0:0:0:
200,319,98847,6,0,P|256:338|312:319,1,120,2|0,0:0|0:0,0:0:0:0:
372,357,99147,2,0,B|381:318|381:318|372:280,1,80,2|8,0:0|0:0,0:0:0:0:
294,223,99447,2,0,P|257:167|218:223,1,160,2|0,0:0|0:0,0:0:0:0:
141,279,99897,1,8,0:0:0:0:
218,335,100047,1,0,0:0:0:0:
83,317,100197,6,0,P|71:280|82:243,1,80,0|0,1:0|0:0,0:0:0:0:
11,192,100497,1,8,0:0:0:0:
83,66,100647,2,0,P|71:103|82:140,1,80,2|0,0:0|1:0,0:0:0:0:
218,223,100947,2,0,P|229:185|216:148,1,80,0|10,0:0|0:0,0:0:0:0:
150,104,101247,2,0,L|256:48,1,120,2|0,0:0|0:0,0:0:0:0:
278,10,101547,6,0,B|268:48|268:48|278:86,1,80,2|8,0:0|0:0,0:0:0:0:
340,149,101847,1,2,0:0:0:0:
402,86,101997,2,0,L|457:192,1,120,0|0,1:0|0:0,0:0:0:0:
476,231,102297,1,8,0:0:0:0:
430,306,102447,1,0,0:0:0:0:
384,381,102597,6,0,P|347:368|310:381,1,80,0|0,1:0|0:0,0:0:0:0:
256,310,102897,1,8,0:0:0:0:
128,381,103047,2,0,P|164:368|201:381,1,80,2|0,0:0|1:0,0:0:0:0:
430,306,103347,6,0,P|393:293|356:306,1,80,0|8,0:0|0:0,0:0:0:0:
219,223,103647,2,0,P|255:235|292:223,1,80,2|0,0:0|1:0,0:0:0:0:
157,306,103947,1,2,0:0:0:0:
95,223,104097,1,10,0:0:0:0:
157,140,104247,1,2,0:0:0:0:
355,140,104397,6,0,P|396:77|355:14,1,160,0|8,1:0|0:0,0:0:0:0:
256,14,104847,1,0,0:0:0:0:
157,14,104997,2,0,P|115:77|157:140,1,160,0|8,1:0|0:0,0:0:0:0:
256,192,105447,1,0,0:0:0:0:
156,245,105597,2,0,B|149:284|149:284|156:323,1,80,0|0,1:0|0:0,0:0:0:0:
356,323,105897,2,0,B|362:284|362:284|356:245,1,80,8|2,0:0|0:0,0:0:0:0:
156,139,106197,6,0,B|149:99|149:99|156:60,1,80,0|0,1:0|0:0,0:0:0:0:
356,60,106497,2,0,B|362:99|362:99|356:139,1,80,8|0,0:0|0:0,0:0:0:0:
256,192,106797,1,0,1:0:0:0:
156,245,106947,1,0,1:0:0:0:
256,86,107097,1,8,0:0:0:0:
156,139,107247,1,8,0:0:0:0:
256,298,107397,6,0,P|292:310|329:298,1,80,4|0,0:0|0:0,0:0:0:0:
392,359,107697,1,8,0:0:0:0:
454,296,107847,2,0,B|460:256|460:256|454:217,1,80,2|0,0:0|1:0,0:0:0:0:
356,60,108147,2,0,B|349:99|349:99|356:138,1,80,0|8,0:0|0:0,0:0:0:0:
444,138,108447,2,0,L|361:225,1,120,2|0,0:0|0:0,0:0:0:0:
330,256,108747,6,0,B|330:290|330:290|327:295|327:295|325:299|325:299|325:334,1,80,2|8,0:0|0:0,0:0:0:0:
256,368,109047,1,2,0:0:0:0:
182,256,109197,2,0,B|182:290|182:290|184:295|184:295|186:299|186:299|186:334,1,80,0|0,1:0|0:0,0:0:0:0:
256,368,109497,1,8,0:0:0:0:
325,334,109647,1,0,0:0:0:0:
182,256,109797,6,0,B|136:256|113:290|113:290|91:256|45:256,1,160,0|8,1:0|0:0,0:0:0:0:
116,192,110247,2,0,P|103:154|115:117,1,80,2|0,0:0|1:0,0:0:0:0:
255,11,110547,2,0,P|267:48|255:85,1,80,0|8,0:0|0:0,0:0:0:0:
103,46,110847,2,0,L|171:150,1,120,2|0,0:0|0:0,0:0:0:0:
199,177,111147,6,0,B|182:185|178:209|178:209|182:233|199:241,1,80,2|8,0:0|0:0,0:0:0:0:
256,312,111447,1,2,0:0:0:0:
313,241,111597,2,0,B|329:233|333:209|333:209|329:185|313:177,1,80,0|0,1:0|0:0,0:0:0:0:
374,49,111897,2,0,B|357:57|353:81|353:81|357:105|374:114,1,80,8|0,0:0|0:0,0:0:0:0:
436,176,112197,5,0,1:0:0:0:
353,310,112497,2,0,L|312:239,1,80,8|2,0:0|0:0,0:0:0:0:
199,239,112797,2,0,L|159:310,1,80,0|0,1:0|0:0,0:0:0:0:
76,341,113097,1,8,0:0:0:0:
76,176,113397,5,0,1:0:0:0:
159,310,113697,2,0,L|199:239,1,80,8|2,0:0|0:0,0:0:0:0:
312,239,113997,2,0,L|353:310,1,80,0|0,1:0|0:0,0:0:0:0:
436,341,114297,1,8,0:0:0:0:
498,278,114447,1,0,0:0:0:0:
435,215,114597,6,0,B|358:192|358:192|435:169,1,160,0|0,1:0|0:0,0:0:0:0:
498,106,115047,1,0,0:0:0:0:
435,43,115197,2,0,P|398:30|361:43,1,80,8|0,0:0|0:0,0:0:0:0:
292,104,115497,2,0,P|255:117|218:105,1,80
151,43,115797,2,0,P|114:30|77:43,1,80,0|0,1:0|0:0,0:0:0:0:
14,105,116097,1,0,1:0:0:0:
76,167,116247,1,0,0:0:0:0:
13,229,116397,5,8,0:0:0:0:
0,255,116472,1,8,0:0:0:0:
0,284,116547,1,8,0:0:0:0:
0,314,116622,1,8,0:0:0:0:
13,340,116697,1,8,0:0:0:0:
75,278,116847,1,0,0:0:0:0:
137,340,116997,6,0,B|174:333|206:301|194:233|194:233|176:131,1,240,0|0,1:0|0:0,0:0:0:0:
335,131,118197,6,0,B|317:233|317:233|305:301|337:333|375:340,1,240,0|0,1:0|0:0,0:0:0:0:
504,192,119397,5,2,0:0:0:0:
504,192,119847,1,2,0:0:0:0:
504,192,120597,5,0,0:0:0:0:
324,191,120897,1,0,0:0:0:0:
504,192,121197,1,0,1:0:0:0:
504,192,121272,1,0,1:0:0:0:
504,192,121347,1,0,1:0:0:0:
504,280,121497,1,8,0:0:0:0:
324,343,121797,6,0,B|299:306|321:268|324:268|328:268|350:230|325:192,1,160,4|8,0:0|0:0,0:0:0:0:
256,147,122247,1,2,0:0:0:0:
188,192,122397,1,0,1:0:0:0:
188,192,122472,1,0,0:0:0:0:
188,192,122547,1,2,0:0:0:0:
256,130,122697,1,10,0:0:0:0:
324,192,122847,6,0,B|387:192|387:192|398:187|398:187|398:198|398:198|408:192|408:192|471:192,1,160,0|0,1:0|1:0,0:0:0:0:
472,112,123297,1,8,0:0:0:0:
472,33,123447,2,0,L|393:32,1,80,2|0,0:0|1:0,0:0:0:0:
324,75,123747,1,2,0:0:0:0:
324,75,123822,1,0,0:0:0:0:
324,75,123897,1,10,0:0:0:0:
256,33,124047,1,2,0:0:0:0:
188,75,124197,6,0,B|188:111|163:137|118:137|118:137|65:137,1,160,0|8,1:0|0:0,0:0:0:0:
8,192,124647,1,2,0:0:0:0:
64,247,124797,2,0,B|77:285|77:285|64:322,1,80,0|2,1:0|0:0,0:0:0:0:
121,380,125097,1,8,0:0:0:0:
178,324,125247,6,0,B|256:324|256:324|316:269,1,160,0|0,1:0|1:0,0:0:0:0:
387,307,125697,2,0,P|397:269|387:231,1,80,8|2,0:0|0:0,0:0:0:0:
457,192,125997,1,8,0:3:0:0:
457,192,126297,1,8,0:3:0:0:
324,41,126597,6,0,B|299:79|321:117|324:117|328:117|350:155|325:193,1,160,0|8,1:0|0:0,0:0:0:0:
256,237,127047,1,2,0:0:0:0:
188,192,127197,1,0,1:0:0:0:
188,192,127272,1,0,0:0:0:0:
188,192,127347,1,2,0:0:0:0:
256,254,127497,1,8,0:0:0:0:
324,192,127647,6,0,B|387:192|387:192|398:198|398:198|398:187|398:187|408:192|408:192|471:192,1,160,0|0,1:0|1:0,0:0:0:0:
472,272,128097,1,8,0:0:0:0:
472,351,128247,2,0,L|393:352,1,80,2|0,0:0|1:0,0:0:0:0:
324,309,128547,1,2,0:0:0:0:
324,309,128622,1,0,0:0:0:0:
324,309,128697,1,10,0:0:0:0:
256,351,128847,1,2,0:0:0:0:
188,309,128997,6,0,B|188:274|163:248|118:248|118:248|65:248,1,160,0|8,1:0|0:0,0:0:0:0:
8,192,129447,1,2,0:0:0:0:
64,137,129597,2,0,B|77:100|77:100|64:63,1,80,0|2,1:0|0:0,0:0:0:0:
121,4,129897,1,8,0:0:0:0:
178,60,130047,6,0,B|256:60|256:60|316:115,1,160,0|8,1:0|0:0,0:0:0:0:
395,153,130497,2,0,P|405:191|395:229,1,80,8|0,0:0|0:0,0:0:0:0:
316,269,130797,2,0,B|256:324|256:324|178:324,1,160,4|2,0:0|1:3,0:0:0:0:
