osu file format v14

[General]
AudioFilename: audio.mp3
AudioLeadIn: 0
PreviewTime: 99310
Countdown: 0
SampleSet: Normal
StackLeniency: 0.7
Mode: 1
LetterboxInBreaks: 0
WidescreenStoryboard: 1

[Editor]
Bookmarks: 11555,22526,33498,44469,55441,66412,71898,77384,88355,99310,110641,121269,132241,143212,154184,165155,176110,187425,198069
DistanceSpacing: 1.6
BeatDivisor: 4
GridSize: 32
TimelineZoom: 1.900006

[Metadata]
Title:Danzai Yamaxanadu!
TitleUnicode:断罪ヤマザナドゥ!
Artist:IOSYS
ArtistUnicode:IOSYS
Creator:gaston_2199
Version:Oni!
Source:東方花映塚 ~ Phantasmagoria of Flower View.
Tags:東方project 東方 project PoFV kaeidzuka 六十年目の東方裁判 ~ ~ Fate of Sixty Years Rokujuunemme no Saiban ZUN 上海アリス幻楽団' team shanghai alice music VGM yamazanadu Convictor ARM Grimoire of IOSYS – 東方BEST ALBUM vol volume 2 vol.2 東方アゲハ Touhou Ageha 岩杉夏 Iwasugi Natsu ペス Pesu 夕野ヨシミ Yoshimi Yuuno しゃちょう Shatyou 四季映姫 Eiki Shiki ヤマザナドゥ Shikieiki japanese video game electronic dnb drum and bass d'n'b n & d&b tag2 tag4 tag coop co-op compatible
BeatmapID:2565991
BeatmapSetID:1234363

[Difficulty]
HPDrainRate:5
CircleSize:2
OverallDifficulty:6
ApproachRate:10
SliderMultiplier:1.4
SliderTickRate:1

[Events]
//Background and Video events
0,0,"BG.jpg",0,40
//Break Periods
//Storyboard Layer 0 (Background)
//Storyboard Layer 1 (Fail)
//Storyboard Layer 2 (Pass)
//Storyboard Layer 3 (Foreground)
//Storyboard Layer 4 (Overlay)
//Storyboard Sound Samples

[TimingPoints]
568,342.857142857143,4,1,0,70,1,0
568,-125,4,1,0,70,0,0
20787,-120.000048000019,4,1,0,70,0,0
20959,-117.647058823529,4,1,0,70,0,0
21301,-113.207589889657,4,1,0,70,0,0
21473,-111.111111111111,4,1,0,70,0,0
21644,-109.090869421502,4,1,0,70,0,0
21816,-107.142895408177,4,1,0,70,0,0
21987,-105.263157894737,4,1,0,70,0,0
22073,-104.347862381865,4,1,0,70,0,0
22159,-103.448240190262,4,1,0,70,0,0
22244,-102.564102564103,4,1,0,70,0,0
22330,-101.694949727102,4,1,0,70,0,0
22501,-100,4,1,0,80,0,0
42047,-111.111111111111,4,1,0,80,0,0
44101,-83.3333333333333,4,1,0,80,0,0
44787,-100,4,1,0,80,0,0
55076,-83.3333333333333,4,1,0,80,0,0
55762,-100,4,1,0,80,0,0
66047,-83.3333333333333,4,1,0,80,0,0
66733,-100,4,1,0,80,0,0
71533,-83.3333333333333,4,1,0,80,0,0
72219,-100,4,1,0,80,0,0
77019,-83.3333333333333,4,1,0,80,0,0
77704,-100,4,1,0,80,0,0
82504,-83.3333333333333,4,1,0,80,0,0
83190,-100,4,1,0,80,0,0
87990,-83.3333333333333,4,1,0,80,0,0
88676,-100,4,1,0,80,0,0
89362,-83.3333333333333,4,1,0,80,0,0
90047,-100,4,1,0,80,0,0
90733,-83.3333333333333,4,1,0,80,0,0
91419,-100,4,1,0,80,0,0
92104,-83.3333333333333,4,1,0,80,0,0
92790,-100,4,1,0,80,0,0
93476,-83.3333333333333,4,1,0,80,0,0
94676,-125,4,1,0,80,0,0
97933,-121.621621621622,4,1,0,80,0,0
98104,-118.421052631579,4,1,0,80,0,0
98276,-115.384615384615,4,1,0,80,0,0
98447,-112.5,4,1,0,80,0,0
98790,-109.756097560976,4,1,0,80,0,0
98876,-107.142857142857,4,1,0,80,0,0
98962,-104.651162790698,4,1,0,80,0,0
99133,-102.272727272727,4,1,0,80,0,0
99310,-100,4,1,0,90,0,1
110282,-100,4,1,0,80,0,0
110625,-83.3333333333333,4,1,0,90,0,1
110793,-100,4,1,0,90,0,1
119882,-83.397410343614,4,1,0,90,0,0
121247,-125,4,1,0,70,0,0
132222,-111.111111111111,4,1,0,80,0,0
142850,-83.3333333333333,4,1,0,80,0,0
143536,-100,4,1,0,80,0,0
148336,-83.3333333333333,4,1,0,80,0,0
149022,-100,4,1,0,80,0,0
153819,-83.3333333333333,4,1,0,80,0,0
154504,-100,4,1,0,80,0,0
155190,-80.8080808080808,4,1,0,80,0,0
155876,-96.3855421686747,4,1,0,80,0,0
156562,-78.4313725490196,4,1,0,80,0,0
157247,-93.0232558139535,4,1,0,80,0,0
157933,-76.1904761904762,4,1,0,80,0,0
158619,-89.8876404494382,4,1,0,80,0,0
159304,-74.0740740740741,4,1,0,80,0,0
159990,-86.9565217391304,4,1,0,80,0,0
160676,-72.0720720720721,4,1,0,80,0,0
161362,-84.2105263157895,4,1,0,80,0,0
162047,-70.1754385964912,4,1,0,80,0,0
162733,-81.6326530612245,4,1,0,80,0,0
163419,-68.3760683760684,4,1,0,80,0,0
164104,-79.2079207920792,4,1,0,80,0,0
164790,-66.6666666666667,4,1,0,80,0,0
165476,-76.9230769230769,4,1,0,80,0,0
166162,-66.6666666666667,4,1,0,80,0,0
166848,-76.9230769230769,4,1,0,80,0,0
167533,-66.6666666666667,4,1,0,80,0,0
168219,-76.9230769230769,4,1,0,80,0,0
168904,-66.6666666666667,4,1,0,80,0,0
169590,-76.9230769230769,4,1,0,80,0,0
170276,-66.6666666666667,4,1,0,80,0,0
171304,-125,4,1,0,80,0,0
174733,-122.448979591837,4,1,0,80,0,0
174819,-120,4,1,0,80,0,0
174904,-117.647058823529,4,1,0,80,0,0
175076,-115.384615384615,4,1,0,80,0,0
175247,-113.207547169811,4,1,0,80,0,0
175333,-111.111111111111,4,1,0,80,0,0
175419,-109.090909090909,4,1,0,80,0,0
175590,-107.142857142857,4,1,0,80,0,0
175676,-105.263157894737,4,1,0,80,0,0
175762,-103.448275862069,4,1,0,80,0,0
175933,-101.694915254237,4,1,0,80,0,0
176110,-100,4,1,0,90,0,1
187082,-100,4,1,0,80,0,0
187425,-83.3333333333333,4,1,0,90,0,1
187593,-100,4,1,0,90,0,1
196676,-98.8372093023256,4,1,0,90,0,1
196762,-97.7011494252874,4,1,0,90,0,1
196847,-96.5909090909091,4,1,0,90,0,1
197019,-94.4444444444444,4,1,0,90,0,1
197190,-92.3913043478261,4,1,0,90,0,1
197276,-91.3978494623656,4,1,0,90,0,1
197362,-90.4255319148936,4,1,0,90,0,1
197533,-88.5416666666667,4,1,0,90,0,1
197704,-86.734693877551,4,1,0,90,0,1
197790,-85.8585858585859,4,1,0,90,0,1
197876,-85,4,1,0,90,0,1
197962,-84.1584158415842,4,1,0,90,0,1
198053,-83.3333333333333,4,1,0,80,0,0
198396,-100,4,1,0,80,0,0
214847,-111.111111111111,4,1,0,80,0,0
218965,-109.58904109589,4,1,0,80,0,0
219136,-106.666666666667,4,1,0,80,0,0
219222,-105.263157894737,4,1,0,80,0,0
219307,-103.896103896104,4,1,0,80,0,0
219479,-102.564102564103,4,1,0,80,0,0
219650,-101.26582278481,4,1,0,80,0,0
219993,-83.3333333333333,4,1,0,80,0,0
220682,-100,4,1,0,75,0,0
221368,-100,4,1,0,70,0,0
222053,-100,4,1,0,65,0,0
222739,-100,4,1,0,60,0,0
223510,-100,4,1,0,55,0,0
224110,-100,4,1,0,50,0,0
224796,-100,4,1,0,45,0,0
225482,-100,4,1,0,40,0,0

[HitObjects]
259,195,11196,5,8,0:0:0:0:
259,195,11539,1,0,0:0:0:0:
259,195,11882,1,0,0:0:0:0:
259,195,12225,1,8,0:0:0:0:
259,195,12568,1,8,0:0:0:0:
259,195,12739,1,0,0:0:0:0:
259,195,13082,1,8,0:0:0:0:
259,195,13253,1,0,0:0:0:0:
259,195,13425,1,0,0:0:0:0:
259,195,13596,1,8,0:0:0:0:
259,195,13939,5,8,0:0:0:0:
259,195,14282,1,0,0:0:0:0:
259,195,14625,1,8,0:0:0:0:
259,195,14968,1,8,0:0:0:0:
259,195,15310,1,8,0:0:0:0:
259,195,15482,1,0,0:0:0:0:
259,195,15825,1,8,0:0:0:0:
259,195,15996,1,8,0:0:0:0:
259,195,16339,1,0,0:0:0:0:
259,195,16682,5,8,0:0:0:0:
259,195,17025,1,0,0:0:0:0:
235,5,17368,1,0,0:0:0:0:
258,188,17710,1,8,0:0:0:0:
236,9,18053,1,8,0:0:0:0:
248,113,18225,1,0,0:0:0:0:
258,195,18396,1,8,0:0:0:0:
247,99,18568,1,8,0:0:0:0:
243,164,18739,1,0,0:0:0:0:
235,10,19082,1,8,0:0:0:0:
258,184,19425,1,8,0:0:0:0:
234,6,19768,5,0,0:0:0:0:
245,92,19939,1,8,0:0:0:0:
258,181,20110,1,0,0:0:0:0:
246,99,20282,1,0,0:0:0:0:
259,187,20453,1,8,0:0:0:0:
252,138,20796,1,8,0:0:0:0:
252,138,20968,1,0,0:0:0:0:
208,122,21310,1,0,0:0:0:0:
252,138,21482,1,8,0:0:0:0:
201,120,21653,1,0,0:0:0:0:
201,120,21825,1,8,0:0:0:0:
252,138,21996,1,0,0:0:0:0:
225,128,22082,1,0,0:0:0:0:
234,131,22168,1,8,0:0:0:0:
211,61,22253,1,8,0:0:0:0:
203,120,22339,1,8,0:0:0:0:
203,120,22510,1,4,0:0:0:0:
201,120,22853,5,8,0:0:0:0:
225,128,23025,1,0,0:0:0:0:
203,120,23196,1,8,0:0:0:0:
201,120,23282,1,8,0:0:0:0:
234,129,23368,1,0,0:0:0:0:
203,120,23539,1,8,0:0:0:0:
201,120,23710,1,8,0:0:0:0:
201,120,23882,1,0,0:0:0:0:
203,120,24225,1,8,0:0:0:0:
203,120,24396,1,0,0:0:0:0:
203,120,24568,1,0,0:0:0:0:
201,120,24739,1,0,0:0:0:0:
203,120,24825,1,0,0:0:0:0:
201,120,24910,1,8,0:0:0:0:
225,128,25082,1,8,0:0:0:0:
203,120,25253,1,0,0:0:0:0:
397,177,25596,5,8,0:0:0:0:
317,153,25768,1,0,0:0:0:0:
317,153,25939,1,8,0:0:0:0:
317,153,26025,1,8,0:0:0:0:
317,153,26110,1,0,0:0:0:0:
317,153,26282,1,8,0:0:0:0:
317,153,26625,1,8,0:0:0:0:
317,153,26796,1,0,0:0:0:0:
317,153,26968,1,8,0:0:0:0:
288,112,27053,1,0,0:0:0:0:
317,153,27139,1,8,0:0:0:0:
317,153,27310,1,0,0:0:0:0:
317,153,27482,1,0,0:0:0:0:
317,153,27653,1,8,0:0:0:0:
203,120,27996,1,0,0:0:0:0:
201,120,28339,5,8,0:0:0:0:
225,128,28510,1,0,0:0:0:0:
203,120,28682,1,8,0:0:0:0:
203,120,28768,1,8,0:0:0:0:
234,129,28853,1,0,0:0:0:0:
203,120,29025,1,8,0:0:0:0:
201,120,29196,1,8,0:0:0:0:
201,120,29368,1,0,0:0:0:0:
203,120,29710,1,8,0:0:0:0:
203,120,29882,1,0,0:0:0:0:
203,120,30053,1,0,0:0:0:0:
201,120,30225,1,0,0:0:0:0:
203,120,30310,1,0,0:0:0:0:
201,120,30396,1,8,0:0:0:0:
225,128,30568,1,8,0:0:0:0:
203,120,30739,5,0,0:0:0:0:
203,120,30910,1,0,0:0:0:0:
397,177,31082,1,8,0:0:0:0:
317,153,31425,1,8,0:0:0:0:
317,153,31510,1,8,0:0:0:0:
317,153,31596,1,0,0:0:0:0:
317,153,31768,1,8,0:0:0:0:
317,153,31939,1,8,0:0:0:0:
317,153,32110,1,0,0:0:0:0:
317,153,32282,1,0,0:0:0:0:
317,153,32453,1,8,0:0:0:0:
317,153,32625,1,0,0:0:0:0:
317,153,32968,1,0,0:0:0:0:
317,153,33139,1,8,0:0:0:0:
203,120,33482,1,4,0:0:0:0:
201,120,33825,5,8,0:0:0:0:
225,128,33996,1,0,0:0:0:0:
203,120,34168,1,8,0:0:0:0:
203,120,34253,1,8,0:0:0:0:
234,129,34339,1,0,0:0:0:0:
203,120,34510,1,8,0:0:0:0:
201,120,34682,1,8,0:0:0:0:
201,120,34853,1,0,0:0:0:0:
203,120,35196,1,8,0:0:0:0:
203,120,35368,1,0,0:0:0:0:
203,120,35539,1,0,0:0:0:0:
201,120,35710,1,0,0:0:0:0:
203,120,35796,1,0,0:0:0:0:
201,120,35882,1,8,0:0:0:0:
225,128,36053,1,8,0:0:0:0:
203,120,36225,1,0,0:0:0:0:
397,177,36568,5,8,0:0:0:0:
317,153,36739,1,0,0:0:0:0:
317,153,36910,1,8,0:0:0:0:
317,153,36996,1,8,0:0:0:0:
317,153,37082,1,8,0:0:0:0:
317,153,37253,1,8,0:0:0:0:
256,48,37425,1,0,0:0:0:0:
317,153,37596,1,8,0:0:0:0:
317,153,37939,1,8,0:0:0:0:
317,153,38110,1,8,0:0:0:0:
263,83,38282,1,0,0:0:0:0:
317,153,38453,1,0,0:0:0:0:
317,153,38625,1,8,0:0:0:0:
203,120,38968,1,0,0:0:0:0:
201,120,39310,5,8,0:0:0:0:
225,128,39482,1,0,0:0:0:0:
203,120,39653,1,8,0:0:0:0:
203,120,39739,1,8,0:0:0:0:
234,129,39825,1,0,0:0:0:0:
203,120,39996,1,8,0:0:0:0:
201,120,40168,1,8,0:0:0:0:
201,120,40339,1,0,0:0:0:0:
225,128,40510,1,0,0:0:0:0:
203,120,40682,1,8,0:0:0:0:
203,120,41025,1,0,0:0:0:0:
201,120,41196,1,0,0:0:0:0:
203,120,41282,1,0,0:0:0:0:
201,120,41368,1,8,0:0:0:0:
225,128,41539,1,8,0:0:0:0:
203,120,41710,5,0,0:0:0:0:
317,153,42225,1,0,0:0:0:0:
317,153,42739,1,0,0:0:0:0:
289,84,43082,1,0,0:0:0:0:
317,153,43253,1,8,0:0:0:0:
317,153,43425,1,0,0:0:0:0:
317,153,43596,1,0,0:0:0:0:
289,114,43682,1,0,0:0:0:0:
259,72,43768,1,8,0:0:0:0:
317,153,43939,1,0,0:0:0:0:
317,153,44110,5,4,0:0:0:0:
203,120,44453,1,12,0:0:0:0:
266,77,44796,5,12,0:0:0:0:
350,254,45139,1,4,0:0:0:0:
317,153,45482,5,8,0:0:0:0:
317,153,45653,1,8,0:0:0:0:
317,153,45825,1,0,0:0:0:0:
317,153,46168,1,8,0:0:0:0:
317,153,46339,1,0,0:0:0:0:
317,153,46682,1,0,0:0:0:0:
317,153,46853,1,8,0:0:0:0:
317,153,47025,1,0,0:0:0:0:
317,153,47110,1,0,0:0:0:0:
317,153,47196,1,8,0:0:0:0:
317,153,47368,1,0,0:0:0:0:
317,153,47539,1,8,0:0:0:0:
317,153,47710,1,8,0:0:0:0:
317,153,47882,1,0,0:0:0:0:
317,153,48225,1,8,0:0:0:0:
196,147,48396,1,0,0:0:0:0:
317,153,48568,1,0,0:0:0:0:
317,153,48739,1,0,0:0:0:0:
317,153,48910,1,8,0:0:0:0:
287,69,49082,1,0,0:0:0:0:
287,69,49168,1,0,0:0:0:0:
287,69,49253,1,0,0:0:0:0:
197,56,49425,1,0,0:0:0:0:
317,153,49596,1,8,0:0:0:0:
317,153,49939,5,0,0:0:0:0:
317,153,50110,1,0,0:0:0:0:
308,136,50282,1,8,0:0:0:0:
317,153,50453,1,0,0:0:0:0:
317,153,50625,1,8,0:0:0:0:
317,153,50968,1,8,0:0:0:0:
300,121,51139,1,0,0:0:0:0:
300,121,51310,1,8,0:0:0:0:
300,121,51396,1,0,0:0:0:0:
300,121,51482,1,8,0:0:0:0:
300,121,51653,1,8,0:0:0:0:
300,121,51825,1,0,0:0:0:0:
300,121,51996,1,8,0:0:0:0:
300,121,52339,1,8,0:0:0:0:
300,121,52510,1,8,0:0:0:0:
300,121,52682,1,0,0:0:0:0:
210,60,52853,1,8,0:0:0:0:
300,121,53196,1,8,0:0:0:0:
300,121,53368,1,0,0:0:0:0:
300,121,53539,1,0,0:0:0:0:
300,121,53710,1,8,0:0:0:0:
300,121,53882,1,0,0:0:0:0:
300,121,53968,1,0,0:0:0:0:
300,121,54053,1,8,0:0:0:0:
300,121,54225,1,0,0:0:0:0:
300,121,54396,1,8,0:0:0:0:
300,121,54568,1,0,0:0:0:0:
300,121,54739,1,8,0:0:0:0:
300,121,55082,5,4,0:0:0:0:
300,121,55425,1,12,0:0:0:0:
300,121,55768,5,12,0:0:0:0:
300,121,56110,1,4,0:0:0:0:
438,277,56453,5,8,0:0:0:0:
317,141,56796,1,0,0:0:0:0:
243,40,56882,1,0,0:0:0:0:
314,98,56968,1,0,0:0:0:0:
331,87,57139,1,8,0:0:0:0:
208,94,57310,1,0,0:0:0:0:
318,87,57482,1,8,0:0:0:0:
237,115,57653,1,8,0:0:0:0:
318,87,57825,1,8,0:0:0:0:
318,87,58168,1,0,0:0:0:0:
182,96,58339,1,0,0:0:0:0:
318,87,58510,1,8,0:0:0:0:
318,87,58682,1,0,0:0:0:0:
318,87,58853,1,8,0:0:0:0:
318,87,58939,1,8,0:0:0:0:
318,87,59025,1,0,0:0:0:0:
318,87,59196,1,8,0:0:0:0:
211,102,59368,1,8,0:0:0:0:
318,87,59539,1,0,0:0:0:0:
318,87,59710,1,0,0:0:0:0:
318,87,59882,1,8,0:0:0:0:
318,87,60053,1,8,0:0:0:0:
318,87,60139,1,0,0:0:0:0:
318,87,60225,1,8,0:0:0:0:
318,87,60396,1,0,0:0:0:0:
318,87,60568,1,8,0:0:0:0:
113,145,60910,5,0,0:0:0:0:
289,95,61082,1,0,0:0:0:0:
289,95,61253,1,8,0:0:0:0:
289,95,61425,1,0,0:0:0:0:
289,95,61596,1,8,0:0:0:0:
289,95,61939,1,8,0:0:0:0:
289,95,62110,1,0,0:0:0:0:
289,95,62196,1,0,0:0:0:0:
289,95,62282,1,8,0:0:0:0:
289,95,62453,1,0,0:0:0:0:
289,95,62625,1,8,0:0:0:0:
289,95,62796,1,0,0:0:0:0:
289,95,62968,1,8,0:0:0:0:
289,95,63053,1,8,0:0:0:0:
289,95,63139,1,0,0:0:0:0:
289,95,63310,1,8,0:0:0:0:
289,95,63482,1,8,0:0:0:0:
289,95,63653,1,0,0:0:0:0:
289,95,63996,1,8,0:0:0:0:
289,95,64168,1,8,0:0:0:0:
289,95,64339,1,0,0:0:0:0:
289,95,64510,1,0,0:0:0:0:
289,95,64682,1,8,0:0:0:0:
289,95,64853,1,0,0:0:0:0:
289,95,64939,1,8,0:0:0:0:
289,95,65025,1,0,0:0:0:0:
289,95,65196,1,0,0:0:0:0:
289,95,65368,1,0,0:0:0:0:
289,95,65539,1,0,0:0:0:0:
289,95,65710,1,8,0:0:0:0:
289,95,66053,5,12,0:0:0:0:
289,95,66225,1,12,0:0:0:0:
289,95,66396,1,4,0:0:0:0:
289,95,66739,5,4,0:0:0:0:
289,95,66910,1,4,0:0:0:0:
289,95,67082,1,12,0:0:0:0:
289,95,67425,5,8,0:0:0:0:
258,58,67596,1,8,0:0:0:0:
289,95,67768,1,0,0:0:0:0:
202,65,67939,1,0,0:0:0:0:
289,95,68110,1,8,0:0:0:0:
289,95,68282,1,0,0:0:0:0:
289,95,68453,1,0,0:0:0:0:
289,95,68539,1,0,0:0:0:0:
271,69,68625,1,0,0:0:0:0:
289,95,68710,1,0,0:0:0:0:
289,95,68796,1,8,0:0:0:0:
289,95,69139,1,0,0:0:0:0:
289,95,69310,1,0,0:0:0:0:
289,95,69482,1,8,0:0:0:0:
289,95,69653,1,0,0:0:0:0:
289,95,69825,1,0,0:0:0:0:
289,95,69910,1,8,0:0:0:0:
289,95,69996,1,0,0:0:0:0:
289,95,70168,1,8,0:0:0:0:
211,180,70339,1,8,0:0:0:0:
289,95,70510,1,0,0:0:0:0:
289,95,70682,1,0,0:0:0:0:
289,95,70853,1,8,0:0:0:0:
289,95,71025,1,0,0:0:0:0:
289,95,71196,1,8,0:0:0:0:
289,95,71539,5,12,0:0:0:0:
289,95,71882,1,4,0:0:0:0:
289,95,72225,5,4,0:0:0:0:
289,95,72568,1,12,0:0:0:0:
289,95,72910,5,8,0:0:0:0:
289,95,73082,1,0,0:0:0:0:
289,95,73253,1,8,0:0:0:0:
289,95,73339,1,8,0:0:0:0:
289,95,73425,1,0,0:0:0:0:
289,95,73510,1,0,0:0:0:0:
289,95,73596,1,8,0:0:0:0:
289,95,73768,1,0,0:0:0:0:
289,95,73939,1,8,0:0:0:0:
289,95,74110,1,0,0:0:0:0:
289,95,74196,1,0,0:0:0:0:
289,95,74282,1,8,0:0:0:0:
289,95,74625,1,0,0:0:0:0:
289,95,74796,1,0,0:0:0:0:
289,95,74968,1,8,0:0:0:0:
289,95,75139,1,0,0:0:0:0:
289,95,75310,1,8,0:0:0:0:
289,95,75482,1,8,0:0:0:0:
289,95,75568,1,0,0:0:0:0:
289,95,75653,1,8,0:0:0:0:
289,95,75825,1,0,0:0:0:0:
289,95,75996,1,8,0:0:0:0:
289,95,76168,1,0,0:0:0:0:
289,95,76339,1,8,0:0:0:0:
289,95,76510,1,0,0:0:0:0:
289,95,76682,1,8,0:0:0:0:
289,95,77025,5,12,0:0:0:0:
289,95,77196,1,4,0:0:0:0:
289,95,77368,1,12,0:0:0:0:
289,95,77710,5,4,0:0:0:0:
289,95,77882,1,12,0:0:0:0:
289,95,78053,1,4,0:0:0:0:
289,95,78396,5,8,0:0:0:0:
289,95,78482,1,0,0:0:0:0:
289,95,78568,1,8,0:0:0:0:
289,95,78739,1,0,0:0:0:0:
289,95,78825,1,8,0:0:0:0:
289,95,78910,1,0,0:0:0:0:
289,95,78996,1,0,0:0:0:0:
289,95,79082,1,8,0:0:0:0:
289,95,79253,1,0,0:0:0:0:
289,95,79425,1,8,0:0:0:0:
252,9,79596,1,8,0:0:0:0:
145,98,79682,1,0,0:0:0:0:
281,77,79768,1,8,0:0:0:0:
281,77,80110,1,0,0:0:0:0:
281,77,80282,1,0,0:0:0:0:
281,77,80453,1,8,0:0:0:0:
281,77,80625,1,0,0:0:0:0:
281,77,80796,1,8,0:0:0:0:
281,77,80968,1,8,0:0:0:0:
281,77,81053,1,0,0:0:0:0:
281,77,81139,1,8,0:0:0:0:
281,77,81310,1,0,0:0:0:0:
281,77,81482,1,8,0:0:0:0:
281,77,81653,1,0,0:0:0:0:
281,77,81825,1,8,0:0:0:0:
281,77,81996,1,0,0:0:0:0:
281,77,82168,1,0,0:0:0:0:
281,77,82510,5,4,0:0:0:0:
281,77,82682,1,12,0:0:0:0:
281,77,82853,1,4,0:0:0:0:
281,77,83196,5,12,0:0:0:0:
281,77,83368,1,4,0:0:0:0:
281,77,83539,1,12,0:0:0:0:
281,77,83882,5,8,0:0:0:0:
281,77,84053,1,0,0:0:0:0:
281,77,84225,1,0,0:0:0:0:
281,77,84396,1,0,0:0:0:0:
281,77,84568,1,8,0:0:0:0:
281,77,84910,1,0,0:0:0:0:
281,77,85082,1,8,0:0:0:0:
281,77,85253,1,8,0:0:0:0:
242,60,85339,1,8,0:0:0:0:
281,77,85425,1,0,0:0:0:0:
256,32,85596,1,8,0:0:0:0:
343,73,85768,1,0,0:0:0:0:
417,73,85939,1,8,0:0:0:0:
445,36,86282,1,8,0:0:0:0:
394,41,86453,1,0,0:0:0:0:
445,36,86625,1,8,0:0:0:0:
363,44,86796,1,0,0:0:0:0:
256,57,86882,1,0,0:0:0:0:
256,57,86968,1,8,0:0:0:0:
279,54,87139,1,0,0:0:0:0:
279,54,87310,1,8,0:0:0:0:
279,54,87396,1,8,0:0:0:0:
279,54,87482,1,0,0:0:0:0:
279,54,87568,1,0,0:0:0:0:
279,54,87653,1,8,0:0:0:0:
279,54,87825,1,0,0:0:0:0:
279,54,87996,5,12,0:0:0:0:
279,54,88339,1,12,0:0:0:0:
279,54,88682,5,4,0:0:0:0:
279,54,89025,1,4,0:0:0:0:
279,54,89368,5,12,0:0:0:0:
279,54,89710,1,12,0:0:0:0:
279,54,90053,5,4,0:0:0:0:
279,54,90396,1,4,0:0:0:0:
279,54,90739,5,12,0:0:0:0:
279,54,91082,1,12,0:0:0:0:
279,54,91425,5,4,0:0:0:0:
279,54,91768,1,4,0:0:0:0:
279,54,92110,5,12,0:0:0:0:
279,54,92453,1,12,0:0:0:0:
279,54,92796,5,4,0:0:0:0:
279,54,93139,1,4,0:0:0:0:
279,54,93482,5,12,0:0:0:0:
279,54,93825,1,4,0:0:0:0:
267,168,94682,5,0,0:0:0:0:
267,168,95196,1,0,0:0:0:0:
267,168,96053,1,0,0:0:0:0:
21,58,96568,2,0,L|234:77,2,196
267,168,97939,1,8,0:0:0:0:
267,168,98110,1,0,0:0:0:0:
215,83,98282,1,0,0:0:0:0:
267,168,98453,1,8,0:0:0:0:
267,168,98796,1,0,0:0:0:0:
235,129,98882,1,0,0:0:0:0:
267,168,98968,1,8,0:0:0:0:
267,168,99139,1,0,0:0:0:0:
267,168,99310,5,12,0:0:0:0:
267,168,99653,1,8,0:0:0:0:
283,93,99825,1,8,0:0:0:0:
267,168,99996,1,0,0:0:0:0:
206,87,100168,1,0,0:0:0:0:
265,165,100253,1,0,0:0:0:0:
267,168,100339,1,8,0:0:0:0:
267,168,100510,1,0,0:0:0:0:
267,168,100853,1,8,0:0:0:0:
267,168,101025,1,8,0:0:0:0:
267,168,101196,1,0,0:0:0:0:
267,168,101368,1,8,0:0:0:0:
267,168,101539,1,0,0:0:0:0:
267,168,101625,1,8,0:0:0:0:
267,168,101710,1,0,0:0:0:0:
267,168,101882,1,8,0:0:0:0:
267,168,102053,1,0,0:0:0:0:
267,168,102396,1,8,0:0:0:0:
267,168,102568,1,0,0:0:0:0:
267,168,102739,1,8,0:0:0:0:
267,168,102910,1,0,0:0:0:0:
211,118,102996,1,0,0:0:0:0:
267,168,103082,1,8,0:0:0:0:
267,168,103253,1,8,0:0:0:0:
267,168,103425,1,0,0:0:0:0:
267,168,103596,1,0,0:0:0:0:
267,168,103768,1,8,0:0:0:0:
267,168,104110,1,0,0:0:0:0:
267,168,104282,1,0,0:0:0:0:
267,168,104453,1,8,0:0:0:0:
255,131,104796,5,8,0:0:0:0:
255,131,104968,1,0,0:0:0:0:
255,131,105053,1,0,0:0:0:0:
255,131,105139,1,8,0:0:0:0:
255,131,105310,1,0,0:0:0:0:
303,115,105482,1,8,0:0:0:0:
303,115,105653,1,0,0:0:0:0:
303,115,105825,1,8,0:0:0:0:
238,70,105910,1,0,0:0:0:0:
303,115,105996,1,8,0:0:0:0:
303,115,106339,1,8,0:0:0:0:
303,115,106510,1,8,0:0:0:0:
303,115,106682,1,0,0:0:0:0:
303,115,106853,1,8,0:0:0:0:
303,115,107025,1,0,0:0:0:0:
303,115,107110,1,0,0:0:0:0:
303,115,107196,1,8,0:0:0:0:
303,115,107368,1,8,0:0:0:0:
303,115,107539,1,0,0:0:0:0:
303,115,107710,1,0,0:0:0:0:
303,115,107882,1,8,0:0:0:0:
303,115,108225,1,0,0:0:0:0:
303,115,108396,1,0,0:0:0:0:
303,115,108568,1,8,0:0:0:0:
303,115,108910,1,0,0:0:0:0:
303,115,109082,1,0,0:0:0:0:
303,115,109253,1,8,0:0:0:0:
303,115,109425,1,0,0:0:0:0:
303,115,109596,1,8,0:0:0:0:
303,115,109682,1,0,0:0:0:0:
303,115,109768,1,0,0:0:0:0:
303,115,109853,1,0,0:0:0:0:
303,115,109939,1,8,0:0:0:0:
303,115,110110,1,0,0:0:0:0:
303,115,110282,1,0,0:0:0:0:
303,115,110625,5,12,0:0:0:0:
303,115,110968,1,8,0:0:0:0:
303,115,111139,1,0,0:0:0:0:
303,115,111225,1,0,0:0:0:0:
303,115,111310,1,8,0:0:0:0:
303,115,111482,1,0,0:0:0:0:
303,115,111825,1,0,0:0:0:0:
303,115,111996,1,8,0:0:0:0:
289,88,112168,1,0,0:0:0:0:
289,88,112339,1,8,0:0:0:0:
289,88,112425,1,0,0:0:0:0:
289,88,112596,1,0,0:0:0:0:
289,88,112682,1,8,0:0:0:0:
289,88,112853,1,0,0:0:0:0:
289,88,113025,1,8,0:0:0:0:
289,88,113368,1,8,0:0:0:0:
289,88,113539,1,0,0:0:0:0:
289,88,113710,1,0,0:0:0:0:
289,88,113796,1,8,0:0:0:0:
289,88,113882,1,0,0:0:0:0:
289,88,114053,1,8,0:0:0:0:
289,88,114225,1,8,0:0:0:0:
289,88,114396,1,0,0:0:0:0:
289,88,114568,1,0,0:0:0:0:
289,88,114739,1,8,0:0:0:0:
289,88,115082,1,0,0:0:0:0:
289,88,115253,1,0,0:0:0:0:
289,88,115425,1,8,0:0:0:0:
264,63,115768,5,8,0:0:0:0:
264,63,115939,1,0,0:0:0:0:
264,63,116110,1,8,0:0:0:0:
264,63,116196,1,8,0:0:0:0:
264,63,116282,1,0,0:0:0:0:
264,63,116453,1,8,0:0:0:0:
264,63,116625,1,0,0:0:0:0:
264,63,116796,1,8,0:0:0:0:
264,63,116968,1,0,0:0:0:0:
264,63,117310,1,8,0:0:0:0:
264,63,117482,1,8,0:0:0:0:
264,63,117653,1,0,0:0:0:0:
264,63,117825,1,8,0:0:0:0:
264,63,117996,1,0,0:0:0:0:
264,63,118082,1,0,0:0:0:0:
264,63,118168,1,8,0:0:0:0:
264,63,118339,1,8,0:0:0:0:
264,63,118510,1,0,0:0:0:0:
264,63,118596,1,0,0:0:0:0:
264,63,118682,1,0,0:0:0:0:
264,63,118768,1,0,0:0:0:0:
264,63,118853,1,8,0:0:0:0:
264,63,119025,1,8,0:0:0:0:
264,63,119196,1,0,0:0:0:0:
264,63,119282,1,0,0:0:0:0:
264,63,119368,1,0,0:0:0:0:
264,63,119453,1,0,0:0:0:0:
264,63,119539,1,8,0:0:0:0:
264,63,119710,1,0,0:0:0:0:
264,63,119882,1,12,0:0:0:0:
263,128,121253,5,4,0:0:0:0:
263,128,121596,1,0,0:0:0:0:
263,128,121939,1,8,0:0:0:0:
263,128,122282,1,0,0:0:0:0:
263,128,122453,1,8,0:0:0:0:
263,128,122625,1,0,0:0:0:0:
263,128,122968,1,8,0:0:0:0:
263,128,123310,1,8,0:0:0:0:
263,128,123482,1,8,0:0:0:0:
263,128,123653,1,0,0:0:0:0:
263,128,123996,1,8,0:0:0:0:
263,128,124339,1,0,0:0:0:0:
263,128,124510,1,0,0:0:0:0:
263,128,124682,1,8,0:0:0:0:
263,128,125025,1,8,0:0:0:0:
204,11,125196,1,8,0:0:0:0:
263,128,125368,1,0,0:0:0:0:
204,11,125710,1,0,0:0:0:0:
263,128,126053,1,8,0:0:0:0:
263,128,126739,5,8,0:0:0:0:
263,128,127082,1,8,0:0:0:0:
204,11,127253,1,0,0:0:0:0:
263,128,127425,1,8,0:0:0:0:
204,11,127768,1,8,0:0:0:0:
263,128,127939,1,8,0:0:0:0:
263,128,128110,1,0,0:0:0:0:
263,128,128453,1,0,0:0:0:0:
263,128,128625,1,0,0:0:0:0:
263,128,128796,1,8,0:0:0:0:
263,128,129139,1,8,0:0:0:0:
263,128,129482,1,0,0:0:0:0:
263,128,129825,1,8,0:0:0:0:
263,128,129996,1,0,0:0:0:0:
263,128,130168,1,8,0:0:0:0:
263,128,130339,1,8,0:0:0:0:
263,128,130510,1,0,0:0:0:0:
263,128,130853,1,8,0:0:0:0:
263,128,131025,1,0,0:0:0:0:
263,128,131368,1,0,0:0:0:0:
263,128,131539,1,8,0:0:0:0:
263,128,131710,1,8,0:0:0:0:
263,128,131796,1,8,0:0:0:0:
263,128,132053,1,8,0:0:0:0:
263,128,132225,5,4,0:0:0:0:
260,97,132568,1,0,0:0:0:0:
260,97,132739,1,8,0:0:0:0:
260,97,132910,1,0,0:0:0:0:
260,97,133082,1,8,0:0:0:0:
260,97,133168,1,0,0:0:0:0:
260,97,133253,1,8,0:0:0:0:
260,97,133596,1,8,0:0:0:0:
260,97,133768,1,8,0:0:0:0:
260,97,133939,1,0,0:0:0:0:
260,97,134110,1,0,0:0:0:0:
260,97,134282,1,8,0:0:0:0:
260,97,134453,1,0,0:0:0:0:
260,97,134625,1,0,0:0:0:0:
260,97,134968,1,0,0:0:0:0:
260,97,135139,1,8,0:0:0:0:
260,97,135310,1,8,0:0:0:0:
260,97,135482,1,0,0:0:0:0:
260,97,135653,1,8,0:0:0:0:
260,97,135825,1,0,0:0:0:0:
260,97,135996,1,8,0:0:0:0:
260,97,136168,1,8,0:0:0:0:
260,97,136339,1,0,0:0:0:0:
260,97,136682,1,8,0:0:0:0:
260,97,136853,1,0,0:0:0:0:
260,97,137025,1,8,0:0:0:0:
260,97,137368,1,0,0:0:0:0:
260,97,137710,5,0,0:0:0:0:
260,97,137882,1,0,0:0:0:0:
260,97,138053,1,8,0:0:0:0:
178,34,138225,1,0,0:0:0:0:
260,97,138396,1,8,0:0:0:0:
260,97,138739,1,0,0:0:0:0:
260,97,138910,1,8,0:0:0:0:
260,97,139082,1,0,0:0:0:0:
260,97,139425,1,8,0:0:0:0:
260,97,139596,1,0,0:0:0:0:
260,97,139768,1,8,0:0:0:0:
260,97,140110,1,8,0:0:0:0:
260,97,140282,1,8,0:0:0:0:
260,97,140453,1,0,0:0:0:0:
260,97,140625,1,0,0:0:0:0:
260,97,140796,1,8,0:0:0:0:
256,96,141139,1,0,0:0:0:0:
320,32,141310,1,0,0:0:0:0:
256,128,141482,1,8,0:0:0:0:
320,32,141653,1,0,0:0:0:0:
260,97,141739,1,0,0:0:0:0:
260,97,141825,1,8,0:0:0:0:
260,97,141996,1,0,0:0:0:0:
352,32,142168,1,8,0:0:0:0:
260,97,142339,1,0,0:0:0:0:
260,97,142425,1,0,0:0:0:0:
260,97,142510,1,8,0:0:0:0:
224,64,142682,1,0,0:0:0:0:
260,97,142853,5,4,0:0:0:0:
260,97,143025,1,4,0:0:0:0:
260,97,143196,1,12,0:0:0:0:
260,97,143539,5,12,0:0:0:0:
260,97,143710,1,12,0:0:0:0:
260,97,143882,1,4,0:0:0:0:
260,97,144225,5,8,0:0:0:0:
260,97,144568,1,8,0:0:0:0:
260,97,144653,1,8,0:0:0:0:
260,97,144739,1,0,0:0:0:0:
260,97,144910,1,8,0:0:0:0:
260,97,145082,1,0,0:0:0:0:
260,97,145253,1,8,0:0:0:0:
187,37,145339,1,0,0:0:0:0:
288,84,145510,1,0,0:0:0:0:
260,97,145596,1,8,0:0:0:0:
260,97,145939,1,0,0:0:0:0:
260,97,146110,1,0,0:0:0:0:
260,97,146282,1,8,0:0:0:0:
260,97,146453,1,0,0:0:0:0:
260,97,146625,1,8,0:0:0:0:
260,97,146710,1,8,0:0:0:0:
260,97,146796,1,0,0:0:0:0:
260,97,146968,1,8,0:0:0:0:
260,97,147139,1,8,0:0:0:0:
260,97,147310,1,0,0:0:0:0:
260,97,147482,1,0,0:0:0:0:
260,97,147653,1,8,0:0:0:0:
260,97,147825,1,0,0:0:0:0:
260,97,147996,1,8,0:0:0:0:
260,97,148339,5,12,0:0:0:0:
260,97,148510,1,4,0:0:0:0:
260,97,148682,1,12,0:0:0:0:
260,97,149025,5,4,0:0:0:0:
260,97,149196,1,12,0:0:0:0:
260,97,149368,1,4,0:0:0:0:
288,160,149710,5,8,0:0:0:0:
288,160,149939,1,0,0:0:0:0:
288,160,150053,1,8,0:0:0:0:
235,105,150168,1,0,0:0:0:0:
288,160,150282,1,0,0:0:0:0:
288,160,150396,1,8,0:0:0:0:
288,128,150910,1,0,0:0:0:0:
288,128,151082,1,8,0:0:0:0:
288,128,151425,1,0,0:0:0:0:
288,128,151596,1,0,0:0:0:0:
288,128,151768,1,8,0:0:0:0:
288,128,151939,1,0,0:0:0:0:
288,128,152282,1,0,0:0:0:0:
288,128,152453,1,8,0:0:0:0:
288,128,152539,1,0,0:0:0:0:
288,128,152625,1,8,0:0:0:0:
288,128,152796,1,0,0:0:0:0:
288,128,152968,1,8,0:0:0:0:
288,128,153139,1,8,0:0:0:0:
288,128,153225,1,8,0:0:0:0:
288,128,153310,1,0,0:0:0:0:
288,128,153482,1,8,0:0:0:0:
288,128,153653,1,0,0:0:0:0:
279,54,153825,5,4,0:0:0:0:
279,54,154168,1,12,0:0:0:0:
279,54,154510,5,12,0:0:0:0:
279,54,154853,1,4,0:0:0:0:
279,54,155196,5,12,0:0:0:0:
279,54,155539,1,12,0:0:0:0:
279,54,155882,5,4,0:0:0:0:
279,54,156225,1,4,0:0:0:0:
279,54,156568,5,12,0:0:0:0:
279,54,156910,1,4,0:0:0:0:
279,54,157253,5,4,0:0:0:0:
279,54,157596,1,12,0:0:0:0:
279,54,157939,5,12,0:0:0:0:
279,54,158282,1,12,0:0:0:0:
279,54,158625,5,4,0:0:0:0:
279,54,158968,1,4,0:0:0:0:
279,54,159310,5,12,0:0:0:0:
288,0,159482,1,4,0:0:0:0:
279,54,159653,1,12,0:0:0:0:
288,288,159996,5,4,0:0:0:0:
288,192,160168,1,12,0:0:0:0:
288,96,160339,1,4,0:0:0:0:
288,96,160682,5,12,0:0:0:0:
288,96,161025,1,12,0:0:0:0:
288,96,161368,5,4,0:0:0:0:
288,96,161710,1,4,0:0:0:0:
288,96,162053,5,12,0:0:0:0:
288,96,162225,1,12,0:0:0:0:
288,96,162396,1,12,0:0:0:0:
288,96,162739,5,4,0:0:0:0:
288,96,162910,1,4,0:0:0:0:
288,96,163082,1,4,0:0:0:0:
288,96,163425,5,12,0:0:0:0:
288,96,163768,1,12,0:0:0:0:
288,96,164110,5,4,0:0:0:0:
288,96,164453,1,4,0:0:0:0:
288,96,164796,5,12,0:0:0:0:
288,96,165139,1,12,0:0:0:0:
288,96,165482,5,4,0:0:0:0:
288,96,165825,1,4,0:0:0:0:
288,96,166168,5,12,0:0:0:0:
288,96,166510,1,12,0:0:0:0:
288,96,166853,5,4,0:0:0:0:
288,96,167196,1,4,0:0:0:0:
288,96,167539,5,12,0:0:0:0:
288,96,167882,1,12,0:0:0:0:
288,96,168225,5,4,0:0:0:0:
288,96,168568,1,4,0:0:0:0:
288,96,168910,5,12,0:0:0:0:
288,96,169253,1,12,0:0:0:0:
288,96,169596,5,4,0:0:0:0:
288,96,169939,1,4,0:0:0:0:
288,96,170282,5,12,0:0:0:0:
288,96,170625,1,4,0:0:0:0:
288,96,171482,5,0,0:0:0:0:
288,96,171996,1,0,0:0:0:0:
288,96,172853,1,0,0:0:0:0:
8,92,173368,2,0,L|218:90,2,196
211,82,174739,1,8,0:0:0:0:
243,83,174825,1,8,0:0:0:0:
293,84,174910,1,0,0:0:0:0:
267,168,175082,1,0,0:0:0:0:
267,168,175253,1,8,0:0:0:0:
256,128,175339,1,8,0:0:0:0:
267,168,175425,1,0,0:0:0:0:
267,168,175596,1,0,0:0:0:0:
267,168,175682,1,0,0:0:0:0:
267,168,175768,1,8,0:0:0:0:
267,168,175939,1,0,0:0:0:0:
267,168,176110,5,12,0:0:0:0:
267,168,176453,1,8,0:0:0:0:
283,93,176625,1,0,0:0:0:0:
267,168,176796,1,0,0:0:0:0:
206,87,176968,1,0,0:0:0:0:
265,165,177053,1,0,0:0:0:0:
267,168,177139,1,8,0:0:0:0:
267,168,177310,1,0,0:0:0:0:
267,168,177653,1,8,0:0:0:0:
267,168,177825,1,8,0:0:0:0:
235,160,177910,1,0,0:0:0:0:
252,164,177996,1,0,0:0:0:0:
267,168,178168,1,8,0:0:0:0:
267,168,178339,1,0,0:0:0:0:
267,168,178425,1,8,0:0:0:0:
267,168,178510,1,0,0:0:0:0:
267,168,178682,1,8,0:0:0:0:
267,168,178853,1,0,0:0:0:0:
267,168,179196,1,8,0:0:0:0:
267,168,179368,1,0,0:0:0:0:
267,168,179539,1,8,0:0:0:0:
267,168,179710,1,0,0:0:0:0:
211,118,179796,1,0,0:0:0:0:
267,168,179882,1,8,0:0:0:0:
267,168,180053,1,8,0:0:0:0:
267,168,180225,1,0,0:0:0:0:
267,168,180396,1,0,0:0:0:0:
267,168,180568,1,8,0:0:0:0:
267,168,180910,1,0,0:0:0:0:
267,168,181082,1,0,0:0:0:0:
267,168,181253,1,8,0:0:0:0:
255,131,181596,5,8,0:0:0:0:
255,131,181768,1,0,0:0:0:0:
255,131,181853,1,0,0:0:0:0:
255,131,181939,1,8,0:0:0:0:
255,131,182110,1,0,0:0:0:0:
303,115,182282,1,8,0:0:0:0:
303,115,182453,1,0,0:0:0:0:
303,115,182625,1,8,0:0:0:0:
238,70,182710,1,0,0:0:0:0:
303,115,182796,1,8,0:0:0:0:
303,115,183139,1,8,0:0:0:0:
303,115,183310,1,8,0:0:0:0:
266,105,183396,1,0,0:0:0:0:
303,115,183482,1,0,0:0:0:0:
303,115,183653,1,8,0:0:0:0:
303,115,183825,1,0,0:0:0:0:
303,115,183910,1,0,0:0:0:0:
303,115,183996,1,8,0:0:0:0:
303,115,184168,1,8,0:0:0:0:
303,115,184339,1,0,0:0:0:0:
303,115,184510,1,0,0:0:0:0:
303,115,184682,1,8,0:0:0:0:
303,115,185025,1,0,0:0:0:0:
303,115,185196,1,0,0:0:0:0:
303,115,185368,1,8,0:0:0:0:
303,115,185710,1,0,0:0:0:0:
303,115,185882,1,0,0:0:0:0:
303,115,186053,1,8,0:0:0:0:
303,115,186225,1,0,0:0:0:0:
303,115,186396,1,8,0:0:0:0:
303,115,186482,1,0,0:0:0:0:
303,115,186568,1,0,0:0:0:0:
303,115,186653,1,0,0:0:0:0:
303,115,186739,1,8,0:0:0:0:
303,115,186910,1,0,0:0:0:0:
303,115,187082,1,0,0:0:0:0:
303,115,187425,5,12,0:0:0:0:
303,115,187768,1,8,0:0:0:0:
303,115,187939,1,0,0:0:0:0:
303,115,188025,1,0,0:0:0:0:
303,115,188110,1,8,0:0:0:0:
303,115,188282,1,0,0:0:0:0:
303,115,188625,1,0,0:0:0:0:
303,115,188796,1,8,0:0:0:0:
273,83,188968,1,0,0:0:0:0:
220,102,189053,1,0,0:0:0:0:
289,88,189139,1,8,0:0:0:0:
289,88,189225,1,0,0:0:0:0:
289,88,189396,1,0,0:0:0:0:
289,88,189482,1,8,0:0:0:0:
289,88,189653,1,0,0:0:0:0:
289,88,189825,1,8,0:0:0:0:
289,88,190168,1,8,0:0:0:0:
289,88,190339,1,0,0:0:0:0:
289,88,190510,1,0,0:0:0:0:
289,88,190596,1,8,0:0:0:0:
289,88,190682,1,0,0:0:0:0:
289,88,190853,1,8,0:0:0:0:
289,88,191025,1,8,0:0:0:0:
289,88,191196,1,0,0:0:0:0:
289,88,191368,1,0,0:0:0:0:
289,88,191539,1,8,0:0:0:0:
289,88,191882,1,0,0:0:0:0:
289,88,192053,1,0,0:0:0:0:
289,88,192225,1,8,0:0:0:0:
264,63,192568,5,8,0:0:0:0:
264,63,192739,1,0,0:0:0:0:
264,63,192910,1,8,0:0:0:0:
264,63,192996,1,8,0:0:0:0:
264,63,193082,1,0,0:0:0:0:
264,63,193253,1,8,0:0:0:0:
264,63,193425,1,0,0:0:0:0:
229,80,193510,1,0,0:0:0:0:
264,63,193596,1,8,0:0:0:0:
264,63,193768,1,0,0:0:0:0:
264,63,194110,1,8,0:0:0:0:
264,63,194282,1,8,0:0:0:0:
264,63,194453,1,0,0:0:0:0:
264,63,194625,1,8,0:0:0:0:
264,63,194796,1,0,0:0:0:0:
264,63,194882,1,0,0:0:0:0:
264,63,194968,1,8,0:0:0:0:
264,63,195139,1,8,0:0:0:0:
264,63,195310,1,0,0:0:0:0:
264,63,195396,1,0,0:0:0:0:
264,63,195482,1,0,0:0:0:0:
264,63,195568,1,0,0:0:0:0:
264,63,195653,1,8,0:0:0:0:
264,63,195825,1,8,0:0:0:0:
264,63,195996,1,0,0:0:0:0:
264,63,196082,1,0,0:0:0:0:
264,63,196168,1,0,0:0:0:0:
264,63,196253,1,0,0:0:0:0:
264,63,196339,1,8,0:0:0:0:
264,63,196510,1,0,0:0:0:0:
264,63,196682,1,8,0:0:0:0:
221,84,196768,1,8,0:0:0:0:
175,107,196853,1,0,0:0:0:0:
79,158,197025,1,0,0:0:0:0:
183,102,197196,1,8,0:0:0:0:
157,116,197282,1,8,0:0:0:0:
157,116,197368,1,0,0:0:0:0:
157,116,197539,1,0,0:0:0:0:
157,116,197710,1,8,0:0:0:0:
157,116,197796,1,8,0:0:0:0:
157,116,197882,1,8,0:0:0:0:
157,116,197968,1,8,0:0:0:0:
157,116,198053,1,0,0:0:0:0:
201,120,198396,5,12,0:0:0:0:
225,128,198568,1,0,0:0:0:0:
203,120,198739,1,8,0:0:0:0:
201,120,198825,1,8,0:0:0:0:
234,129,198910,1,0,0:0:0:0:
203,120,199082,1,8,0:0:0:0:
201,120,199253,1,8,0:0:0:0:
201,120,199425,1,0,0:0:0:0:
245,127,199596,1,0,0:0:0:0:
203,120,199768,1,8,0:0:0:0:
203,120,199939,1,0,0:0:0:0:
201,120,200282,1,0,0:0:0:0:
203,120,200368,1,0,0:0:0:0:
201,120,200453,1,8,0:0:0:0:
225,128,200625,1,8,0:0:0:0:
203,120,200796,1,0,0:0:0:0:
397,177,201139,5,8,0:0:0:0:
317,153,201310,1,0,0:0:0:0:
317,153,201482,1,8,0:0:0:0:
317,153,201568,1,8,0:0:0:0:
317,153,201653,1,0,0:0:0:0:
317,153,201825,1,8,0:0:0:0:
317,153,202168,1,8,0:0:0:0:
317,153,202339,1,0,0:0:0:0:
317,153,202510,1,8,0:0:0:0:
288,112,202596,1,0,0:0:0:0:
317,153,202682,1,8,0:0:0:0:
317,153,202853,1,0,0:0:0:0:
317,153,203025,1,0,0:0:0:0:
317,153,203196,1,8,0:0:0:0:
203,120,203539,1,0,0:0:0:0:
201,120,203882,5,8,0:0:0:0:
225,128,204053,1,0,0:0:0:0:
203,120,204225,1,8,0:0:0:0:
203,120,204310,1,8,0:0:0:0:
234,129,204396,1,0,0:0:0:0:
203,120,204568,1,8,0:0:0:0:
201,120,204739,1,8,0:0:0:0:
201,120,204910,1,0,0:0:0:0:
259,157,205082,1,0,0:0:0:0:
203,120,205253,1,8,0:0:0:0:
203,120,205596,1,0,0:0:0:0:
201,120,205768,1,0,0:0:0:0:
203,120,205853,1,0,0:0:0:0:
201,120,205939,1,8,0:0:0:0:
225,128,206110,1,8,0:0:0:0:
203,120,206282,1,0,0:0:0:0:
397,177,206625,5,8,0:0:0:0:
231,61,206796,1,0,0:0:0:0:
317,153,206968,1,8,0:0:0:0:
317,153,207053,1,8,0:0:0:0:
317,153,207139,1,0,0:0:0:0:
317,153,207310,1,8,0:0:0:0:
317,153,207482,1,8,0:0:0:0:
317,153,207653,1,0,0:0:0:0:
317,153,207825,1,0,0:0:0:0:
317,153,207996,1,8,0:0:0:0:
317,153,208168,1,0,0:0:0:0:
317,153,208425,1,8,0:0:0:0:
317,153,208510,1,0,0:0:0:0:
317,153,208682,1,8,0:0:0:0:
317,153,208768,1,8,0:0:0:0:
317,153,208853,1,8,0:0:0:0:
203,120,209025,1,0,0:0:0:0:
201,120,209368,5,12,0:0:0:0:
225,128,209539,1,0,0:0:0:0:
203,120,209710,1,8,0:0:0:0:
203,120,209796,1,8,0:0:0:0:
234,129,209882,1,0,0:0:0:0:
203,120,210053,1,8,0:0:0:0:
201,120,210225,1,8,0:0:0:0:
201,120,210396,1,0,0:0:0:0:
203,120,210739,1,8,0:0:0:0:
203,120,210910,1,0,0:0:0:0:
203,120,211082,1,0,0:0:0:0:
201,120,211253,1,0,0:0:0:0:
203,120,211339,1,0,0:0:0:0:
201,120,211425,1,8,0:0:0:0:
225,128,211596,1,8,0:0:0:0:
203,120,211768,1,0,0:0:0:0:
397,177,212110,5,8,0:0:0:0:
317,153,212282,1,0,0:0:0:0:
317,153,212453,1,8,0:0:0:0:
317,153,212539,1,8,0:0:0:0:
317,153,212625,1,8,0:0:0:0:
317,153,212796,1,8,0:0:0:0:
317,153,213139,1,8,0:0:0:0:
220,88,213310,1,0,0:0:0:0:
317,153,213482,1,8,0:0:0:0:
256,48,213568,1,0,0:0:0:0:
317,153,213653,1,8,0:0:0:0:
263,83,213825,1,0,0:0:0:0:
317,153,213996,1,0,0:0:0:0:
317,153,214168,1,8,0:0:0:0:
203,120,214510,5,4,0:0:0:0:
317,153,215196,1,8,0:0:0:0:
314,137,215368,1,0,0:0:0:0:
314,137,215539,1,8,0:0:0:0:
317,153,215882,1,0,0:0:0:0:
317,153,216739,1,0,0:0:0:0:
317,153,216910,1,8,0:0:0:0:
317,153,217082,1,0,0:0:0:0:
317,153,217253,5,0,0:0:0:0:
317,153,217768,1,0,0:0:0:0:
317,153,218282,1,0,0:0:0:0:
317,153,218625,1,0,0:0:0:0:
317,153,218796,1,8,0:0:0:0:
317,153,219053,1,0,0:0:0:0:
317,153,219139,1,0,0:0:0:0:
317,153,219225,1,0,0:0:0:0:
288,113,219310,1,8,0:0:0:0:
317,153,219482,1,0,0:0:0:0:
317,153,219653,1,8,0:0:0:0:
288,113,219996,5,4,0:0:0:0:
256,192,220168,8,0,225482,0:0:0:0:
