osu file format v14

[General]
AudioFilename: Danzai Yamaxanadu!.mp3
AudioLeadIn: 0
PreviewTime: 99151
Countdown: 0
SampleSet: None
StackLeniency: 0.7
Mode: 3
LetterboxInBreaks: 0
SpecialStyle: 0
WidescreenStoryboard: 0

[Editor]
Bookmarks: 11551,43608,44465,176057,187372
DistanceSpacing: 1.2
BeatDivisor: 4
GridSize: 32
TimelineZoom: 2.899999

[Metadata]
Title:Danzai Yamaxanadu!
TitleUnicode:断罪ヤマザナドゥ!
Artist:IOSYS
ArtistUnicode:IOSYS
Creator:Sandalphon
Version:Lunatic
Source:東方Project
Tags:Convictor ARM rimoire of IOSYS – 東方BEST ALBUM vol.2 IO-0199 東方花映塚 ~ Phantasmagoria of Flower View Kaeidzuka Critical_Star Touhou 六十年目の東方裁判 ~ Fate of Sixty Years 岩杉 夏
BeatmapID:1090411
BeatmapSetID:513139

[Difficulty]
HPDrainRate:8
CircleSize:4
OverallDifficulty:8.5
ApproachRate:5
SliderMultiplier:1.4
SliderTickRate:1

[Events]
//Background and Video events
0,0,"Danzai.jpg",0,0
//Break Periods
//Storyboard Layer 0 (Background)
//Storyboard Layer 1 (Fail)
//Storyboard Layer 2 (Pass)
//Storyboard Layer 3 (Foreground)
//Storyboard Sound Samples

[TimingPoints]
580,342.857142857143,4,3,1,70,1,0
99322,-100,4,3,1,70,0,1
110294,-66.6666666666667,4,3,1,70,0,0
110465,-133.333333333333,4,3,1,70,0,0
110637,-100,4,3,1,70,0,1
121265,-66.6666666666667,4,3,1,70,0,1
121437,-133.333333333333,4,3,1,70,0,1
121608,-100,4,3,1,70,0,0
132237,-66.6666666666667,4,3,1,70,0,0
132408,-133.333333333333,4,3,1,70,0,0
132580,-100,4,3,1,70,0,0

[HitObjects]
64,192,580,5,0,0:0:0:0:
448,192,751,1,0,0:0:0:0:
64,192,922,1,0,0:0:0:0:
320,192,1094,1,0,0:0:0:0:
192,192,1265,1,0,0:0:0:0:
448,192,1437,1,0,0:0:0:0:
64,192,1608,1,0,0:0:0:0:
448,192,1780,1,0,0:0:0:0:
64,192,1951,1,0,0:0:0:0:
192,192,2037,1,0,0:0:0:0:
320,192,2122,1,0,0:0:0:0:
64,192,2294,1,0,0:0:0:0:
448,192,2465,1,0,0:0:0:0:
64,192,2637,1,0,0:0:0:0:
320,192,2808,1,0,0:0:0:0:
192,192,2980,1,0,0:0:0:0:
448,192,3151,1,0,0:0:0:0:
64,192,3322,1,0,0:0:0:0:
320,192,3494,1,0,0:0:0:0:
64,192,3665,1,0,0:0:0:0:
448,192,3837,1,0,0:0:0:0:
192,192,4008,1,0,0:0:0:0:
448,192,4180,1,0,0:0:0:0:
64,192,4351,1,0,0:0:0:0:
448,192,4522,1,0,0:0:0:0:
64,192,4694,1,0,0:0:0:0:
320,192,4865,1,0,0:0:0:0:
192,192,5037,1,0,0:0:0:0:
448,192,5208,1,0,0:0:0:0:
192,192,5380,1,0,0:0:0:0:
320,192,5551,1,0,0:0:0:0:
64,192,5722,1,0,0:0:0:0:
448,192,5894,1,0,0:0:0:0:
64,192,6065,1,0,0:0:0:0:
192,192,6065,1,0,0:0:0:0:
448,192,6237,1,0,0:0:0:0:
64,192,6408,1,0,0:0:0:0:
448,192,6580,1,0,0:0:0:0:
192,192,6751,1,0,0:0:0:0:
320,192,6922,1,0,0:0:0:0:
64,192,7094,1,0,0:0:0:0:
448,192,7265,1,0,0:0:0:0:
192,192,7437,1,0,0:0:0:0:
448,192,7608,1,0,0:0:0:0:
64,192,7780,1,0,0:0:0:0:
320,192,7951,1,0,0:0:0:0:
64,192,8122,1,0,0:0:0:0:
448,192,8294,1,0,0:0:0:0:
192,192,8465,1,0,0:0:0:0:
448,192,8637,1,0,0:0:0:0:
64,192,8808,1,0,0:0:0:0:
448,192,8980,1,0,0:0:0:0:
64,192,9151,1,0,0:0:0:0:
448,192,9322,1,0,0:0:0:0:
64,192,9494,1,0,0:0:0:0:
320,192,9665,1,0,0:0:0:0:
192,192,9837,1,0,0:0:0:0:
448,192,10008,1,0,0:0:0:0:
192,192,10180,1,0,0:0:0:0:
320,192,10351,1,0,0:0:0:0:
64,192,10522,1,0,0:0:0:0:
448,192,10694,1,0,0:0:0:0:
64,192,10865,1,0,0:0:0:0:
320,192,11037,1,0,0:0:0:0:
192,192,11208,1,0,0:0:0:0:
448,192,11380,1,0,0:0:0:0:
64,192,11551,1,0,0:0:0:0:
192,192,11551,1,0,0:0:0:0:
320,192,11722,1,0,0:0:0:0:
448,192,11894,1,0,0:0:0:0:
64,192,11894,1,0,0:0:0:0:
192,192,12065,1,0,0:0:0:0:
320,192,12065,1,0,0:0:0:0:
64,192,12237,1,0,0:0:0:0:
448,192,12237,1,0,0:0:0:0:
192,192,12408,1,0,0:0:0:0:
320,192,12580,1,0,0:0:0:0:
448,192,12580,1,0,0:0:0:0:
64,192,12751,1,0,0:0:0:0:
192,192,12751,1,0,0:0:0:0:
448,192,12922,1,0,0:0:0:0:
320,192,13008,1,0,0:0:0:0:
192,192,13094,1,0,0:0:0:0:
64,192,13094,1,0,0:0:0:0:
320,192,13265,1,0,0:0:0:0:
448,192,13265,1,0,0:0:0:0:
192,192,13437,1,0,0:0:0:0:
448,192,13608,1,0,0:0:0:0:
320,192,13608,1,0,0:0:0:0:
64,192,13780,1,0,0:0:0:0:
192,192,13780,1,0,0:0:0:0:
320,192,13951,1,0,0:0:0:0:
64,192,14122,1,0,0:0:0:0:
448,192,14122,1,0,0:0:0:0:
320,192,14294,1,0,0:0:0:0:
192,192,14294,1,0,0:0:0:0:
64,192,14465,1,0,0:0:0:0:
320,192,14637,1,0,0:0:0:0:
448,192,14637,1,0,0:0:0:0:
64,192,14808,1,0,0:0:0:0:
192,192,14808,1,0,0:0:0:0:
448,192,14980,1,0,0:0:0:0:
320,192,14980,1,0,0:0:0:0:
192,192,15151,1,0,0:0:0:0:
64,192,15322,1,0,0:0:0:0:
448,192,15322,1,0,0:0:0:0:
320,192,15494,1,0,0:0:0:0:
448,192,15494,1,0,0:0:0:0:
64,192,15665,1,0,0:0:0:0:
192,192,15837,1,0,0:0:0:0:
320,192,15837,1,0,0:0:0:0:
448,192,16008,1,0,0:0:0:0:
64,192,16008,1,0,0:0:0:0:
320,192,16180,1,0,0:0:0:0:
192,192,16351,1,0,0:0:0:0:
64,192,16351,1,0,0:0:0:0:
448,192,16522,1,0,0:0:0:0:
320,192,16522,1,0,0:0:0:0:
64,192,16694,1,0,0:0:0:0:
192,192,16865,1,0,0:0:0:0:
448,192,17037,1,0,0:0:0:0:
64,192,17037,1,0,0:0:0:0:
320,192,17037,1,0,0:0:0:0:
192,192,17208,1,0,0:0:0:0:
320,192,17380,1,0,0:0:0:0:
448,192,17380,1,0,0:0:0:0:
192,192,17551,1,0,0:0:0:0:
64,192,17551,1,0,0:0:0:0:
448,192,17722,1,0,0:0:0:0:
320,192,17722,1,0,0:0:0:0:
192,192,17894,1,0,0:0:0:0:
64,192,18065,1,0,0:0:0:0:
448,192,18065,1,0,0:0:0:0:
320,192,18237,1,0,0:0:0:0:
192,192,18237,1,0,0:0:0:0:
448,192,18408,1,0,0:0:0:0:
192,192,18580,1,0,0:0:0:0:
64,192,18580,1,0,0:0:0:0:
320,192,18751,1,0,0:0:0:0:
448,192,18751,1,0,0:0:0:0:
64,192,18922,1,0,0:0:0:0:
320,192,19094,1,0,0:0:0:0:
448,192,19094,1,0,0:0:0:0:
192,192,19265,1,0,0:0:0:0:
64,192,19265,1,0,0:0:0:0:
448,192,19437,1,0,0:0:0:0:
320,192,19608,1,0,0:0:0:0:
192,192,19608,1,0,0:0:0:0:
448,192,19780,1,2,0:0:0:0:
64,192,19780,1,0,0:0:0:0:
192,192,19865,1,0,0:0:0:0:
320,192,19951,1,0,0:0:0:0:
192,192,20037,1,0,0:0:0:0:
448,192,20122,1,0,0:0:0:0:
320,192,20208,1,0,0:0:0:0:
192,192,20294,1,0,0:0:0:0:
64,192,20294,1,0,0:0:0:0:
320,192,20380,1,0,0:0:0:0:
64,192,20465,1,0,0:0:0:0:
448,192,20465,1,0,0:0:0:0:
192,192,20551,1,0,0:0:0:0:
320,192,20637,1,0,0:0:0:0:
192,192,20722,1,0,0:0:0:0:
64,192,20808,1,0,0:0:0:0:
448,192,20808,1,0,0:0:0:0:
320,192,20894,1,0,0:0:0:0:
192,192,20980,1,0,0:0:0:0:
64,192,20980,1,2,0:0:0:0:
448,192,21065,1,0,0:0:0:0:
320,192,21151,1,0,0:0:0:0:
192,192,21237,1,0,0:0:0:0:
64,192,21322,1,0,0:0:0:0:
448,192,21322,1,2,0:0:0:0:
320,192,21408,1,0,0:0:0:0:
192,192,21494,1,0,0:0:0:0:
64,192,21494,1,0,0:0:0:0:
320,192,21580,1,0,0:0:0:0:
448,192,21665,1,2,0:0:0:0:
64,192,21665,1,0,0:0:0:0:
192,192,21751,1,0,0:0:0:0:
320,192,21837,1,0,0:0:0:0:
448,192,21837,1,2,0:0:0:0:
64,192,21922,1,0,0:0:0:0:
192,192,22008,1,0,0:0:0:0:
448,192,22008,1,2,0:0:0:0:
320,192,22094,1,0,0:0:0:0:
192,192,22180,1,8,0:0:0:0:
64,192,22180,1,0,0:0:0:0:
448,192,22265,1,0,0:0:0:0:
320,192,22351,1,0,0:0:0:0:
192,192,22437,1,0,0:0:0:0:
448,192,22522,1,4,0:0:0:0:
64,192,22522,1,0,0:0:0:0:
320,192,22522,1,2,0:0:0:0:
64,192,22865,128,0,23037:0:0:0:0:
192,192,22865,1,8,0:0:0:0:
64,192,23208,128,0,23551:0:0:0:0:
192,192,23208,1,0,0:0:0:0:
320,192,23380,1,2,0:0:0:0:
448,192,23380,1,0,0:0:0:0:
448,192,23551,128,0,24065:0:0:0:0:
192,192,23551,1,8,0:0:0:0:
320,192,23722,128,0,24065:0:0:0:0:
192,192,23894,128,0,24065:0:0:0:0:
64,192,23894,1,2,0:0:0:0:
192,192,24237,128,0,24408:0:0:0:0:
64,192,24237,1,8,0:0:0:0:
320,192,24408,128,0,24580:0:0:0:0:
448,192,24408,1,0,0:0:0:0:
64,192,24580,128,0,25265:0:0:0:0:
192,192,24580,1,0,0:0:0:0:
320,192,24751,1,0,0:0:0:0:
448,192,24751,1,2,0:0:0:0:
192,192,24922,1,0,0:0:0:0:
448,192,24922,1,8,0:0:0:0:
320,192,25265,1,2,0:0:0:0:
448,192,25265,1,0,0:0:0:0:
192,192,25437,1,0,0:0:0:0:
448,192,25608,128,0,25780:0:0:0:0:
320,192,25608,1,8,0:0:0:0:
448,192,25951,128,0,26294:0:0:0:0:
320,192,25951,1,0,0:0:0:0:
64,192,26122,1,0,0:0:0:0:
192,192,26122,1,2,0:0:0:0:
64,192,26294,128,0,26808:0:0:0:0:
320,192,26294,1,8,0:0:0:0:
192,192,26465,128,0,26808:0:0:0:0:
320,192,26637,128,0,26808:0:0:0:0:
448,192,26637,1,2,0:0:0:0:
448,192,26980,128,0,27151:0:0:0:0:
192,192,26980,1,8,0:0:0:0:
64,192,27151,128,0,27322:0:0:0:0:
320,192,27151,1,0,0:0:0:0:
448,192,27322,128,0,27494:0:0:0:0:
192,192,27322,1,2,0:0:0:0:
192,192,27494,1,2,0:0:0:0:
64,192,27494,1,0,0:0:0:0:
320,192,27665,128,0,28008:0:0:0:0:
448,192,27665,1,8,0:0:0:0:
448,192,28008,1,0,0:0:0:0:
64,192,28008,1,2,0:0:0:0:
320,192,28180,1,0,0:0:0:0:
64,192,28351,128,0,28522:0:0:0:0:
192,192,28351,1,8,0:0:0:0:
64,192,28694,128,0,29037:0:0:0:0:
192,192,28694,1,0,0:0:0:0:
320,192,28865,1,2,0:0:0:0:
448,192,28865,1,0,0:0:0:0:
448,192,29037,128,0,29551:0:0:0:0:
192,192,29037,1,8,0:0:0:0:
320,192,29208,128,0,29551:0:0:0:0:
192,192,29380,128,0,29551:0:0:0:0:
64,192,29380,1,2,0:0:0:0:
192,192,29722,128,0,29894:0:0:0:0:
64,192,29722,1,8,0:0:0:0:
320,192,29894,128,0,30065:0:0:0:0:
448,192,29894,1,0,0:0:0:0:
64,192,30065,128,0,30751:0:0:0:0:
192,192,30065,1,0,0:0:0:0:
320,192,30237,1,2,0:0:0:0:
448,192,30237,1,0,0:0:0:0:
448,192,30408,1,0,0:0:0:0:
192,192,30408,1,8,0:0:0:0:
320,192,30751,1,2,0:0:0:0:
448,192,30751,1,0,0:0:0:0:
192,192,30922,1,2,0:0:0:0:
64,192,30922,1,0,0:0:0:0:
448,192,31094,128,0,31265:0:0:0:0:
320,192,31094,1,8,0:0:0:0:
448,192,31437,128,0,31780:0:0:0:0:
320,192,31437,1,0,0:0:0:0:
192,192,31608,1,2,0:0:0:0:
64,192,31608,1,0,0:0:0:0:
64,192,31780,128,0,31951:0:0:0:0:
320,192,31780,1,8,0:0:0:0:
192,192,31951,1,0,0:0:0:0:
448,192,31951,128,0,32122:0:0:0:0:
64,192,32122,128,0,32294:0:0:0:0:
320,192,32122,1,2,0:0:0:0:
320,192,32294,1,2,0:0:0:0:
448,192,32294,1,0,0:0:0:0:
64,192,32465,1,8,0:0:0:0:
192,192,32465,128,0,32637:0:0:0:0:
320,192,32637,128,0,32808:0:0:0:0:
448,192,32637,1,2,0:0:0:0:
64,192,32808,128,0,32980:0:0:0:0:
192,192,32808,1,0,0:0:0:0:
448,192,32980,1,0,0:0:0:0:
320,192,32980,1,2,0:0:0:0:
192,192,33151,128,0,33494:0:0:0:0:
64,192,33151,1,8,0:0:0:0:
448,192,33494,1,2,0:0:0:0:
64,192,33494,1,0,0:0:0:0:
320,192,33494,1,4,0:0:0:0:
448,192,33837,128,0,34008:0:0:0:0:
320,192,33837,1,8,0:0:0:0:
448,192,34180,128,0,34522:0:0:0:0:
320,192,34180,1,0,0:0:0:0:
192,192,34351,1,2,0:0:0:0:
64,192,34351,1,0,0:0:0:0:
64,192,34522,128,0,35037:0:0:0:0:
320,192,34522,1,8,0:0:0:0:
192,192,34694,128,0,35037:0:0:0:0:
320,192,34865,128,0,35037:0:0:0:0:
448,192,34865,1,2,0:0:0:0:
320,192,35208,128,0,35380:0:0:0:0:
448,192,35208,1,8,0:0:0:0:
192,192,35380,128,0,35551:0:0:0:0:
64,192,35380,1,0,0:0:0:0:
448,192,35551,128,0,36237:0:0:0:0:
320,192,35551,1,0,0:0:0:0:
192,192,35722,1,0,0:0:0:0:
64,192,35722,1,2,0:0:0:0:
64,192,35894,1,0,0:0:0:0:
320,192,35894,1,8,0:0:0:0:
64,192,36237,1,0,0:0:0:0:
192,192,36237,1,2,0:0:0:0:
320,192,36408,1,0,0:0:0:0:
64,192,36580,128,0,36751:0:0:0:0:
192,192,36580,1,8,0:0:0:0:
64,192,36922,128,0,37265:0:0:0:0:
192,192,36922,1,0,0:0:0:0:
320,192,37094,1,2,0:0:0:0:
448,192,37094,1,0,0:0:0:0:
448,192,37265,128,0,37780:0:0:0:0:
192,192,37265,1,8,0:0:0:0:
320,192,37437,128,0,37780:0:0:0:0:
192,192,37608,128,0,37780:0:0:0:0:
64,192,37608,1,2,0:0:0:0:
64,192,37951,128,0,38122:0:0:0:0:
320,192,37951,1,8,0:0:0:0:
448,192,38122,128,0,38294:0:0:0:0:
192,192,38122,1,0,0:0:0:0:
64,192,38294,128,0,38465:0:0:0:0:
320,192,38294,1,0,0:0:0:0:
192,192,38465,1,2,0:0:0:0:
448,192,38465,1,0,0:0:0:0:
64,192,38637,1,8,0:0:0:0:
192,192,38637,128,0,38980:0:0:0:0:
64,192,38980,1,0,0:0:0:0:
448,192,38980,1,2,0:0:0:0:
192,192,39151,1,0,0:0:0:0:
448,192,39322,128,0,39494:0:0:0:0:
320,192,39322,1,8,0:0:0:0:
320,192,39665,1,0,0:0:0:0:
448,192,39665,128,0,40008:0:0:0:0:
64,192,39837,1,0,0:0:0:0:
192,192,39837,1,2,0:0:0:0:
320,192,40008,1,8,0:0:0:0:
64,192,40008,128,0,40180:0:0:0:0:
192,192,40180,1,0,0:0:0:0:
448,192,40180,128,0,40351:0:0:0:0:
64,192,40351,128,0,40522:0:0:0:0:
320,192,40351,1,2,0:0:0:0:
320,192,40522,1,2,0:0:0:0:
448,192,40522,1,0,0:0:0:0:
192,192,40694,128,0,40865:0:0:0:0:
64,192,40694,1,8,0:0:0:0:
320,192,40865,128,0,41037:0:0:0:0:
448,192,40865,1,0,0:0:0:0:
192,192,41037,1,0,0:0:0:0:
64,192,41037,128,0,41722:0:0:0:0:
320,192,41208,1,0,0:0:0:0:
448,192,41208,1,2,0:0:0:0:
448,192,41380,1,8,0:0:0:0:
192,192,41380,1,0,0:0:0:0:
448,192,41722,1,0,0:0:0:0:
320,192,41722,1,2,0:0:0:0:
64,192,42065,1,0,0:0:0:0:
448,192,42237,1,0,0:0:0:0:
320,192,42237,1,2,0:0:0:0:
64,192,42408,1,0,0:0:0:0:
64,192,42751,1,0,0:0:0:0:
448,192,42751,1,2,0:0:0:0:
320,192,42922,1,0,0:0:0:0:
192,192,43094,1,0,0:0:0:0:
64,192,43265,1,0,0:0:0:0:
448,192,43265,1,8,0:0:0:0:
320,192,43437,1,0,0:0:0:0:
192,192,43608,1,2,0:0:0:0:
64,192,43608,1,0,0:0:0:0:
320,192,43694,1,2,0:0:0:0:
448,192,43694,1,0,0:0:0:0:
192,192,43780,1,8,0:0:0:0:
64,192,43780,1,0,0:0:0:0:
64,192,43951,1,0,0:0:0:0:
448,192,43951,1,2,0:0:0:0:
192,192,44122,1,0,0:0:0:0:
320,192,44122,1,8,0:0:0:0:
448,192,44465,1,0,0:0:0:0:
320,192,44465,1,2,0:0:0:0:
64,192,44465,128,0,44637:0:0:0:0:
64,192,44808,1,0,0:0:0:0:
192,192,44808,1,8,0:0:0:0:
448,192,44980,128,0,45151:0:0:0:0:
320,192,44980,1,0,0:0:0:0:
64,192,45151,1,0,0:0:0:0:
192,192,45322,1,0,0:0:0:0:
320,192,45322,1,2,0:0:0:0:
448,192,45494,1,8,0:0:0:0:
64,192,45494,1,0,0:0:0:0:
320,192,45665,1,0,0:0:0:0:
64,192,45837,1,0,0:0:0:0:
448,192,45837,1,2,0:0:0:0:
192,192,46008,1,0,0:0:0:0:
320,192,46180,1,0,0:0:0:0:
448,192,46180,1,8,0:0:0:0:
64,192,46351,1,0,0:0:0:0:
192,192,46522,1,0,0:0:0:0:
448,192,46694,1,0,0:0:0:0:
320,192,46694,1,2,0:0:0:0:
64,192,46865,1,8,0:0:0:0:
192,192,46865,128,0,47037:0:0:0:0:
320,192,47037,128,0,47208:0:0:0:0:
448,192,47037,1,0,0:0:0:0:
64,192,47208,128,0,47380:0:0:0:0:
192,192,47208,1,2,0:0:0:0:
320,192,47380,1,0,0:0:0:0:
448,192,47551,128,0,47722:0:0:0:0:
192,192,47551,1,8,0:0:0:0:
320,192,47722,1,0,0:0:0:0:
64,192,47722,128,0,47894:0:0:0:0:
192,192,47894,1,0,0:0:0:0:
320,192,48065,128,0,48237:0:0:0:0:
448,192,48065,1,2,0:0:0:0:
192,192,48237,128,0,48408:0:0:0:0:
64,192,48237,1,8,0:0:0:0:
320,192,48408,1,0,0:0:0:0:
448,192,48408,128,0,48580:0:0:0:0:
192,192,48580,1,2,0:0:0:0:
64,192,48580,1,0,0:0:0:0:
64,192,48751,128,0,48922:0:0:0:0:
320,192,48751,1,0,0:0:0:0:
192,192,48922,1,8,0:0:0:0:
448,192,48922,128,0,49094:0:0:0:0:
64,192,49094,1,0,0:0:0:0:
192,192,49180,1,0,0:0:0:0:
448,192,49265,128,0,49437:0:0:0:0:
320,192,49265,1,0,0:0:0:0:
64,192,49437,1,2,0:0:0:0:
192,192,49437,1,0,0:0:0:0:
320,192,49522,1,0,0:0:0:0:
448,192,49608,1,0,0:0:0:0:
64,192,49608,1,8,0:0:0:0:
192,192,49780,1,0,0:0:0:0:
320,192,49865,1,0,0:0:0:0:
64,192,49951,1,0,0:0:0:0:
192,192,49951,1,2,0:0:0:0:
448,192,49951,128,0,50122:0:0:0:0:
64,192,50122,1,0,0:0:0:0:
320,192,50294,1,8,0:0:0:0:
192,192,50294,1,0,0:0:0:0:
448,192,50465,128,0,50637:0:0:0:0:
320,192,50465,1,0,0:0:0:0:
64,192,50637,1,0,0:0:0:0:
320,192,50808,1,2,0:0:0:0:
192,192,50808,1,0,0:0:0:0:
64,192,50980,1,8,0:0:0:0:
448,192,50980,1,0,0:0:0:0:
320,192,51151,1,0,0:0:0:0:
64,192,51322,1,0,0:0:0:0:
192,192,51322,1,2,0:0:0:0:
320,192,51494,1,2,0:0:0:0:
448,192,51494,1,0,0:0:0:0:
64,192,51665,1,0,0:0:0:0:
448,192,51665,1,8,0:0:0:0:
192,192,51837,1,0,0:0:0:0:
64,192,52008,1,0,0:0:0:0:
320,192,52180,1,2,0:0:0:0:
448,192,52180,1,0,0:0:0:0:
64,192,52351,1,8,0:0:0:0:
192,192,52351,128,0,52522:0:0:0:0:
320,192,52522,128,0,52694:0:0:0:0:
448,192,52522,1,2,0:0:0:0:
192,192,52694,1,2,0:0:0:0:
64,192,52694,128,0,52865:0:0:0:0:
320,192,52865,1,0,0:0:0:0:
192,192,53037,1,8,0:0:0:0:
448,192,53037,128,0,53208:0:0:0:0:
320,192,53208,1,0,0:0:0:0:
64,192,53208,128,0,53380:0:0:0:0:
192,192,53380,1,0,0:0:0:0:
448,192,53551,1,2,0:0:0:0:
320,192,53551,128,0,53722:0:0:0:0:
64,192,53722,1,8,0:0:0:0:
192,192,53722,128,0,53894:0:0:0:0:
320,192,53894,1,0,0:0:0:0:
448,192,53894,128,0,54065:0:0:0:0:
192,192,54065,1,2,0:0:0:0:
64,192,54065,1,0,0:0:0:0:
320,192,54237,1,2,0:0:0:0:
64,192,54237,128,0,54408:0:0:0:0:
192,192,54408,1,8,0:0:0:0:
448,192,54408,128,0,54580:0:0:0:0:
64,192,54580,1,0,0:0:0:0:
192,192,54665,1,0,0:0:0:0:
320,192,54751,1,0,0:0:0:0:
448,192,54751,128,0,54922:0:0:0:0:
64,192,54922,1,0,0:0:0:0:
192,192,54922,1,2,0:0:0:0:
320,192,55008,1,0,0:0:0:0:
192,192,55094,1,8,0:0:0:0:
64,192,55094,1,0,0:0:0:0:
448,192,55265,1,0,0:0:0:0:
320,192,55351,1,0,0:0:0:0:
448,192,55437,1,2,0:0:0:0:
64,192,55437,128,0,55608:0:0:0:0:
192,192,55437,1,4,0:0:0:0:
448,192,55780,1,8,0:0:0:0:
320,192,55780,1,0,0:0:0:0:
64,192,55951,128,0,56122:0:0:0:0:
192,192,55951,1,0,0:0:0:0:
448,192,56122,1,0,0:0:0:0:
320,192,56294,1,0,0:0:0:0:
448,192,56294,1,2,0:0:0:0:
192,192,56465,1,8,0:0:0:0:
64,192,56465,1,0,0:0:0:0:
320,192,56637,1,0,0:0:0:0:
448,192,56808,1,2,0:0:0:0:
64,192,56808,1,0,0:0:0:0:
192,192,56980,1,0,0:0:0:0:
320,192,57151,1,0,0:0:0:0:
448,192,57151,1,8,0:0:0:0:
64,192,57322,1,0,0:0:0:0:
192,192,57494,1,0,0:0:0:0:
320,192,57665,1,2,0:0:0:0:
448,192,57665,1,0,0:0:0:0:
64,192,57837,128,0,58008:0:0:0:0:
192,192,57837,1,8,0:0:0:0:
320,192,58008,128,0,58180:0:0:0:0:
448,192,58008,1,0,0:0:0:0:
192,192,58180,128,0,58351:0:0:0:0:
64,192,58180,1,2,0:0:0:0:
448,192,58351,1,0,0:0:0:0:
320,192,58522,1,8,0:0:0:0:
64,192,58522,128,0,58694:0:0:0:0:
448,192,58694,128,0,58865:0:0:0:0:
192,192,58694,1,0,0:0:0:0:
320,192,58865,1,0,0:0:0:0:
64,192,59037,1,2,0:0:0:0:
192,192,59037,128,0,59208:0:0:0:0:
320,192,59208,1,8,0:0:0:0:
448,192,59208,128,0,59380:0:0:0:0:
192,192,59380,1,0,0:0:0:0:
64,192,59380,128,0,59551:0:0:0:0:
320,192,59551,1,2,0:0:0:0:
448,192,59551,1,0,0:0:0:0:
192,192,59722,1,2,0:0:0:0:
448,192,59722,128,0,59894:0:0:0:0:
64,192,59894,128,0,60065:0:0:0:0:
320,192,59894,1,8,0:0:0:0:
448,192,60065,1,0,0:0:0:0:
320,192,60065,1,2,0:0:0:0:
192,192,60151,1,0,0:0:0:0:
64,192,60237,1,0,0:0:0:0:
448,192,60408,1,2,0:0:0:0:
320,192,60408,1,0,0:0:0:0:
192,192,60494,1,0,0:0:0:0:
64,192,60580,1,0,0:0:0:0:
448,192,60580,1,8,0:0:0:0:
64,192,60751,1,0,0:0:0:0:
192,192,60837,1,0,0:0:0:0:
320,192,60922,1,2,0:0:0:0:
64,192,60922,128,0,61094:0:0:0:0:
448,192,60922,1,0,0:0:0:0:
448,192,61094,1,0,0:0:0:0:
192,192,61265,1,0,0:0:0:0:
320,192,61265,1,8,0:0:0:0:
64,192,61437,128,0,61608:0:0:0:0:
192,192,61437,1,0,0:0:0:0:
448,192,61608,1,0,0:0:0:0:
192,192,61780,1,2,0:0:0:0:
64,192,61780,1,0,0:0:0:0:
448,192,61951,1,0,0:0:0:0:
320,192,61951,1,8,0:0:0:0:
192,192,62122,1,2,0:0:0:0:
64,192,62122,1,0,0:0:0:0:
320,192,62294,1,0,0:0:0:0:
448,192,62465,1,2,0:0:0:0:
64,192,62465,1,0,0:0:0:0:
192,192,62637,1,0,0:0:0:0:
320,192,62637,1,8,0:0:0:0:
64,192,62808,1,0,0:0:0:0:
448,192,62980,1,0,0:0:0:0:
192,192,63151,1,2,0:0:0:0:
64,192,63151,1,0,0:0:0:0:
448,192,63322,1,8,0:0:0:0:
320,192,63322,128,0,63494:0:0:0:0:
64,192,63494,1,0,0:0:0:0:
192,192,63494,128,0,63665:0:0:0:0:
320,192,63665,1,2,0:0:0:0:
448,192,63665,128,0,63837:0:0:0:0:
192,192,63837,1,0,0:0:0:0:
320,192,64008,1,8,0:0:0:0:
64,192,64008,128,0,64180:0:0:0:0:
448,192,64180,128,0,64351:0:0:0:0:
192,192,64180,1,0,0:0:0:0:
320,192,64351,1,0,0:0:0:0:
192,192,64522,1,2,0:0:0:0:
64,192,64522,1,0,0:0:0:0:
64,192,64694,1,8,0:0:0:0:
448,192,64694,1,0,0:0:0:0:
192,192,64780,1,0,0:0:0:0:
320,192,64865,1,0,0:0:0:0:
448,192,64951,1,0,0:0:0:0:
64,192,65037,1,0,0:0:0:0:
192,192,65037,1,2,0:0:0:0:
320,192,65208,1,0,0:0:0:0:
448,192,65208,1,2,0:0:0:0:
64,192,65294,1,0,0:0:0:0:
320,192,65380,1,2,0:0:0:0:
192,192,65380,1,0,0:0:0:0:
448,192,65465,1,0,0:0:0:0:
64,192,65551,1,0,0:0:0:0:
192,192,65551,1,2,0:0:0:0:
320,192,65637,1,0,0:0:0:0:
448,192,65722,1,2,0:0:0:0:
64,192,65722,1,0,0:0:0:0:
192,192,65808,1,0,0:0:0:0:
448,192,65894,1,0,0:0:0:0:
320,192,65894,1,2,0:0:0:0:
64,192,66065,1,0,0:0:0:0:
192,192,66065,1,8,0:0:0:0:
320,192,66237,1,0,0:0:0:0:
192,192,66322,1,0,0:0:0:0:
320,192,66408,1,2,0:0:0:0:
64,192,66408,1,4,0:0:0:0:
448,192,66408,128,0,66580:0:0:0:0:
448,192,66751,1,0,0:0:0:0:
320,192,66751,1,8,0:0:0:0:
64,192,66922,128,0,67094:0:0:0:0:
192,192,66922,1,0,0:0:0:0:
448,192,67094,1,0,0:0:0:0:
320,192,67180,1,0,0:0:0:0:
192,192,67265,1,2,0:0:0:0:
64,192,67265,1,0,0:0:0:0:
320,192,67437,1,8,0:0:0:0:
448,192,67437,1,0,0:0:0:0:
64,192,67608,1,0,0:0:0:0:
192,192,67780,1,0,0:0:0:0:
320,192,67780,1,2,0:0:0:0:
448,192,67951,1,0,0:0:0:0:
192,192,68122,1,8,0:0:0:0:
64,192,68122,1,0,0:0:0:0:
448,192,68294,1,0,0:0:0:0:
320,192,68465,1,0,0:0:0:0:
192,192,68637,1,2,0:0:0:0:
64,192,68637,1,0,0:0:0:0:
320,192,68808,1,8,0:0:0:0:
448,192,68808,128,0,68980:0:0:0:0:
192,192,68980,128,0,69151:0:0:0:0:
64,192,68980,1,0,0:0:0:0:
320,192,69151,128,0,69322:0:0:0:0:
448,192,69151,1,2,0:0:0:0:
192,192,69322,1,0,0:0:0:0:
64,192,69494,128,0,69665:0:0:0:0:
320,192,69494,1,8,0:0:0:0:
192,192,69665,1,0,0:0:0:0:
448,192,69665,128,0,69837:0:0:0:0:
320,192,69837,1,0,0:0:0:0:
64,192,70008,128,0,70180:0:0:0:0:
192,192,70008,1,2,0:0:0:0:
320,192,70180,128,0,70351:0:0:0:0:
448,192,70180,1,8,0:0:0:0:
64,192,70351,1,0,0:0:0:0:
192,192,70351,128,0,70522:0:0:0:0:
320,192,70522,1,2,0:0:0:0:
448,192,70522,1,0,0:0:0:0:
64,192,70694,128,0,70865:0:0:0:0:
320,192,70694,1,2,0:0:0:0:
192,192,70865,1,8,0:0:0:0:
448,192,70865,128,0,71037:0:0:0:0:
64,192,71037,1,0,0:0:0:0:
192,192,71122,1,0,0:0:0:0:
320,192,71208,1,0,0:0:0:0:
64,192,71380,1,0,0:0:0:0:
448,192,71380,1,2,0:0:0:0:
192,192,71465,1,0,0:0:0:0:
320,192,71551,1,0,0:0:0:0:
448,192,71551,1,8,0:0:0:0:
192,192,71722,1,2,0:0:0:0:
64,192,71722,1,0,0:0:0:0:
320,192,71808,1,0,0:0:0:0:
448,192,71894,1,0,0:0:0:0:
192,192,71894,1,2,0:0:0:0:
64,192,71894,128,0,72065:0:0:0:0:
192,192,72237,1,0,0:0:0:0:
320,192,72237,1,8,0:0:0:0:
448,192,72408,128,0,72580:0:0:0:0:
64,192,72408,1,0,0:0:0:0:
320,192,72580,1,0,0:0:0:0:
192,192,72751,1,2,0:0:0:0:
64,192,72751,1,0,0:0:0:0:
320,192,72922,1,8,0:0:0:0:
448,192,72922,1,0,0:0:0:0:
64,192,73094,1,0,0:0:0:0:
192,192,73265,1,2,0:0:0:0:
448,192,73265,1,0,0:0:0:0:
320,192,73437,1,0,0:0:0:0:
192,192,73608,1,8,0:0:0:0:
64,192,73608,1,0,0:0:0:0:
448,192,73780,1,0,0:0:0:0:
320,192,73951,1,0,0:0:0:0:
192,192,74122,1,2,0:0:0:0:
64,192,74122,1,0,0:0:0:0:
448,192,74294,1,8,0:0:0:0:
320,192,74294,128,0,74465:0:0:0:0:
64,192,74465,1,0,0:0:0:0:
192,192,74465,128,0,74637:0:0:0:0:
448,192,74637,128,0,74808:0:0:0:0:
320,192,74637,1,2,0:0:0:0:
192,192,74808,1,0,0:0:0:0:
64,192,74980,128,0,75151:0:0:0:0:
320,192,74980,1,8,0:0:0:0:
192,192,75151,1,2,0:0:0:0:
448,192,75151,128,0,75322:0:0:0:0:
320,192,75322,1,0,0:0:0:0:
192,192,75494,1,2,0:0:0:0:
64,192,75494,128,0,75665:0:0:0:0:
320,192,75665,1,8,0:0:0:0:
448,192,75665,128,0,75837:0:0:0:0:
64,192,75837,1,0,0:0:0:0:
192,192,75922,1,0,0:0:0:0:
320,192,76008,1,2,0:0:0:0:
448,192,76008,1,0,0:0:0:0:
64,192,76180,128,0,76351:0:0:0:0:
320,192,76180,1,0,0:0:0:0:
192,192,76351,1,8,0:0:0:0:
448,192,76351,128,0,76522:0:0:0:0:
64,192,76522,1,0,0:0:0:0:
192,192,76608,1,0,0:0:0:0:
320,192,76694,1,0,0:0:0:0:
448,192,76694,1,2,0:0:0:0:
64,192,76865,1,0,0:0:0:0:
448,192,76865,1,2,0:0:0:0:
320,192,76951,1,0,0:0:0:0:
64,192,77037,1,0,0:0:0:0:
192,192,77037,1,8,0:0:0:0:
448,192,77208,1,0,0:0:0:0:
320,192,77294,1,0,0:0:0:0:
192,192,77380,5,4,0:0:0:0:
64,192,77380,1,2,0:0:0:0:
448,192,77380,128,0,77551:0:0:0:0:
192,192,77722,1,8,0:0:0:0:
448,192,77722,1,0,0:0:0:0:
64,192,77894,128,0,78065:0:0:0:0:
320,192,77894,1,2,0:0:0:0:
192,192,78065,1,0,0:0:0:0:
64,192,78237,1,0,0:0:0:0:
448,192,78237,1,2,0:0:0:0:
192,192,78322,1,0,0:0:0:0:
320,192,78408,1,0,0:0:0:0:
448,192,78408,1,8,0:0:0:0:
64,192,78494,1,0,0:0:0:0:
192,192,78580,1,0,0:0:0:0:
320,192,78665,1,0,0:0:0:0:
448,192,78751,1,2,0:0:0:0:
64,192,78751,1,0,0:0:0:0:
192,192,78837,1,0,0:0:0:0:
320,192,78922,1,0,0:0:0:0:
448,192,78922,1,2,0:0:0:0:
192,192,79008,1,0,0:0:0:0:
64,192,79094,1,0,0:0:0:0:
448,192,79094,1,8,0:0:0:0:
320,192,79180,1,0,0:0:0:0:
192,192,79265,1,0,0:0:0:0:
64,192,79351,1,0,0:0:0:0:
320,192,79437,1,0,0:0:0:0:
448,192,79437,1,2,0:0:0:0:
448,192,79608,1,2,0:0:0:0:
64,192,79608,1,0,0:0:0:0:
192,192,79694,1,0,0:0:0:0:
320,192,79780,1,0,0:0:0:0:
448,192,79780,128,8,79951:0:0:0:0:
64,192,79951,1,0,0:0:0:0:
192,192,80037,1,0,0:0:0:0:
448,192,80122,1,0,0:0:0:0:
320,192,80122,1,2,0:0:0:0:
192,192,80294,1,0,0:0:0:0:
64,192,80465,128,0,80637:0:0:0:0:
320,192,80465,1,8,0:0:0:0:
192,192,80637,1,0,0:0:0:0:
448,192,80637,128,0,80808:0:0:0:0:
320,192,80808,1,0,0:0:0:0:
192,192,80980,128,2,81151:0:0:0:0:
64,192,80980,1,0,0:0:0:0:
320,192,81151,128,8,81322:0:0:0:0:
448,192,81151,1,0,0:0:0:0:
192,192,81322,1,0,0:0:0:0:
64,192,81322,128,0,81494:0:0:0:0:
320,192,81494,1,0,0:0:0:0:
448,192,81494,1,2,0:0:0:0:
64,192,81665,1,0,0:0:0:0:
448,192,81665,1,2,0:0:0:0:
320,192,81751,1,0,0:0:0:0:
448,192,81837,1,8,0:0:0:0:
64,192,81837,1,0,0:0:0:0:
192,192,81922,1,0,0:0:0:0:
320,192,82008,1,0,0:0:0:0:
192,192,82094,1,0,0:0:0:0:
448,192,82180,1,0,0:0:0:0:
320,192,82265,1,0,0:0:0:0:
64,192,82351,1,0,0:0:0:0:
192,192,82351,1,2,0:0:0:0:
320,192,82437,1,2,0:0:0:0:
448,192,82437,1,0,0:0:0:0:
64,192,82522,1,0,0:0:0:0:
192,192,82522,1,8,0:0:0:0:
192,192,82694,1,0,0:0:0:0:
320,192,82694,1,2,0:0:0:0:
320,192,82865,1,2,0:0:0:0:
448,192,82865,1,0,0:0:0:0:
64,192,82865,128,0,83037:0:0:0:0:
192,192,83208,1,8,0:0:0:0:
448,192,83208,1,0,0:0:0:0:
320,192,83380,128,0,83551:0:0:0:0:
64,192,83380,1,0,0:0:0:0:
448,192,83551,1,0,0:0:0:0:
192,192,83722,1,2,0:0:0:0:
64,192,83722,1,0,0:0:0:0:
320,192,83894,1,8,0:0:0:0:
448,192,83894,1,0,0:0:0:0:
64,192,84065,1,0,0:0:0:0:
448,192,84065,1,2,0:0:0:0:
192,192,84237,1,0,0:0:0:0:
320,192,84408,1,2,0:0:0:0:
448,192,84408,1,0,0:0:0:0:
192,192,84580,1,8,0:0:0:0:
64,192,84580,1,0,0:0:0:0:
448,192,84751,1,0,0:0:0:0:
320,192,84922,1,0,0:0:0:0:
192,192,85094,1,2,0:0:0:0:
64,192,85094,1,0,0:0:0:0:
320,192,85265,1,8,0:0:0:0:
448,192,85265,128,0,85437:0:0:0:0:
192,192,85437,1,0,0:0:0:0:
64,192,85437,128,0,85608:0:0:0:0:
448,192,85608,1,2,0:0:0:0:
320,192,85608,1,0,0:0:0:0:
320,192,85780,1,0,0:0:0:0:
448,192,85780,1,2,0:0:0:0:
64,192,85865,1,0,0:0:0:0:
320,192,85951,1,8,0:0:0:0:
192,192,85951,1,0,0:0:0:0:
448,192,86037,1,0,0:0:0:0:
192,192,86122,1,2,0:0:0:0:
64,192,86122,1,0,0:0:0:0:
448,192,86294,1,2,0:0:0:0:
64,192,86294,1,0,0:0:0:0:
192,192,86380,1,0,0:0:0:0:
448,192,86465,1,2,0:0:0:0:
320,192,86465,1,0,0:0:0:0:
64,192,86551,1,0,0:0:0:0:
448,192,86637,1,8,0:0:0:0:
320,192,86637,1,0,0:0:0:0:
192,192,86722,1,0,0:0:0:0:
64,192,86808,1,2,0:0:0:0:
448,192,86808,1,0,0:0:0:0:
320,192,86894,1,0,0:0:0:0:
192,192,86980,1,0,0:0:0:0:
320,192,87151,1,2,0:0:0:0:
448,192,87151,128,0,87322:0:0:0:0:
192,192,87322,1,8,0:0:0:0:
64,192,87322,128,0,87494:0:0:0:0:
448,192,87494,1,0,0:0:0:0:
320,192,87580,1,0,0:0:0:0:
192,192,87665,128,0,87837:0:0:0:0:
64,192,87665,1,8,0:0:0:0:
448,192,87837,1,0,0:0:0:0:
320,192,87837,1,2,0:0:0:0:
192,192,87922,1,2,0:0:0:0:
64,192,87922,1,0,0:0:0:0:
320,192,88008,1,8,0:0:0:0:
448,192,88008,1,0,0:0:0:0:
320,192,88180,1,2,0:0:0:0:
192,192,88180,1,0,0:0:0:0:
192,192,88351,1,4,0:0:0:0:
64,192,88351,1,2,0:0:0:0:
448,192,88351,1,0,0:0:0:0:
448,192,88694,128,0,89037:0:0:0:0:
320,192,88694,1,8,0:0:0:0:
192,192,89037,1,0,0:0:0:0:
64,192,89037,1,0,0:0:0:0:
320,192,89208,1,0,0:0:0:0:
192,192,89208,1,2,0:0:0:0:
448,192,89380,1,0,0:0:0:0:
320,192,89380,1,8,0:0:0:0:
64,192,89380,1,0,0:0:0:0:
192,192,89722,1,0,0:0:0:0:
64,192,89722,1,0,0:0:0:0:
448,192,89722,1,0,0:0:0:0:
192,192,90065,1,8,0:0:0:0:
64,192,90065,128,0,90408:0:0:0:0:
320,192,90408,1,0,0:0:0:0:
448,192,90408,1,0,0:0:0:0:
320,192,90580,1,2,0:0:0:0:
192,192,90580,1,0,0:0:0:0:
192,192,90751,1,8,0:0:0:0:
64,192,90751,1,0,0:0:0:0:
448,192,90751,1,0,0:0:0:0:
320,192,91094,1,0,0:0:0:0:
448,192,91094,1,0,0:0:0:0:
64,192,91094,1,0,0:0:0:0:
320,192,91437,1,8,0:0:0:0:
448,192,91437,128,0,91780:0:0:0:0:
192,192,91780,1,0,0:0:0:0:
64,192,91780,1,0,0:0:0:0:
192,192,91951,1,2,0:0:0:0:
320,192,91951,1,0,0:0:0:0:
320,192,92122,1,8,0:0:0:0:
448,192,92122,1,0,0:0:0:0:
64,192,92122,1,0,0:0:0:0:
192,192,92465,1,0,0:0:0:0:
64,192,92465,1,0,0:0:0:0:
448,192,92465,1,0,0:0:0:0:
192,192,92808,1,8,0:0:0:0:
64,192,92808,128,0,93151:0:0:0:0:
448,192,93151,1,0,0:0:0:0:
320,192,93151,1,0,0:0:0:0:
320,192,93322,1,2,0:0:0:0:
192,192,93322,1,0,0:0:0:0:
192,192,93494,1,8,0:0:0:0:
64,192,93494,1,0,0:0:0:0:
448,192,93494,1,0,0:0:0:0:
320,192,93837,1,2,0:0:0:0:
448,192,93837,1,0,0:0:0:0:
64,192,93837,1,0,0:0:0:0:
192,192,94694,1,2,0:0:0:0:
64,192,94694,1,0,0:0:0:0:
320,192,95208,1,2,0:0:0:0:
448,192,95208,1,0,0:0:0:0:
320,192,96065,5,2,0:0:0:0:
192,192,96065,1,0,0:0:0:0:
64,192,96580,5,2,0:0:0:0:
448,192,96580,1,0,0:0:0:0:
320,192,96665,1,0,0:0:0:0:
192,192,96751,1,0,0:0:0:0:
64,192,96837,1,0,0:0:0:0:
320,192,96922,1,0,0:0:0:0:
192,192,97008,1,0,0:0:0:0:
448,192,97094,1,0,0:0:0:0:
320,192,97180,1,0,0:0:0:0:
64,192,97265,1,0,0:0:0:0:
192,192,97351,1,0,0:0:0:0:
448,192,97437,1,2,0:0:0:0:
320,192,97437,1,0,0:0:0:0:
64,192,97522,1,0,0:0:0:0:
192,192,97608,1,0,0:0:0:0:
448,192,97694,1,0,0:0:0:0:
320,192,97780,1,0,0:0:0:0:
192,192,97865,1,0,0:0:0:0:
448,192,97951,1,0,0:0:0:0:
64,192,97951,1,8,0:0:0:0:
320,192,98037,1,0,0:0:0:0:
192,192,98122,1,0,0:0:0:0:
64,192,98122,1,2,0:0:0:0:
448,192,98208,1,0,0:0:0:0:
64,192,98294,1,0,0:0:0:0:
192,192,98380,1,0,0:0:0:0:
320,192,98465,1,0,0:0:0:0:
448,192,98465,1,8,0:0:0:0:
64,192,98551,1,0,0:0:0:0:
448,192,98637,1,0,0:0:0:0:
320,192,98722,1,0,0:0:0:0:
192,192,98808,1,2,0:0:0:0:
64,192,98808,1,0,0:0:0:0:
320,192,98894,1,2,0:0:0:0:
448,192,98894,1,0,0:0:0:0:
192,192,98980,1,8,0:0:0:0:
64,192,98980,1,0,0:0:0:0:
448,192,99065,1,0,0:0:0:0:
320,192,99151,1,0,0:0:0:0:
192,192,99237,1,0,0:0:0:0:
64,192,99322,1,2,0:0:0:0:
320,192,99322,1,4,0:0:0:0:
448,192,99322,128,0,100008:0:0:0:0:
64,192,99665,1,0,0:0:0:0:
192,192,99665,1,8,0:0:0:0:
320,192,99837,1,0,0:0:0:0:
64,192,100008,1,0,0:0:0:0:
64,192,100180,1,0,0:0:0:0:
192,192,100180,1,2,0:0:0:0:
320,192,100351,1,8,0:0:0:0:
448,192,100351,1,0,0:0:0:0:
64,192,100522,128,0,101037:0:0:0:0:
448,192,100522,1,0,0:0:0:0:
320,192,100694,1,2,0:0:0:0:
192,192,100694,1,0,0:0:0:0:
192,192,100865,1,0,0:0:0:0:
320,192,101037,1,8,0:0:0:0:
448,192,101037,1,0,0:0:0:0:
192,192,101208,1,0,0:0:0:0:
320,192,101380,1,0,0:0:0:0:
64,192,101551,1,0,0:0:0:0:
192,192,101551,1,2,0:0:0:0:
448,192,101722,128,0,102065:0:0:0:0:
320,192,101722,1,8,0:0:0:0:
64,192,101894,1,0,0:0:0:0:
192,192,102065,1,0,0:0:0:0:
320,192,102065,1,0,0:0:0:0:
64,192,102065,1,2,0:0:0:0:
448,192,102237,1,0,0:0:0:0:
320,192,102408,1,8,0:0:0:0:
64,192,102408,1,0,0:0:0:0:
192,192,102580,1,0,0:0:0:0:
64,192,102751,1,0,0:0:0:0:
448,192,102922,1,0,0:0:0:0:
320,192,102922,1,2,0:0:0:0:
64,192,103094,128,0,103437:0:0:0:0:
192,192,103094,1,8,0:0:0:0:
320,192,103265,1,0,0:0:0:0:
448,192,103437,1,0,0:0:0:0:
192,192,103437,1,2,0:0:0:0:
192,192,103608,1,2,0:0:0:0:
64,192,103608,1,0,0:0:0:0:
448,192,103780,128,0,104122:0:0:0:0:
320,192,103780,1,8,0:0:0:0:
64,192,103951,1,0,0:0:0:0:
64,192,104122,1,0,0:0:0:0:
192,192,104122,1,2,0:0:0:0:
320,192,104294,1,2,0:0:0:0:
448,192,104294,1,0,0:0:0:0:
64,192,104465,128,0,104808:0:0:0:0:
192,192,104465,1,8,0:0:0:0:
448,192,104637,1,0,0:0:0:0:
320,192,104722,1,0,0:0:0:0:
448,192,104808,128,0,105494:0:0:0:0:
192,192,104808,1,2,0:0:0:0:
192,192,105151,1,0,0:0:0:0:
320,192,105151,1,8,0:0:0:0:
64,192,105322,1,0,0:0:0:0:
320,192,105494,1,0,0:0:0:0:
64,192,105665,1,0,0:0:0:0:
192,192,105665,1,2,0:0:0:0:
320,192,105837,1,8,0:0:0:0:
448,192,105837,1,0,0:0:0:0:
64,192,106008,128,0,106351:0:0:0:0:
192,192,106008,1,2,0:0:0:0:
448,192,106180,1,0,0:0:0:0:
320,192,106351,1,2,0:0:0:0:
448,192,106351,1,0,0:0:0:0:
192,192,106522,1,8,0:0:0:0:
64,192,106522,1,0,0:0:0:0:
448,192,106694,1,0,0:0:0:0:
320,192,106865,1,0,0:0:0:0:
192,192,107037,1,0,0:0:0:0:
64,192,107037,1,2,0:0:0:0:
448,192,107208,128,8,107551:0:0:0:0:
320,192,107208,1,0,0:0:0:0:
192,192,107380,1,0,0:0:0:0:
64,192,107551,1,0,0:0:0:0:
320,192,107551,1,2,0:0:0:0:
320,192,107722,1,2,0:0:0:0:
448,192,107722,1,0,0:0:0:0:
64,192,107894,128,0,108237:0:0:0:0:
192,192,107894,1,8,0:0:0:0:
448,192,108065,1,0,0:0:0:0:
448,192,108237,1,0,0:0:0:0:
320,192,108237,1,2,0:0:0:0:
192,192,108408,1,2,0:0:0:0:
64,192,108408,1,0,0:0:0:0:
448,192,108580,128,0,108922:0:0:0:0:
320,192,108580,1,8,0:0:0:0:
64,192,108751,1,0,0:0:0:0:
64,192,108922,5,0,0:0:0:0:
192,192,108922,1,2,0:0:0:0:
320,192,109094,1,2,0:0:0:0:
448,192,109094,1,0,0:0:0:0:
64,192,109265,1,0,0:0:0:0:
448,192,109265,1,8,0:0:0:0:
192,192,109437,5,0,0:0:0:0:
320,192,109437,1,2,0:0:0:0:
448,192,109608,5,2,0:0:0:0:
64,192,109608,1,8,0:0:0:0:
320,192,109694,1,2,0:0:0:0:
192,192,109780,1,2,0:0:0:0:
64,192,109780,1,0,0:0:0:0:
320,192,109865,1,2,0:0:0:0:
448,192,109865,1,0,0:0:0:0:
64,192,109951,1,8,0:0:0:0:
192,192,109951,128,2,110122:0:0:0:0:
320,192,110122,128,0,110294:0:0:0:0:
64,192,110294,1,0,0:0:0:0:
192,192,110294,1,2,0:0:0:0:
448,192,110294,1,0,0:0:0:0:
192,192,110637,1,4,0:0:0:0:
320,192,110637,1,2,0:0:0:0:
448,192,110637,1,0,0:0:0:0:
64,192,110637,1,0,0:0:0:0:
448,192,110808,1,0,0:0:0:0:
320,192,110980,1,0,0:0:0:0:
192,192,111151,1,2,0:0:0:0:
64,192,111151,1,0,0:0:0:0:
320,192,111322,1,8,0:0:0:0:
448,192,111322,1,0,0:0:0:0:
64,192,111494,128,0,111837:0:0:0:0:
192,192,111494,1,2,0:0:0:0:
448,192,111665,1,0,0:0:0:0:
320,192,111837,1,2,0:0:0:0:
448,192,111837,1,0,0:0:0:0:
64,192,112008,1,0,0:0:0:0:
192,192,112008,1,8,0:0:0:0:
448,192,112180,1,0,0:0:0:0:
320,192,112351,1,0,0:0:0:0:
192,192,112522,1,2,0:0:0:0:
64,192,112522,1,0,0:0:0:0:
448,192,112694,128,0,113037:0:0:0:0:
320,192,112694,1,8,0:0:0:0:
64,192,112865,1,0,0:0:0:0:
64,192,113037,1,0,0:0:0:0:
192,192,113037,1,0,0:0:0:0:
320,192,113037,1,2,0:0:0:0:
320,192,113208,1,0,0:0:0:0:
448,192,113380,1,8,0:0:0:0:
64,192,113380,1,0,0:0:0:0:
192,192,113551,1,0,0:0:0:0:
320,192,113722,1,0,0:0:0:0:
192,192,113894,1,2,0:0:0:0:
64,192,113894,1,0,0:0:0:0:
448,192,114065,128,0,114408:0:0:0:0:
320,192,114065,1,8,0:0:0:0:
64,192,114237,1,0,0:0:0:0:
64,192,114408,1,0,0:0:0:0:
192,192,114408,1,2,0:0:0:0:
320,192,114580,1,2,0:0:0:0:
448,192,114580,1,0,0:0:0:0:
64,192,114751,128,0,115094:0:0:0:0:
192,192,114751,1,8,0:0:0:0:
448,192,114922,1,0,0:0:0:0:
448,192,115094,1,0,0:0:0:0:
320,192,115094,1,2,0:0:0:0:
192,192,115265,1,2,0:0:0:0:
64,192,115265,1,0,0:0:0:0:
448,192,115437,128,0,115780:0:0:0:0:
320,192,115437,1,8,0:0:0:0:
64,192,115608,1,0,0:0:0:0:
192,192,115780,1,2,0:0:0:0:
320,192,115780,1,0,0:0:0:0:
64,192,115780,128,0,116122:0:0:0:0:
320,192,116122,1,8,0:0:0:0:
448,192,116122,1,0,0:0:0:0:
448,192,116294,1,0,0:0:0:0:
320,192,116465,1,0,0:0:0:0:
64,192,116637,1,0,0:0:0:0:
192,192,116637,1,2,0:0:0:0:
448,192,116808,128,0,117151:0:0:0:0:
320,192,116808,1,8,0:0:0:0:
64,192,116980,1,0,0:0:0:0:
192,192,116980,1,2,0:0:0:0:
64,192,117151,1,0,0:0:0:0:
448,192,117322,1,0,0:0:0:0:
320,192,117322,1,2,0:0:0:0:
64,192,117494,5,0,0:0:0:0:
192,192,117494,1,8,0:0:0:0:
448,192,117665,1,0,0:0:0:0:
320,192,117837,1,0,0:0:0:0:
192,192,118008,1,2,0:0:0:0:
64,192,118008,1,0,0:0:0:0:
448,192,118180,128,0,118522:0:0:0:0:
320,192,118180,1,8,0:0:0:0:
64,192,118522,1,0,0:0:0:0:
192,192,118522,1,2,0:0:0:0:
320,192,118608,1,2,0:0:0:0:
64,192,118694,1,0,0:0:0:0:
192,192,118694,1,2,0:0:0:0:
448,192,118780,1,2,0:0:0:0:
320,192,118865,1,2,0:0:0:0:
192,192,118865,1,0,0:0:0:0:
64,192,118951,1,2,0:0:0:0:
320,192,119037,1,2,0:0:0:0:
448,192,119037,1,0,0:0:0:0:
64,192,119122,1,2,0:0:0:0:
192,192,119208,1,2,0:0:0:0:
320,192,119208,1,0,0:0:0:0:
448,192,119294,1,2,0:0:0:0:
192,192,119380,1,2,0:0:0:0:
64,192,119380,1,0,0:0:0:0:
448,192,119465,1,2,0:0:0:0:
320,192,119551,1,2,0:0:0:0:
192,192,119551,1,0,0:0:0:0:
64,192,119637,1,2,0:0:0:0:
320,192,119722,1,2,0:0:0:0:
448,192,119722,1,0,0:0:0:0:
192,192,119808,1,2,0:0:0:0:
64,192,119894,1,0,0:0:0:0:
448,192,119894,1,8,0:0:0:0:
320,192,119980,1,2,0:0:0:0:
192,192,120065,1,2,0:0:0:0:
64,192,120065,1,0,0:0:0:0:
448,192,120151,1,0,0:0:0:0:
320,192,120151,1,2,0:0:0:0:
192,192,120237,1,2,0:0:0:0:
64,192,120237,1,0,0:0:0:0:
448,192,120322,1,0,0:0:0:0:
320,192,120322,1,2,0:0:0:0:
192,192,120408,1,0,0:0:0:0:
64,192,120408,1,8,0:0:0:0:
448,192,120494,1,2,0:0:0:0:
192,192,120580,1,0,0:0:0:0:
320,192,120580,1,2,0:0:0:0:
448,192,120665,1,2,0:0:0:0:
64,192,120665,1,0,0:0:0:0:
192,192,120751,1,0,0:0:0:0:
320,192,120751,1,2,0:0:0:0:
448,192,120837,1,2,0:0:0:0:
64,192,120837,1,0,0:0:0:0:
192,192,120922,1,0,0:0:0:0:
320,192,120922,1,8,0:0:0:0:
64,192,121008,1,2,0:0:0:0:
448,192,121094,1,0,0:0:0:0:
320,192,121094,1,2,0:0:0:0:
192,192,121180,1,2,0:0:0:0:
64,192,121180,1,0,0:0:0:0:
64,192,121265,1,0,0:0:0:0:
448,192,121265,1,0,0:0:0:0:
320,192,121265,1,2,0:0:0:0:
192,192,121608,1,2,0:0:0:0:
320,192,121608,1,4,0:0:0:0:
448,192,121608,1,0,0:0:0:0:
64,192,121608,128,0,124008:0:0:0:0:
192,192,121951,1,0,0:0:0:0:
448,192,122122,1,2,0:0:0:0:
320,192,122122,1,0,0:0:0:0:
448,192,122294,1,8,0:0:0:0:
192,192,122294,1,0,0:0:0:0:
320,192,122465,1,0,0:0:0:0:
192,192,122637,1,0,0:0:0:0:
448,192,122637,1,2,0:0:0:0:
320,192,122808,1,0,0:0:0:0:
448,192,122808,1,2,0:0:0:0:
320,192,122980,1,8,0:0:0:0:
192,192,122980,1,0,0:0:0:0:
192,192,123151,1,2,0:0:0:0:
448,192,123151,1,0,0:0:0:0:
320,192,123322,1,0,0:0:0:0:
192,192,123494,1,0,0:0:0:0:
448,192,123494,1,2,0:0:0:0:
448,192,123665,1,8,0:0:0:0:
320,192,123665,1,0,0:0:0:0:
448,192,124008,128,0,125380:0:0:0:0:
192,192,124008,1,2,0:0:0:0:
64,192,124351,1,8,0:0:0:0:
320,192,124351,1,0,0:0:0:0:
64,192,124694,1,0,0:0:0:0:
320,192,124865,1,0,0:0:0:0:
192,192,124865,1,2,0:0:0:0:
192,192,125037,1,8,0:0:0:0:
64,192,125037,1,0,0:0:0:0:
320,192,125208,1,0,0:0:0:0:
192,192,125380,128,0,126065:0:0:0:0:
64,192,125380,1,2,0:0:0:0:
320,192,125551,1,2,0:0:0:0:
448,192,125551,1,0,0:0:0:0:
64,192,125722,1,0,0:0:0:0:
448,192,125722,1,8,0:0:0:0:
320,192,125894,1,0,0:0:0:0:
320,192,126065,128,0,126751:0:0:0:0:
448,192,126065,1,0,0:0:0:0:
192,192,126237,1,2,0:0:0:0:
64,192,126237,1,0,0:0:0:0:
448,192,126408,1,0,0:0:0:0:
64,192,126408,1,8,0:0:0:0:
64,192,126751,128,0,127437:0:0:0:0:
448,192,126751,1,2,0:0:0:0:
448,192,127094,1,8,0:0:0:0:
192,192,127094,1,0,0:0:0:0:
448,192,127265,1,0,0:0:0:0:
192,192,127437,1,0,0:0:0:0:
320,192,127608,1,2,0:0:0:0:
448,192,127608,1,0,0:0:0:0:
64,192,127780,1,0,0:0:0:0:
192,192,127780,1,8,0:0:0:0:
448,192,127951,1,2,0:0:0:0:
64,192,127951,1,0,0:0:0:0:
320,192,128122,1,0,0:0:0:0:
192,192,128294,1,2,0:0:0:0:
64,192,128294,1,0,0:0:0:0:
320,192,128465,1,8,0:0:0:0:
448,192,128465,1,0,0:0:0:0:
64,192,128637,1,0,0:0:0:0:
192,192,128808,1,0,0:0:0:0:
448,192,128980,1,0,0:0:0:0:
320,192,128980,1,2,0:0:0:0:
192,192,129151,1,8,0:0:0:0:
64,192,129151,1,0,0:0:0:0:
448,192,129494,1,2,0:0:0:0:
64,192,129494,1,0,0:0:0:0:
320,192,129837,1,0,0:0:0:0:
448,192,129837,1,8,0:0:0:0:
192,192,130180,1,0,0:0:0:0:
448,192,130351,1,0,0:0:0:0:
320,192,130351,1,2,0:0:0:0:
192,192,130522,1,8,0:0:0:0:
64,192,130522,1,0,0:0:0:0:
320,192,130694,1,0,0:0:0:0:
448,192,130865,1,2,0:0:0:0:
64,192,130865,1,0,0:0:0:0:
320,192,131037,1,2,0:0:0:0:
192,192,131037,1,0,0:0:0:0:
448,192,131208,1,8,0:0:0:0:
64,192,131208,1,0,0:0:0:0:
64,192,131380,1,0,0:0:0:0:
192,192,131380,1,2,0:0:0:0:
448,192,131551,1,0,0:0:0:0:
64,192,131637,1,0,0:0:0:0:
192,192,131637,1,8,0:0:0:0:
448,192,131722,1,2,0:0:0:0:
64,192,131808,1,2,0:0:0:0:
320,192,131894,1,8,0:0:0:0:
448,192,131894,1,0,0:0:0:0:
192,192,131980,1,8,0:0:0:0:
64,192,131980,1,0,0:0:0:0:
320,192,132065,1,8,0:0:0:0:
448,192,132065,1,0,0:0:0:0:
64,192,132237,1,0,0:0:0:0:
448,192,132237,1,0,0:0:0:0:
192,192,132237,1,2,0:0:0:0:
64,192,132580,1,2,0:0:0:0:
192,192,132580,1,4,0:0:0:0:
320,192,132580,1,0,0:0:0:0:
448,192,132580,128,0,134980:0:0:0:0:
64,192,132922,1,0,0:0:0:0:
320,192,133094,1,2,0:0:0:0:
192,192,133094,1,0,0:0:0:0:
64,192,133265,1,0,0:0:0:0:
320,192,133265,1,8,0:0:0:0:
192,192,133437,1,0,0:0:0:0:
64,192,133608,1,0,0:0:0:0:
320,192,133608,1,2,0:0:0:0:
64,192,133951,1,0,0:0:0:0:
192,192,133951,1,8,0:0:0:0:
320,192,134122,1,0,0:0:0:0:
64,192,134294,1,0,0:0:0:0:
192,192,134465,1,2,0:0:0:0:
320,192,134465,1,0,0:0:0:0:
192,192,134637,1,8,0:0:0:0:
64,192,134637,1,0,0:0:0:0:
64,192,134980,128,0,136351:0:0:0:0:
192,192,134980,1,2,0:0:0:0:
320,192,135322,1,0,0:0:0:0:
448,192,135322,1,8,0:0:0:0:
448,192,135665,1,0,0:0:0:0:
192,192,135837,1,0,0:0:0:0:
320,192,135837,1,2,0:0:0:0:
448,192,136008,1,0,0:0:0:0:
320,192,136008,1,8,0:0:0:0:
192,192,136180,1,0,0:0:0:0:
320,192,136351,128,0,137037:0:0:0:0:
448,192,136351,1,2,0:0:0:0:
192,192,136522,1,2,0:0:0:0:
64,192,136522,1,0,0:0:0:0:
448,192,136694,1,0,0:0:0:0:
64,192,136694,1,8,0:0:0:0:
192,192,136865,1,0,0:0:0:0:
192,192,137037,128,0,137722:0:0:0:0:
64,192,137037,1,2,0:0:0:0:
448,192,137208,1,0,0:0:0:0:
320,192,137208,1,2,0:0:0:0:
448,192,137380,1,8,0:0:0:0:
64,192,137380,1,0,0:0:0:0:
320,192,137722,1,2,0:0:0:0:
64,192,137722,1,0,0:0:0:0:
448,192,137722,1,0,0:0:0:0:
64,192,138065,1,0,0:0:0:0:
64,192,138408,1,0,0:0:0:0:
448,192,138580,1,2,0:0:0:0:
320,192,138580,1,0,0:0:0:0:
64,192,138751,1,0,0:0:0:0:
192,192,138922,1,0,0:0:0:0:
448,192,139094,1,2,0:0:0:0:
320,192,139094,1,0,0:0:0:0:
64,192,139437,1,0,0:0:0:0:
448,192,139608,1,0,0:0:0:0:
320,192,139780,1,0,0:0:0:0:
64,192,139951,1,0,0:0:0:0:
192,192,139951,1,2,0:0:0:0:
192,192,140294,1,2,0:0:0:0:
64,192,140294,1,0,0:0:0:0:
320,192,140465,1,2,0:0:0:0:
448,192,140465,1,0,0:0:0:0:
448,192,140808,1,0,0:0:0:0:
192,192,140980,1,0,0:0:0:0:
320,192,140980,1,2,0:0:0:0:
64,192,141151,1,0,0:0:0:0:
64,192,141494,1,2,0:0:0:0:
448,192,141494,1,0,0:0:0:0:
192,192,141665,1,0,0:0:0:0:
320,192,141837,1,0,0:0:0:0:
448,192,142008,1,8,0:0:0:0:
64,192,142008,1,0,0:0:0:0:
64,192,142180,1,0,0:0:0:0:
320,192,142265,1,2,0:0:0:0:
448,192,142265,1,0,0:0:0:0:
192,192,142351,1,2,0:0:0:0:
64,192,142351,1,0,0:0:0:0:
448,192,142437,1,0,0:0:0:0:
320,192,142437,1,2,0:0:0:0:
192,192,142522,1,8,0:0:0:0:
64,192,142522,1,0,0:0:0:0:
192,192,142694,1,0,0:0:0:0:
320,192,142694,1,2,0:0:0:0:
64,192,142865,1,0,0:0:0:0:
448,192,142865,1,8,0:0:0:0:
64,192,143208,5,2,0:0:0:0:
448,192,143208,1,0,0:0:0:0:
192,192,143208,1,4,0:0:0:0:
320,192,143380,1,0,0:0:0:0:
192,192,143551,1,0,0:0:0:0:
448,192,143722,1,0,0:0:0:0:
320,192,143894,1,0,0:0:0:0:
64,192,144065,1,0,0:0:0:0:
192,192,144237,1,0,0:0:0:0:
64,192,144408,1,0,0:0:0:0:
448,192,144580,1,0,0:0:0:0:
320,192,144665,1,0,0:0:0:0:
192,192,144751,1,0,0:0:0:0:
448,192,144922,1,0,0:0:0:0:
192,192,145094,1,0,0:0:0:0:
320,192,145265,1,0,0:0:0:0:
64,192,145437,1,0,0:0:0:0:
320,192,145608,1,0,0:0:0:0:
448,192,145780,1,0,0:0:0:0:
192,192,145951,1,0,0:0:0:0:
320,192,146122,1,0,0:0:0:0:
64,192,146294,1,0,0:0:0:0:
192,192,146465,1,0,0:0:0:0:
448,192,146637,1,0,0:0:0:0:
320,192,146808,1,0,0:0:0:0:
192,192,146980,1,0,0:0:0:0:
64,192,147151,1,0,0:0:0:0:
320,192,147322,1,0,0:0:0:0:
192,192,147494,1,0,0:0:0:0:
448,192,147665,1,0,0:0:0:0:
320,192,147837,1,0,0:0:0:0:
64,192,148008,1,0,0:0:0:0:
192,192,148180,1,0,0:0:0:0:
320,192,148351,1,0,0:0:0:0:
448,192,148522,1,0,0:0:0:0:
64,192,148694,128,0,152808:0:0:0:0:
192,192,148694,128,0,151437:0:0:0:0:
320,192,148694,128,0,150065:0:0:0:0:
