osu file format v14

[General]
AudioFilename: audio.mp3
AudioLeadIn: 0
PreviewTime: 96535
Countdown: 0
SampleSet: Soft
StackLeniency: 1
Mode: 0
LetterboxInBreaks: 0
EpilepsyWarning: 1
WidescreenStoryboard: 0

[Editor]
Bookmarks: 535,11506,22477,33449,44420,55392,66363,77335,87963,99277,110249,110592,119849,121220,132192,143163,154135,164763,176077,187049,187392,198020,198363,208992,219963,225449
DistanceSpacing: 1
BeatDivisor: 4
GridSize: 32
TimelineZoom: 1.7

[Metadata]
Title:Danzai Yamaxanadu!
TitleUnicode:断罪ヤマザナドゥ!
Artist:IOSYS
ArtistUnicode:IOSYS
Creator:Annabel
Version:Yuuya's Lunatic
Source:東方花映塚 ~ Phantasmagoria of Flower View.
Tags:Ayyri eiri- honne BlastTheKidd Zelq StarCastler Yuuya_ke Hectic h4d0uk3n1 h3ct1c Entry Coeminals ginjani HEAVENLY MOON Leader Zetera Sala- WalkingDivan4Ik aknazar WD Delette Maruoko _milr PaRaDogi fieryrage Baack Convictor 六十年目の東方裁判 ~ Fate of Sixty Years 夕野ヨシミ Eastern Judgement in the Sixtieth Year Rokujuunenme Rokujuu Nenme Rokujuu-nen Me no Shinsoku Saiban 岩杉 夏 ARM 四季映姫・ヤマザナドゥ Shikieiki Yamazanadu Eiki Shiki 東方アゲハ Ageha Grimoire of Touhou BEST ALBUM vol.2 Team Shanghai Alice ZUN 東方Project PoFV Kaeizuka Flower Reflecting Mound TH9 Japanese Video Game Pop J-Pop JPop
BeatmapID:3694825
BeatmapSetID:1525635

[Difficulty]
HPDrainRate:5
CircleSize:3.6
OverallDifficulty:7.8
ApproachRate:8.8
SliderMultiplier:1.8
SliderTickRate:2

[Events]
//Background and Video events
0,0,"Shikieiki 275.png",0,0
Video,-150,"Danzai Yamaxanadu.avi"
//Break Periods
//Storyboard Layer 0 (Background)
//Storyboard Layer 1 (Fail)
//Storyboard Layer 2 (Pass)
//Storyboard Layer 3 (Foreground)
//Storyboard Layer 4 (Overlay)
//Storyboard Sound Samples

[TimingPoints]
535,342.857142857143,4,2,1,56,1,0
11163,-166.666666666667,4,2,1,56,0,0
16306,-200,4,2,1,56,0,0
16992,-142.857142857143,4,2,1,56,0,0
19735,-100,4,2,1,60,0,0
20420,-100,4,2,1,64,0,0
21106,-100,4,2,1,68,0,0
21620,-100,4,2,2,68,0,0
22477,-100,4,2,2,72,0,1
29335,-100,4,2,2,72,0,1
30706,-100,4,2,2,72,0,0
33106,-83.3333333333333,4,2,2,72,0,0
33449,-100,4,2,2,72,0,1
40306,-100,4,2,2,72,0,1
41677,-100,4,2,2,72,0,0
44077,-83.3333333333333,4,2,2,72,0,0
44420,-100,4,2,2,68,0,1
44506,-125,4,2,2,68,0,0
55392,-100,4,2,2,68,0,1
55477,-125,4,2,2,68,0,0
66192,-100,4,2,2,68,0,0
66363,-100,4,2,2,68,0,1
66449,-125,4,2,2,68,0,0
71849,-100,4,2,2,68,0,1
71935,-125,4,2,2,68,0,0
77335,-100,4,2,2,68,0,1
77420,-125,4,2,2,68,0,0
82649,-100,4,2,2,68,0,0
82820,-100,4,2,2,68,0,1
82906,-125,4,2,2,68,0,0
85220,-100,4,2,2,68,0,0
85563,-100,4,2,2,68,0,0
88649,-100,4,2,2,68,0,1
88992,-100,4,2,2,68,0,0
90020,-100,4,2,2,68,0,1
90363,-100,4,2,2,68,0,0
91392,-100,4,2,2,68,0,1
91735,-100,4,2,2,68,0,0
92763,-100,4,2,2,68,0,1
93106,-100,4,2,2,68,0,0
93877,-100,4,2,2,56,0,0
96535,-100,4,2,2,40,0,0
96877,-100,4,2,2,44,0,0
97220,-100,4,2,2,48,0,0
97563,-100,4,2,2,52,0,0
97906,-100,4,2,2,60,0,0
98420,-100,4,2,2,66,0,0
98935,-100,4,2,2,72,0,0
99277,-100,4,2,2,80,0,1
110249,-100,4,2,2,80,0,0
110592,-83.3333333333333,4,2,2,80,0,1
110677,-100,4,2,2,80,0,1
118477,-100,4,2,1,56,0,1
118820,-100,4,2,1,64,0,1
119163,-100,4,2,1,72,0,1
119506,-100,4,2,1,76,0,1
119849,-133.333333333333,4,2,2,80,0,0
121220,-200,4,2,1,64,0,0
131677,-200,4,2,2,64,0,0
132192,-100,4,2,2,66,0,1
132277,-125,4,2,2,66,0,0
143163,-100,4,2,2,68,0,1
143249,-125,4,2,2,68,0,0
148477,-100,4,2,2,68,0,0
148649,-100,4,2,2,68,0,1
148735,-125,4,2,2,68,0,0
153106,-100,4,2,2,68,0,0
154135,-100,4,2,2,72,0,1
154220,-100,4,2,2,72,0,0
155506,-100,4,2,2,73,0,1
155592,-100,4,2,2,73,0,0
156877,-100,4,2,2,74,0,1
156963,-100,4,2,2,74,0,0
158249,-100,4,2,2,75,0,1
158335,-100,4,2,2,75,0,0
159620,-100,4,2,2,76,0,1
159706,-100,4,2,2,76,0,0
160992,-100,4,2,2,77,0,1
161077,-100,4,2,2,77,0,0
162363,-100,4,2,2,78,0,1
163735,-100,4,2,2,79,0,1
165106,-100,4,2,2,80,0,0
165449,-100,4,2,2,80,0,1
165792,-100,4,2,2,80,0,0
166820,-100,4,2,2,80,0,1
167163,-100,4,2,2,80,0,0
169563,-100,4,2,2,80,0,1
169906,-100,4,2,2,80,0,0
170677,-100,4,2,2,68,0,0
173335,-100,4,2,2,40,0,0
173677,-100,4,2,2,44,0,0
174020,-100,4,2,2,48,0,0
174363,-100,4,2,2,52,0,0
174706,-100,4,2,2,60,0,0
175220,-100,4,2,2,66,0,0
175735,-100,4,2,2,72,0,0
176077,-100,4,2,2,80,0,1
187049,-100,4,2,2,80,0,0
187392,-83.3333333333333,4,2,2,80,0,1
187477,-100,4,2,2,80,0,1
195277,-100,4,2,3,40,0,1
195620,-100,4,2,3,44,0,1
195963,-100,4,2,3,48,0,1
196306,-100,4,2,3,52,0,1
196563,-100,4,2,3,52,0,0
196649,-100,4,2,3,60,0,1
197163,-100,4,2,3,66,0,1
197677,-100,4,2,3,72,0,1
198020,-100,4,2,1,72,0,0
198363,-83.3333333333333,4,2,2,82,0,1
198449,-100,4,2,2,82,0,1
206249,-100,4,2,2,82,0,0
208992,-100,4,2,2,82,0,0
209163,-100,4,2,2,82,0,0
209335,-83.3333333333333,4,2,2,82,0,1
209420,-100,4,2,2,82,0,1
214477,-100,4,2,2,82,0,0
214563,-100,4,2,2,70,0,0
219277,-100,4,2,2,72,0,0
219620,-83.3333333333333,4,2,2,74,0,0
219963,-83.3333333333333,4,2,2,76,0,0
220049,-83.3333333333333,4,2,2,50,0,0

[Colours]
Combo1 : 191,11,38
Combo2 : 152,222,208
Combo3 : 54,171,148
Combo4 : 252,177,189

[HitObjects]
155,132,11163,5,2,0:2:0:0:
155,132,11506,6,0,P|197:106|266:114,1,107.999996704102,2|2,3:2|0:2,0:0:0:0:
419,195,12020,1,0,3:0:0:0:
419,195,12192,2,0,L|310:186,1,107.999996704102,10|2,0:2|0:2,0:0:0:0:
196,289,12706,6,0,L|310:280,1,107.999996704102,2|2,0:2|3:2,0:0:0:0:
420,227,13220,2,0,L|410:291,1,53.9999983520508,2|2,3:2|0:2,0:0:0:0:
321,188,13563,1,10,0:2:0:0:
366,363,13735,2,0,L|250:371,1,107.999996704102,0|0,3:0|0:0,0:0:0:0:
99,299,14249,6,0,P|81:250|75:194,1,107.999996704102,2|2,3:2|0:2,0:0:0:0:
172,106,14763,1,0,3:0:0:0:
172,106,14935,2,0,P|190:155|196:211,1,107.999996704102,10|2,0:2|0:2,0:0:0:0:
205,313,15449,5,2,0:2:0:0:
205,313,15792,1,2,0:2:0:0:
64,203,15963,2,0,L|120:190,1,53.9999983520508,2|0,3:2|0:0,0:0:0:0:
224,65,16306,6,0,L|364:102,1,135,10|0,0:2|0:0,0:0:0:0:
374,114,16992,6,0,P|410:68|486:57,1,125.999996154785,2|2,3:2|0:2,0:0:0:0:
470,153,17506,1,0,3:0:0:0:
287,207,17677,2,0,L|305:336,1,125.999996154785,10|2,0:2|0:2,0:0:0:0:
359,142,18192,1,2,0:2:0:0:
422,286,18363,5,2,0:2:0:0:
304,331,18535,1,2,3:2:0:0:
212,366,18706,2,0,L|136:352,1,62.9999980773926,2|0,3:2|0:0,0:0:0:0:
297,185,19049,2,0,L|309:259,1,62.9999980773926,10|0,0:2|3:2,0:0:0:0:
209,119,19392,1,2,0:2:0:0:
20,305,19735,5,2,3:2:0:0:
165,232,19906,1,2,0:2:0:0:
64,218,20077,1,2,0:2:0:0:
187,322,20249,1,2,0:2:0:0:
96,367,20420,5,10,0:2:0:0:
256,252,20592,1,0,0:0:0:0:
82,181,20763,1,2,3:2:0:0:
148,278,20935,5,2,3:2:0:0:
148,278,21277,1,2,3:2:0:0:
296,150,21449,2,0,L|304:58,1,90,2|0,3:2|1:2,0:0:0:0:
117,21,21792,6,0,L|167:11,1,45,2|0,1:2|0:0,0:0:0:0:
273,61,21963,2,0,L|229:70,1,45,0|0,1:2|0:0,0:0:0:0:
132,137,22135,5,8,0:2:0:0:
129,170,22220,1,0,3:0:0:0:
133,203,22306,1,0,3:0:0:0:
146,234,22392,1,0,3:0:0:0:
165,262,22477,6,0,L|21:228,1,135,6|0,1:2|0:0,0:0:0:0:
33,230,22820,1,10,0:1:0:0:
150,83,22992,2,0,L|205:73,2,45,0|0|2,3:0|3:0|3:1,0:0:0:0:
47,66,23335,5,0,1:1:0:0:
129,170,23506,1,10,0:1:0:0:
129,170,23677,1,2,0:1:0:0:
276,122,23849,6,0,P|294:77|305:19,1,90,2|0,1:1|0:0,0:0:0:0:
205,10,24192,1,10,0:1:0:0:
385,101,24363,1,2,1:1:0:0:
300,220,24535,5,2,0:1:0:0:
300,220,24706,2,0,L|349:209,1,45,0|0,1:1|3:0,0:0:0:0:
433,240,24877,2,0,L|289:218,1,135,8|0,0:1|0:0,0:0:0:0:
232,281,25220,6,0,B|191:272|191:272|148:295|148:295|102:281|102:281|58:289,2,180,0|10|2,1:1|0:1|0:1,0:0:0:0:
320,142,26077,1,0,1:1:0:0:
178,182,26249,1,10,0:1:0:0:
334,281,26420,5,2,3:1:0:0:
334,281,26506,1,0,3:0:0:0:
334,281,26592,2,0,L|345:183,1,90,2|0,1:1|0:0,0:0:0:0:
354,15,26935,1,10,0:1:0:0:
409,105,27106,1,2,0:1:0:0:
221,117,27277,6,0,B|270:121|309:102,1,90,2|0,1:1|1:0,0:0:0:0:
475,210,27620,2,0,P|416:194|320:193,1,135,10|0,0:1|0:0,0:0:0:0:
282,255,27963,6,0,P|236:259|188:273,1,90,4|0,1:1|0:0,0:0:0:0:
28,243,28306,1,10,0:1:0:0:
87,319,28477,1,0,0:0:0:0:
161,190,28649,1,2,0:1:0:0:
99,108,28820,2,0,L|116:13,1,90,0|10,1:1|0:1,0:0:0:0:
21,36,29163,5,2,1:1:0:0:
21,36,29249,1,0,3:0:0:0:
21,36,29335,1,2,1:1:0:0:
318,171,29677,5,10,0:1:0:0:
362,48,29849,1,2,0:1:0:0:
238,11,30020,5,2,0:1:0:0:
371,64,30192,1,0,1:1:0:0:
329,198,30363,1,8,0:1:0:0:
329,198,30535,2,0,L|267:185,1,45,0|0,3:0|3:0,0:0:0:0:
192,157,30706,5,0,1:1:0:0:
192,157,30877,1,0,1:0:0:0:
320,271,31049,1,10,0:1:0:0:
237,338,31563,5,0,1:1:0:0:
284,175,31735,1,10,0:1:0:0:
241,98,32077,5,2,1:1:0:0:
241,98,32249,1,0,1:1:0:0:
394,177,32420,1,10,0:1:0:0:
293,261,32592,2,0,P|249:256|186:250,1,90,2|0,1:1|0:0,0:0:0:0:
141,322,32935,1,0,1:0:0:0:
56,198,33106,6,0,P|43:149|42:71,1,107.999996704102,10|0,0:1|3:0,0:0:0:0:
71,6,33363,1,0,3:0:0:0:
99,21,33449,6,0,B|133:34|133:34|167:27|167:27|220:48|273:26,2,180,4|10|2,1:2|0:1|0:1,0:0:0:0:
43,167,34306,2,0,P|87:155|141:156,1,90,0|10,1:1|0:1,0:0:0:0:
245,219,34649,1,2,0:1:0:0:
365,177,34820,6,0,P|378:132|383:77,1,90,2|0,1:1|0:0,0:0:0:0:
273,57,35163,1,10,0:1:0:0:
245,219,35335,1,2,1:1:0:0:
277,61,35506,1,2,0:1:0:0:
158,164,35677,1,0,1:1:0:0:
343,245,35849,2,0,L|482:225,1,135,8|0,0:1|0:0,0:0:0:0:
476,225,36192,6,0,P|490:181|499:135,1,90,0|0,1:1|0:0,0:0:0:0:
350,70,36535,2,0,P|358:114|372:156,1,90,10|0,0:1|0:0,0:0:0:0:
413,332,36877,2,0,L|258:319,1,135,2|0,0:1|0:0,0:0:0:0:
278,320,37220,1,10,0:1:0:0:
398,237,37392,1,2,0:1:0:0:
280,164,37563,6,0,P|241:173|190:172,1,90,2|0,1:1|0:0,0:0:0:0:
67,123,37906,1,10,0:1:0:0:
67,123,38077,2,0,L|75:170,1,45,2|0,3:1|3:0,0:0:0:0:
91,257,38249,6,0,P|140:254|181:271,1,90,2|0,1:1|1:0,0:0:0:0:
391,269,38592,2,0,L|375:180,1,90,10|8,0:1|0:0,0:0:0:0:
375,180,38849,1,8,0:0:0:0:
375,180,38935,1,4,1:1:0:0:
177,268,39277,6,0,P|128:271|87:254,1,90,10|0,0:1|0:0,0:0:0:0:
156,166,39620,1,2,0:1:0:0:
314,231,39792,2,0,L|305:321,1,90,0|10,1:1|0:1,0:0:0:0:
305,320,40135,1,2,1:1:0:0:
252,157,40306,5,2,1:1:0:0:
252,157,40477,1,0,1:1:0:0:
401,215,40649,1,10,0:1:0:0:
409,73,40820,1,2,0:1:0:0:
409,73,41163,1,0,1:1:0:0:
271,142,41335,2,0,L|256:33,1,90,8|0,0:1|0:0,0:0:0:0:
162,24,41677,5,0,1:2:0:0:
398,162,42192,1,0,1:2:0:0:
144,303,42706,1,2,1:1:0:0:
162,24,43220,2,0,L|180:114,1,90,8|2,0:2|0:1,0:0:0:0:
286,181,43563,5,2,1:1:0:0:
286,181,43649,1,2,1:1:0:0:
286,181,43735,1,14,1:1:0:0:
105,279,43906,2,0,L|143:302,1,45,2|0,1:2|3:0,0:0:0:0:
222,349,44077,6,0,L|335:331,1,107.999996704102,14|0,0:1|0:0,0:0:0:0:
494,266,44420,6,0,B|467:255|446:213|446:213|409:257|338:241,1,180,6|10,1:2|0:3,0:0:0:0:
348,243,44935,1,0,0:0:0:0:
504,33,45277,1,2,1:2:0:0:
504,33,45449,2,0,L|414:47,1,72,10|0,0:2|0:0,0:0:0:0:
349,13,45792,5,2,1:2:0:0:
349,13,46135,1,10,0:2:0:0:
492,133,46306,1,2,0:2:0:0:
492,133,46649,1,2,1:2:0:0:
317,95,46820,2,0,P|322:138|312:166,1,72,10|0,0:2|0:0,0:0:0:0:
244,318,47163,5,2,1:2:0:0:
224,227,47335,1,2,0:2:0:0:
404,194,47506,1,10,0:2:0:0:
420,282,47677,1,2,0:2:0:0:
333,253,47849,6,0,L|260:240,1,72,2|0,0:2|1:0,0:0:0:0:
116,162,48192,1,10,0:2:0:0:
116,162,48363,1,2,0:2:0:0:
219,82,48535,6,0,L|209:154,1,72,2|0,1:2|0:0,0:0:0:0:
333,253,48877,2,0,L|323:325,1,72,10|0,0:2|0:0,0:0:0:0:
210,153,49220,1,2,0:2:0:0:
333,253,49392,1,0,1:2:0:0:
210,153,49563,2,0,L|199:74,1,72,8|0,0:2|0:0,0:0:0:0:
151,328,49906,6,0,P|105:297|158:251,1,144,2|10,1:2|0:2,0:0:0:0:
37,359,50420,1,0,0:0:0:0:
37,359,50592,2,0,P|17:301|23:247,1,108,2|0,0:2|0:0,0:0:0:0:
29,237,50935,1,10,0:2:0:0:
166,184,51106,1,2,0:2:0:0:
268,332,51277,5,2,1:2:0:0:
139,296,51449,1,2,1:2:0:0:
178,157,51620,1,10,0:2:0:0:
139,296,51792,1,2,0:2:0:0:
178,157,51963,2,0,L|253:182,1,72,2|0,0:2|1:0,0:0:0:0:
214,22,52306,1,10,0:2:0:0:
246,179,52477,1,2,1:2:0:0:
384,78,52649,5,2,1:2:0:0:
384,78,52820,2,0,P|346:76|307:86,1,72,2|8,0:2|0:2,0:0:0:0:
264,265,53163,1,2,0:2:0:0:
177,127,53335,5,2,0:2:0:0:
354,173,53506,1,2,1:2:0:0:
177,127,53677,2,0,P|176:88|169:51,1,72,10|0,0:2|0:0,0:0:0:0:
342,0,54020,5,2,1:2:0:0:
451,140,54192,1,2,1:2:0:0:
267,195,54363,1,10,0:2:0:0:
370,91,54535,1,0,1:0:0:0:
474,261,54706,6,0,P|448:248|394:243,1,72,2|0,0:2|1:2,0:0:0:0:
341,308,54963,1,0,1:0:0:0:
327,324,55049,6,0,P|290:328|253:350,1,72,14|0,0:2|3:0,0:0:0:0:
172,294,55306,1,0,3:0:0:0:
155,275,55392,6,0,B|173:221|173:221|150:167|150:167|166:100,1,180,6|10,1:2|0:3,0:0:0:0:
164,104,55906,1,0,0:0:0:0:
257,196,56077,1,2,0:3:0:0:
221,21,56249,1,2,1:2:0:0:
359,94,56420,2,0,L|281:88,1,72,10|2,0:2|0:2,0:0:0:0:
45,79,56763,5,2,1:2:0:0:
39,92,56877,2,0,B|50:159,2,48,2|2|10,0:0|0:0|0:0,0:0:0:0:
198,94,57277,1,2,0:2:0:0:
108,26,57449,5,2,0:2:0:0:
141,159,57620,1,2,1:2:0:0:
167,273,57792,2,0,L|94:262,1,72,10|2,0:2|0:0,0:0:0:0:
263,226,58135,5,2,1:2:0:0:
227,368,58306,1,2,0:2:0:0:
193,185,58477,1,10,0:2:0:0:
243,334,58649,1,2,0:2:0:0:
446,279,58820,6,0,L|335:267,1,108,2|0,0:2|0:0,0:0:0:0:
338,267,59163,1,10,0:2:0:0:
499,204,59335,1,2,0:2:0:0:
408,187,59506,5,2,1:2:0:0:
451,360,59677,1,2,1:2:0:0:
408,187,59849,1,10,0:2:0:0:
502,290,60020,1,2,1:2:0:0:
334,349,60192,2,0,B|272:335|272:335|236:364|190:353,1,144,2|8,0:2|0:2,0:0:0:0:
177,334,60877,5,2,1:2:0:0:
149,240,61049,1,2,0:2:0:0:
319,202,61220,1,10,0:2:0:0:
293,107,61392,1,2,0:2:0:0:
341,277,61563,6,0,L|362:169,1,108,2|0,0:2|0:0,0:0:0:0:
378,159,61906,1,10,0:2:0:0:
226,202,62077,1,2,1:2:0:0:
104,236,62249,6,0,L|116:166,1,72,2|0,0:2|1:2,0:0:0:0:
140,0,62592,1,10,0:2:0:0:
140,0,62935,5,2,0:2:0:0:
216,117,63106,1,0,1:0:0:0:
334,141,63277,1,10,0:2:0:0:
420,102,63449,1,2,0:2:0:0:
472,38,63620,5,2,1:2:0:0:
472,38,63792,1,2,0:2:0:0:
451,181,63963,1,10,0:2:0:0:
451,181,64135,1,2,0:2:0:0:
250,122,64306,5,2,0:2:0:0:
408,104,64477,2,0,B|374:117|374:117|339:112,1,72,2|10,1:2|3:2,0:0:0:0:
185,63,64820,5,0,3:2:0:0:
185,63,64906,1,0,3:2:0:0:
185,63,64992,1,2,1:2:0:0:
310,195,65163,1,2,1:2:0:0:
139,145,65335,1,2,1:2:0:0:
118,282,65506,5,2,1:2:0:0:
141,266,65592,1,0,3:0:0:0:
168,259,65677,1,2,1:2:0:0:
196,254,65763,1,0,3:0:0:0:
223,255,65849,1,0,1:2:0:0:
331,345,66020,5,8,0:2:0:0:
331,345,66192,2,0,L|344:290,1,45,0|0,3:0|3:0,0:0:0:0:
408,230,66363,6,0,P|347:163|336:73,1,180,4|10,1:2|0:3,0:0:0:0:
420,107,66877,1,2,0:3:0:0:
235,33,67049,6,0,P|240:70|240:118,1,72,2|2,0:3|1:2,0:0:0:0:
222,142,67306,1,0,3:0:0:0:
222,142,67392,2,0,L|185:137,1,36,10|0,0:2|0:0,0:0:0:0:
72,169,67563,2,0,L|111:176,1,36,2|2,0:0|0:0,0:0:0:0:
105,91,67735,5,2,1:2:0:0:
207,218,67906,1,2,0:0:0:0:
51,245,68077,2,0,L|9:251,3,36,10|2|2|2,0:2|0:0|0:0|0:0,0:0:0:0:
131,317,68420,5,2,0:2:0:0:
137,292,68506,1,2,0:2:0:0:
128,269,68592,1,2,1:2:0:0:
137,245,68677,1,2,0:2:0:0:
126,223,68763,2,0,L|116:149,1,72,10|0,0:2|0:0,0:0:0:0:
31,14,69106,5,2,1:2:0:0:
160,46,69277,1,2,0:2:0:0:
23,105,69449,1,10,0:2:0:0:
160,46,69620,1,2,0:2:0:0:
270,130,69792,6,0,P|324:127|371:98,1,108,2|0,0:2|0:0,0:0:0:0:
369,99,70135,1,10,0:2:0:0:
471,176,70306,1,2,0:2:0:0:
344,208,70477,5,2,1:2:0:0:
468,97,70649,1,2,1:2:0:0:
313,41,70820,1,10,0:2:0:0:
340,188,70992,1,2,0:2:0:0:
448,100,71163,2,0,L|371:111,1,72,2|0,0:2|1:2,0:0:0:0:
171,144,71506,5,12,0:2:0:0:
171,144,71677,1,0,1:0:0:0:
284,218,71849,6,0,B|295:171|272:130|272:130|286:84|272:42,1,180,4|10,1:2|0:3,0:0:0:0:
272,42,72363,1,0,0:0:0:0:
357,118,72535,2,0,P|399:129|437:123,1,72,2|2,0:3|1:2,0:0:0:0:
442,121,72792,1,2,0:2:0:0:
456,115,72877,1,10,0:2:0:0:
473,249,73220,5,2,1:2:0:0:
473,249,73306,1,2,0:2:0:0:
473,249,73392,2,0,L|437:257,1,36,2|2,0:2|0:2,0:0:0:0:
383,336,73563,5,10,0:2:0:0:
383,336,73649,1,2,0:2:0:0:
383,336,73735,2,0,L|347:344,1,36,2|2,0:2|0:2,0:0:0:0:
252,214,73906,6,0,L|276:304,1,72,2|2,0:2|1:2,0:0:0:0:
227,365,74163,1,2,0:0:0:0:
207,363,74249,2,0,L|127:355,1,72,10|0,0:2|0:0,0:0:0:0:
38,252,74592,5,2,1:2:0:0:
137,232,74763,1,2,0:2:0:0:
218,110,74935,1,10,0:2:0:0:
120,86,75106,1,2,1:2:0:0:
226,200,75277,5,2,0:2:0:0:
80,160,75449,1,2,1:2:0:0:
242,104,75620,1,10,0:2:0:0:
181,272,75792,1,2,0:2:0:0:
292,177,75963,5,2,1:2:0:0:
153,50,76135,2,0,L|81:54,1,72,2|10,0:2|0:2,0:0:0:0:
292,177,76477,1,2,0:2:0:0:
157,54,76649,2,0,L|85:58,1,72,2|0,1:2|1:2,0:0:0:0:
259,3,76992,1,14,0:2:0:0:
179,176,77163,5,2,3:2:0:0:
179,176,77249,1,2,3:2:0:0:
179,176,77335,2,0,P|266:189|326:261,2,180,6|10|2,1:2|0:3|0:3,0:0:0:0:
77,254,78192,5,2,1:2:0:0:
77,254,78277,1,2,0:2:0:0:
77,254,78363,2,0,L|32:266,1,36,10|2,0:2|0:2,0:0:0:0:
56,341,78535,2,0,L|94:331,1,36,2|2,0:2|0:2,0:0:0:0:
179,275,78706,6,0,L|189:237,3,36,2|2|2|2,1:2|0:2|1:2|0:2,0:0:0:0:
136,166,79049,2,0,L|130:124,3,36,10|2|2|2,0:2|0:2|0:2|0:2,0:0:0:0:
173,52,79392,6,0,P|208:49|245:32,1,72,2|2,1:2|1:2,0:0:0:0:
318,86,79649,1,2,1:2:0:0:
334,99,79735,2,0,P|394:98|445:125,1,108,10|0,0:2|0:0,0:0:0:0:
462,110,80077,5,2,1:2:0:0:
434,228,80249,1,2,0:2:0:0:
274,178,80420,1,10,0:2:0:0:
306,296,80592,1,2,0:2:0:0:
429,211,80763,5,2,0:2:0:0:
313,310,80935,2,0,L|392:306,1,72,2|10,1:2|0:2,0:0:0:0:
222,268,81277,1,2,0:2:0:0:
336,157,81449,5,2,1:2:0:0:
384,306,81620,1,2,1:2:0:0:
254,199,81792,1,10,0:2:0:0:
390,87,81963,1,2,0:2:0:0:
193,133,82135,6,0,L|107:125,1,72,2|0,0:2|1:0,0:0:0:0:
121,126,82392,1,0,1:0:0:0:
121,126,82477,1,14,0:2:0:0:
272,72,82649,2,0,L|316:60,1,45,2|0,1:2|0:0,0:0:0:0:
415,46,82820,6,0,B|285:25|285:25|310:38|317:65,1,180,6|10,1:2|0:3,0:0:0:0:
452,129,83335,1,2,0:3:0:0:
346,242,83506,2,0,P|346:198|364:166,1,72,2|2,0:3|1:2,0:0:0:0:
358,174,83763,1,2,0:2:0:0:
358,174,83849,1,10,0:2:0:0:
512,217,84020,6,0,L|438:227,1,72,0|2,1:2|0:2,0:0:0:0:
249,248,84363,1,0,1:2:0:0:
431,261,84535,1,10,0:2:0:0:
240,276,85049,1,2,1:2:0:0:
378,384,85220,6,0,B|329:351|254:360|254:360|292:353|312:331,1,180,10|2,0:2|1:2,0:0:0:0:
360,230,85735,5,0,1:2:0:0:
360,230,85820,1,0,3:0:0:0:
360,230,85906,2,0,L|368:177,2,45,10|0|2,3:2|3:0|1:2,0:0:0:0:
160,126,86249,5,0,1:2:0:0:
182,237,86421,1,2,1:2:0:0:
182,237,86506,1,0,3:0:0:0:
182,237,86592,1,10,3:2:0:0:
373,141,86763,6,0,L|366:185,2,45,2|0|0,1:2|3:0|3:2,0:0:0:0:
256,192,87106,1,2,1:2:0:0:
148,43,87277,1,10,0:2:0:0:
386,58,87449,5,0,3:0:0:0:
386,58,87535,1,0,3:0:0:0:
386,58,87620,2,0,P|364:74|343:83,1,45,8|0,0:2|3:2,0:0:0:0:
265,103,87792,2,0,P|248:101|222:94,1,45,0|0,1:2|1:2,0:0:0:0:
148,43,87963,5,14,0:1:0:0:
276,11,88135,1,0,1:0:0:0:
256,192,88306,5,6,1:1:0:0:
38,360,88649,2,0,B|81:362|109:337|109:337|139:357|139:357|171:335|203:344,1,180,10|2,0:3|0:3,0:0:0:0:
322,384,89163,1,0,1:0:0:0:
256,192,89335,5,10,0:1:0:0:
256,192,89677,1,2,1:1:0:0:
0,120,90020,2,0,B|53:107|53:107|90:114|90:114|122:93|122:93|176:87,1,180,10|2,0:3|0:3,0:0:0:0:
200,1,90535,1,0,1:0:0:0:
256,192,90706,5,10,0:1:0:0:
256,192,91049,1,2,1:1:0:0:
463,29,91392,2,0,B|422:50|400:109|432:158|432:158|443:142|459:134,1,180,10|2,0:3|0:3,0:0:0:0:
348,26,91906,1,0,1:0:0:0:
256,192,92077,5,10,0:1:0:0:
256,192,92420,1,2,1:1:0:0:
470,364,92763,2,0,P|463:274|505:291,1,180,10|2,0:3|0:3,0:0:0:0:
469,177,93277,1,0,1:0:0:0:
291,318,93449,5,10,0:1:0:0:
222,69,93792,1,6,1:1:0:0:
282,96,94649,5,0,1:0:0:0:
228,290,95163,1,0,1:0:0:0:
256,192,96020,5,0,1:0:0:0:
256,192,96535,6,0,L|251:144,9,45,0|0|0|0|0|0|0|0|0|0,1:2|3:2|3:2|3:2|3:2|3:2|3:2|3:2|3:2|3:2,0:0:0:0:
339,242,97392,2,0,L|329:297,1,45,0|0,1:2|3:2,0:0:0:0:
265,352,97563,5,0,3:2:0:0:
232,362,97649,1,0,3:2:0:0:
197,365,97735,1,0,3:2:0:0:
164,361,97820,1,0,3:2:0:0:
132,347,97906,6,0,L|83:342,1,45,8|0,3:2|3:2,0:0:0:0:
46,264,98077,1,0,1:2:0:0:
46,264,98163,1,0,3:2:0:0:
46,264,98249,2,0,L|-15:253,1,45,0|0,3:2|3:2,0:0:0:0:
100,151,98420,6,0,L|113:208,1,45,8|0,3:2|3:2,0:0:0:0:
199,228,98592,2,0,L|242:206,1,45,0|0,3:2|3:2,0:0:0:0:
311,140,98763,1,0,1:2:0:0:
311,140,98849,1,0,1:2:0:0:
311,140,98935,2,0,L|318:87,3,45,8|0|0|0,3:2|3:2|3:2|3:2,0:0:0:0:
279,17,99277,6,0,P|236:31|180:31,1,90,6|0,1:2|0:0,0:0:0:0:
11,112,99620,2,0,P|85:108|152:149,1,135,10|0,0:2|0:0,0:0:0:0:
137,134,99963,2,0,P|182:126|231:125,1,90,2|0,0:2|1:2,0:0:0:0:
322,216,100306,1,10,0:2:0:0:
412,207,100477,2,0,P|367:215|321:216,1,90,2|0,0:2|1:0,0:0:0:0:
194,370,100820,5,2,0:2:0:0:
181,239,100992,1,10,0:2:0:0:
306,303,101163,1,0,0:0:0:0:
181,239,101335,2,0,P|132:277|32:265,1,135,2|2,0:2|0:2,0:0:0:0:
31,270,101677,1,8,0:2:0:0:
179,149,101849,1,2,0:2:0:0:
41,106,102020,6,0,B|59:70|59:70|124:118|90:202,2,180,6|10|2,1:2|0:2|0:2,0:0:0:0:
187,39,102877,1,0,1:2:0:0:
277,150,103049,1,14,0:2:0:0:
277,150,103220,1,2,1:2:0:0:
367,88,103392,5,2,0:0:0:0:
463,118,103563,1,0,1:2:0:0:
401,287,103735,2,0,L|262:310,1,135,14|0,0:2|0:0,0:0:0:0:
252,320,104077,5,2,0:0:0:0:
222,231,104249,1,0,1:2:0:0:
387,185,104420,2,0,L|406:47,1,135,14|0,0:2|0:0,0:0:0:0:
413,16,104763,6,0,P|342:71|244:52,1,180,6|10,1:2|0:2,0:0:0:0:
107,87,105277,1,2,0:2:0:0:
261,64,105449,2,0,L|241:166,1,90,2|0,0:2|1:2,0:0:0:0:
204,302,105792,1,10,0:2:0:0:
243,152,105963,1,2,0:2:0:0:
161,208,106135,5,0,1:2:0:0:
302,308,106306,1,2,0:2:0:0:
302,308,106477,2,0,L|443:275,1,135,10|0,0:2|0:0,0:0:0:0:
455,293,106820,5,2,0:2:0:0:
486,199,106992,1,2,1:2:0:0:
343,165,107163,1,10,0:2:0:0:
327,68,107335,1,2,0:2:0:0:
417,109,107506,5,2,1:2:0:0:
343,165,107677,1,2,1:2:0:0:
511,31,107849,2,0,P|474:33|423:21,1,90,14|0,0:2|0:0,0:0:0:0:
261,130,108192,5,2,1:2:0:0:
243,43,108363,1,2,1:2:0:0:
282,224,108535,2,0,P|324:210|375:213,1,90,14|0,0:2|0:0,0:0:0:0:
512,315,108877,5,2,1:2:0:0:
390,342,109049,1,2,1:2:0:0:
261,366,109220,2,0,L|173:344,1,90,14|0,0:2|1:2,0:0:0:0:
45,207,109563,5,10,0:2:0:0:
45,207,109649,1,8,0:2:0:0:
45,207,109735,1,0,1:2:0:0:
45,207,109820,1,0,1:2:0:0:
45,207,109906,2,0,L|133:235,1,90,10|0,0:2|0:0,0:0:0:0:
261,366,110249,1,0,1:2:0:0:
261,366,110592,6,0,L|236:252,1,107.999996704102,14|0,0:0|0:0,0:0:0:0:
164,105,110935,2,0,P|67:96|34:46,2,135,2|2|2,0:2|0:0|0:2,0:0:0:0:
125,15,111620,1,0,1:2:0:0:
261,113,111792,5,2,0:2:0:0:
261,113,111963,2,0,L|250:202,1,90,10|0,0:2|0:0,0:0:0:0:
396,124,112306,2,0,P|439:120|494:112,1,90,2|0,0:2|1:2,0:0:0:0:
485,113,112563,1,2,0:0:0:0:
485,113,112649,1,10,0:2:0:0:
358,43,112820,1,2,0:2:0:0:
338,200,112992,6,0,B|355:268|332:340|332:340|363:319,1,180,6|10,1:2|0:2,0:0:0:0:
367,322,113677,2,0,L|267:316,1,90,2|0,0:2|1:2,0:0:0:0:
145,249,114020,1,10,0:2:0:0:
277,316,114192,1,2,0:2:0:0:
286,232,114363,5,2,1:2:0:0:
188,332,114535,1,2,1:2:0:0:
169,151,114706,2,0,L|156:16,1,135,12|0,0:2|0:0,0:0:0:0:
132,10,115049,5,2,1:2:0:0:
67,94,115220,1,2,1:2:0:0:
256,139,115392,2,0,L|403:124,1,135,12|0,0:2|0:0,0:0:0:0:
408,119,115735,6,0,P|408:160|415:211,1,90,6|0,1:2|0:0,0:0:0:0:
492,321,116077,2,0,B|360:298|360:298|316:326,1,180,10|2,0:2|0:2,0:0:0:0:
205,238,116592,2,0,L|297:224,1,90,0|10,1:2|0:2,0:0:0:0:
205,238,116935,1,2,0:2:0:0:
193,339,117106,5,0,1:2:0:0:
125,188,117277,1,2,1:2:0:0:
14,302,117449,2,0,L|102:288,1,90,10|0,0:2|0:0,0:0:0:0:
211,130,117792,5,2,1:2:0:0:
111,113,117963,1,2,1:2:0:0:
6,96,118135,1,10,0:2:0:0:
6,96,118477,6,0,P|4:73|0:44,3,45,0|0|0|0,3:2|3:2|3:2|3:2,0:0:0:0:
144,47,118820,2,0,P|121:50|93:52,3,45,0|0|0|0,3:2|3:2|3:2|3:2,0:0:0:0:
211,130,119163,5,0,3:2:0:0:
224,153,119248,1,0,3:2:0:0:
235,178,119334,1,0,3:2:0:0:
242,203,119420,1,0,3:2:0:0:
246,230,119505,1,0,3:2:0:0:
246,257,119591,1,0,3:2:0:0:
243,284,119677,1,0,3:2:0:0:
236,310,119763,1,0,3:2:0:0:
225,335,119849,6,2,B|230:313|230:313|224:291|224:291|231:271|231:271|202:222|226:134|329:116|401:194|377:275|315:300,1,405.000015449525,12|2,0:2|0:0,0:0:0:0:
55,325,121220,6,0,L|49:232,2,90,6|2|10,3:2|0:3|0:3,0:0:0:0:
146,225,122077,1,2,0:2:0:0:
146,225,122249,2,0,L|151:180,1,45,2|2,0:2|0:2,0:0:0:0:
79,97,122592,6,0,L|129:88,1,45,2|0,0:2|3:0,0:0:0:0:
243,140,122935,2,0,L|296:148,1,45,2|2,3:2|0:2,0:0:0:0:
380,61,123277,1,10,0:2:0:0:
380,61,123449,2,0,L|386:112,2,45,2|2|0,3:2|0:2|3:0,0:0:0:0:
314,167,123963,5,2,3:2:0:0:
396,192,124135,1,2,3:2:0:0:
281,240,124306,1,2,0:2:0:0:
361,262,124477,1,2,3:2:0:0:
314,167,124649,5,10,0:2:0:0:
314,167,124992,2,0,L|263:161,1,45,2|2,3:2|0:2,0:0:0:0:
177,90,125335,6,0,L|77:102,2,90,2|2|10,0:2|3:2|0:2,0:0:0:0:
294,19,126363,2,0,L|246:24,1,45
87,76,126706,5,2,3:2:0:0:
152,117,126877,1,2,0:2:0:0:
83,154,127049,1,2,0:2:0:0:
87,76,127220,1,2,3:2:0:0:
155,202,127392,5,10,0:2:0:0:
225,159,127563,1,2,0:2:0:0:
155,202,127735,1,2,0:2:0:0:
85,237,127906,1,2,0:2:0:0:
272,257,128077,6,0,L|262:354,1,90,2|2,0:2|3:2,0:0:0:0:
272,257,128592,1,2,0:2:0:0:
368,311,128763,6,0,L|418:303,1,45,10|0,0:2|3:2,0:0:0:0:
337,192,129106,1,2,0:2:0:0:
337,192,129277,1,2,3:2:0:0:
469,226,129449,6,0,L|426:216,1,45,2|2,3:2|0:2,0:0:0:0:
353,113,129792,2,0,L|405:118,1,45,2|2,3:2|3:2,0:0:0:0:
509,35,130135,1,10,0:2:0:0:
509,35,130306,2,0,L|466:46,2,45,2|2|2,0:2|3:2|0:2,0:0:0:0:
282,106,130820,5,2,0:2:0:0:
282,106,130992,2,0,P|277:60|258:17,1,90,2|2,0:2|0:2,0:0:0:0:
362,21,131506,5,10,0:2:0:0:
197,92,131677,1,8,1:2:0:0:
197,92,131763,1,8,0:2:0:0:
197,92,131849,1,2,0:2:0:0:
30,52,132020,5,10,0:2:0:0:
30,52,132106,1,8,0:2:0:0:
30,52,132192,2,0,B|21:144|21:144|38:236,1,180,6|2,1:2|1:3,0:0:0:0:
210,163,132877,2,0,L|137:172,1,72,2|2,1:3|0:2,0:0:0:0:
138,171,133135,1,2,0:2:0:0:
138,171,133220,1,2,1:2:0:0:
230,250,133392,1,2,0:2:0:0:
278,106,133563,5,2,1:2:0:0:
320,274,133735,1,2,0:2:0:0:
383,210,133906,1,2,1:2:0:0:
214,165,134077,1,2,0:2:0:0:
356,54,134249,5,2,1:2:0:0:
356,54,134420,2,0,L|405:60,1,36,2|0,0:2|3:0,0:0:0:0:
481,30,134592,2,0,L|484:113,1,72,2|0,1:2|0:0,0:0:0:0:
454,238,134935,5,2,1:2:0:0:
363,157,135106,1,2,0:2:0:0:
398,323,135277,2,0,L|324:322,1,72,2|2,1:2|0:2,0:0:0:0:
183,190,135620,5,2,1:2:0:0:
201,292,135792,1,2,0:2:0:0:
181,162,135963,1,2,1:2:0:0:
309,236,136135,1,2,0:2:0:0:
130,324,136306,6,0,P|63:332|12:282,2,144,2|2|2,1:2|1:2|1:2,0:0:0:0:
130,324,137335,1,0,1:2:0:0:
202,184,137506,1,2,0:3:0:0:
125,250,137677,5,2,1:2:0:0:
70,115,137849,1,2,0:2:0:0:
234,196,138020,2,0,L|346:181,1,108,2|0,1:2|0:0,0:0:0:0:
367,196,138363,2,0,P|363:137|395:54,1,144,2|2,1:2|1:2,0:0:0:0:
311,6,138877,1,2,0:2:0:0:
180,122,139049,6,0,P|124:106|26:106,1,144,2|2,1:2|1:2,0:0:0:0:
42,108,139735,2,0,L|55:218,1,108,2|0,1:2|0:0,0:0:0:0:
38,232,140077,1,2,1:2:0:0:
167,270,140249,1,2,0:2:0:0:
146,187,140420,5,2,1:2:0:0:
78,323,140592,1,2,0:2:0:0:
146,187,140763,1,2,1:2:0:0:
78,323,140935,1,2,0:2:0:0:
195,375,141106,5,2,1:2:0:0:
302,300,141277,1,2,0:2:0:0:
422,348,141449,2,0,P|466:342|510:331,1,72,2|10,1:2|0:2,0:0:0:0:
492,335,141706,1,8,0:2:0:0:
492,335,141792,1,14,0:2:0:0:
483,187,141963,1,0,1:2:0:0:
400,260,142135,1,10,0:2:0:0:
290,241,142306,6,0,L|248:248,1,36,0|0,1:2|1:2,0:0:0:0:
109,135,142563,2,0,L|66:143,1,36,0|0,1:2|1:2,0:0:0:0:
228,243,142820,1,10,0:2:0:0:
176,53,142992,5,10,0:2:0:0:
176,53,143077,1,8,0:2:0:0:
176,53,143163,2,0,B|212:27|265:30|265:30|303:53|357:46,1,180,6|10,1:2|0:3,0:0:0:0:
348,46,143677,1,2,0:3:0:0:
324,156,143849,1,2,0:3:0:0:
412,234,144020,1,2,1:2:0:0:
412,234,144106,1,2,0:2:0:0:
412,234,144192,2,0,L|399:323,1,72,10|0,0:2|0:0,0:0:0:0:
464,102,144535,6,0,L|506:106,3,36,2|2|2|2,1:2|0:2|0:2|0:2,0:0:0:0:
414,41,144877,1,10,0:2:0:0:
286,123,145049,1,2,1:2:0:0:
136,75,145220,5,2,0:2:0:0:
122,78,145306,2,0,L|50:86,1,72,2|2,0:2|0:2,0:0:0:0:
36,91,145563,1,10,0:2:0:0:
181,162,145735,1,2,0:0:0:0:
46,239,145906,5,2,1:2:0:0:
94,169,146077,1,2,0:2:0:0:
215,302,146249,1,10,0:2:0:0:
169,373,146420,1,2,1:2:0:0:
134,276,146592,6,0,P|187:281|272:237,1,144,2|10,0:2|0:2,0:0:0:0:
420,145,147106,1,2,0:2:0:0:
266,242,147277,1,2,1:2:0:0:
323,113,147449,6,0,L|339:183,1,72,2|10,0:2|0:2,0:0:0:0:
429,296,147792,1,2,0:2:0:0:
429,296,147963,2,0,L|358:283,1,72,2|0,0:2|1:2,0:0:0:0:
182,178,148306,5,14,0:2:0:0:
182,178,148477,2,0,L|193:223,1,45,2|0,0:2|3:0,0:0:0:0:
213,297,148649,6,0,L|242:116,1,180,6|10,1:2|0:3,0:0:0:0:
41,79,149163,2,0,L|34:28,2,36,2|0|2,0:3|3:0|0:3,0:0:0:0:
57,183,149506,2,0,L|136:173,1,72,2|8,1:2|0:2,0:0:0:0:
143,190,150020,5,2,1:2:0:0:
26,351,150363,1,10,0:2:0:0:
155,206,150877,1,2,1:2:0:0:
39,365,151049,1,10,0:2:0:0:
169,223,151220,2,0,L|177:277,1,36,2|0,1:2|3:0,0:0:0:0:
196,346,151392,6,0,L|207:269,1,72,2|2,0:0|1:2,0:0:0:0:
224,149,151735,1,10,0:2:0:0:
300,276,151906,6,0,L|326:206,1,72,2|0,1:2|0:0,0:0:0:0:
374,91,152249,1,2,1:2:0:0:
409,277,152420,6,0,L|460:225,1,72,10|2,0:2|1:2,0:0:0:0:
459,225,152677,1,0,3:0:0:0:
459,225,152763,1,2,0:0:0:0:
336,354,152935,1,2,1:2:0:0:
206,274,153106,6,0,B|141:260|141:260|87:287|26:259,1,180,10|2,0:2|1:2,0:0:0:0:
206,274,153620,1,2,1:2:0:0:
113,368,153792,1,14,0:2:0:0:
88,176,153963,5,0,1:2:0:0:
88,176,154049,1,0,1:2:0:0:
88,176,154135,2,0,L|109:-5,1,180,6|10,1:2|0:3,0:0:0:0:
17,83,154649,1,0,1:2:0:0:
17,83,154992,1,0,1:2:0:0:
172,166,155163,2,0,L|265:144,1,90,10|0,0:2|0:0,0:0:0:0:
385,50,155506,6,0,P|292:68|217:21,1,180,6|10,1:2|0:3,0:0:0:0:
346,165,156020,1,0,1:2:0:0:
346,165,156363,1,0,3:0:0:0:
473,21,156535,2,0,L|486:121,1,90,10|0,0:2|1:2,0:0:0:0:
501,196,156792,1,0,3:0:0:0:
503,219,156877,6,0,B|456:226|420:198|420:198|396:244|346:250,1,180,6|10,1:2|0:3,0:0:0:0:
452,328,157392,1,0,1:2:0:0:
452,328,157735,1,0,1:2:0:0:
409,159,157906,2,0,L|320:149,1,90,10|0,0:2|1:2,0:0:0:0:
162,223,158249,6,0,B|189:194|189:194|242:213|259:264|232:311,1,180,6|10,1:2|0:3,0:0:0:0:
91,377,158763,1,0,1:2:0:0:
91,377,159106,1,0,1:2:0:0:
205,222,159277,1,10,0:2:0:0:
62,284,159449,5,2,0:2:0:0:
62,284,159535,1,0,3:0:0:0:
62,284,159620,2,0,B|158:259|137:336|234:307,1,180,6|10,1:2|0:3,0:0:0:0:
292,137,160135,1,2,1:3:0:0:
292,137,160477,1,0,1:2:0:0:
426,223,160649,2,0,P|383:216|332:210,1,90,10|0,0:2|0:0,0:0:0:0:
202,120,160992,6,0,B|212:95|186:86|186:86|206:235,1,180,6|8,1:2|0:2,0:0:0:0:
50,97,161506,1,0,1:2:0:0:
50,97,161592,1,0,3:0:0:0:
50,97,161677,2,0,L|6:93,2,45,2|0|0,0:3|3:0|1:2,0:0:0:0:
218,12,162020,1,10,0:2:0:0:
75,0,162192,5,2,1:2:0:0:
75,0,162277,1,0,3:0:0:0:
75,0,162363,1,6,0:2:0:0:
202,120,162535,2,0,L|253:115,2,45,0|0|10,1:2|1:2|0:3,0:0:0:0:
50,213,162877,2,0,L|60:264,1,45,2|0,1:3|1:0,0:0:0:0:
134,303,163049,5,2,1:3:0:0:
156,290,163135,1,0,3:0:0:0:
181,277,163220,1,0,1:2:0:0:
205,267,163306,1,0,3:0:0:0:
228,255,163392,1,10,0:2:0:0:
364,162,163563,2,0,L|348:205,1,45,0|0,1:2|3:0,0:0:0:0:
317,322,163735,5,6,0:2:0:0:
265,176,163906,1,0,1:0:0:0:
441,233,164077,1,10,0:3:0:0:
471,97,164249,6,0,P|468:73|463:45,1,45,0|0,3:0|1:0,0:0:0:0:
363,183,164420,1,10,0:3:0:0:
348,204,164506,2,0,P|352:229|355:255,1,45,0|0,3:0|1:0,0:0:0:0:
250,35,164763,5,14,0:1:0:0:
391,107,164935,1,0,0:0:0:0:
256,192,165106,5,6,1:1:0:0:
14,42,165449,2,0,B|133:14|133:14|91:57,1,180,10|2,0:3|0:3,0:0:0:0:
26,143,165963,1,0,1:0:0:0:
256,192,166135,5,10,0:1:0:0:
256,192,166477,1,2,1:1:0:0:
481,362,166820,6,0,B|454:314|401:300|354:335|354:335|376:361,1,180,10|2,0:3|0:3,0:0:0:0:
467,215,167335,1,0,1:0:0:0:
256,192,167506,5,10,0:1:0:0:
256,192,167848,1,2,1:1:0:0:
356,220,168020,1,0,1:2:0:0:
454,76,168192,1,10,0:3:0:0:
354,46,168363,2,0,L|365:135,1,90,0|2,1:2|0:3,0:0:0:0:
354,46,168706,1,0,1:2:0:0:
256,192,168877,5,10,0:1:0:0:
256,192,169220,1,2,1:1:0:0:
38,366,169563,6,0,B|83:348|127:362|127:362|166:330|218:337,1,180,10|2,0:3|0:3,0:0:0:0:
95,209,170077,1,0,1:2:0:0:
221,318,170249,5,10,0:1:0:0:
290,69,170592,1,6,1:1:0:0:
230,96,171449,5,0,1:0:0:0:
284,290,171963,1,0,1:0:0:0:
256,192,172820,5,0,1:0:0:0:
256,192,173335,6,0,L|306:184,9,45,0|0|0|0|0|0|0|0|0|0,1:2|3:2|3:2|3:2|3:2|3:2|3:2|3:2|3:2|3:2,0:0:0:0:
195,97,174192,6,0,L|241:106,1,45,0|0,1:2|3:2,0:0:0:0:
297,36,174363,2,0,L|247:27,1,45,0|0,3:2|3:2,0:0:0:0:
199,101,174535,2,0,L|245:110,1,45,0|0,3:2|3:2,0:0:0:0:
371,145,174706,5,8,0:2:0:0:
371,145,174792,1,8,3:2:0:0:
371,145,174877,2,0,L|349:191,1,45,0|0,1:2|3:2,0:0:0:0:
266,231,175049,2,0,L|243:278,1,45,0|0,3:2|3:2,0:0:0:0:
333,345,175220,5,8,3:2:0:0:
333,345,175306,1,8,3:2:0:0:
333,345,175392,2,0,L|391:356,1,45,0|0,3:2|3:2,0:0:0:0:
487,325,175563,5,0,1:2:0:0:
487,325,175649,1,0,1:2:0:0:
487,325,175735,2,0,L|458:291,1,45,8|0,3:2|3:2,0:0:0:0:
383,213,175906,2,0,L|366:261,1,45,0|0,3:2|3:2,0:0:0:0:
324,362,176077,6,0,P|282:353|227:355,1,90,6|0,1:2|0:0,0:0:0:0:
55,372,176420,2,0,P|27:297|48:236,1,135,10|0,0:2|0:0,0:0:0:0:
41,246,176763,2,0,P|89:243|135:229,1,90,2|0,0:2|1:2,0:0:0:0:
221,127,177106,1,10,0:2:0:0:
309,142,177277,2,0,P|266:129|222:127,1,90,2|0,0:2|1:2,0:0:0:0:
59,65,177620,5,2,0:2:0:0:
59,65,177792,2,0,P|111:66|159:53,1,90,10|0,0:2|0:0,0:0:0:0:
231,217,178135,2,0,L|214:307,1,90,2|0,0:2|1:0,0:0:0:0:
214,305,178392,1,2,0:2:0:0:
214,305,178477,1,8,0:2:0:0:
138,188,178649,1,2,0:2:0:0:
338,248,178820,6,0,P|343:154|319:67,1,180,6|10,1:2|0:2,0:0:0:0:
156,91,179335,1,0,0:0:0:0:
156,91,179506,2,0,P|151:185|175:272,1,180,2|10,0:2|0:2,0:0:0:0:
249,175,180020,1,2,0:2:0:0:
235,48,180192,5,6,1:2:0:0:
142,95,180363,1,0,1:2:0:0:
260,264,180535,2,0,L|407:242,1,135,10|0,0:2|0:0,0:0:0:0:
405,259,180877,5,6,1:2:0:0:
467,178,181049,1,0,1:2:0:0:
354,27,181220,2,0,L|369:168,1,135,8|0,0:2|0:0,0:0:0:0:
414,205,181563,6,0,P|470:287|426:357,2,180,6|10|2,1:2|0:2|0:2,0:0:0:0:
259,133,182420,2,0,P|303:134|353:141,1,90,0|10,1:2|0:2,0:0:0:0:
387,282,182763,2,0,P|342:282|288:274,1,90,2|0,1:2|0:0,0:0:0:0:
174,185,183106,5,2,1:2:0:0:
46,268,183277,2,0,P|30:327|43:373,1,90,10|0,0:2|0:0,0:0:0:0:
127,321,183620,5,2,0:2:0:0:
72,189,183792,1,2,1:2:0:0:
195,204,183963,1,10,0:2:0:0:
231,67,184135,1,2,0:2:0:0:
163,124,184306,5,2,1:2:0:0:
265,146,184477,1,2,1:2:0:0:
61,100,184649,2,0,P|68:145|73:194,1,90,14|2,0:2|0:0,0:0:0:0:
185,286,184992,5,2,1:2:0:0:
173,191,185163,1,2,1:2:0:0:
197,377,185335,2,0,P|241:370|297:367,1,90,14|2,0:2|0:0,0:0:0:0:
341,223,185677,5,2,1:2:0:0:
421,323,185849,1,2,1:2:0:0:
446,138,186020,1,14,0:2:0:0:
421,323,186192,1,2,1:2:0:0:
313,254,186363,5,8,0:2:0:0:
313,254,186449,1,8,0:2:0:0:
313,254,186535,1,0,1:2:0:0:
313,254,186620,1,0,1:2:0:0:
313,254,186706,2,0,P|272:260|197:262,1,90,8|0,0:2|0:0,0:0:0:0:
13,334,187049,1,0,1:2:0:0:
13,334,187392,6,0,L|31:221,1,107.999996704102,14|2,0:2|0:2,0:0:0:0:
146,36,187735,2,0,B|180:106|96:94|133:183,1,135,2|2,0:2|0:0,0:0:0:0:
125,161,188077,1,10,0:2:0:0:
55,61,188249,1,2,1:2:0:0:
219,151,188420,5,0,0:0:0:0:
122,254,188592,1,2,1:2:0:0:
122,254,188677,1,0,3:0:0:0:
122,254,188763,2,0,P|172:248|215:244,1,90,10|0,0:2|0:0,0:0:0:0:
333,335,189106,5,2,0:2:0:0:
303,177,189277,2,0,L|313:134,2,45,0|2|8,1:0|0:2|0:0,0:0:0:0:
407,242,189620,1,2,0:2:0:0:
236,324,189792,6,0,P|206:270|184:149,2,180,6|10|2,1:2|0:0|0:2,0:0:0:0:
291,133,190649,1,0,1:0:0:0:
394,236,190820,2,0,P|342:231|300:231,1,90,10|2,0:2|0:2,0:0:0:0:
220,65,191163,5,2,1:2:0:0:
291,133,191335,1,0,1:2:0:0:
441,24,191506,2,0,L|417:156,1,135,14|0,0:2|0:0,0:0:0:0:
436,173,191849,5,2,1:2:0:0:
336,215,192020,1,0,1:2:0:0:
512,292,192192,2,0,L|375:308,1,135,14|0,0:2|0:0,0:0:0:0:
297,363,192535,6,0,L|291:315,2,45,6|0|0,1:2|3:0|3:0,0:0:0:0:
205,245,192877,2,0,L|219:143,1,90,10|0,0:2|0:0,0:0:0:0:
394,75,193220,1,2,0:2:0:0:
394,75,193392,2,0,P|354:73|305:67,1,90,0|10,1:0|0:2,0:0:0:0:
136,15,193735,5,2,1:2:0:0:
136,15,194077,1,2,1:2:0:0:
304,66,194249,2,0,L|314:169,1,90,10|0,0:2|0:0,0:0:0:0:
205,245,194592,5,2,0:2:0:0:
342,270,194763,1,2,1:2:0:0:
461,292,194935,1,10,0:2:0:0:
461,292,195277,6,0,P|465:269|472:232,3,45,0|0|0|0,3:2|3:2|3:2|3:2,0:0:0:0:
400,185,195620,2,0,P|405:159|411:132,3,45,0|0|0|0,3:2|3:2|3:2|3:2,0:0:0:0:
497,47,195963,5,0,3:2:0:0:
468,53,196048,1,0,3:2:0:0:
439,58,196134,1,0,3:2:0:0:
410,61,196220,1,0,3:2:0:0:
381,63,196305,1,0,3:2:0:0:
352,63,196391,1,0,3:2:0:0:
322,62,196477,1,0,3:2:0:0:
293,60,196563,1,0,3:2:0:0:
264,53,196649,6,0,L|206:41,1,45,8|0,3:2|3:2,0:0:0:0:
155,113,196820,1,0,3:2:0:0:
155,113,196906,1,0,3:2:0:0:
155,113,196992,2,0,L|104:126,1,45,0|0,3:2|3:2,0:0:0:0:
26,133,197163,6,0,L|73:146,1,45,8|0,3:2|3:2,0:0:0:0:
154,214,197335,1,0,3:2:0:0:
154,214,197420,1,0,3:2:0:0:
154,214,197506,2,0,L|209:199,1,45,0|0,3:2|3:2,0:0:0:0:
316,170,197677,6,0,L|324:123,3,45,8|0|0|0,3:2|3:2|3:2|3:2,0:0:0:0:
307,267,198020,1,2,3:3:0:0:
307,267,198363,6,0,L|297:151,1,107.999996704102,14|0,0:1|0:0,0:0:0:0:
132,0,198706,2,0,P|172:57|155:121,1,135,2|0,0:1|0:0,0:0:0:0:
158,116,199049,1,10,0:1:0:0:
257,53,199220,1,2,0:1:0:0:
90,74,199392,6,0,L|0:86,1,90,2|0,1:1|1:1,0:0:0:0:
197,196,199735,1,10,0:1:0:0:
45,220,199906,1,2,1:1:0:0:
112,159,200077,1,2,0:1:0:0:
150,341,200249,1,0,1:1:0:0:
274,273,200420,2,0,P|316:255|362:257,1,90,8|0,0:1|3:0,0:0:0:0:
437,294,200677,1,0,3:0:0:0:
451,306,200763,6,0,P|487:197|468:127,2,180,0|10|2,1:1|0:1|0:1,0:0:0:0:
381,161,201620,1,0,1:0:0:0:
273,273,201792,1,10,0:1:0:0:
381,161,201963,1,2,0:1:0:0:
370,255,202135,5,2,1:1:0:0:
327,89,202306,1,0,1:1:0:0:
491,147,202477,1,10,0:1:0:0:
370,255,202649,2,0,L|321:246,1,45,2|0,3:1|3:0,0:0:0:0:
255,196,202820,6,0,L|161:212,1,90,2|0,0:1|1:0,0:0:0:0:
0,77,203163,2,0,P|54:36|139:45,1,135,10|0,0:1|0:0,0:0:0:0:
209,17,203506,6,0,P|205:66|203:108,1,90,4|0,1:1|1:0,0:0:0:0:
352,198,203849,2,0,P|356:149|358:107,1,90,10|0,0:1|0:0,0:0:0:0:
248,275,204192,2,0,P|180:274|119:301,1,135,2|0,0:1|0:0,0:0:0:0:
119,301,204535,1,10,0:1:0:0:
17,345,204706,6,0,L|10:301,2,45,2|0|2,1:1|3:0|0:1,0:0:0:0:
143,200,205049,1,0,1:1:0:0:
0,148,205220,1,10,0:1:0:0:
62,230,205392,5,2,0:1:0:0:
62,230,205735,1,0,1:1:0:0:
194,105,205906,1,8,0:1:0:0:
194,105,206077,2,0,L|145:98,1,45,0|0,3:0|3:0,0:0:0:0:
71,62,206249,5,0,1:1:0:0:
296,92,206592,1,10,0:1:0:0:
261,173,207106,5,0,1:1:0:0:
149,13,207277,1,10,0:1:0:0:
236,37,207620,5,2,1:1:0:0:
236,37,207792,1,0,1:1:0:0:
190,222,207963,1,10,0:1:0:0:
349,187,208135,6,0,L|448:174,1,90,2|0,1:1|0:0,0:0:0:0:
472,189,208392,1,8,0:1:0:0:
495,219,208477,1,0,1:0:0:0:
500,256,208563,1,0,1:0:0:0:
481,291,208649,2,0,L|476:335,2,45,10|8|8,0:1|0:1|0:1,0:0:0:0:
508,95,208992,1,2,1:3:0:0:
508,95,209335,6,0,L|394:82,1,107.999996704102,14|0,0:1|0:0,0:0:0:0:
245,177,209677,2,0,P|171:225|75:208,1,180,2|10,0:1|0:1,0:0:0:0:
148,125,210192,1,2,0:1:0:0:
320,261,210363,5,2,1:1:0:0:
338,171,210535,1,0,0:0:0:0:
229,293,210706,1,10,0:1:0:0:
162,147,210877,1,2,0:1:0:0:
237,310,211049,2,0,L|337:297,1,90,2|0,0:1|1:1,0:0:0:0:
83,213,211392,2,0,P|76:149|46:69,1,135,8|0,0:1|0:0,0:0:0:0:
33,64,211735,6,0,B|65:71|97:50|97:50|124:51|145:34|145:34|169:61|210:52,2,180,0|10|2,1:1|0:1|0:1,0:0:0:0:
182,139,212592,1,0,1:0:0:0:
38,234,212763,2,0,P|84:210|148:213,1,90,10|2,0:1|0:1,0:0:0:0:
240,292,213106,5,2,1:1:0:0:
240,292,213277,1,0,1:1:0:0:
362,249,213449,1,10,0:1:0:0:
271,181,213620,1,2,0:1:0:0:
162,344,213792,6,0,L|69:328,1,90,2|0,1:1|1:0,0:0:0:0:
271,181,214135,2,0,L|288:91,1,90,10|0,0:1|3:0,0:0:0:0:
287,92,214392,1,0,3:0:0:0:
287,92,214477,1,4,1:2:0:0:
384,12,215335,5,2,1:2:0:0:
432,226,215849,1,2,1:2:0:0:
128,12,216706,5,2,1:2:0:0:
80,226,217049,1,2,1:2:0:0:
104,119,217220,5,2,1:2:0:0:
380,173,217735,1,2,1:2:0:0:
197,374,218249,1,2,1:2:0:0:
380,173,218763,6,0,L|290:188,1,90,10|2,0:2|0:0,0:0:0:0:
260,194,219020,1,0,1:2:0:0:
229,190,219106,1,0,1:2:0:0:
202,173,219192,1,0,1:2:0:0:
179,151,219277,1,10,0:2:0:0:
276,81,219449,1,0,1:2:0:0:
77,130,219620,6,2,L|106:352,1,215.999993408203,10|4,0:2|1:1,1:0:0:0:
256,192,220049,12,6,225449,0:2:0:0:
