osu file format v14

[General]
AudioFilename: audio.mp3
AudioLeadIn: 0
PreviewTime: 96535
Countdown: 0
SampleSet: Soft
StackLeniency: 0.5
Mode: 0
LetterboxInBreaks: 0
EpilepsyWarning: 1
WidescreenStoryboard: 0

[Editor]
Bookmarks: 535,11506,22477,33449,44420,55392,66363,77335,87963,99277,110592,121220,132192,143163,154135,164763,176077,187392,198363,208992,219963,225449
DistanceSpacing: 5
BeatDivisor: 4
GridSize: 32
TimelineZoom: 1.7

[Metadata]
Title:Danzai Yamaxanadu!
TitleUnicode:断罪ヤマザナドゥ!
Artist:IOSYS
ArtistUnicode:IOSYS
Creator:Annabel
Version:HEAVENLY MOON's Expert
Source:東方花映塚 ~ Phantasmagoria of Flower View.
Tags:Ayyri eiri- honne BlastTheKidd Zelq StarCastler Yuuya_ke Hectic h4d0uk3n1 h3ct1c Entry Coeminals ginjani HEAVENLY MOON Leader Zetera Sala- WalkingDivan4Ik aknazar WD Delette Maruoko _milr PaRaDogi fieryrage Baack Convictor 六十年目の東方裁判 ~ Fate of Sixty Years 夕野ヨシミ Eastern Judgement in the Sixtieth Year Rokujuunenme Rokujuu Nenme Rokujuu-nen Me no Shinsoku Saiban 岩杉 夏 ARM 四季映姫・ヤマザナドゥ Shikieiki Yamazanadu Eiki Shiki 東方アゲハ Ageha Grimoire of Touhou BEST ALBUM vol.2 Team Shanghai Alice ZUN 東方Project PoFV Kaeizuka Flower Reflecting Mound TH9 Japanese Video Game Pop J-Pop JPop
BeatmapID:3796120
BeatmapSetID:1525635

[Difficulty]
HPDrainRate:5
CircleSize:3.4
OverallDifficulty:8.5
ApproachRate:9
SliderMultiplier:1.8
SliderTickRate:1

[Events]
//Background and Video events
Video,-150,"Danzai Yamaxanadu.avi"
0,0,"Shikieiki 275.png",0,0
//Break Periods
//Storyboard Layer 0 (Background)
//Storyboard Layer 1 (Fail)
//Storyboard Layer 2 (Pass)
//Storyboard Layer 3 (Foreground)
//Storyboard Layer 4 (Overlay)
//Storyboard Sound Samples

[TimingPoints]
535,342.857142857143,4,2,1,56,1,0
11506,-133.333333333333,4,2,1,56,0,0
19735,-133.333333333333,4,2,1,60,0,0
20420,-133.333333333333,4,2,1,64,0,0
20763,-117.647058823529,4,2,1,64,0,0
21106,-117.647058823529,4,2,1,68,0,0
21620,-117.647058823529,4,2,2,68,0,0
22477,-83.3333333333333,4,2,2,72,0,0
44420,-83.3333333333333,4,2,2,68,0,0
44763,-100,4,2,2,68,0,0
45449,-100,4,2,2,68,0,0
55392,-83.3333333333333,4,2,2,68,0,0
55735,-100,4,2,2,68,0,0
66363,-83.3333333333333,4,2,2,68,0,0
67049,-100,4,2,2,68,0,0
71849,-83.3333333333333,4,2,2,68,0,0
73563,-90.9090909090909,4,2,2,68,0,0
77335,-83.3333333333333,4,2,2,68,0,0
78363,-90.9090909090909,4,2,2,68,0,0
82820,-83.3333333333333,4,2,2,68,0,0
83849,-90.9090909090909,4,2,2,68,0,0
87277,-83.3333333333333,4,2,2,68,0,0
88649,-66.6666666666667,4,2,2,68,0,0
93792,-83.3333333333333,4,2,2,68,0,0
93877,-83.3333333333333,4,2,2,56,0,0
96535,-74.0740740740741,4,2,2,40,0,0
96877,-74.0740740740741,4,2,2,44,0,0
97220,-74.0740740740741,4,2,2,48,0,0
97563,-74.0740740740741,4,2,2,52,0,0
97906,-74.0740740740741,4,2,2,60,0,0
98420,-74.0740740740741,4,2,2,66,0,0
98935,-74.0740740740741,4,2,2,72,0,0
99277,-57.1428571428571,4,2,2,80,0,1
118477,-57.1428571428571,4,2,1,56,0,1
118820,-57.1428571428571,4,2,1,64,0,1
119163,-57.1428571428571,4,2,1,72,0,1
119506,-57.1428571428571,4,2,1,76,0,1
119849,-57.1428571428571,4,2,2,80,0,0
121220,-100,4,2,1,64,0,0
131677,-100,4,2,2,64,0,0
132192,-100,4,2,2,66,0,0
143163,-83.3333333333333,4,2,2,68,0,0
143849,-100,4,2,2,68,0,0
148649,-83.3333333333333,4,2,2,68,0,0
148992,-100,4,2,2,68,0,0
154135,-100,4,2,2,72,0,0
154477,-66.6666666666667,4,2,2,72,0,0
155506,-66.6666666666667,4,2,2,73,0,0
156877,-66.6666666666667,4,2,2,74,0,0
158249,-66.6666666666667,4,2,2,75,0,0
159620,-66.6666666666667,4,2,2,76,0,0
160992,-66.6666666666667,4,2,2,77,0,0
162363,-66.6666666666667,4,2,2,78,0,0
163735,-66.6666666666667,4,2,2,79,0,0
165106,-66.6666666666667,4,2,2,80,0,0
170592,-83.3333333333333,4,2,2,80,0,0
170677,-83.3333333333333,4,2,2,68,0,0
173335,-74.0740740740741,4,2,2,40,0,0
173677,-74.0740740740741,4,2,2,44,0,0
174020,-74.0740740740741,4,2,2,48,0,0
174363,-74.0740740740741,4,2,2,52,0,0
174706,-74.0740740740741,4,2,2,60,0,0
175220,-74.0740740740741,4,2,2,66,0,0
175735,-74.0740740740741,4,2,2,72,0,0
176077,-57.1428571428571,4,2,2,80,0,1
195277,-57.1428571428571,4,2,3,40,0,1
195620,-57.1428571428571,4,2,3,44,0,1
195963,-57.1428571428571,4,2,3,48,0,1
196306,-57.1428571428571,4,2,3,52,0,1
196649,-57.1428571428571,4,2,3,60,0,1
197163,-57.1428571428571,4,2,3,66,0,1
197677,-57.1428571428571,4,2,3,72,0,1
198020,-57.1428571428571,4,2,1,72,0,1
198363,-83.3333333333333,4,2,2,82,0,0
214563,-83.3333333333333,4,2,2,70,0,0
219277,-83.3333333333333,4,2,2,72,0,0
219620,-83.3333333333333,4,2,2,74,0,0
219963,-83.3333333333333,4,2,2,76,0,0
220049,-83.3333333333333,4,2,2,50,0,0

[Colours]
Combo1 : 191,11,38
Combo2 : 152,222,208
Combo3 : 54,171,148
Combo4 : 252,177,189

[HitObjects]
377,17,11163,5,2,0:2:0:0:
377,17,11506,2,0,B|374:65|334:111|334:111|403:87|501:111,1,270.000010299683,2|10,3:2|0:2,0:0:0:0:
512,269,12706,1,2,0:2:0:0:
362,374,13049,1,2,3:2:0:0:
362,374,13220,2,0,P|355:313|351:301,1,67.5000025749208,2|2,3:2|0:2,0:0:0:0:
328,230,13563,2,0,P|377:208|392:194,2,67.5000025749208,10|0|2,0:2|3:0|0:2,0:0:0:0:
162,356,14249,6,0,B|-1:288|-1:288|52:250|47:201,1,270.000010299683,2|10,3:2|0:2,0:0:0:0:
15,38,15449,1,2,0:2:0:0:
203,69,15792,1,2,0:2:0:0:
203,69,15963,2,0,P|198:30|213:-4,1,67.5000025749208,2|0,3:2|0:0,0:0:0:0:
297,5,16306,2,0,P|302:44|293:77,2,67.5000025749208,10|0|2,0:2|3:2|0:2,0:0:0:0:
232,202,16992,6,0,P|227:346|331:343,1,270.000010299683,2|10,3:2|0:2,0:0:0:0:
471,357,18020,1,2,0:2:0:0:
471,357,18192,1,2,0:2:0:0:
411,275,18363,2,0,P|407:237|417:208,1,67.5000025749208,2|2,0:2|3:2,0:0:0:0:
475,145,18706,2,0,P|481:101|471:74,1,67.5000025749208,2|0,3:2|0:0,0:0:0:0:
374,32,19049,2,0,P|422:41|505:-8,1,135.000005149842,10|2,0:2|0:2,0:0:0:0:
250,12,19735,5,2,3:2:0:0:
304,71,19906,1,2,0:2:0:0:
247,127,20077,1,2,0:2:0:0:
194,66,20249,1,2,0:2:0:0:
322,83,20420,1,10,0:2:0:0:
257,330,20763,1,2,3:2:0:0:
224,201,20935,1,2,3:2:0:0:
444,138,21277,1,2,3:2:0:0:
416,313,21449,2,0,L|327:285,1,76.5000014591217,2|0,3:2|1:2,0:0:0:0:
179,353,21792,1,2,1:2:0:0:
71,257,21963,1,0,1:2:0:0:
313,294,22135,1,8,0:2:0:0:
46,36,22477,6,0,B|77:-15|230:44,1,161.999995056153,6|0,1:2|0:0,0:0:0:0:
236,62,22820,2,0,P|165:71|97:88,1,107.999996704102,10|0,0:1|0:0,0:0:0:0:
8,166,23163,1,2,0:1:0:0:
122,194,23335,1,0,1:1:0:0:
246,234,23506,2,0,L|135:211,1,107.999996704102,10|2,0:1|0:1,0:0:0:0:
227,377,23849,2,0,P|170:368|110:349,1,107.999996704102,2|0,1:1|0:0,0:0:0:0:
15,298,24192,1,10,0:1:0:0:
145,318,24363,1,2,1:1:0:0:
278,341,24535,2,0,L|391:360,1,107.999996704102,2|0,0:1|1:1,0:0:0:0:
139,300,24877,1,8,0:1:0:0:
502,292,25220,6,0,B|455:199|524:219|486:107,1,161.999995056153,0|0,1:1|0:0,0:0:0:0:
509,93,25563,2,0,P|440:70|422:38,1,107.999996704102,10|0,0:1|0:0,0:0:0:0:
286,11,25906,1,2,0:1:0:0:
325,103,26077,1,0,1:1:0:0:
268,216,26249,2,0,L|275:96,1,107.999996704102,10|2,0:1|0:1,0:0:0:0:
82,272,26592,2,0,P|117:209|104:144,1,107.999996704102,2|0,1:1|0:0,0:0:0:0:
93,51,26935,1,10,0:1:0:0:
143,145,27106,1,2,0:1:0:0:
104,299,27277,1,2,1:1:0:0:
0,210,27449,1,0,1:0:0:0:
202,303,27620,1,10,0:1:0:0:
238,22,27963,6,0,L|418:37,1,161.999995056153,4|0,1:1|0:0,0:0:0:0:
457,55,28306,2,0,P|362:61|335:67,1,107.999996704102,10|0,0:1|0:0,0:0:0:0:
262,199,28649,1,2,0:1:0:0:
374,213,28820,1,0,1:1:0:0:
507,171,28992,2,0,L|387:186,1,107.999996704102,10|2,0:1|1:1,0:0:0:0:
508,333,29335,2,0,L|396:316,1,107.999996704102,2|0,1:1|0:0,0:0:0:0:
272,333,29677,1,10,0:1:0:0:
390,307,29849,1,2,0:1:0:0:
507,341,30020,2,0,P|453:350|393:322,1,107.999996704102,2|0,0:1|1:1,0:0:0:0:
270,225,30363,1,8,0:1:0:0:
97,366,30706,5,0,1:1:0:0:
58,197,30877,1,0,1:0:0:0:
38,107,31049,2,0,L|153:124,1,107.999996704102,10|0,0:1|0:0,0:0:0:0:
291,65,31392,1,2,0:1:0:0:
157,83,31563,1,0,1:1:0:0:
0,108,31735,2,0,L|103:156,1,107.999996704102,10|0,0:1|0:0,0:0:0:0:
251,219,32077,1,2,1:1:0:0:
319,73,32249,1,0,1:1:0:0:
371,146,32420,1,10,0:1:0:0:
191,60,32592,1,2,1:1:0:0:
452,22,32935,1,0,1:0:0:0:
490,148,33106,1,10,0:1:0:0:
490,148,33192,1,0,3:0:0:0:
490,148,33277,1,0,3:0:0:0:
490,148,33363,1,0,3:0:0:0:
490,148,33449,6,0,B|498:217|458:236|485:318,1,161.999995056153,4|0,1:2|0:0,0:0:0:0:
509,357,33792,2,0,B|498:338|477:332|402:345,1,107.999996704102,10|0,0:1|0:0,0:0:0:0:
251,375,34135,1,2,0:1:0:0:
280,260,34306,1,0,1:1:0:0:
309,153,34477,2,0,P|315:228|306:281,1,107.999996704102,10|2,0:1|0:1,0:0:0:0:
184,70,34820,2,0,L|178:193,1,107.999996704102,2|0,1:1|0:0,0:0:0:0:
170,319,35163,1,10,0:1:0:0:
141,221,35335,1,2,1:1:0:0:
191,107,35506,2,0,P|212:35|218:-2,1,107.999996704102,2|0,0:1|1:1,0:0:0:0:
6,59,35849,1,8,0:1:0:0:
37,313,36192,6,0,B|97:281|104:345|202:297,1,161.999995056153,0|0,1:1|0:0,0:0:0:0:
313,302,36535,2,0,P|262:283|202:289,1,107.999996704102,10|0,0:1|0:0,0:0:0:0:
77,286,36877,1,2,0:1:0:0:
158,235,37049,1,0,1:1:0:0:
318,260,37220,2,0,L|430:239,1,107.999996704102,10|2,0:1|0:1,0:0:0:0:
293,114,37563,2,0,P|342:141|422:132,1,107.999996704102,2|0,1:1|0:0,0:0:0:0:
505,125,37906,1,10,0:1:0:0:
360,151,38077,1,2,0:1:0:0:
242,72,38249,2,0,P|179:55|119:63,1,107.999996704102,2|0,1:1|1:0,0:0:0:0:
0,125,38592,1,10,0:1:0:0:
257,202,38935,6,0,B|344:321|287:387,1,161.999995056153,4|0,1:1|0:0,0:0:0:0:
246,361,39277,2,0,P|287:303|343:291,1,107.999996704102,10|0,0:1|0:0,0:0:0:0:
455,361,39620,1,2,0:1:0:0:
442,238,39792,1,0,1:1:0:0:
468,138,39963,2,0,L|481:260,1,107.999996704102,10|2,0:1|1:1,0:0:0:0:
358,21,40306,1,2,1:1:0:0:
324,190,40477,1,0,1:1:0:0:
301,270,40649,1,10,0:1:0:0:
349,164,40820,1,2,0:1:0:0:
317,63,40992,2,0,P|370:64|422:80,1,107.999996704102,2|0,0:1|1:1,0:0:0:0:
186,153,41335,1,8,0:1:0:0:
411,365,41677,6,0,P|422:270|457:119,1,215.999993408203,0|0,1:2|0:0,0:0:0:0:
286,370,42192,2,0,P|278:201|257:144,1,215.999993408203,0|0,1:2|0:0,0:0:0:0:
122,374,42706,2,0,P|117:266|140:156,1,215.999993408203,2|0,1:1|0:0,0:0:0:0:
448,36,43220,2,0,P|352:38|294:10,1,161.999995056153,8|0,0:2|0:0,0:0:0:0:
75,55,43563,1,2,1:1:0:0:
75,55,43649,1,2,1:1:0:0:
75,55,43735,2,0,L|58:176,1,107.999996704102,14|2,1:1|1:2,0:0:0:0:
456,54,44077,2,0,L|458:180,1,107.999996704102,14|0,0:1|0:0,0:0:0:0:
459,374,44420,5,6,1:2:0:0:
301,180,44763,2,0,P|304:76|307:64,1,90,10|0,0:3|0:0,0:0:0:0:
375,308,45106,2,0,P|380:264|377:216,1,90,2|2,0:3|1:2,0:0:0:0:
254,301,45449,1,10,0:2:0:0:
254,301,45620,1,0,0:0:0:0:
135,356,45792,2,0,B|103:306|152:263|132:157,1,180,2|10,1:2|0:2,0:0:0:0:
22,85,46306,2,0,P|81:133|164:67,1,180,2|2,0:2|1:2,0:0:0:0:
255,0,46820,1,10,0:2:0:0:
352,93,46992,1,0,3:0:0:0:
352,93,47077,1,0,3:0:0:0:
352,93,47163,6,0,L|454:69,1,90,2|2,1:2|0:2,0:0:0:0:
512,218,47506,2,0,L|417:190,1,90,10|2,0:2|0:2,0:0:0:0:
276,224,47849,1,2,0:2:0:0:
383,305,48020,1,0,1:0:0:0:
386,163,48192,2,0,L|280:176,1,90,10|2,0:2|0:2,0:0:0:0:
169,187,48535,2,0,P|129:125|165:40,1,135,2|0,1:2|0:0,0:0:0:0:
148,2,48877,2,0,P|163:51|141:111,1,90,10|0,0:2|0:0,0:0:0:0:
11,189,49220,1,2,0:2:0:0:
121,173,49392,1,0,1:2:0:0:
199,267,49563,2,0,L|92:275,1,90,8|0,0:2|0:0,0:0:0:0:
17,340,49906,5,2,1:2:0:0:
17,340,50077,1,2,0:2:0:0:
119,359,50249,1,10,0:2:0:0:
234,379,50420,1,0,0:0:0:0:
262,240,50592,2,0,B|325:183|357:280|446:239,1,180,2|10,0:2|0:2,0:0:0:0:
512,209,51106,1,2,0:2:0:0:
389,136,51277,2,0,P|417:73|451:54,1,90,2|2,1:2|1:2,0:0:0:0:
512,42,51620,2,0,P|461:38|425:6,1,90,10|2,0:2|0:2,0:0:0:0:
276,12,51963,2,0,P|280:164|269:199,1,180,2|10,0:2|0:2,0:0:0:0:
176,295,52477,1,2,1:2:0:0:
136,205,52649,5,2,1:2:0:0:
98,55,52820,2,0,P|19:131|25:211,1,180,2|2,0:2|0:2,0:0:0:0:
100,349,53335,2,0,L|104:254,1,90,2|2,0:2|1:2,0:0:0:0:
232,191,53677,1,10,0:2:0:0:
265,279,53849,1,0,0:0:0:0:
245,372,54020,1,2,1:2:0:0:
214,240,54192,1,2,1:2:0:0:
298,123,54363,2,0,P|365:152|391:179,1,90,10|0,0:2|0:0,0:0:0:0:
506,273,54706,2,0,P|460:299|437:342,1,90,2|0,0:2|1:2,0:0:0:0:
346,360,54963,1,0,1:0:0:0:
346,360,55049,1,14,0:2:0:0:
462,164,55220,1,0,3:0:0:0:
462,164,55306,1,0,3:0:0:0:
462,164,55392,6,0,B|478:43|369:43,1,161.999995056153,6|0,1:2|0:0,0:0:0:0:
341,38,55735,2,0,P|400:21|450:5,1,90,10|0,0:3|0:0,0:0:0:0:
251,115,56077,2,0,P|207:113|131:97,1,90,2|2,0:3|1:2,0:0:0:0:
34,32,56420,1,10,0:2:0:0:
72,104,56592,1,2,0:2:0:0:
12,181,56763,2,0,P|74:185|93:191,1,60,2|2,1:2|0:2,0:0:0:0:
218,253,56992,1,2,0:2:0:0:
206,267,57106,2,0,P|138:255|110:249,1,90,10|2,0:2|0:2,0:0:0:0:
14,358,57449,1,2,0:2:0:0:
135,324,57620,1,2,1:2:0:0:
236,384,57792,2,0,L|335:371,1,90,10|2,0:2|0:0,0:0:0:0:
492,301,58135,6,0,P|433:295|398:272,1,90,2|2,1:2|0:2,0:0:0:0:
235,207,58477,2,0,P|318:188|328:181,1,90,10|2,0:2|0:2,0:0:0:0:
497,110,58820,1,2,0:2:0:0:
389,51,58992,1,0,1:2:0:0:
387,202,59163,2,0,P|444:221|491:211,1,90,10|2,0:2|0:2,0:0:0:0:
269,120,59506,1,2,1:2:0:0:
351,1,59677,1,2,1:2:0:0:
162,9,59849,2,0,L|171:110,1,90,10|2,0:2|1:2,0:0:0:0:
141,231,60192,1,2,0:2:0:0:
223,193,60363,1,0,1:2:0:0:
44,133,60535,1,8,0:2:0:0:
186,374,60877,6,0,P|234:362|276:364,1,90,2|2,1:2|0:2,0:0:0:0:
404,382,61220,2,0,P|390:334|408:294,1,90,10|2,0:2|0:2,0:0:0:0:
486,220,61563,1,2,0:2:0:0:
324,185,61735,1,0,1:2:0:0:
276,259,61906,2,0,L|163:269,1,90,10|2,0:2|1:2,0:0:0:0:
47,316,62249,1,2,0:2:0:0:
81,237,62420,1,0,1:2:0:0:
29,60,62592,2,0,L|4:171,1,90,10|0,0:2|0:0,0:0:0:0:
159,209,62935,2,0,P|198:65|172:40,1,180,2|10,0:2|0:2,0:0:0:0:
313,0,63449,1,2,0:2:0:0:
355,127,63620,6,0,P|346:194|353:234,1,90,2|2,1:2|0:2,0:0:0:0:
485,132,63963,2,0,P|497:66|496:41,1,90,10|2,0:2|0:2,0:0:0:0:
349,261,64306,1,2,0:2:0:0:
506,222,64477,1,2,1:2:0:0:
320,217,64649,2,0,L|307:326,1,90,10|0,3:2|3:2,0:0:0:0:
176,376,64992,1,2,1:2:0:0:
94,289,65163,1,2,1:2:0:0:
244,219,65335,1,2,1:2:0:0:
331,130,65506,2,0,P|278:130|252:116,1,45,2|0,1:2|3:0,0:0:0:0:
110,75,65677,1,2,1:2:0:0:
130,45,65762,1,0,3:0:0:0:
159,23,65848,1,0,1:2:0:0:
263,0,66019,1,8,0:2:0:0:
207,188,66192,1,0,3:0:0:0:
173,368,66363,6,0,B|249:317|265:395|370:361,1,161.999995056153,4|0,1:2|0:0,0:0:0:0:
385,362,66706,2,0,P|315:327|304:327,1,53.9999983520508,10|0,0:3|0:0,0:0:0:0:
268,218,66877,2,0,P|344:193|348:194,1,53.9999983520508,2|0,0:3|0:0,0:0:0:0:
460,170,67049,1,2,0:3:0:0:
413,352,67220,1,2,1:2:0:0:
382,135,67392,1,10,0:2:0:0:
382,135,67477,1,2,0:0:0:0:
382,135,67563,2,0,L|392:70,1,45,2|2,0:0|0:0,0:0:0:0:
251,0,67735,2,0,L|256:100,1,90,2|2,1:2|0:0,0:0:0:0:
319,218,68077,1,10,0:2:0:0:
229,283,68249,1,2,0:0:0:0:
117,168,68420,1,2,0:2:0:0:
141,130,68506,1,2,0:2:0:0:
181,108,68592,1,2,1:2:0:0:
232,109,68677,1,2,0:2:0:0:
271,137,68763,2,0,P|249:188|186:213,1,90,10|0,0:2|0:0,0:0:0:0:
14,183,69106,6,0,L|0:62,1,90,2|2,1:2|0:2,0:0:0:0:
94,352,69449,2,0,L|121:244,1,90,10|2,0:2|0:2,0:0:0:0:
252,143,69792,1,2,0:2:0:0:
303,222,69963,1,0,1:0:0:0:
249,360,70135,2,0,P|225:288|230:236,1,90,10|2,0:2|0:2,0:0:0:0:
345,114,70477,1,2,1:2:0:0:
282,0,70649,1,2,1:2:0:0:
165,93,70820,1,10,0:2:0:0:
238,177,70992,1,2,0:2:0:0:
288,19,71163,2,0,P|347:37|412:39,1,90,2|0,0:2|1:2,0:0:0:0:
501,6,71420,1,0,1:0:0:0:
501,6,71506,2,0,P|483:63|482:83,1,45,12|0,0:2|0:0,0:0:0:0:
411,229,71677,2,0,P|425:175|426:156,1,45,0|0,1:0|0:0,0:0:0:0:
336,59,71849,6,0,P|232:58|95:81,2,215.999993408203,4|10|2,1:2|0:3|0:3,0:0:0:0:
290,261,72706,1,2,1:2:0:0:
290,261,72792,1,2,0:2:0:0:
279,203,72877,1,10,0:2:0:0:
465,289,73135,1,2,0:2:0:0:
446,347,73220,1,2,1:2:0:0:
446,347,73306,1,2,0:2:0:0:
446,347,73392,1,2,0:2:0:0:
446,347,73477,1,2,0:2:0:0:
446,347,73563,2,0,L|377:319,1,49.5000015106202,10|2,0:2|0:2,0:0:0:0:
290,261,73735,2,0,L|240:275,1,49.5000015106202,2|2,0:2|0:2,0:0:0:0:
140,371,73906,1,2,0:2:0:0:
99,196,74077,1,2,1:2:0:0:
99,196,74163,1,2,0:2:0:0:
99,196,74249,2,0,P|84:93|119:14,1,148.50000453186,10|0,0:2|0:0,0:0:0:0:
183,34,74592,6,0,P|121:21|82:-16,1,99.0000030212403,2|2,1:2|0:2,0:0:0:0:
300,112,74935,2,0,P|363:97|424:61,1,99.0000030212403,10|2,0:2|1:2,0:0:0:0:
162,271,75277,1,2,0:2:0:0:
121,153,75449,1,2,1:2:0:0:
283,332,75620,1,10,0:2:0:0:
309,256,75792,1,2,0:2:0:0:
456,373,75963,2,0,L|469:251,1,99.0000030212403,2|2,1:2|0:2,0:0:0:0:
512,134,76306,1,10,0:2:0:0:
502,53,76477,1,2,0:2:0:0:
340,10,76649,1,2,1:2:0:0:
278,145,76820,1,0,1:2:0:0:
509,183,76992,1,14,0:2:0:0:
443,144,77077,1,0,0:0:0:0:
394,169,77163,1,2,3:2:0:0:
398,212,77249,1,2,3:2:0:0:
418,230,77335,6,0,P|427:177|316:117,1,161.999995056153,6|0,1:2|0:0,0:0:0:0:
316,106,77677,2,0,L|287:249,1,107.999996704102,10|0,0:3|1:0,0:0:0:0:
154,0,78020,2,0,L|171:131,1,107.999996704102,2|2,0:3|1:2,0:0:0:0:
180,238,78277,1,2,0:2:0:0:
180,238,78363,2,0,L|98:213,1,49.5000015106202,10|2,0:2|0:2,0:0:0:0:
166,379,78535,2,0,L|235:364,1,49.5000015106202,2|2,0:2|0:2,0:0:0:0:
373,361,78706,1,2,1:2:0:0:
400,315,78791,1,2,0:2:0:0:
391,263,78877,1,2,1:2:0:0:
351,229,78963,1,2,0:2:0:0:
305,218,79049,1,10,0:2:0:0:
289,201,79134,1,2,0:2:0:0:
284,179,79220,1,2,0:2:0:0:
290,158,79306,1,2,0:2:0:0:
305,144,79392,1,2,1:2:0:0:
473,146,79563,1,2,1:2:0:0:
473,146,79649,1,2,1:2:0:0:
500,182,79735,2,0,B|523:202|521:229|499:350,1,148.50000453186,10|0,0:2|0:0,0:0:0:0:
502,366,80077,6,0,P|434:343|386:334,1,99.0000030212403,2|2,1:2|0:2,0:0:0:0:
157,316,80420,2,0,P|251:301|283:292,1,99.0000030212403,10|2,0:2|0:2,0:0:0:0:
376,195,80763,1,2,0:2:0:0:
376,195,80849,1,2,0:0:0:0:
376,195,80935,2,0,L|383:127,1,49.5000015106202,2|0,1:2|0:0,0:0:0:0:
476,23,81106,2,0,P|426:34|341:-2,1,99.0000030212403,10|2,0:2|0:2,0:0:0:0:
218,11,81449,1,2,1:2:0:0:
150,172,81620,1,2,1:2:0:0:
108,262,81792,2,0,L|222:244,1,99.0000030212403,10|2,0:2|0:2,0:0:0:0:
370,219,82135,1,2,0:2:0:0:
166,369,82306,1,0,1:0:0:0:
166,369,82392,1,0,1:0:0:0:
166,369,82477,1,14,0:2:0:0:
0,244,82649,1,2,1:2:0:0:
118,134,82820,6,0,B|158:181|111:225|167:308,1,161.999995056153,6|0,1:2|0:0,0:0:0:0:
144,312,83163,2,0,P|200:311|226:302,1,53.9999983520508,10|0,0:3|0:0,0:0:0:0:
389,248,83335,2,0,P|332:231|318:164,1,107.999996704102,2|2,0:3|0:3,0:0:0:0:
369,30,83677,1,2,1:2:0:0:
369,30,83763,1,2,0:2:0:0:
369,30,83849,1,10,0:2:0:0:
511,44,84020,1,0,1:2:0:0:
488,143,84192,2,0,L|459:273,1,99.0000030212403,2|0,0:2|1:2,0:0:0:0:
458,376,84535,1,10,0:2:0:0:
458,376,84620,1,2,0:2:0:0:
458,376,84706,2,0,P|405:345|380:336,1,49.5000015106202,2|2,0:2|0:2,0:0:0:0:
273,261,84877,2,0,P|293:318|273:376,1,99.0000030212403,0|2,0:0|1:2,0:0:0:0:
198,211,85135,1,2,0:2:0:0:
198,211,85220,2,0,P|174:134|221:60,1,148.50000453186,10|0,0:2|0:0,0:0:0:0:
240,40,85563,6,0,P|167:12|157:-3,1,66.0000020141602,2|2,1:2|0:0,0:0:0:0:
20,103,85792,1,2,0:0:0:0:
20,103,85906,2,0,P|84:140|111:182,1,99.0000030212403,10|2,3:2|1:2,0:0:0:0:
118,328,86163,1,0,1:0:0:0:
118,328,86249,2,0,L|43:307,1,49.5000015106202,0|0,1:2|0:0,0:0:0:0:
224,208,86420,1,2,1:2:0:0:
268,201,86506,1,2,3:2:0:0:
312,219,86592,2,0,P|356:257|364:267,1,49.5000015106202,10|0,3:2|3:0,0:0:0:0:
447,369,86763,1,2,1:2:0:0:
418,312,86849,1,2,3:2:0:0:
448,254,86935,2,0,P|510:231|506:191,1,99.0000030212403,0|2,3:2|1:2,0:0:0:0:
448,84,87277,1,10,0:2:0:0:
315,114,87448,1,0,3:0:0:0:
249,125,87534,1,0,3:0:0:0:
183,135,87620,2,0,L|156:23,1,107.999996704102,8|0,0:2|1:2,0:0:0:0:
46,278,87877,1,0,1:2:0:0:
46,278,87963,2,0,L|72:387,1,107.999996704102,14|0,0:1|1:0,0:0:0:0:
139,19,88306,5,6,1:1:0:0:
422,374,88649,2,0,L|453:195,1,135.000005149842,10|0,0:3|0:0,0:0:0:0:
98,382,88992,2,0,L|78:239,1,135.000005149842,2|0,0:3|1:0,0:0:0:0:
252,11,89335,1,10,0:1:0:0:
270,384,89677,1,2,1:1:0:0:
115,7,90020,2,0,L|98:161,1,135.000005149842,10|0,0:3|0:0,0:0:0:0:
438,3,90363,2,0,L|440:137,1,135.000005149842,2|0,0:3|1:0,0:0:0:0:
466,360,90706,1,10,0:1:0:0:
66,361,91049,1,2,1:1:0:0:
507,236,91392,2,0,L|372:226,1,135.000005149842,10|0,0:3|0:0,0:0:0:0:
21,258,91735,2,0,L|155:250,1,135.000005149842,2|0,0:3|1:0,0:0:0:0:
509,117,92077,1,10,0:1:0:0:
31,84,92420,1,2,1:1:0:0:
256,0,92763,2,0,L|259:152,1,135.000005149842,10|0,0:3|0:0,0:0:0:0:
256,384,93106,2,0,L|256:235,1,135.000005149842,2|0,0:3|1:0,0:0:0:0:
256,0,93449,1,10,0:1:0:0:
283,0,93792,6,0,B|383:122|123:192|347:384|451:305|412:186,1,431.999986816407,6|0,1:1|0:0,0:0:0:0:
104,33,94649,2,0,B|128:106|122:179|111:263|62:246|7:243,1,269.999991760254,0|0,1:0|0:0,0:0:0:0:
11,223,95163,2,0,B|236:174|200:331|400:337|443:234,1,431.999986816407,0|0,1:0|0:0,0:0:0:0:
492,101,96020,2,0,B|466:62|433:38|250:31|236:139,1,269.999991760254,0|0,1:0|0:0,0:0:0:0:
203,251,96535,6,0,B|122:362|122:362|256:325|256:325|370:363|370:363|407:259|407:259|401:226,1,486.000001853943,0|0,1:2|3:2,0:0:0:0:
378,12,97392,2,0,B|400:-10|400:-10|413:81|413:81|456:168|456:168|406:157,1,243.000000926971,0|0,1:2|3:2,0:0:0:0:
161,200,97906,1,8,3:2:0:0:
486,128,98077,2,0,B|469:188|469:188|462:257,1,121.500000463486,0|0,1:2|3:2,0:0:0:0:
158,156,98420,1,8,3:2:0:0:
408,370,98763,1,0,1:2:0:0:
408,370,98849,1,0,1:2:0:0:
408,370,98935,2,0,B|374:347|374:347|350:336,1,60.7500002317429,8|0,3:2|3:2,0:0:0:0:
89,291,99106,2,0,B|119:274|119:274|161:261,1,60.7500002317429,0|0,3:2|3:2,0:0:0:0:
376,130,99277,6,0,B|234:79|245:188|187:159|135:141,1,236.250002253056,6|0,1:2|0:0,0:0:0:0:
111,150,99620,1,10,0:2:0:0:
275,114,99792,1,2,0:0:0:0:
445,72,99963,1,2,0:2:0:0:
450,49,100049,1,2,0:0:0:0:
301,205,100220,1,2,0:0:0:0:
306,228,100306,2,0,L|389:206,1,78.7500007510185,10|0,0:2|0:0,0:0:0:0:
508,339,100477,2,0,L|408:315,1,78.7500007510185,2|0,0:2|0:0,0:0:0:0:
274,384,100649,2,0,L|242:211,1,157.500001502037,0|2,1:0|0:2,0:0:0:0:
211,4,100992,2,0,P|259:77|185:152,1,157.500001502037,10|0,0:2|0:0,0:0:0:0:
49,174,101335,1,2,0:2:0:0:
31,133,101420,1,2,0:0:0:0:
153,261,101592,1,2,0:2:0:0:
166,245,101677,2,0,P|239:288|245:296,1,78.7500007510185,8|0,0:2|0:0,0:0:0:0:
64,318,101849,2,0,P|-7:362|-11:370,1,78.7500007510185,2|0,0:2|0:0,0:0:0:0:
98,180,102020,6,0,B|131:-9|131:-9|163:70,1,236.250002253056,6|0,1:2|0:0,0:0:0:0:
119,212,102363,2,0,L|124:377,1,157.500001502037,10|0,0:2|0:0,0:0:0:0:
300,356,102706,1,2,0:2:0:0:
243,171,102877,1,0,1:2:0:0:
326,66,103049,1,14,0:2:0:0:
264,5,103220,2,0,B|211:98|279:206|289:271|242:339,1,315.000003004074,2|0,1:2|1:2,0:0:0:0:
385,273,103735,1,14,0:2:0:0:
141,162,103906,1,0,1:2:0:0:
419,17,104249,1,0,1:2:0:0:
317,377,104420,1,14,0:2:0:0:
216,241,104592,1,0,0:0:0:0:
59,285,104763,6,0,B|-14:262|-30:175|40:68,1,236.250002253056,6|0,1:2|0:0,0:0:0:0:
42,68,105106,1,10,0:2:0:0:
84,216,105277,1,2,0:2:0:0:
127,366,105449,1,2,0:2:0:0:
83,360,105535,1,2,0:0:0:0:
187,230,105706,1,2,0:0:0:0:
213,242,105792,2,0,L|297:223,1,78.7500007510185,10|0,0:2|0:0,0:0:0:0:
415,381,105963,2,0,L|332:361,1,78.7500007510185,2|0,0:2|0:0,0:0:0:0:
231,342,106135,1,0,1:2:0:0:
437,192,106306,1,2,0:2:0:0:
413,116,106392,1,2,0:0:0:0:
413,116,106477,2,0,B|511:131|514:178|514:178|477:214|468:295,1,236.250002253056,10|0,0:2|0:0,0:0:0:0:
300,155,106820,2,0,P|324:35|326:-7,1,157.500001502037,2|2,0:2|1:2,0:0:0:0:
198,377,107163,2,0,P|169:270|165:206,1,157.500001502037,10|2,0:2|0:2,0:0:0:0:
222,7,107506,5,2,1:2:0:0:
261,222,107677,1,2,1:2:0:0:
280,337,107849,2,0,B|166:360|124:384|124:384|109:335|30:279,1,236.250002253056,14|0,0:2|0:0,0:0:0:0:
22,202,108192,1,2,1:2:0:0:
244,153,108363,1,2,1:2:0:0:
356,130,108535,2,0,B|389:214|455:281|455:281|411:286|344:331,1,236.250002253056,14|0,0:2|0:0,0:0:0:0:
168,290,108877,1,2,1:2:0:0:
224,51,109049,1,2,1:2:0:0:
291,91,109220,1,14,0:2:0:0:
234,349,109392,1,0,1:2:0:0:
86,204,109563,1,10,0:2:0:0:
158,176,109648,1,8,0:2:0:0:
235,192,109734,1,0,1:2:0:0:
308,220,109820,1,0,1:2:0:0:
385,214,109905,1,10,0:2:0:0:
12,286,110249,1,0,1:2:0:0:
444,17,110592,6,0,B|500:180|500:180|459:239,1,236.250002253056,14|0,0:0|0:0,0:0:0:0:
436,252,110935,1,2,0:2:0:0:
449,220,111020,1,2,0:0:0:0:
330,44,111192,1,2,0:0:0:0:
327,77,111277,2,0,L|233:47,1,78.7500007510185,8|0,0:0|0:0,0:0:0:0:
155,214,111449,2,0,L|232:187,1,78.7500007510185,2|0,0:2|0:0,0:0:0:0:
244,25,111620,2,0,B|94:56|94:56|50:89,1,157.500001502037,0|2,1:2|0:2,0:0:0:0:
12,231,111963,2,0,B|29:260|29:260|246:170,1,236.250002253056,10|0,0:2|0:0,0:0:0:0:
229,161,112306,1,2,0:2:0:0:
240,188,112392,1,2,0:0:0:0:
301,374,112563,1,2,0:0:0:0:
309,335,112649,2,0,P|396:331|415:323,1,78.7500007510185,10|0,0:2|0:0,0:0:0:0:
512,248,112820,2,0,P|479:238|415:207,1,78.7500007510185,2|0,0:2|0:0,0:0:0:0:
255,104,112992,6,0,B|318:39|343:107|485:94,1,236.250002253056,6|0,1:2|0:0,0:0:0:0:
512,17,113335,2,0,B|432:-22|398:64|250:35,1,236.250002253056,10|0,0:2|0:0,0:0:0:0:
161,0,113677,2,0,P|176:102|195:195,1,157.500001502037,2|0,0:2|1:2,0:0:0:0:
217,354,114020,1,10,0:2:0:0:
169,170,114192,2,0,P|151:90|146:49,1,78.7500007510185,2|0,0:2|0:0,0:0:0:0:
287,269,114363,1,2,1:2:0:0:
47,223,114535,1,2,1:2:0:0:
15,310,114706,2,0,B|67:295|67:295|299:354,1,236.250002253056,12|0,0:2|0:0,0:0:0:0:
403,328,115049,1,2,1:2:0:0:
426,151,115220,1,2,1:2:0:0:
476,68,115392,2,0,B|280:53|280:53|246:23,1,236.250002253056,12|0,0:2|0:0,0:0:0:0:
165,8,115735,6,0,B|233:63|233:63|192:237,1,236.250002253056,6|0,1:2|0:0,0:0:0:0:
185,227,116077,1,10,0:2:0:0:
25,199,116249,1,0,0:0:0:0:
196,297,116420,1,2,0:2:0:0:
190,257,116506,1,2,0:0:0:0:
353,269,116677,1,2,0:0:0:0:
346,310,116763,2,0,P|385:316|434:322,1,78.7500007510185,10|0,0:2|0:0,0:0:0:0:
511,181,116935,2,0,P|474:178|419:183,1,78.7500007510185,2|0,0:2|0:0,0:0:0:0:
278,217,117106,1,0,1:2:0:0:
322,41,117277,1,2,1:2:0:0:
143,2,117449,2,0,L|168:165,1,157.500001502037,10|0,0:2|0:0,0:0:0:0:
46,262,117792,1,2,1:2:0:0:
260,227,117963,1,2,1:2:0:0:
333,279,118135,1,10,0:2:0:0:
500,216,118306,1,2,0:2:0:0:
225,214,118477,5,0,3:2:0:0:
233,166,118562,1,0,3:2:0:0:
241,119,118648,1,0,3:2:0:0:
249,71,118734,1,0,3:2:0:0:
257,25,118820,1,0,3:2:0:0:
263,71,118905,1,0,3:2:0:0:
269,118,118991,1,0,3:2:0:0:
275,165,119077,1,0,3:2:0:0:
277,212,119163,1,0,3:2:0:0:
225,200,119248,1,0,3:2:0:0:
174,188,119334,1,0,3:2:0:0:
123,177,119420,1,0,3:2:0:0:
70,168,119506,1,0,3:2:0:0:
143,164,119591,1,0,3:2:0:0:
216,161,119677,1,0,3:2:0:0:
289,157,119763,1,0,3:2:0:0:
380,153,119849,5,12,0:2:0:0:
256,192,119935,12,2,120877,0:0:0:0:
112,384,121220,6,0,P|95:293|38:87,1,270,6|0,3:2|3:2,0:0:0:0:
0,3,121906,1,10,0:3:0:0:
224,81,122249,1,2,0:2:0:0:
224,81,122420,1,2,0:2:0:0:
342,13,122763,1,0,3:0:0:0:
342,13,122935,1,2,3:2:0:0:
451,223,123277,1,10,0:2:0:0:
409,122,123449,1,2,3:2:0:0:
474,66,123620,1,2,0:2:0:0:
423,6,123792,1,0,3:0:0:0:
403,140,123963,1,2,3:2:0:0:
97,163,124477,1,2,3:2:0:0:
97,163,124649,1,10,0:2:0:0:
160,350,124992,1,2,3:2:0:0:
209,262,125163,1,2,0:2:0:0:
167,199,125335,1,2,0:2:0:0:
226,8,125677,1,2,3:2:0:0:
252,173,126020,1,10,0:2:0:0:
107,123,126192,1,0,3:2:0:0:
388,0,126706,5,2,3:2:0:0:
442,220,127220,1,2,3:2:0:0:
442,220,127392,1,10,0:2:0:0:
333,326,127735,1,2,0:2:0:0:
458,351,127906,1,2,0:2:0:0:
328,303,128077,1,2,0:2:0:0:
232,369,128249,1,0,3:2:0:0:
338,292,128420,1,2,3:2:0:0:
346,73,128763,1,10,0:2:0:0:
226,121,128935,1,0,3:2:0:0:
498,83,129277,1,2,3:2:0:0:
498,83,129449,1,2,3:2:0:0:
314,280,129963,1,2,3:2:0:0:
314,280,130135,1,10,0:2:0:0:
67,194,130477,1,2,3:2:0:0:
119,127,130649,1,2,0:2:0:0:
168,193,130820,1,2,0:2:0:0:
122,262,130992,1,2,0:2:0:0:
108,126,131163,1,0,3:0:0:0:
240,0,131506,1,10,0:2:0:0:
255,177,131677,1,8,1:2:0:0:
273,129,131763,1,8,0:2:0:0:
288,88,131849,1,2,0:2:0:0:
364,221,132020,1,10,0:2:0:0:
351,269,132106,1,8,0:2:0:0:
335,318,132192,6,0,P|433:321|452:325,1,90,6|0,1:2|0:0,0:0:0:0:
412,185,132535,2,0,P|464:193|507:200,1,90,2|2,1:3|0:3,0:0:0:0:
365,36,132877,2,0,P|414:42|454:50,1,90,2|2,1:3|0:2,0:0:0:0:
289,165,133135,1,2,0:2:0:0:
289,165,133220,2,0,P|218:152|177:143,1,90,2|2,1:2|0:2,0:0:0:0:
16,119,133563,1,2,1:2:0:0:
40,84,133648,1,0,3:0:0:0:
82,91,133734,1,2,0:2:0:0:
93,132,133820,1,0,3:0:0:0:
74,169,133906,2,0,P|60:217|55:265,1,90,2|2,1:2|0:2,0:0:0:0:
184,369,134249,1,2,1:2:0:0:
173,336,134335,1,0,3:0:0:0:
177,305,134420,1,2,0:2:0:0:
247,211,134592,1,2,1:2:0:0:
337,304,134763,1,0,3:0:0:0:
337,304,134849,1,0,3:0:0:0:
337,304,134935,6,0,L|365:216,1,90,2|2,1:2|0:2,0:0:0:0:
251,106,135277,2,0,L|250:2,1,90,2|2,1:2|0:2,0:0:0:0:
130,313,135620,2,0,L|115:215,1,90,2|2,1:2|0:2,0:0:0:0:
36,93,135963,1,2,1:2:0:0:
182,69,136135,1,2,0:2:0:0:
116,224,136306,2,0,P|191:203|216:209,1,90,2|0,1:2|0:0,0:0:0:0:
340,349,136649,2,0,P|288:347|238:315,1,90,2|0,1:2|0:0,0:0:0:0:
332,188,136992,1,2,1:2:0:0:
332,188,137077,1,0,3:0:0:0:
332,188,137163,1,0,3:0:0:0:
419,292,137335,1,0,1:2:0:0:
235,235,137506,1,2,0:3:0:0:
442,167,137677,6,0,L|480:68,1,90,2|2,1:2|0:2,0:0:0:0:
324,16,138020,2,0,L|336:124,1,90,2|0,1:2|0:0,0:0:0:0:
186,301,138363,2,0,L|200:188,1,90,2|0,1:2|0:0,0:0:0:0:
75,12,138706,1,2,1:2:0:0:
39,174,138877,1,2,0:2:0:0:
60,0,139049,2,0,L|60:116,1,90,2|0,1:2|0:0,0:0:0:0:
93,379,139392,2,0,L|100:274,1,90,2|0,1:2|0:0,0:0:0:0:
178,156,139735,1,2,1:2:0:0:
301,196,139906,1,0,0:0:0:0:
215,317,140077,1,2,1:2:0:0:
150,263,140249,1,2,0:2:0:0:
311,195,140420,5,2,1:2:0:0:
355,201,140505,1,0,3:0:0:0:
399,210,140591,1,2,0:2:0:0:
443,222,140677,1,0,3:0:0:0:
484,234,140763,1,2,1:2:0:0:
429,221,140848,1,0,3:0:0:0:
377,199,140934,1,2,0:2:0:0:
331,166,141020,1,0,3:0:0:0:
290,127,141106,2,0,P|271:78|262:19,1,90,2|2,1:2|0:2,0:0:0:0:
395,12,141449,1,2,1:2:0:0:
105,5,141620,1,10,0:2:0:0:
109,66,141706,1,8,0:2:0:0:
111,126,141792,2,0,L|113:232,1,90,14|0,0:2|1:2,0:0:0:0:
25,319,142135,1,10,0:2:0:0:
189,295,142306,1,0,1:2:0:0:
189,295,142392,1,0,1:2:0:0:
311,362,142563,1,0,1:2:0:0:
311,362,142649,1,0,1:2:0:0:
465,289,142820,1,10,0:2:0:0:
301,120,142992,1,10,0:2:0:0:
301,120,143077,1,8,0:2:0:0:
252,147,143163,6,0,P|220:73|334:26,1,215.999993408203,6|10,1:2|0:3,0:0:0:0:
398,102,143677,1,2,0:3:0:0:
170,23,143849,2,0,P|171:129|162:145,1,90,2|2,0:3|1:2,0:0:0:0:
97,160,144106,1,2,0:2:0:0:
97,160,144192,1,10,0:2:0:0:
2,60,144363,1,0,0:0:0:0:
171,38,144535,1,2,1:2:0:0:
222,48,144620,1,2,0:2:0:0:
269,57,144706,1,2,0:2:0:0:
392,8,144877,2,0,L|393:132,1,90,10|2,0:2|1:2,0:0:0:0:
392,236,145220,1,2,0:2:0:0:
392,236,145306,1,2,0:2:0:0:
482,350,145477,1,2,0:0:0:0:
482,350,145563,1,10,0:2:0:0:
301,288,145735,1,2,0:0:0:0:
204,374,145906,6,0,L|195:259,1,90,2|2,1:2|0:2,0:0:0:0:
76,112,146249,2,0,L|60:214,1,90,10|2,0:2|1:2,0:0:0:0:
215,163,146592,2,0,B|253:102|194:66|241:-2,1,135,2|0,0:2|0:0,0:0:0:0:
227,0,146935,2,0,P|269:81|271:102,1,90,10|2,0:2|0:2,0:0:0:0:
204,217,147277,1,2,1:2:0:0:
316,163,147449,1,2,0:2:0:0:
422,232,147620,1,10,0:2:0:0:
485,187,147792,1,2,0:2:0:0:
290,169,147963,2,0,L|307:276,1,90,2|0,0:2|1:2,0:0:0:0:
380,373,148306,2,0,P|340:345|322:342,1,45,14|0,0:2|0:0,0:0:0:0:
144,370,148477,2,0,P|188:345|200:344,1,45,2|0,0:2|0:0,0:0:0:0:
275,216,148649,6,0,P|183:208|163:135,1,161.999995056153,6|0,1:2|0:0,0:0:0:0:
140,111,148992,2,0,P|138:170|132:197,1,45,10|0,0:3|0:0,0:0:0:0:
53,265,149163,2,0,P|43:214|44:189,1,45,2|0,0:3|0:0,0:0:0:0:
0,91,149335,2,0,B|44:80|108:60|113:57,1,90,2|2,0:3|1:2,0:0:0:0:
221,14,149592,1,2,0:0:0:0:
208,11,149677,2,0,P|196:70|192:96,2,60,8|2|2,0:0|0:0|0:0,0:0:0:0:
304,93,150020,2,0,P|322:55|347:7,1,90,2|2,1:2|0:0,0:0:0:0:
426,88,150277,1,2,0:0:0:0:
435,95,150363,2,0,P|453:158|456:187,1,90,10|2,0:0|0:0,0:0:0:0:
448,207,150620,1,2,0:0:0:0:
448,207,150706,1,2,0:0:0:0:
492,375,150877,1,2,1:2:0:0:
315,295,151049,2,0,L|234:278,1,45,10|0,0:2|0:0,0:0:0:0:
158,373,151220,2,0,L|222:358,1,45,2|0,1:2|0:0,0:0:0:0:
394,262,151392,5,2,0:0:0:0:
281,135,151563,1,2,1:2:0:0:
373,12,151735,2,0,P|372:112|368:132,1,90,10|2,0:2|1:2,0:0:0:0:
214,3,152077,1,0,0:0:0:0:
214,3,152249,2,0,P|203:61|202:70,1,45,2|0,1:2|0:0,0:0:0:0:
212,182,152420,2,0,P|160:147|99:159,1,90,10|2,0:2|1:2,0:0:0:0:
8,269,152763,1,0,0:0:0:0:
176,311,152935,1,2,1:2:0:0:
176,311,153020,1,0,3:0:0:0:
176,311,153106,2,0,L|231:293,1,45,10|0,0:2|0:0,0:0:0:0:
356,383,153277,2,0,L|285:366,1,45
353,220,153449,1,2,1:2:0:0:
399,77,153620,1,2,1:2:0:0:
499,230,153792,1,14,0:2:0:0:
256,84,153963,1,0,1:2:0:0:
256,84,154049,1,0,1:2:0:0:
256,20,154135,1,6,1:2:0:0:
92,196,154477,6,0,L|77:6,1,135.000005149842,10|0,0:3|1:2,0:0:0:0:
435,190,154820,2,0,L|446:48,1,135.000005149842,2|0,0:3|1:2,0:0:0:0:
261,367,155163,1,10,0:2:0:0:
253,29,155506,1,6,1:2:0:0:
82,209,155849,2,0,L|76:362,1,135.000005149842,10|0,0:3|1:2,0:0:0:0:
442,220,156192,2,0,L|450:359,1,135.000005149842,2|0,0:3|3:0,0:0:0:0:
49,190,156535,1,10,0:2:0:0:
210,302,156706,1,0,1:2:0:0:
412,114,156877,1,6,1:2:0:0:
11,188,157220,2,0,L|152:163,1,135.000005149842,10|0,0:3|1:2,0:0:0:0:
509,300,157563,2,0,L|360:280,1,135.000005149842,2|0,0:3|1:2,0:0:0:0:
252,372,157906,1,10,0:2:0:0:
198,261,158077,1,0,1:2:0:0:
269,68,158249,1,6,1:2:0:0:
512,210,158592,2,0,L|365:239,1,135.000005149842,10|0,0:3|1:2,0:0:0:0:
23,331,158935,2,0,L|180:309,1,135.000005149842,2|0,0:3|1:2,0:0:0:0:
416,375,159277,1,10,0:2:0:0:
261,246,159449,1,2,0:2:0:0:
419,114,159620,5,6,1:2:0:0:
104,14,159963,2,0,L|117:161,1,135.000005149842,10|2,0:3|1:3,0:0:0:0:
469,10,160306,2,0,L|450:153,1,135.000005149842,2|0,0:3|1:2,0:0:0:0:
269,363,160649,1,10,0:2:0:0:
265,5,160992,1,6,1:2:0:0:
52,379,161335,2,0,L|36:217,1,135.000005149842,8|0,0:2|1:2,0:0:0:0:
420,379,161677,2,0,L|433:229,1,135.000005149842,2|0,0:3|1:2,0:0:0:0:
457,19,162020,1,10,0:2:0:0:
240,77,162192,1,2,1:2:0:0:
240,77,162277,1,0,3:0:0:0:
240,77,162363,2,0,L|64:54,1,135.000005149842,6|0,0:2|1:2,0:0:0:0:
196,338,162706,2,0,L|338:303,1,135.000005149842,10|2,0:3|1:3,0:0:0:0:
509,242,163049,1,2,1:3:0:0:
315,158,163220,1,0,1:2:0:0:
249,360,163392,1,10,0:2:0:0:
453,157,163563,1,0,1:2:0:0:
266,8,163735,2,0,L|118:21,1,135.000005149842,6|0,0:2|1:0,0:0:0:0:
24,287,164077,2,0,L|179:259,1,135.000005149842,10|0,0:3|3:0,0:0:0:0:
426,227,164420,1,10,0:3:0:0:
455,167,164505,1,0,3:0:0:0:
449,100,164591,1,0,3:0:0:0:
409,47,164677,1,0,3:0:0:0:
353,14,164763,1,14,0:1:0:0:
191,155,164935,1,0,0:0:0:0:
510,103,165106,5,6,1:1:0:0:
132,372,165449,2,0,L|126:214,1,135.000005149842,10|0,0:3|0:0,0:0:0:0:
409,238,165792,2,0,L|414:375,1,135.000005149842,2|0,0:3|1:0,0:0:0:0:
284,14,166135,1,10,0:1:0:0:
264,377,166477,1,2,1:1:0:0:
49,161,166820,2,0,L|187:134,1,135.000005149842,10|0,0:3|0:0,0:0:0:0:
415,301,167163,2,0,L|245:278,1,135.000005149842,2|0,0:3|1:0,0:0:0:0:
436,139,167506,1,10,0:1:0:0:
77,309,167849,1,2,1:1:0:0:
356,250,168020,1,0,1:2:0:0:
172,205,168192,1,10,0:3:0:0:
247,139,168363,1,0,1:2:0:0:
135,0,168535,2,0,L|118:143,1,135.000005149842,2|0,0:3|1:2,0:0:0:0:
24,365,168877,2,0,L|8:208,1,135.000005149842,10|0,0:1|1:0,0:0:0:0:
195,371,169220,1,2,1:1:0:0:
257,12,169563,2,0,L|265:154,1,135.000005149842,10|0,0:3|0:0,0:0:0:0:
369,367,169906,2,0,L|376:220,1,135.000005149842,2|0,0:3|1:2,0:0:0:0:
392,22,170249,1,10,0:1:0:0:
505,234,170592,6,0,B|333:102|221:305|50:248,1,431.999986816407,6|0,1:1|0:0,0:0:0:0:
26,81,171449,2,0,P|96:193|98:361,1,269.999991760254,0|0,1:0|0:0,0:0:0:0:
299,366,171963,2,0,B|209:182|241:33|409:95|403:193|368:251|303:270,1,431.999986816407,0|0,1:0|0:0,0:0:0:0:
113,32,172820,2,0,B|208:100|267:-4|401:50,1,270.000010299683,0|0,1:0|0:0,0:0:0:0:
506,114,173335,2,0,B|524:198|524:198|380:334|380:334|499:365|499:365|454:241,1,486.000001853943,0|0,1:2|3:2,0:0:0:0:
396,114,174192,2,0,B|364:45|364:45|156:108,1,243.000000926971,0|0,1:2|3:2,0:0:0:0:
233,356,174706,1,8,0:2:0:0:
218,304,174792,1,8,3:2:0:0:
205,257,174877,1,0,1:2:0:0:
79,12,175220,1,8,3:2:0:0:
65,72,175306,1,8,3:2:0:0:
50,130,175392,1,0,3:2:0:0:
22,358,175563,1,0,1:2:0:0:
42,293,175649,1,0,1:2:0:0:
95,264,175735,1,8,3:2:0:0:
127,278,175820,1,0,3:2:0:0:
129,296,175906,1,0,3:2:0:0:
123,301,175992,1,0,3:2:0:0:
96,289,176077,6,0,B|127:264|156:240|337:293,1,236.250002253056,6|0,1:2|0:0,0:0:0:0:
383,302,176420,1,10,0:2:0:0:
224,248,176592,1,0,0:0:0:0:
62,206,176763,1,2,0:2:0:0:
44,152,176849,1,2,0:0:0:0:
250,153,177020,1,2,0:0:0:0:
262,125,177106,2,0,L|181:106,1,78.7500007510185,10|0,0:2|0:0,0:0:0:0:
20,35,177277,2,0,L|130:15,1,78.7500007510185,2|0,0:2|0:0,0:0:0:0:
264,4,177449,2,0,P|322:102|282:145,1,157.500001502037,0|2,1:2|0:2,0:0:0:0:
150,243,177792,2,0,B|214:210|246:280|319:230,1,157.500001502037,10|0,0:2|0:0,0:0:0:0:
459,186,178135,1,2,0:2:0:0:
481,216,178220,1,2,0:0:0:0:
300,181,178392,1,2,0:2:0:0:
301,219,178477,2,0,P|303:263|314:305,1,78.7500007510185,8|0,0:2|0:0,0:0:0:0:
443,374,178649,2,0,P|453:330|455:296,1,78.7500007510185,2|0,0:2|0:0,0:0:0:0:
400,186,178820,6,0,B|377:37|377:37|414:-5|414:-5|437:37,1,236.250002253056,6|0,1:2|0:0,0:0:0:0:
506,100,179163,2,0,B|408:48|408:48|349:62,1,157.500001502037,10|0,0:2|0:0,0:0:0:0:
140,90,179506,1,2,0:2:0:0:
313,152,179677,1,0,1:0:0:0:
232,327,179849,2,0,L|212:162,1,157.500001502037,10|2,0:2|0:2,0:0:0:0:
204,12,180192,1,6,1:2:0:0:
1,78,180363,1,0,1:2:0:0:
36,155,180535,2,0,B|-5:323|-5:323|51:289,1,236.250002253056,10|0,0:2|0:0,0:0:0:0:
182,220,180877,1,6,1:2:0:0:
353,303,181049,1,0,1:2:0:0:
425,264,181220,2,0,B|419:166|419:166|461:63,1,157.500001502037,8|0,0:2|0:0,0:0:0:0:
509,19,181563,6,0,B|401:111|390:-20|238:50,1,236.250002253056,6|0,1:2|0:0,0:0:0:0:
252,24,181906,1,10,0:2:0:0:
178,185,182077,1,0,0:0:0:0:
249,299,182249,1,2,0:2:0:0:
271,262,182335,1,2,0:0:0:0:
76,283,182506,1,2,0:0:0:0:
92,340,182592,2,0,P|118:250|107:210,1,78.7500007510185,10|0,0:2|0:0,0:0:0:0:
62,77,182763,2,0,P|27:186|26:193,1,78.7500007510185,2|0,1:2|0:0,0:0:0:0:
204,225,182935,1,0,0:0:0:0:
238,10,183106,1,2,1:2:0:0:
317,42,183192,1,2,0:0:0:0:
317,42,183277,2,0,B|396:17|456:36|456:36|417:116|351:170,1,236.250002253056,10|0,0:2|0:0,0:0:0:0:
252,226,183620,2,0,P|204:151|285:119,1,157.500001502037,2|2,0:2|1:2,0:0:0:0:
436,201,183963,2,0,L|418:366,1,157.500001502037,10|2,0:2|0:2,0:0:0:0:
233,374,184306,5,2,1:2:0:0:
183,177,184477,1,2,1:2:0:0:
224,74,184649,2,0,B|289:126|289:126|255:318,1,236.250002253056,14|0,0:2|0:0,0:0:0:0:
349,379,184992,1,2,1:2:0:0:
418,215,185163,1,2,1:2:0:0:
495,138,185335,2,0,B|293:116|293:116|275:59,1,236.250002253056,14|0,0:2|0:0,0:0:0:0:
238,0,185677,1,2,1:2:0:0:
23,30,185849,1,2,1:2:0:0:
4,125,186020,1,14,0:2:0:0:
207,73,186192,1,2,1:2:0:0:
99,312,186363,1,8,0:2:0:0:
125,238,186448,1,8,0:2:0:0:
105,162,186534,1,0,1:2:0:0:
99,85,186620,1,0,1:2:0:0:
127,12,186705,1,8,0:2:0:0:
210,381,187049,1,0,1:2:0:0:
373,157,187392,6,0,P|462:145|522:209,1,157.500001502037,14|2,0:2|0:2,0:0:0:0:
470,360,187735,1,2,0:2:0:0:
452,309,187820,1,2,0:0:0:0:
292,235,187992,1,2,0:0:0:0:
280,263,188077,2,0,L|382:253,1,78.7500007510185,10|0,0:2|0:0,0:0:0:0:
233,381,188249,2,0,L|120:366,1,78.7500007510185,2|0,1:2|0:0,0:0:0:0:
27,348,188420,2,0,P|9:244|33:195,1,157.500001502037,0|2,0:0|1:2,0:0:0:0:
136,36,188763,2,0,L|148:208,1,157.500001502037,10|0,0:2|0:0,0:0:0:0:
257,305,189106,1,2,0:2:0:0:
203,314,189192,1,2,0:0:0:0:
277,181,189363,1,2,0:2:0:0:
308,193,189449,2,0,L|327:104,1,78.7500007510185,8|0,0:0|0:0,0:0:0:0:
424,244,189620,2,0,L|438:344,1,78.7500007510185,2|0,0:2|0:0,0:0:0:0:
511,54,189792,6,0,B|447:8|443:5|285:69,1,236.250002253056,6|0,1:2|0:0,0:0:0:0:
236,39,190135,2,0,B|273:23|313:27|365:116,1,157.500001502037,10|0,0:0|0:0,0:0:0:0:
438,314,190477,2,0,L|464:151,1,157.500001502037,2|0,0:2|1:0,0:0:0:0:
276,191,190820,1,10,0:2:0:0:
336,352,190992,1,2,0:2:0:0:
387,272,191163,1,2,1:2:0:0:
463,94,191335,1,0,1:2:0:0:
331,0,191506,2,0,B|290:50|220:86|220:86|270:225,1,236.250002253056,14|0,0:2|0:0,0:0:0:0:
257,217,191849,1,2,1:2:0:0:
36,185,192020,1,0,1:2:0:0:
0,279,192192,2,0,B|80:259|80:259|150:288|235:322,1,236.250002253056,14|0,0:2|0:0,0:0:0:0:
298,377,192535,6,0,P|274:244|329:203,1,157.500001502037,6|0,1:2|0:0,0:0:0:0:
402,24,192877,2,0,P|461:156|441:199,1,157.500001502037,10|0,0:2|0:0,0:0:0:0:
207,83,193220,1,2,0:2:0:0:
193,28,193306,1,2,0:0:0:0:
325,190,193477,1,2,0:0:0:0:
340,170,193563,2,0,P|364:244|363:264,1,78.7500007510185,10|0,0:2|0:0,0:0:0:0:
215,316,193735,2,0,P|197:228|200:218,1,78.7500007510185,2|0,1:2|0:0,0:0:0:0:
261,67,193906,1,0,0:0:0:0:
157,124,194077,1,2,1:2:0:0:
17,12,194249,2,0,P|3:114|2:196,1,157.500001502037,10|0,0:2|0:0,0:0:0:0:
21,301,194592,1,2,0:2:0:0:
222,234,194763,1,2,1:2:0:0:
286,307,194935,1,10,0:2:0:0:
452,241,195106,1,2,0:2:0:0:
351,16,195277,5,0,3:2:0:0:
325,62,195362,1,0,3:2:0:0:
300,108,195448,1,0,3:2:0:0:
276,154,195534,1,0,3:2:0:0:
255,203,195620,1,0,3:2:0:0:
307,199,195705,1,0,3:2:0:0:
360,196,195791,1,0,3:2:0:0:
412,193,195877,1,0,3:2:0:0:
465,191,195963,1,0,3:2:0:0:
440,144,196048,1,0,3:2:0:0:
416,97,196134,1,0,3:2:0:0:
392,51,196220,1,0,3:2:0:0:
365,6,196306,1,0,3:2:0:0:
314,22,196391,1,0,3:2:0:0:
264,39,196477,1,0,3:2:0:0:
215,55,196563,1,0,3:2:0:0:
164,74,196649,6,0,L|137:-4,1,78.7500007510185,8|0,3:2|3:2,0:0:0:0:
21,227,196820,1,0,3:2:0:0:
21,227,196906,1,0,3:2:0:0:
21,227,196992,2,0,L|40:309,1,78.7500007510185,0|0,3:2|3:2,0:0:0:0:
165,187,197163,2,0,L|261:202,1,78.7500007510185,8|0,3:2|3:2,0:0:0:0:
459,224,197335,1,0,3:2:0:0:
459,224,197420,1,0,3:2:0:0:
459,224,197506,2,0,L|448:323,1,78.7500007510185,0|0,3:2|3:2,0:0:0:0:
155,378,197677,2,0,L|138:275,1,78.7500007510185,8|0,3:2|3:2,0:0:0:0:
105,90,197849,1,0,3:2:0:0:
92,21,197935,1,0,3:2:0:0:
92,21,198020,1,2,3:3:0:0:
464,9,198363,6,0,P|473:65|451:147,1,107.999996704102,14|0,0:1|0:0,0:0:0:0:
397,249,198706,1,2,0:1:0:0:
352,128,198877,1,0,1:1:0:0:
377,8,199049,2,0,P|316:7|252:20,1,107.999996704102,10|2,0:1|0:1,0:0:0:0:
153,164,199392,2,0,P|230:150|282:150,1,107.999996704102,2|0,1:1|1:1,0:0:0:0:
377,238,199735,1,10,0:1:0:0:
247,265,199906,1,2,1:1:0:0:
123,191,200077,2,0,P|63:183|-3:184,1,107.999996704102,2|0,0:1|1:1,0:0:0:0:
240,290,200420,1,8,0:1:0:0:
512,193,200763,6,0,B|433:153|434:215|335:185,1,161.999995056153,0|0,1:1|0:0,0:0:0:0:
299,175,201106,2,0,P|367:164|432:178,1,107.999996704102,10|0,0:1|0:0,0:0:0:0:
485,252,201449,1,2,0:1:0:0:
392,142,201620,1,0,1:0:0:0:
490,15,201792,2,0,L|502:138,1,107.999996704102,10|2,0:1|0:1,0:0:0:0:
326,1,202135,2,0,P|315:57|314:122,1,107.999996704102,2|0,1:1|1:1,0:0:0:0:
167,203,202477,1,10,0:1:0:0:
182,97,202649,1,2,0:1:0:0:
132,9,202820,1,2,0:1:0:0:
35,125,202992,1,0,1:0:0:0:
258,15,203163,1,10,0:1:0:0:
55,309,203506,6,0,B|70:329|90:349|243:301,1,161.999995056153,4|0,1:1|0:0,0:0:0:0:
273,296,203849,2,0,P|153:279|138:278,1,107.999996704102,10|0,0:1|0:0,0:0:0:0:
16,340,204192,1,2,0:1:0:0:
158,374,204363,1,0,1:1:0:0:
282,319,204535,2,0,L|397:328,1,107.999996704102,10|2,0:1|1:1,0:0:0:0:
509,203,204877,2,0,P|428:203|382:190,1,107.999996704102,2|0,0:1|1:1,0:0:0:0:
288,109,205220,1,10,0:1:0:0:
400,145,205392,1,2,0:1:0:0:
507,64,205563,2,0,L|388:50,1,107.999996704102,2|0,0:1|1:1,0:0:0:0:
217,25,205906,1,8,0:1:0:0:
100,239,206249,6,0,B|32:168|136:115|96:43,1,161.999995056153,0|0,1:1|0:0,0:0:0:0:
94,8,206592,2,0,P|67:122|67:135,1,107.999996704102,10|0,0:1|0:0,0:0:0:0:
107,248,206935,1,2,0:1:0:0:
170,131,207106,1,0,1:1:0:0:
126,3,207277,2,0,P|178:20|256:14,1,107.999996704102,10|2,0:1|0:1,0:0:0:0:
371,18,207620,1,2,1:1:0:0:
296,143,207792,1,0,1:1:0:0:
251,225,207963,2,0,L|389:215,1,107.999996704102,10|2,0:1|1:1,0:0:0:0:
441,29,208392,1,8,0:1:0:0:
441,29,208477,2,0,L|427:121,1,53.9999983520508,0|0,1:0|0:0,0:0:0:0:
408,303,208649,1,10,0:1:0:0:
467,291,208734,1,8,0:1:0:0:
503,241,208820,1,8,0:1:0:0:
481,190,208906,1,8,0:1:0:0:
481,190,208992,1,2,1:3:0:0:
232,8,209335,6,0,B|254:83|254:83|240:178,1,161.999995056153,14|0,0:1|0:0,0:0:0:0:
235,271,209677,2,0,L|217:150,1,107.999996704102,2|0,0:1|1:1,0:0:0:0:
156,13,210020,1,10,0:1:0:0:
78,80,210192,1,2,0:1:0:0:
128,217,210363,2,0,P|152:278|149:325,1,107.999996704102,2|0,1:1|0:0,0:0:0:0:
48,362,210706,1,10,0:1:0:0:
0,221,210877,1,2,0:1:0:0:
39,138,211049,2,0,L|145:160,1,107.999996704102,2|0,0:1|1:1,0:0:0:0:
333,209,211392,1,8,0:1:0:0:
471,9,211735,6,0,B|502:69|438:105|497:188,1,161.999995056153,0|0,1:1|0:0,0:0:0:0:
512,224,212077,2,0,P|463:182|391:189,1,107.999996704102,10|0,0:1|0:0,0:0:0:0:
302,256,212420,1,2,0:1:0:0:
397,335,212592,1,0,1:0:0:0:
380,182,212763,2,0,L|364:57,1,107.999996704102,10|2,0:1|0:1,0:0:0:0:
220,14,213106,1,2,1:1:0:0:
70,164,213277,1,0,1:1:0:0:
131,239,213449,2,0,L|164:359,1,107.999996704102,10|2,0:1|0:1,0:0:0:0:
365,335,213792,1,2,1:1:0:0:
200,279,213963,1,0,1:0:0:0:
44,374,214135,2,0,L|14:235,1,107.999996704102,10|0,0:1|0:0,0:0:0:0:
6,126,214477,6,0,B|162:0|184:228|440:119,1,431.999986816407,4|0,1:2|0:0,0:0:0:0:
461,23,215335,2,0,P|376:9|350:151,1,215.999993408203,2|0,1:2|0:0,0:0:0:0:
452,250,215849,2,0,B|344:329|221:333|176:193|254:163|353:184|368:255|317:357,1,431.999986816407,2|0,1:2|0:0,0:0:0:0:
165,383,216706,2,0,P|127:312|130:256,1,107.999996704102,2|0,1:2|0:0,0:0:0:0:
195,112,217049,1,2,1:2:0:0:
228,278,217220,2,0,B|96:229|111:327|-2:285,1,215.999993408203,2|0,1:2|0:0,0:0:0:0:
0,114,217735,2,0,B|118:148|116:61|233:120,1,215.999993408203,2|0,1:2|0:0,0:0:0:0:
343,12,218249,2,0,P|349:141|351:147,2,107.999996704102,2|0|0,1:2|0:0|0:0,0:0:0:0:
512,89,218763,5,10,0:2:0:0:
211,68,219020,1,0,1:2:0:0:
211,68,219106,1,0,1:2:0:0:
211,68,219192,1,0,1:2:0:0:
211,68,219277,2,0,P|305:50|328:48,1,107.999996704102,10|0,0:2|1:2,0:0:0:0:
482,365,219620,2,0,P|360:355|342:351,1,107.999996704102,10|0,0:2|0:0,0:0:0:0:
100,286,219963,5,4,1:1:0:0:
256,192,220049,12,6,225449,0:2:0:0:
