osu file format v14

[General]
AudioFilename: audio.mp3
AudioLeadIn: 0
PreviewTime: 96535
Countdown: 0
SampleSet: Soft
StackLeniency: 0.5
Mode: 0
LetterboxInBreaks: 0
EpilepsyWarning: 1
WidescreenStoryboard: 0

[Editor]
Bookmarks: 535,11506,22477,33449,44420,55392,66363,77335,87963,99277,110249,110592,119849,121220,132192,143163,154135,164763,176077,187049,187392,198020,198363,208992,219963,225449
DistanceSpacing: 1
BeatDivisor: 4
GridSize: 32
TimelineZoom: 1.7

[Metadata]
Title:Danzai Yamaxanadu!
TitleUnicode:断罪ヤマザナドゥ!
Artist:IOSYS
ArtistUnicode:IOSYS
Creator:Annabel
Version:Entry's Hard
Source:東方花映塚 ~ Phantasmagoria of Flower View.
Tags:Ayyri eiri- honne BlastTheKidd Zelq StarCastler Yuuya_ke Hectic h4d0uk3n1 h3ct1c Entry Coeminals ginjani HEAVENLY MOON Leader Zetera Sala- WalkingDivan4Ik aknazar WD Delette Maruoko _milr PaRaDogi fieryrage Baack Convictor 六十年目の東方裁判 ~ Fate of Sixty Years 夕野ヨシミ Eastern Judgement in the Sixtieth Year Rokujuunenme Rokujuu Nenme Rokujuu-nen Me no Shinsoku Saiban 岩杉 夏 ARM 四季映姫・ヤマザナドゥ Shikieiki Yamazanadu Eiki Shiki 東方アゲハ Ageha Grimoire of Touhou BEST ALBUM vol.2 Team Shanghai Alice ZUN 東方Project PoFV Kaeizuka Flower Reflecting Mound TH9 Japanese Video Game Pop J-Pop JPop
BeatmapID:3121437
BeatmapSetID:1525635

[Difficulty]
HPDrainRate:5
CircleSize:3.3
OverallDifficulty:7
ApproachRate:8
SliderMultiplier:1.2
SliderTickRate:1

[Events]
//Background and Video events
Video,-150,"Danzai Yamaxanadu.avi"
0,0,"Shikieiki 275.png",0,0
//Break Periods
//Storyboard Layer 0 (Background)
//Storyboard Layer 1 (Fail)
//Storyboard Layer 2 (Pass)
//Storyboard Layer 3 (Foreground)
//Storyboard Layer 4 (Overlay)
//Storyboard Sound Samples

[TimingPoints]
535,342.857142857143,4,2,1,56,1,0
11163,-125,4,2,1,56,0,0
19735,-125,4,2,1,60,0,0
20420,-125,4,2,1,64,0,0
21106,-125,4,2,1,68,0,0
21620,-125,4,2,2,68,0,0
22477,-90.9090909090909,4,2,2,72,0,1
33106,-90.9090909090909,4,2,2,72,0,0
33449,-90.9090909090909,4,2,2,72,0,1
44077,-100,4,2,2,72,0,0
44420,-100,4,2,2,68,0,0
44763,-111.111111111111,4,2,2,68,0,0
55049,-100,4,2,2,68,0,0
55735,-111.111111111111,4,2,2,68,0,0
66020,-100,4,2,2,68,0,0
66706,-111.111111111111,4,2,2,68,0,0
71506,-100,4,2,2,68,0,0
72192,-111.111111111111,4,2,2,68,0,0
76992,-90.9090909090908,4,2,2,68,0,0
77677,-111.111111111111,4,2,2,68,0,0
82477,-100,4,2,2,68,0,0
83163,-111.111111111111,4,2,2,68,0,0
87963,-90.9090909090908,4,2,2,68,0,0
88649,-100,4,2,2,68,0,0
89335,-90.9090909090909,4,2,2,68,0,0
90020,-100,4,2,2,68,0,0
90706,-90.9090909090909,4,2,2,68,0,0
91392,-100,4,2,2,68,0,0
92077,-90.9090909090909,4,2,2,68,0,0
92763,-100,4,2,2,68,0,0
93449,-90.9090909090909,4,2,2,68,0,0
93877,-90.9090909090909,4,2,2,56,0,0
94649,-125,4,2,2,56,0,0
96535,-100,4,2,2,40,0,0
96877,-100,4,2,2,44,0,0
97220,-100,4,2,2,48,0,0
97906,-100,4,2,2,60,0,0
98420,-100,4,2,2,66,0,0
98935,-100,4,2,2,72,0,0
99277,-90.9090909090909,4,2,2,80,0,1
110249,-90.9090909090909,4,2,2,80,0,0
110592,-90.9090909090909,4,2,2,80,0,1
118477,-90.9090909090909,4,2,1,56,0,1
118820,-90.9090909090909,4,2,1,64,0,1
119163,-90.9090909090909,4,2,1,72,0,1
119506,-90.9090909090909,4,2,1,76,0,1
119849,-90.9090909090909,4,2,2,80,0,0
120877,-100,4,2,2,80,0,0
121220,-100,4,2,1,64,0,0
121563,-111.111111111111,4,2,1,64,0,0
122077,-125,4,2,1,64,0,0
131677,-125,4,2,2,64,0,0
131849,-90.9090909090909,4,2,2,64,0,0
132192,-90.9090909090909,4,2,2,66,0,0
132535,-111.111111111111,4,2,2,66,0,0
141792,-99.9999999999999,4,2,2,66,0,0
143163,-99.9999999999999,4,2,2,68,0,0
143506,-111.111111111111,4,2,2,68,0,0
148306,-100,4,2,2,68,0,0
148992,-111.111111111111,4,2,2,68,0,0
154135,-100,4,2,2,72,0,0
155506,-100,4,2,2,73,0,0
156877,-100,4,2,2,74,0,0
158249,-100,4,2,2,75,0,0
159620,-100,4,2,2,76,0,0
160992,-100,4,2,2,77,0,0
162363,-100,4,2,2,78,0,0
163735,-100,4,2,2,79,0,0
164763,-90.9090909090909,4,2,2,79,0,0
165106,-90.9090909090909,4,2,2,80,0,0
165449,-100,4,2,2,80,0,0
166135,-90.9090909090909,4,2,2,80,0,0
166820,-100,4,2,2,80,0,0
167506,-90.9090909090909,4,2,2,80,0,0
169563,-100,4,2,2,80,0,0
170249,-90.9090909090909,4,2,2,80,0,0
170677,-90.9090909090909,4,2,2,68,0,0
171449,-125,4,2,2,68,0,0
173335,-100,4,2,2,40,0,0
173677,-100,4,2,2,44,0,0
174020,-100,4,2,2,48,0,0
174706,-100,4,2,2,60,0,0
175220,-100,4,2,2,66,0,0
175735,-100,4,2,2,72,0,0
176077,-90.9090909090909,4,2,2,80,0,1
187049,-90.9090909090909,4,2,2,80,0,0
187392,-90.9090909090909,4,2,2,80,0,1
195277,-90.9090909090909,4,2,3,40,0,1
195620,-90.9090909090909,4,2,3,44,0,1
195963,-90.9090909090909,4,2,3,48,0,1
196306,-90.9090909090909,4,2,3,52,0,1
196649,-90.9090909090909,4,2,3,60,0,1
197163,-90.9090909090909,4,2,3,66,0,1
197677,-90.9090909090909,4,2,3,72,0,1
198020,-90.9090909090909,4,2,1,72,0,0
198363,-90.9090909090909,4,2,2,82,0,1
208992,-90.9090909090909,4,2,2,82,0,0
209335,-90.9090909090909,4,2,2,82,0,1
214477,-90.9090909090909,4,2,2,82,0,0
215163,-125,4,2,2,70,0,0
219020,-90.9090909090909,4,2,2,70,0,0
219277,-90.9090909090909,4,2,2,72,0,0
219620,-90.9090909090909,4,2,2,74,0,0
219963,-90.9090909090909,4,2,2,76,0,0
220049,-90.9090909090909,4,2,2,50,0,0

[Colours]
Combo1 : 191,11,38
Combo2 : 152,222,208
Combo3 : 54,171,148
Combo4 : 252,177,189

[HitObjects]
424,148,11163,6,0,B|420:131|420:131|363:105|363:105|348:111,1,96,2|2,0:2|3:2,0:0:0:0:
292,224,11849,2,0,P|287:196|279:171,1,48,2|0,0:2|3:0,0:0:0:0:
214,121,12192,2,0,B|221:80|219:52|219:52|193:29,1,96,10|2,0:2|0:2,0:0:0:0:
117,5,12706,2,0,P|76:22|60:75,1,96,2|2,0:2|3:2,0:0:0:0:
13,143,13220,1,2,3:2:0:0:
15,152,13392,1,2,0:2:0:0:
83,205,13563,2,0,L|144:194,1,48,10|0,0:2|3:0,0:0:0:0:
214,224,13906,6,0,L|318:205,1,96,2|2,0:2|3:2,0:0:0:0:
388,243,14420,1,0,0:0:0:0:
395,249,14592,2,0,P|422:278|428:295,1,48,2|0,0:2|3:0,0:0:0:0:
383,382,14935,2,0,B|386:364|386:364|297:334,1,96,10|2,0:2|3:2,0:0:0:0:
233,374,15449,2,0,B|188:375|188:375|185:373|185:373|137:376,1,96,2|2,0:2|0:2,0:0:0:0:
57,342,15963,1,2,3:2:0:0:
183,276,16306,2,0,L|189:221,1,48,10|0,0:2|3:2,0:0:0:0:
235,155,16649,6,0,L|246:50,1,96,2|2,0:2|3:2,0:0:0:0:
374,6,17335,2,0,P|386:49|440:62,1,96,2|10,0:2|0:2,0:0:0:0:
323,135,18020,2,0,L|317:182,1,48,2|2,0:2|3:2,0:0:0:0:
268,255,18363,1,2,0:2:0:0:
343,299,18535,1,2,3:2:0:0:
345,308,18706,2,0,P|357:351|411:364,1,96,2|10,3:2|0:2,0:0:0:0:
481,329,19220,1,0,3:2:0:0:
478,319,19392,2,0,P|471:284|470:261,1,48,2|0,0:2|0:0,0:0:0:0:
492,174,19735,5,2,3:2:0:0:
256,192,19820,12,8,22135,0:2:0:0:
199,144,22477,6,0,B|207:171|207:171|211:173|211:173|213:207,1,66.0000020141602,6|0,1:2|0:0,0:0:0:0:
159,290,22820,2,0,B|61:278|61:278|32:301,1,132.00000402832,10|2,0:1|0:1,0:0:0:0:
91,381,23335,1,0,1:1:0:0:
27,286,23506,2,0,P|10:250|12:205,1,66.0000020141602,10|2,0:1|0:1,0:0:0:0:
68,125,23849,6,0,L|-3:109,1,66.0000020141602,2|0,1:1|0:0,0:0:0:0:
66,33,24192,2,0,L|137:17,1,66.0000020141602,10|2,0:1|1:1,0:0:0:0:
209,79,24535,2,0,P|243:32|326:27,1,132.00000402832,2|8,0:1|0:1,0:0:0:0:
401,67,25049,1,0,0:0:0:0:
512,95,25220,6,0,L|488:8,1,66.0000020141602,0|0,1:1|0:0,0:0:0:0:
401,67,25563,2,0,B|417:129|417:129|448:157|446:204,1,132.00000402832,10|2,0:1|0:1,0:0:0:0:
477,283,26077,1,0,1:1:0:0:
433,186,26249,2,0,P|399:193|361:204,1,66.0000020141602,10|2,0:1|0:1,0:0:0:0:
262,157,26592,6,0,B|251:215|251:215|264:243|272:299,1,132.00000402832,2|10,1:1|0:1,0:0:0:0:
222,373,27106,1,2,0:1:0:0:
250,281,27277,1,2,1:1:0:0:
250,281,27449,1,0,1:0:0:0:
167,223,27620,1,10,0:1:0:0:
222,373,27963,6,0,B|254:364|254:364|257:367|257:367|290:373,1,66.0000020141602,4|0,1:1|0:0,0:0:0:0:
384,379,28306,2,0,P|426:363|485:301,1,132.00000402832,10|2,0:1|0:1,0:0:0:0:
502,203,28820,1,0,1:1:0:0:
471,300,28992,2,0,P|440:287|409:258,1,66.0000020141602,10|2,0:1|1:1,0:0:0:0:
359,164,29335,6,0,B|370:129|370:129|400:119|426:108|426:108|453:130,2,132.00000402832,2|10|2,1:1|0:1|0:1,0:0:0:0:
292,91,30192,1,0,1:1:0:0:
358,177,30363,2,0,L|374:252,1,66.0000020141602,8|0,0:1|0:0,0:0:0:0:
358,360,30706,5,0,1:1:0:0:
358,360,30877,1,0,1:0:0:0:
261,382,31049,2,0,B|214:361|214:361|119:378,1,132.00000402832,10|2,0:1|0:1,0:0:0:0:
39,348,31563,1,0,1:1:0:0:
144,366,31735,2,0,P|161:326|162:298,1,66.0000020141602,10|0,0:1|0:0,0:0:0:0:
111,208,32077,5,2,1:1:0:0:
111,208,32249,1,0,1:1:0:0:
20,240,32420,1,10,0:1:0:0:
20,240,32592,2,0,P|12:187|24:100,1,132.00000402832,2|0,1:1|1:0,0:0:0:0:
54,16,33106,1,10,0:1:0:0:
213,98,33449,6,0,B|210:68|210:68|215:64|215:64|219:32,1,66.0000020141602,4|0,1:2|0:0,0:0:0:0:
312,1,33792,2,0,P|354:13|373:99,1,132.00000402832,10|2,0:1|0:1,0:0:0:0:
301,155,34306,1,0,1:1:0:0:
388,96,34477,2,0,P|427:110|453:136,1,66.0000020141602,10|2,0:1|0:1,0:0:0:0:
506,224,34820,6,0,B|458:209|424:248|424:248|415:300,1,132.00000402832,2|10,1:1|0:1,0:0:0:0:
373,378,35335,2,0,L|293:364,1,66.0000020141602,2|2,1:1|0:1,0:0:0:0:
219,323,35677,1,0,1:1:0:0:
299,264,35849,2,0,L|316:168,1,66.0000020141602,8|0,0:1|0:0,0:0:0:0:
386,111,36192,6,0,P|375:75|352:51,1,66.0000020141602,0|0,1:1|0:0,0:0:0:0:
269,7,36535,2,0,B|249:28|249:28|265:97|265:97|241:122,1,132.00000402832,10|2,0:1|0:1,0:0:0:0:
284,211,37049,1,0,1:1:0:0:
231,119,37220,2,0,L|158:110,1,66.0000020141602,10|2,0:1|0:1,0:0:0:0:
55,150,37563,6,0,P|34:106|70:24,2,132.00000402832,2|10|2,1:1|0:1|1:1,0:0:0:0:
141,201,38420,1,0,1:0:0:0:
43,158,38592,2,0,P|33:187|27:227,1,66.0000020141602,10|0,0:1|0:0,0:0:0:0:
21,337,38935,6,0,B|50:345|50:345|53:348|53:348|84:344,1,66.0000020141602,4|0,1:1|0:0,0:0:0:0:
169,293,39277,2,0,B|185:316|184:343|184:343|265:357,1,132.00000402832,10|2,0:1|0:1,0:0:0:0:
324,278,39792,1,0,1:1:0:0:
277,372,39963,2,0,L|351:385,1,66.0000020141602,10|2,0:1|1:1,0:0:0:0:
458,357,40306,5,2,1:1:0:0:
458,357,40477,1,0,1:1:0:0:
412,269,40649,2,0,L|420:192,2,66.0000020141602,10|2|2,0:1|0:1|0:1,0:0:0:0:
509,246,41163,1,0,1:1:0:0:
500,147,41335,2,0,L|492:70,1,66.0000020141602,8|0,0:1|0:0,0:0:0:0:
421,8,41677,5,0,1:2:0:0:
387,29,42192,1,0,1:2:0:0:
370,64,42706,1,2,1:1:0:0:
367,103,43220,1,8,0:2:0:0:
290,149,43563,1,2,1:1:0:0:
290,149,43649,1,2,1:1:0:0:
290,149,43735,2,0,L|205:134,1,66.0000020141602,14|2,1:1|1:2,0:0:0:0:
144,38,44077,6,0,L|6:59,1,120,14|6,0:1|1:2,0:0:0:0:
160,197,44763,6,0,L|41:215,1,107.999996704102,10|2,0:3|0:3,0:0:0:0:
7,293,45277,1,2,1:2:0:0:
93,326,45449,2,0,P|134:313|154:293,1,53.9999983520508,10|0,0:2|0:0,0:0:0:0:
235,368,45792,6,0,P|247:311|295:277,1,107.999996704102,2|10,1:2|0:2,0:0:0:0:
367,241,46306,1,2,0:2:0:0:
419,105,46649,1,2,1:2:0:0:
503,69,46820,2,0,L|510:126,1,53.9999983520508,10|0,0:2|0:0,0:0:0:0:
495,214,47163,6,0,L|444:244,1,53.9999983520508,2|2,1:2|0:2,0:0:0:0:
405,322,47506,2,0,P|430:347|442:379,2,53.9999983520508,10|2|2,0:2|0:2|0:2,0:0:0:0:
325,278,48020,1,0,1:0:0:0:
364,195,48192,2,0,L|334:144,1,53.9999983520508,10|2,0:2|0:2,0:0:0:0:
262,88,48535,6,0,B|286:77|286:77|290:68|290:68|319:57|319:57|329:61|329:61|356:49,2,107.999996704102,2|10|2,1:2|0:2|0:2,0:0:0:0:
170,75,49392,1,0,1:2:0:0:
223,0,49563,1,8,0:2:0:0:
76,0,49906,6,0,P|54:24|40:55,1,53.9999983520508,2|2,1:2|0:2,0:0:0:0:
129,79,50249,2,0,P|116:109|113:142,1,53.9999983520508,10|0,0:2|0:0,0:0:0:0:
59,204,50592,1,2,0:2:0:0:
65,230,50763,1,0,1:2:0:0:
138,286,50935,2,0,L|204:272,1,53.9999983520508,10|2,0:2|0:2,0:0:0:0:
263,217,51277,5,2,1:2:0:0:
319,289,51449,1,2,1:2:0:0:
263,217,51620,2,0,P|271:179|288:154,2,53.9999983520508,10|2|2,0:2|0:2|0:2,0:0:0:0:
228,303,52135,1,0,1:0:0:0:
166,371,52306,2,0,L|100:357,1,53.9999983520508,10|2,0:2|1:2,0:0:0:0:
23,341,52649,6,0,P|17:310|61:246,1,107.999996704102,2|8,1:2|0:2,0:0:0:0:
146,230,53163,1,2,0:2:0:0:
139,203,53335,2,0,L|124:149,1,53.9999983520508,2|2,0:2|1:2,0:0:0:0:
195,92,53677,2,0,L|258:76,1,53.9999983520508,10|0,0:2|0:0,0:0:0:0:
315,14,54020,5,2,1:2:0:0:
339,103,54192,1,2,1:2:0:0:
315,14,54363,2,0,B|370:6|370:6|392:19|419:24,1,107.999996704102,10|2,0:2|0:2,0:0:0:0:
495,94,54877,1,0,1:2:0:0:
495,94,54963,1,0,1:2:0:0:
495,94,55049,6,0,P|473:139|473:215,1,120,14|6,0:2|1:2,0:0:0:0:
318,88,55735,6,0,P|297:129|297:198,1,107.999996704102,10|2,0:3|0:3,0:0:0:0:
347,267,56249,1,2,1:2:0:0:
306,349,56420,2,0,P|284:366|241:377,1,53.9999983520508,10|2,0:2|0:2,0:0:0:0:
169,349,56763,6,0,L|161:385,2,35.9999989013672,2|2|2,1:2|0:2|0:2,0:0:0:0:
188,318,57106,2,0,L|182:248,1,53.9999983520508,10|2,0:2|0:2,0:0:0:0:
135,186,57449,1,2,0:2:0:0:
158,173,57620,1,2,1:2:0:0:
232,118,57792,2,0,P|269:135|297:140,1,53.9999983520508,10|2,0:2|0:0,0:0:0:0:
353,196,58135,6,0,P|375:179|397:146,1,53.9999983520508,2|2,1:2|0:2,0:0:0:0:
456,94,58477,2,0,P|449:61|428:27,1,53.9999983520508,10|2,0:2|0:2,0:0:0:0:
356,2,58820,2,0,P|324:28|259:36,1,107.999996704102,2|10,0:2|0:2,0:0:0:0:
172,6,59335,1,2,0:2:0:0:
185,97,59506,5,2,1:2:0:0:
172,6,59677,1,2,1:2:0:0:
78,13,59849,2,0,P|43:31|25:53,1,53.9999983520508,10|2,0:2|1:2,0:0:0:0:
18,132,60192,2,0,L|31:204,1,53.9999983520508,2|0,0:2|1:2,0:0:0:0:
94,250,60535,1,8,0:2:0:0:
233,295,60877,6,0,P|222:333|199:360,1,53.9999983520508,2|2,1:2|0:2,0:0:0:0:
128,378,61220,1,10,0:2:0:0:
121,351,61392,1,2,0:2:0:0:
41,304,61563,2,0,L|64:182,1,107.999996704102,2|10,0:2|0:2,0:0:0:0:
125,131,62077,1,2,1:2:0:0:
136,155,62249,6,0,P|161:188|186:206,1,53.9999983520508,2|0,0:2|1:2,0:0:0:0:
251,241,62592,2,0,B|297:226|297:226|366:236,1,107.999996704102,10|2,0:2|0:2,0:0:0:0:
435,188,63106,1,0,1:0:0:0:
502,251,63277,2,0,P|501:284|496:322,1,53.9999983520508,10|2,0:2|0:2,0:0:0:0:
435,372,63620,5,2,1:2:0:0:
408,367,63792,1,2,0:2:0:0:
337,308,63963,2,0,L|277:321,1,53.9999983520508,10|2,0:2|0:2,0:0:0:0:
209,372,64306,1,2,0:2:0:0:
182,367,64478,1,2,1:2:0:0:
112,308,64649,2,0,P|119:277|137:244,1,53.9999983520508,10|0,3:2|3:2,0:0:0:0:
191,189,64992,5,2,1:2:0:0:
187,162,65163,1,2,1:2:0:0:
262,106,65335,1,2,1:2:0:0:
266,133,65506,1,2,1:2:0:0:
349,186,65677,1,2,1:2:0:0:
349,186,65763,1,0,1:2:0:0:
349,186,65849,1,0,1:2:0:0:
425,135,66020,6,0,L|503:128,2,60,8|0|4,0:2|3:0|1:2,0:0:0:0:
263,27,66706,6,0,L|341:20,2,53.9999983520508,10|2|2,0:3|0:3|0:3,0:0:0:0:
175,0,67220,1,2,1:2:0:0:
126,78,67392,2,0,L|133:119,3,26.9999991760254,10|2|2|2,0:2|0:0|0:0|0:0,0:0:0:0:
127,137,67735,6,0,P|85:141|59:149,1,53.9999983520508,2|2,1:2|0:0,0:0:0:0:
15,214,68077,2,0,L|22:255,3,26.9999991760254,10|2|2|2,0:2|0:0|0:0|0:0,0:0:0:0:
46,258,68420,2,0,L|42:299,3,26.9999991760254,2|2|2|2,0:2|0:2|1:2|0:2,0:0:0:0:
24,311,68763,2,0,P|30:351|43:373,1,53.9999983520508,10|0,0:2|0:0,0:0:0:0:
126,384,69106,5,2,1:2:0:0:
152,380,69277,1,2,0:2:0:0:
210,308,69449,2,0,L|155:280,1,53.9999983520508,10|2,0:2|0:2,0:0:0:0:
93,219,69792,2,0,L|148:191,1,53.9999983520508,2|0,0:2|1:0,0:0:0:0:
227,149,70135,2,0,L|236:220,1,53.9999983520508,10|2,0:2|0:2,0:0:0:0:
301,276,70477,5,2,1:2:0:0:
289,368,70649,1,2,1:2:0:0:
301,276,70820,2,0,P|337:264|376:263,1,53.9999983520508,10|2,0:2|0:2,0:0:0:0:
421,199,71163,2,0,P|413:170|390:139,1,53.9999983520508,2|0,0:2|1:2,0:0:0:0:
342,70,71506,6,0,P|300:103|248:70,1,120,12|4,0:2|1:2,0:0:0:0:
131,228,72192,6,0,P|93:257|46:228,1,107.999996704102,10|2,0:3|0:3,0:0:0:0:
13,148,72706,1,2,1:2:0:0:
13,148,72792,1,2,0:2:0:0:
13,148,72877,1,10,0:0:0:0:
34,4,73220,6,0,L|74:14,3,26.9999991760254,2|2|2|2,1:2|0:2|0:2|0:2,0:0:0:0:
88,27,73563,2,0,L|107:56,3,26.9999991760254,10|2|2|2,0:2|0:2|0:2|0:2,0:0:0:0:
119,78,73906,2,0,P|147:64|166:41,1,53.9999983520508,2|0,0:2|1:0,0:0:0:0:
248,14,74249,2,0,P|263:44|263:82,1,53.9999983520508,10|0,0:2|0:0,0:0:0:0:
260,156,74592,6,0,L|331:180,1,53.9999983520508,2|2,1:2|0:2,0:0:0:0:
390,125,74935,1,10,0:2:0:0:
382,35,75106,1,2,1:2:0:0:
382,35,75277,2,0,L|433:17,1,53.9999983520508,2|2,0:2|1:2,0:0:0:0:
505,76,75620,2,0,P|492:111|488:139,1,53.9999983520508,10|2,0:2|0:2,0:0:0:0:
436,203,75963,6,0,P|415:246|397:320,1,107.999996704102,2|10,1:2|0:2,0:0:0:0:
336,371,76477,1,2,0:2:0:0:
292,290,76649,1,2,1:2:0:0:
267,278,76820,1,0,1:2:0:0:
164,255,76992,6,0,B|143:236|179:217|210:246|198:294|170:314|152:318,1,132.00000402832,14|6,0:2|1:2,0:0:0:0:
29,168,77677,6,0,B|10:151|40:134|67:159|56:200|33:217|9:223,1,107.999996704102,10|2,0:3|0:3,0:0:0:0:
0,308,78192,1,2,1:2:0:0:
68,371,78363,2,0,L|109:364,3,26.9999991760254,10|2|2|2,0:2|0:2|0:2|0:2,0:0:0:0:
126,361,78706,6,0,L|154:339,3,26.9999991760254,2|2|2|2,1:2|0:2|1:2|0:2,0:0:0:0:
174,326,79049,2,0,L|186:276,3,26.9999991760254,10|2|2|2,0:2|0:2|0:2|0:2,0:0:0:0:
193,270,79392,2,0,L|176:206,1,53.9999983520508,2|2,1:2|1:2,0:0:0:0:
192,127,79735,1,10,0:2:0:0:
317,204,80077,6,0,P|297:240|290:264,1,53.9999983520508,2|2,1:2|0:2,0:0:0:0:
366,308,80420,2,0,P|368:349|376:373,1,53.9999983520508,10|2,0:2|0:2,0:0:0:0:
479,337,80763,2,0,P|470:311|457:287,1,53.9999983520508,2|2,0:2|1:2,0:0:0:0:
492,202,81106,2,0,P|470:185|447:172,1,53.9999983520508,10|2,0:2|0:2,0:0:0:0:
393,97,81449,5,2,1:2:0:0:
356,181,81620,1,2,1:2:0:0:
393,97,81792,2,0,P|365:64|306:21,1,107.999996704102,10|2,0:2|0:2,0:0:0:0:
222,16,82306,1,0,1:0:0:0:
222,16,82392,1,0,1:0:0:0:
222,16,82477,6,0,B|186:19|186:19|167:28|167:28|145:24|145:24|105:27,1,120,14|6,0:2|1:2,0:0:0:0:
15,198,83163,6,0,B|47:200|47:200|64:208|64:208|84:205|84:205|119:208,1,107.999996704102,10|2,0:3|0:3,0:0:0:0:
199,158,83677,1,2,1:2:0:0:
233,243,83849,1,10,0:2:0:0:
199,158,84020,6,0,B|199:129|199:129|284:86,1,107.999996704102,0|0,1:2|1:2,0:0:0:0:
353,53,84535,1,10,0:2:0:0:
475,247,85049,1,2,1:2:0:0:
475,247,85220,2,0,L|483:172,1,53.9999983520508,10|2,0:2|0:2,0:0:0:0:
492,101,85563,5,2,1:2:0:0:
434,29,85735,1,0,1:2:0:0:
434,29,85820,1,0,3:0:0:0:
434,29,85906,1,10,3:2:0:0:
373,97,86077,1,2,1:2:0:0:
352,185,86249,6,0,P|348:218|357:258,1,53.9999983520508,0|2,1:2|1:2,0:0:0:0:
408,311,86592,1,10,3:2:0:0:
402,337,86763,2,0,L|283:324,1,107.999996704102,2|2,1:2|1:2,0:0:0:0:
204,345,87277,2,0,B|193:370|193:370|103:360,1,107.999996704102,10|8,0:2|0:2,0:0:0:0:
28,319,87792,1,0,1:2:0:0:
28,319,87877,1,0,1:2:0:0:
28,319,87963,6,0,L|22:407,1,66.0000020141602,14|0,0:1|0:0,0:0:0:0:
91,241,88306,1,6,1:1:0:0:
39,45,88649,6,0,L|29:178,1,120,10|2,0:3|0:3,0:0:0:0:
91,241,89163,1,0,1:0:0:0:
171,187,89335,6,0,B|199:186|225:168|225:168|310:190,1,132.00000402832,10|2,0:1|1:1,0:0:0:0:
174,20,90020,6,0,B|199:19|222:2|222:2|298:22,1,120,10|2,0:3|0:3,0:0:0:0:
362,83,90535,1,0,1:0:0:0:
441,28,90706,6,0,B|482:17|482:17|486:62|470:114,1,132.00000402832,10|2,0:1|1:1,0:0:0:0:
468,310,91392,6,0,B|429:320|429:320|426:278|440:229,1,120,10|2,0:3|0:3,0:0:0:0:
388,156,91906,1,0,1:0:0:0:
313,216,92077,6,0,P|307:290|277:353,1,132.00000402832,10|2,0:1|1:1,0:0:0:0:
79,375,92763,6,0,P|56:319|52:260,1,120,10|2,0:3|0:3,0:0:0:0:
70,165,93277,1,0,1:0:0:0:
152,216,93449,6,0,B|185:219|212:198|212:198|217:234|243:258,1,132.00000402832,10|6,0:1|1:1,0:0:0:0:
242,257,94649,6,0,L|393:274,1,144,0|0,1:0|1:0,0:0:0:0:
385,273,96020,1,0,1:0:0:0:
481,224,96535,6,0,P|499:181|342:13,1,300,0|0,1:2|1:2,0:0:0:0:
253,29,97906,5,8,3:2:0:0:
347,9,98077,2,0,B|361:56|361:56|332:139,1,120,0|8,1:2|3:2,0:0:0:0:
250,277,98763,1,0,1:2:0:0:
250,277,98849,1,0,1:2:0:0:
250,277,98935,2,0,L|255:324,3,30,8|0|0|0,3:2|3:2|3:2|3:2,0:0:0:0:
241,337,99277,6,0,P|197:363|108:366,1,132.00000402832,6|10,1:2|0:2,0:0:0:0:
23,319,99792,1,0,0:0:0:0:
116,380,99963,2,0,B|126:340|126:340|137:328|137:328|123:234,1,132.00000402832,2|10,0:2|0:2,0:0:0:0:
62,170,100477,2,0,P|18:159|-15:139,1,66.0000020141602,2|0,0:2|1:0,0:0:0:0:
98,79,100820,5,2,0:2:0:0:
170,150,100992,2,0,P|214:139|247:119,1,66.0000020141602,10|0,0:2|0:0,0:0:0:0:
319,70,101335,2,0,B|348:103|348:103|383:104|418:124,2,99.0000030212403,2|2|2,0:2|0:2|0:2,0:0:0:0:
212,19,102020,6,0,L|79:7,2,132.00000402832,6|10|2,1:2|0:2|0:2,0:0:0:0:
257,116,102877,1,0,1:2:0:0:
301,213,103049,2,0,L|381:205,1,66.0000020141602,14|2,0:2|1:2,0:0:0:0:
456,264,103392,5,2,0:0:0:0:
506,171,103563,1,0,1:2:0:0:
472,71,103735,1,14,0:2:0:0:
472,71,103906,2,0,P|442:33|350:45,1,132.00000402832,0|0,1:2|1:2,0:0:0:0:
390,135,104420,1,14,0:2:0:0:
200,188,104763,6,0,B|146:202|139:242|139:242|154:274|161:311,1,132.00000402832,6|10,1:2|0:2,0:0:0:0:
106,379,105277,1,2,0:2:0:0:
179,293,105449,2,0,B|212:297|244:314|244:314|256:346|304:366,1,132.00000402832,2|10,0:2|0:2,0:0:0:0:
392,376,105963,2,0,P|420:352|433:318,1,66.0000020141602,2|0,0:2|1:2,0:0:0:0:
392,228,106306,5,2,0:2:0:0:
464,151,106477,2,0,P|495:185|502:223,1,66.0000020141602,10|0,0:2|0:0,0:0:0:0:
495,309,106820,2,0,L|427:326,1,66.0000020141602,2|2,0:2|1:2,0:0:0:0:
392,228,107163,2,0,L|327:211,1,66.0000020141602,10|2,0:2|0:2,0:0:0:0:
221,242,107506,5,2,1:2:0:0:
221,242,107677,1,2,1:2:0:0:
250,350,107849,1,14,0:2:0:0:
120,201,108192,5,2,1:2:0:0:
120,201,108363,1,2,1:2:0:0:
152,320,108535,1,14,0:2:0:0:
16,155,108877,5,2,1:2:0:0:
16,155,109048,1,2,1:2:0:0:
51,286,109220,1,14,0:2:0:0:
51,286,109392,1,0,1:2:0:0:
152,223,109563,1,10,0:2:0:0:
152,223,109649,1,8,0:2:0:0:
152,223,109735,2,0,P|168:200|174:185,1,33.0000010070801,0|0,1:2|1:2,0:0:0:0:
177,156,109906,2,0,B|160:102|160:102|164:84|164:84|222:53,1,132.00000402832,10|0,0:2|1:2,0:0:0:0:
449,153,110592,6,0,B|480:131|485:102|485:102|471:28,2,132.00000402832,14|2|8,0:0|0:2|0:0,0:0:0:0:
369,222,111449,2,0,P|345:192|321:175,1,66.0000020141602,2|0,0:2|1:2,0:0:0:0:
272,84,111792,1,2,0:2:0:0:
208,168,111963,2,0,P|177:193|130:211,1,66.0000020141602,10|0,0:2|0:0,0:0:0:0:
123,306,112306,2,0,B|181:323|181:323|199:340|215:369,2,99.0000030212403,2|2|2,0:2|0:0|0:2,0:0:0:0:
32,242,112992,6,0,B|24:317|24:317|40:345|40:345|36:373,2,132.00000402832,6|10|2,1:2|0:2|0:2,0:0:0:0:
113,174,113849,1,0,1:2:0:0:
46,93,114020,2,0,L|55:12,1,66.0000020141602,10|2,0:2|0:2,0:0:0:0:
153,80,114363,5,2,1:2:0:0:
153,80,114534,1,2,1:2:0:0:
257,28,114705,1,12,0:2:0:0:
260,250,115049,5,2,1:2:0:0:
260,250,115220,1,2,1:2:0:0:
156,198,115392,1,12,0:2:0:0:
345,118,115735,6,0,P|408:128|457:192,2,132.00000402832,6|10|2,1:2|0:2|0:2,0:0:0:0:
265,49,116592,1,0,1:2:0:0:
342,132,116763,2,0,L|321:201,1,66.0000020141602,10|2,0:2|0:2,0:0:0:0:
353,297,117106,5,0,1:2:0:0:
457,280,117277,1,2,1:2:0:0:
353,297,117449,2,0,P|312:309|285:322,1,66.0000020141602,10|0,0:2|0:0,0:0:0:0:
201,382,117792,5,2,1:2:0:0:
98,361,117963,1,2,1:2:0:0:
201,382,118135,2,0,P|191:333|192:300,1,66.0000020141602,10|2,0:2|0:2,0:0:0:0:
233,222,118477,6,0,L|225:183,3,33.0000010070801,0|0|0|0,3:2|3:2|3:2|3:2,0:0:0:0:
220,157,118820,2,0,L|191:129,3,33.0000010070801,0|0|0|0,3:2|3:2|3:2|3:2,0:0:0:0:
169,114,119163,2,0,L|129:108,3,33.0000010070801,0|0|0|0,3:2|3:2|3:2|3:2,0:0:0:0:
108,126,119506,2,0,L|75:130,3,33.0000010070801,0|0|0|0,3:2|3:2|3:2|3:2,0:0:0:0:
36,136,119849,5,12,0:2:0:0:
249,29,120877,6,0,P|285:40|371:56,1,120,2|6,0:0|3:2,0:0:0:0:
221,186,121563,6,0,P|254:196|334:211,1,107.999996704102,2|10,0:3|0:3,0:0:0:0:
406,175,122077,1,2,0:2:0:0:
415,172,122249,2,0,L|471:155,1,48,2|2,0:2|0:2,0:0:0:0:
507,84,122592,6,0,B|517:64|510:40|510:40|491:24|460:24,1,96,2|2,0:2|3:2,0:0:0:0:
376,13,123106,1,2,0:2:0:0:
372,21,123277,2,0,P|359:60|356:79,1,48,10|2,0:2|3:2,0:0:0:0:
292,123,123620,2,0,P|305:162|308:181,1,48,2|0,0:2|3:0,0:0:0:0:
358,238,123963,5,2,3:2:0:0:
356,247,124135,1,2,3:2:0:0:
312,322,124306,2,0,P|294:346|272:363,1,48,2|2,0:2|3:2,0:0:0:0:
179,378,124649,2,0,B|182:355|196:334|196:334|184:279,1,96,10|2,0:2|3:2,0:0:0:0:
159,204,125163,1,2,0:2:0:0:
149,201,125335,6,0,P|109:189|45:150,1,96,2|2,0:2|3:2,0:0:0:0:
20,87,125849,1,2,0:2:0:0:
22,77,126020,2,0,L|35:17,1,48,10|0,0:2|3:2,0:0:0:0:
117,10,126363,2,0,L|127:56,1,48,2|0,0:0|0:0,0:0:0:0:
198,136,126706,6,0,P|228:142|251:153,1,48,2|2,3:2|0:2,0:0:0:0:
282,227,127049,2,0,P|258:243|227:251,1,48,2|2,0:2|3:2,0:0:0:0:
153,257,127392,2,0,P|146:231|148:204,1,48,10|2,0:2|0:2,0:0:0:0:
81,154,127735,1,2,0:2:0:0:
78,144,127906,1,2,0:2:0:0:
16,215,128077,6,0,P|24:260|30:329,1,96,2|2,0:2|3:2,0:0:0:0:
91,373,128592,1,2,0:2:0:0:
99,368,128763,2,0,P|132:349|152:344,1,48,10|0,0:2|3:2,0:0:0:0:
206,287,129106,1,2,0:2:0:0:
211,294,129277,1,2,3:2:0:0:
258,367,129449,6,0,L|313:362,1,48,2|2,3:2|0:2,0:0:0:0:
390,384,129792,2,0,L|445:379,1,48,2|2,3:2|3:2,0:0:0:0:
502,321,130135,1,10,0:2:0:0:
496,313,130306,1,2,0:2:0:0:
424,264,130477,1,2,3:2:0:0:
430,256,130648,1,2,0:2:0:0:
510,220,130820,5,2,0:2:0:0:
510,210,130992,2,0,P|500:171|453:136,1,96,2|2,0:2|0:2,0:0:0:0:
374,114,131506,1,10,0:2:0:0:
303,65,131677,1,8,1:2:0:0:
303,65,131763,1,8,0:2:0:0:
303,65,131849,6,0,L|312:-5,1,66.0000020141602,2|10,0:2|0:2,0:0:0:0:
292,150,132192,1,6,1:2:0:0:
104,100,132535,6,0,L|110:46,2,53.9999983520508,2|2|2,1:3|0:3|1:3,0:0:0:0:
36,160,133049,1,2,0:2:0:0:
36,160,133135,1,2,0:2:0:0:
36,160,133220,2,0,P|42:188|46:217,1,53.9999983520508,2|2,1:2|0:2,0:0:0:0:
76,301,133563,6,0,L|69:354,2,53.9999983520508,2|2|2,1:2|0:2|1:2,0:0:0:0:
141,236,134077,1,2,0:2:0:0:
167,228,134249,2,0,P|201:220|240:218,1,53.9999983520508,2|2,1:2|0:2,0:0:0:0:
305,254,134592,1,2,1:2:0:0:
386,132,134935,6,0,P|426:142|445:153,1,53.9999983520508,2|2,1:2|0:2,0:0:0:0:
492,229,135277,2,0,P|452:239|433:250,1,53.9999983520508,2|2,1:2|0:2,0:0:0:0:
366,299,135620,1,2,1:2:0:0:
372,325,135792,1,2,0:2:0:0:
292,379,135963,1,2,1:2:0:0:
286,353,136135,1,2,0:2:0:0:
195,335,136306,6,0,B|168:338|141:347|141:347|119:342|91:329,2,107.999996704102,2|2|2,1:2|1:2|1:2,0:0:0:0:
286,222,137335,1,0,1:2:0:0:
169,134,137677,6,0,L|175:66,1,53.9999983520508,2|2,1:2|0:2,0:0:0:0:
237,13,138020,2,0,P|268:49|310:106,1,107.999996704102,2|2,1:2|1:2,0:0:0:0:
447,137,138706,1,2,1:2:0:0:
468,47,138877,1,2,0:2:0:0:
447,137,139049,6,0,B|479:144|492:178|492:178|486:235,2,107.999996704102,2|2|2,1:2|1:2|1:2,0:0:0:0:
393,271,140077,2,0,L|400:202,1,53.9999983520508,2|2,1:2|0:2,0:0:0:0:
315,159,140420,6,0,L|307:230,1,53.9999983520508,2|2,1:2|0:2,0:0:0:0:
228,255,140763,2,0,P|194:274|179:290,1,53.9999983520508,2|2,1:2|0:2,0:0:0:0:
196,375,141106,2,0,P|227:384|256:383,2,53.9999983520508,2|2|2,1:2|0:2|1:2,0:0:0:0:
111,345,141620,1,10,0:2:0:0:
111,345,141706,1,8,0:2:0:0:
111,345,141792,6,0,L|32:327,1,60,14|0,0:2|1:2,0:0:0:0:
5,253,142135,1,10,0:2:0:0:
95,220,142306,1,0,1:2:0:0:
95,220,142392,1,0,1:2:0:0:
95,220,142477,2,0,L|124:226,2,30,2|0|0,0:0|1:2|1:2,0:0:0:0:
17,154,142820,6,0,B|30:121|30:121|21:85,2,60,10|10|6,0:2|0:2|1:2,0:0:0:0:
190,63,143506,6,0,B|202:31|202:31|193:-2,2,53.9999983520508,10|2|2,0:3|0:3|0:3,0:0:0:0:
141,143,144020,1,2,1:2:0:0:
141,143,144106,1,2,0:2:0:0:
141,143,144192,1,10,0:2:0:0:
266,221,144535,6,0,L|292:214,3,26.9999991760254,2|2|2|2,1:2|0:2|0:2|0:2,0:0:0:0:
320,198,144877,2,0,P|310:158|310:135,1,53.9999983520508,10|2,0:2|1:2,0:0:0:0:
383,100,145220,2,0,L|409:106,3,26.9999991760254,2|2|2|2,0:2|0:2|0:0|0:2,0:0:0:0:
441,107,145563,2,0,P|452:82|456:51,1,53.9999983520508,10|2,0:2|0:0,0:0:0:0:
383,2,145906,6,0,L|321:10,1,53.9999983520508,2|2,1:2|0:2,0:0:0:0:
263,73,146249,2,0,L|209:66,1,53.9999983520508,10|2,0:2|1:2,0:0:0:0:
128,110,146592,2,0,P|143:148|159:224,1,107.999996704102,2|10,0:2|0:2,0:0:0:0:
120,298,147106,1,2,0:2:0:0:
205,334,147277,5,2,1:2:0:0:
214,359,147449,1,2,0:2:0:0:
303,382,147620,2,0,P|336:380|366:374,1,53.9999983520508,10|2,0:2|0:2,0:0:0:0:
346,284,147963,2,0,P|313:286|283:292,1,53.9999983520508,2|0,0:2|1:2,0:0:0:0:
417,214,148306,6,0,P|453:226|500:229,1,60,14|2,0:2|0:2,0:0:0:0:
352,141,148649,1,6,1:2:0:0:
433,318,148992,6,0,P|465:328|508:331,2,53.9999983520508,10|2|2,0:3|0:3|0:3,0:0:0:0:
346,284,149506,1,2,1:2:0:0:
324,373,149677,1,8,0:2:0:0:
186,329,150020,6,0,L|63:353,1,107.999996704102,2|10,1:2|0:2,0:0:0:0:
17,249,150877,1,2,1:2:0:0:
70,324,151049,2,0,L|123:313,1,53.9999983520508,10|2,0:2|1:2,0:0:0:0:
215,319,151392,5,2,0:0:0:0:
221,292,151563,1,2,1:2:0:0:
282,222,151735,2,0,L|335:232,1,53.9999983520508,10|2,0:2|1:2,0:0:0:0:
478,200,152249,1,2,1:2:0:0:
475,173,152420,2,0,L|421:183,1,53.9999983520508,10|2,0:2|1:2,0:0:0:0:
297,107,152935,5,2,1:2:0:0:
303,80,153106,2,0,P|267:48|190:35,1,107.999996704102,10|2,0:2|1:2,0:0:0:0:
121,10,153620,1,2,1:2:0:0:
137,100,153792,1,14,0:2:0:0:
70,171,153963,1,0,1:2:0:0:
70,171,154049,1,0,1:2:0:0:
70,171,154135,6,0,B|43:193|43:193|26:228|42:279,1,120,6|10,1:2|0:3,0:0:0:0:
87,361,154649,2,0,B|161:350|161:350|181:366|202:371,1,120,0|0,1:2|1:2,0:0:0:0:
297,381,155163,1,10,0:2:0:0:
321,215,155506,6,0,B|308:184|290:162|290:162|294:129|306:97,1,120,6|10,1:2|0:3,0:0:0:0:
336,15,156020,2,0,B|352:20|364:37|364:37|453:24,1,120,0|0,1:2|3:0,0:0:0:0:
504,103,156535,2,0,L|431:116,1,60,10|0,0:2|1:2,0:0:0:0:
350,132,156877,5,6,1:2:0:0:
270,296,157220,1,10,0:3:0:0:
270,296,157392,2,0,P|310:333|377:341,1,120,0|0,1:2|1:2,0:0:0:0:
467,325,157906,2,0,P|482:304|488:265,1,60,10|0,0:2|1:2,0:0:0:0:
444,184,158249,6,0,P|382:174|317:161,1,120,6|10,1:2|0:3,0:0:0:0:
246,108,158763,2,0,P|230:142|203:222,1,120,0|0,1:2|1:2,0:0:0:0:
244,313,159277,1,10,0:2:0:0:
244,313,159449,1,2,0:2:0:0:
170,375,159620,6,0,P|145:346|59:331,1,120,6|10,1:2|0:3,0:0:0:0:
5,258,160135,2,0,B|1:237|1:237|13:189|13:189|3:137,1,120,2|0,1:3|1:2,0:0:0:0:
28,47,160649,1,10,0:2:0:0:
182,147,160992,6,0,B|177:106|198:88|198:88|252:57,1,120,6|8,1:2|0:2,0:0:0:0:
329,7,161506,2,0,P|357:75|382:116,1,120,0|0,1:2|1:2,0:0:0:0:
474,120,162020,2,0,P|497:153|510:185,1,60,10|2,0:2|1:2,0:0:0:0:
491,266,162363,6,0,P|467:288|424:280,1,60,6|0,0:2|1:2,0:2:0:0:
379,217,162706,1,10,0:3:0:0:
379,217,162792,1,0,3:0:0:0:
379,217,162877,1,2,1:3:0:0:
291,255,163049,5,2,1:3:0:0:
274,347,163220,1,0,1:2:0:0:
274,347,163306,1,0,3:0:0:0:
274,347,163392,2,0,L|199:334,1,60,10|0,0:2|1:2,0:0:0:0:
112,264,163735,6,0,L|187:251,1,60,6|0,0:2|1:0,0:0:0:0:
91,172,164077,2,0,L|166:159,1,60,10|0,0:3|3:0,0:0:0:0:
250,206,164420,2,0,L|288:213,3,30,10|0|0|0,0:3|3:0|3:0|3:0,0:0:0:0:
318,220,164763,6,0,P|344:243|358:272,1,66.0000020141602,14|0,0:1|0:0,0:0:0:0:
317,125,165106,1,6,1:1:0:0:
155,250,165449,6,0,P|181:196|227:157,1,120,10|2,0:3|0:3,0:0:0:0:
317,125,165963,1,0,1:0:0:0:
409,96,166135,6,0,B|421:74|411:52|411:52|339:3,1,132.00000402832,10|2,0:1|1:1,0:0:0:0:
139,52,166820,6,0,B|149:71|140:91|140:91|75:136,1,120,10|2,0:3|0:3,0:0:0:0:
19,216,167335,1,0,1:0:0:0:
86,285,167506,6,0,B|141:275|141:275|157:284|157:284|215:274,1,132.00000402832,10|2,0:1|1:1,0:0:0:0:
310,311,168020,1,0,1:2:0:0:
291,215,168192,1,10,0:3:0:0:
310,311,168363,2,0,B|334:354|334:354|379:361|423:375,1,132.00000402832,0|0,1:2|1:2,0:0:0:0:
496,327,168877,6,0,P|490:277|485:188,1,132.00000402832,10|2,0:1|1:1,0:0:0:0:
392,11,169563,6,0,P|386:56|382:137,1,120,10|2,0:3|0:3,0:0:0:0:
337,217,170077,1,0,1:2:0:0:
258,161,170249,6,0,B|225:158|198:179|198:179|193:143|167:119,1,132.00000402832,10|6,0:1|1:1,0:0:0:0:
167,119,171449,6,0,L|63:222,1,144,0|0,1:0|1:0,0:0:0:0:
64,220,172820,1,0,1:0:0:0:
20,318,173335,6,0,B|59:313|117:319|161:335|161:335|164:339|164:339|205:363|261:377|310:382,1,300,0|0,1:2|1:2,0:0:0:0:
413,357,174706,6,0,L|405:316,2,30,8|8|0,0:2|3:2|1:2,0:0:0:0:
500,211,175220,2,0,L|492:170,2,30,8|8|0,3:2|3:2|3:2,0:0:0:0:
407,226,175563,1,0,1:2:0:0:
407,226,175648,1,0,1:2:0:0:
407,226,175735,2,0,L|399:185,3,30,8|0|0|0,3:2|3:2|3:2|3:2,0:0:0:0:
396,164,176077,6,0,P|410:122|417:84,1,66.0000020141602,6|0,1:2|0:0,0:0:0:0:
355,14,176420,2,0,P|320:8|278:5,1,66.0000020141602,10|0,0:2|0:0,0:0:0:0:
311,108,176763,2,0,P|276:107|210:189,1,132.00000402832,2|10,0:2|0:2,0:0:0:0:
247,272,177277,2,0,P|282:278|324:281,1,66.0000020141602,2|0,0:2|1:2,0:0:0:0:
256,375,177620,5,2,0:2:0:0:
158,330,177792,2,0,P|123:324|81:321,1,66.0000020141602,10|0,0:2|0:0,0:0:0:0:
54,223,178135,2,0,B|55:187|41:161|41:161|25:153|7:137,2,99.0000030212403,2|2|2,0:2|0:2|0:2,0:0:0:0:
171,237,178820,6,0,B|201:239|232:250|232:250|236:256|236:256|265:267|297:266,2,132.00000402832,6|10|2,1:2|0:2|0:2,0:0:0:0:
103,157,179677,1,0,1:0:0:0:
205,129,179849,2,0,P|247:112|270:94,1,66.0000020141602,10|2,0:2|0:2,0:0:0:0:
327,16,180192,5,6,1:2:0:0:
327,16,180363,1,0,1:2:0:0:
369,125,180535,1,10,0:2:0:0:
204,266,180877,5,6,1:2:0:0:
204,266,181048,1,0,1:2:0:0:
246,157,181220,1,8,0:2:0:0:
87,29,181563,6,0,P|52:21|18:101,2,132.00000402832,6|10|2,1:2|0:2|0:2,0:0:0:0:
164,110,182420,1,0,1:2:0:0:
128,4,182592,1,10,0:2:0:0:
164,110,182763,2,0,P|137:143|130:172,1,66.0000020141602,2|0,1:2|0:0,0:0:0:0:
56,240,183106,5,2,1:2:0:0:
143,298,183277,2,0,P|185:302|210:317,1,66.0000020141602,10|0,0:2|0:0,0:0:0:0:
286,382,183620,2,0,L|357:366,1,66.0000020141602,2|2,0:2|1:2,0:0:0:0:
402,275,183963,2,0,L|331:259,1,66.0000020141602,10|2,0:2|0:2,0:0:0:0:
241,211,184306,5,2,1:2:0:0:
241,211,184477,1,2,1:2:0:0:
270,103,184649,1,14,0:2:0:0:
140,252,184992,5,2,1:2:0:0:
140,252,185163,1,2,1:2:0:0:
172,133,185335,1,14,0:2:0:0:
36,298,185677,5,2,1:2:0:0:
36,298,185848,1,2,1:2:0:0:
71,167,186020,1,14,0:2:0:0:
71,167,186192,1,2,1:2:0:0:
166,250,186363,1,8,0:2:0:0:
166,250,186449,1,8,0:2:0:0:
166,250,186535,2,0,P|183:267|202:279,1,33.0000010070801,0|0,1:2|1:2,0:0:0:0:
223,293,186706,6,0,B|255:284|255:284|316:316|316:316|327:344,1,132.00000402832,8|0,0:2|1:2,0:0:0:0:
488,174,187392,6,0,P|496:209|501:253,1,66.0000020141602,14|2,0:2|0:2,0:0:0:0:
453,332,187735,2,0,B|436:322|413:319|413:319|314:347,1,132.00000402832,2|10,0:2|0:2,0:0:0:0:
254,266,188249,2,0,L|327:245,1,66.0000020141602,2|0,1:2|0:0,0:0:0:0:
252,162,188592,5,2,1:2:0:0:
354,134,188763,2,0,L|427:113,1,66.0000020141602,10|0,0:2|0:0,0:0:0:0:
479,23,189106,2,0,B|462:13|439:10|439:10|340:38,1,132.00000402832,2|10,0:2|0:0,0:0:0:0:
252,2,189620,1,2,0:2:0:0:
269,106,189792,6,0,B|259:126|259:126|280:213|280:213|274:232,2,132.00000402832,6|10|2,1:2|0:0|0:2,0:0:0:0:
321,14,190649,1,0,1:0:0:0:
248,99,190820,2,0,L|167:71,1,66.0000020141602,10|2,0:2|0:2,0:0:0:0:
88,48,191163,5,2,1:2:0:0:
88,48,191335,1,0,1:2:0:0:
32,151,191506,1,14,0:2:0:0:
239,234,191849,5,2,1:2:0:0:
239,234,192021,1,0,1:2:0:0:
183,131,192192,1,14,0:2:0:0:
134,328,192535,6,0,P|172:348|266:364,2,132.00000402832,6|10|2,1:2|0:2|0:2,0:0:0:0:
34,368,193392,1,0,1:0:0:0:
13,260,193563,1,10,0:2:0:0:
34,368,193735,2,0,P|72:362|104:342,1,66.0000020141602,2|0,1:2|0:0,0:0:0:0:
143,254,194077,5,2,1:2:0:0:
227,318,194249,2,0,P|256:332|288:337,1,66.0000020141602,10|0,0:2|0:0,0:0:0:0:
391,309,194592,2,0,P|400:268|409:173,1,132.00000402832,2|10,0:2|0:2,0:0:0:0:
367,82,195106,1,2,0:2:0:0:
269,119,195277,6,0,L|221:108,3,33.0000010070801,0|0|0|0,3:2|3:2|3:2|3:2,0:0:0:0:
205,100,195620,2,0,L|172:107,3,33.0000010070801,0|0|0|0,3:2|3:2|3:2|3:2,0:0:0:0:
143,123,195963,2,0,L|154:171,3,33.0000010070801,0|0|0|0,3:2|3:2|3:2|3:2,0:0:0:0:
162,187,196306,2,0,L|154:219,3,33.0000010070801,0|0|0|0,3:2|3:2|3:2|3:2,0:0:0:0:
158,252,196649,6,0,B|146:323|220:345|220:345|291:330,2,198.000006042481,8|8|8,3:2|3:2|3:2,0:0:0:0:
21,379,198020,1,2,3:3:0:0:
21,379,198363,6,0,P|12:317|10:236,1,132.00000402832,14|2,0:1|0:1,0:0:0:0:
27,149,198877,1,0,1:1:0:0:
25,255,199049,2,0,P|61:251|99:239,1,66.0000020141602,10|2,0:1|0:1,0:0:0:0:
169,182,199392,5,2,1:1:0:0:
169,182,199563,1,0,1:1:0:0:
137,89,199735,1,10,0:1:0:0:
137,89,199906,2,0,P|168:64|263:34,1,132.00000402832,2|0,1:1|1:1,0:0:0:0:
352,23,200420,1,8,0:1:0:0:
501,114,200763,6,0,P|481:140|460:173,1,66.0000020141602,0|0,1:1|0:0,0:0:0:0:
372,227,201106,2,0,B|364:203|369:185|369:185|334:160|268:139,1,132.00000402832,10|2,0:1|0:1,0:0:0:0:
225,70,201620,1,0,1:0:0:0:
270,168,201792,2,0,P|279:201|273:241,1,66.0000020141602,10|2,0:1|0:1,0:0:0:0:
194,310,202135,5,2,1:1:0:0:
194,310,202306,1,0,1:1:0:0:
269,374,202477,2,0,B|293:367|293:367|329:347|329:347|370:344|370:344|396:338,1,132.00000402832,10|2,0:1|0:1,0:0:0:0:
488,375,202992,1,0,1:0:0:0:
395,322,203163,2,0,P|398:286|411:246,1,66.0000020141602,10|0,0:1|0:0,0:0:0:0:
486,173,203506,6,0,B|493:148|493:148|491:143|491:143|484:107,1,66.0000020141602,4|0,1:1|1:0,0:0:0:0:
422,32,203849,2,0,P|379:5|313:49,1,132.00000402832,10|2,0:1|0:1,0:0:0:0:
243,111,204363,1,0,1:1:0:0:
188,32,204535,1,10,0:1:0:0:
188,32,204706,6,0,B|140:30|99:16|99:16|52:33,1,132.00000402832,2|0,1:1|1:1,0:0:0:0:
8,114,205220,2,0,P|7:147|2:184,2,66.0000020141602,10|2|2,0:1|0:1|0:1,0:0:0:0:
60,30,205735,1,0,1:1:0:0:
120,109,205906,2,0,P|121:142|126:179,1,66.0000020141602,8|0,0:1|0:0,0:0:0:0:
207,253,206249,6,0,P|241:240|269:220,1,66.0000020141602,0|0,1:1|0:0,0:0:0:0:
302,132,206592,2,0,B|359:165|359:165|424:152,1,132.00000402832,10|2,0:1|0:1,0:0:0:0:
494,82,207106,1,0,1:1:0:0:
426,163,207277,2,0,P|438:200|461:239,1,66.0000020141602,10|2,0:1|0:1,0:0:0:0:
512,309,207620,5,2,1:1:0:0:
512,309,207792,1,0,1:1:0:0:
448,384,207963,1,10,0:1:0:0:
448,384,208135,1,2,1:1:0:0:
431,238,208392,6,0,L|424:182,2,33.0000010070801,8|0|0,0:1|1:0|0:0,0:0:0:0:
406,259,208649,2,0,L|399:303,2,33.0000010070801,10|8|8,0:1|0:1|0:1,0:0:0:0:
292,238,208992,1,2,1:3:0:0:
292,238,209335,6,0,P|233:236|197:301,1,132.00000402832,14|2,0:1|0:1,0:0:0:0:
244,380,209849,1,0,1:1:0:0:
179,289,210020,2,0,P|146:290|108:296,1,66.0000020141602,10|2,0:1|0:1,0:0:0:0:
27,374,210363,6,0,B|15:345|15:345|20:310,1,66.0000020141602,2|0,1:1|0:0,0:0:0:0:
104,255,210706,2,0,B|116:226|116:226|110:191,1,66.0000020141602,10|2,0:1|0:1,0:0:0:0:
29,135,211049,2,0,B|35:71|35:71|53:40|91:30,1,132.00000402832,2|8,0:1|0:1,0:0:0:0:
184,6,211563,1,0,0:0:0:0:
276,75,211735,6,0,P|269:113|253:142,1,66.0000020141602,0|0,1:1|0:0,0:0:0:0:
180,199,212077,2,0,P|211:240|307:280,1,132.00000402832,10|2,0:1|0:1,0:0:0:0:
336,360,212592,1,0,1:0:0:0:
290,261,212763,2,0,P|327:242|362:239,1,66.0000020141602,10|2,0:1|0:1,0:0:0:0:
467,272,213106,5,2,1:1:0:0:
467,272,213277,1,0,1:1:0:0:
486,174,213449,1,10,0:1:0:0:
321,123,213792,5,2,1:1:0:0:
321,123,213963,1,0,1:0:0:0:
302,25,214135,1,10,0:1:0:0:
480,8,214477,5,4,1:2:0:0:
480,8,215335,6,0,P|459:57|437:149,1,144,2|2,1:2|1:2,0:0:0:0:
437,144,216706,2,0,L|336:201,1,96,2|2,1:2|1:2,0:0:0:0:
252,214,217220,5,2,1:2:0:0:
218,193,217735,1,2,1:2:0:0:
201,158,218249,1,2,1:2:0:0:
198,119,218763,1,10,0:2:0:0:
314,38,219020,6,0,L|357:44,2,33.0000010070801,0|0|0,1:2|1:2|1:2,0:0:0:0:
289,16,219277,2,0,L|217:6,1,66.0000020141602,10|0,0:2|1:2,0:0:0:0:
128,0,219620,2,0,B|95:37|95:37|90:77|105:123,1,132.00000402832,10|4,0:2|1:1,0:0:0:0:
256,192,220049,12,6,225449,0:2:0:0:
