osu file format v14

[General]
AudioFilename: audio.mp3
AudioLeadIn: 0
PreviewTime: 96535
Countdown: 0
SampleSet: Soft
StackLeniency: 0.5
Mode: 0
LetterboxInBreaks: 0
EpilepsyWarning: 1
WidescreenStoryboard: 0

[Editor]
Bookmarks: 535,11506,22477,33449,44420,55392,66363,77335,87963,99277,110249,110592,121220,132192,143163,154135,164763,176077,187049,187392,198020,208992,219963,225449
DistanceSpacing: 1.3
BeatDivisor: 4
GridSize: 32
TimelineZoom: 1.7

[Metadata]
Title:Danzai Yamaxanadu!
TitleUnicode:断罪ヤマザナドゥ!
Artist:IOSYS
ArtistUnicode:IOSYS
Creator:Annabel
Version:Easy
Source:東方花映塚 ~ Phantasmagoria of Flower View.
Tags:Ayyri eiri- honne BlastTheKidd Zelq StarCastler Yuuya_ke Hectic h4d0uk3n1 h3ct1c Entry Coeminals ginjani HEAVENLY MOON Leader Zetera Sala- WalkingDivan4Ik aknazar WD Delette Maruoko _milr PaRaDogi fieryrage Baack Convictor 六十年目の東方裁判 ~ Fate of Sixty Years 夕野ヨシミ Eastern Judgement in the Sixtieth Year Rokujuunenme Rokujuu Nenme Rokujuu-nen Me no Shinsoku Saiban 岩杉 夏 ARM 四季映姫・ヤマザナドゥ Shikieiki Yamazanadu Eiki Shiki 東方アゲハ Ageha Grimoire of Touhou BEST ALBUM vol.2 Team Shanghai Alice ZUN 東方Project PoFV Kaeizuka Flower Reflecting Mound TH9 Japanese Video Game Pop J-Pop JPop
BeatmapID:3796119
BeatmapSetID:1525635

[Difficulty]
HPDrainRate:3
CircleSize:2
OverallDifficulty:4
ApproachRate:4
SliderMultiplier:0.8
SliderTickRate:1

[Events]
//Background and Video events
Video,-150,"Danzai Yamaxanadu.avi"
0,0,"Shikieiki 275.png",0,0
//Break Periods
//Storyboard Layer 0 (Background)
//Storyboard Layer 1 (Fail)
//Storyboard Layer 2 (Pass)
//Storyboard Layer 3 (Foreground)
//Storyboard Layer 4 (Overlay)
//Storyboard Sound Samples

[TimingPoints]
535,342.857142857143,4,2,1,56,1,0
19735,-100,4,2,1,60,0,0
20420,-100,4,2,1,64,0,0
21106,-100,4,2,1,68,0,0
21620,-100,4,2,2,68,0,0
22477,-100,4,2,2,72,0,0
44420,-100,4,2,2,68,0,0
93877,-100,4,2,2,56,0,0
96535,-100,4,2,2,40,0,0
96877,-100,4,2,2,44,0,0
97220,-100,4,2,2,48,0,0
97906,-100,4,2,2,60,0,0
98420,-100,4,2,2,66,0,0
98935,-100,4,2,2,72,0,0
99277,-100,4,2,2,80,0,1
110249,-100,4,2,2,80,0,0
110592,-100,4,2,2,80,0,1
118477,-100,4,2,1,56,0,1
118820,-100,4,2,1,64,0,1
119163,-100,4,2,1,72,0,1
119506,-100,4,2,1,76,0,1
119849,-100,4,2,2,80,0,0
121220,-100,4,2,1,64,0,0
131677,-100,4,2,2,64,0,0
132192,-100,4,2,2,66,0,0
143163,-100,4,2,2,68,0,0
154135,-100,4,2,2,72,0,0
155506,-100,4,2,2,73,0,0
156877,-100,4,2,2,74,0,0
158249,-100,4,2,2,75,0,0
159620,-100,4,2,2,76,0,0
160992,-100,4,2,2,77,0,0
162363,-100,4,2,2,78,0,0
163735,-100,4,2,2,79,0,0
165106,-100,4,2,2,80,0,0
170677,-100,4,2,2,68,0,0
173335,-100,4,2,2,40,0,0
173677,-100,4,2,2,44,0,0
174020,-100,4,2,2,48,0,0
174706,-100,4,2,2,60,0,0
175220,-100,4,2,2,66,0,0
175735,-100,4,2,2,72,0,0
176077,-100,4,2,2,80,0,1
187049,-100,4,2,2,80,0,0
187392,-100,4,2,2,80,0,1
195277,-100,4,2,3,40,0,1
195620,-100,4,2,3,44,0,1
195963,-100,4,2,3,48,0,1
196306,-100,4,2,3,52,0,1
196649,-100,4,2,3,60,0,1
197163,-100,4,2,3,66,0,1
197677,-100,4,2,3,72,0,1
198020,-100,4,2,1,72,0,0
198363,-100,4,2,2,82,0,0
214563,-100,4,2,2,70,0,0
219277,-100,4,2,2,72,0,0
219620,-100,4,2,2,74,0,0
219963,-100,4,2,2,76,0,0
220049,-100,4,2,2,50,0,0

[Colours]
Combo1 : 191,11,38
Combo2 : 152,222,208
Combo3 : 54,171,148
Combo4 : 252,177,189

[HitObjects]
64,64,11163,5,2,0:2:0:0:
151,120,11506,6,0,P|201:115|246:115,2,80,2|2|10,3:2|0:2|0:2,0:0:0:0:
18,202,12706,2,0,P|22:261|28:321,1,120,2|2,0:2|3:2,0:0:0:0:
122,365,13563,1,10,0:2:0:0:
207,306,13906,1,2,0:2:0:0:
302,346,14249,6,0,L|396:340,2,80,2|2|10,3:2|0:2|0:2,0:0:0:0:
247,199,15449,2,0,P|167:186|114:174,1,120,2|2,0:2|3:2,0:0:0:0:
39,230,16306,1,10,0:2:0:0:
4,131,16649,1,2,0:2:0:0:
94,80,16992,6,0,P|133:76|173:70,2,80,2|2|10,3:2|0:2|0:2,0:0:0:0:
4,131,18020,1,2,0:2:0:0:
88,191,18363,2,0,L|78:365,1,160,2|10,0:2|0:2,0:0:0:0:
181,370,19392,1,2,0:2:0:0:
263,306,19735,6,0,P|320:322|346:324,2,80,2|2|10,3:2|0:2|0:2,0:0:0:0:
193,228,20763,1,2,3:2:0:0:
389,160,21449,2,0,P|395:114|407:67,2,80,2|2|8,3:2|1:2|0:2,0:0:0:0:
442,249,22477,5,6,1:2:0:0:
352,301,22820,2,0,P|295:285|269:283,2,80,10|2|10,0:1|0:1|0:1,0:0:0:0:
436,361,23849,2,0,B|463:284|463:284|427:250|444:200,1,160,2|2,1:1|0:1,0:0:0:0:
506,132,24877,1,8,0:1:0:0:
440,50,25220,5,0,1:1:0:0:
340,79,25563,2,0,P|304:66|262:38,2,80,10|2|10,0:1|0:1|0:1,0:0:0:0:
285,167,26592,2,0,P|225:179|113:211,1,160,2|2,1:1|1:1,0:0:0:0:
40,151,27620,1,10,0:1:0:0:
106,70,27963,5,4,1:1:0:0:
189,131,28306,2,0,P|182:184|181:219,2,80,10|2|10,0:1|0:1|0:1,0:0:0:0:
273,70,29335,2,0,B|353:58|353:58|373:152,1,160,2|2,1:1|0:1,0:0:0:0:
313,222,30363,1,8,0:1:0:0:
394,286,30706,6,0,L|383:380,2,80,0|10|2,1:1|0:1|0:1,0:0:0:0:
491,248,31735,1,10,0:1:0:0:
441,156,32077,2,0,P|452:111|455:67,1,80,2|10,1:1|0:1,0:0:0:0:
373,11,32763,2,0,P|362:56|359:100,1,80,2|10,0:1|0:1,0:0:0:0:
265,136,33449,5,4,1:2:0:0:
178,77,33792,2,0,P|121:61|95:59,2,80,10|2|10,0:1|0:1|0:1,0:0:0:0:
265,136,34821,2,0,B|292:213|292:213|271:258|219:232,1,160,2|2,1:1|0:1,0:0:0:0:
134,188,35849,1,8,0:1:0:0:
66,267,36192,5,0,1:1:0:0:
3,183,36535,2,0,L|10:93,2,80,10|2|10,0:1|0:1|0:1,0:0:0:0:
66,267,37564,2,0,P|126:279|238:311,1,160,2|2,1:1|1:1,0:0:0:0:
313,258,38592,1,10,0:1:0:0:
379,338,38935,5,4,1:1:0:0:
459,272,39278,2,0,P|466:219|467:184,2,80,10|2|10,0:1|0:1|0:1,0:0:0:0:
379,338,40307,2,0,B|299:350|299:350|279:256,1,160,2|2,1:1|0:1,0:0:0:0:
265,170,41335,1,8,0:1:0:0:
350,111,41677,6,0,P|414:95|415:38,2,120,0|0|2,1:2|1:2|1:1,0:0:0:0:
213,35,43220,1,8,0:2:0:0:
117,158,43735,1,14,1:1:0:0:
169,247,44077,6,0,P|207:258|246:264,1,80,14|6,0:1|1:2,0:0:0:0:
333,207,44763,2,0,P|372:200|410:189,2,80,10|2|10,0:3|0:3|0:2,0:0:0:0:
248,145,45792,2,0,L|236:12,1,120,2|2,1:2|0:2,0:0:0:0:
81,27,46820,1,10,0:2:0:0:
144,109,47163,6,0,B|237:94,2,80,2|10|2,1:2|0:2|0:2,0:0:0:0:
52,158,48192,1,10,0:2:0:0:
135,220,48535,2,0,B|217:200|217:200|203:281,1,160,2|2,1:2|0:2,0:0:0:0:
119,335,49563,1,8,0:2:0:0:
217,369,49906,6,0,P|283:360|303:354,2,80,2|10|2,1:2|0:2|0:2,0:0:0:0:
119,335,50935,1,10,0:2:0:0:
62,247,51277,2,0,P|53:205|47:156,2,80,2|10|2,1:2|0:2|0:2,0:0:0:0:
119,335,52306,1,10,0:2:0:0:
217,369,52649,6,0,P|297:350|392:338,1,160,2|2,1:2|0:2,0:0:0:0:
450,268,53677,1,10,0:2:0:0:
421,168,54020,2,0,L|431:74,2,80,2|10|2,1:2|0:2|0:2,0:0:0:0:
331,220,55049,6,0,P|264:202|244:192,1,80,14|6,0:2|1:2,0:0:0:0:
176,266,55735,2,0,P|138:280|99:288,1,80,10|2,0:3|0:3,0:0:0:0:
18,222,56420,1,10,0:2:0:0:
74,133,56763,2,0,B|65:100|65:100|68:93|68:93|51:39,1,80,2|10,1:2|0:2,0:0:0:0:
150,9,57449,1,2,0:2:0:0:
236,67,57792,1,10,0:2:0:0:
335,37,58135,6,0,P|413:52|510:65,1,160,2|2,1:2|0:2,0:0:0:0:
511,165,59163,1,10,0:2:0:0:
425,224,59506,2,0,P|417:291|411:313,2,80,2|10|2,1:2|0:2|0:2,0:0:0:0:
350,151,60535,1,8,0:2:0:0:
273,221,60877,6,0,P|217:206|178:200,2,80,2|10|2,1:2|0:2|0:2,0:0:0:0:
317,315,61906,1,10,0:2:0:0:
228,369,62249,2,0,P|188:361|150:350,1,80,2|10,0:2|0:2,0:0:0:0:
84,269,62935,2,0,P|122:257|161:250,1,80,2|10,0:2|0:2,0:0:0:0:
219,164,63620,6,0,P|211:114|200:5,1,160,2|2,1:2|0:2,0:0:0:0:
95,0,64649,1,10,3:2:0:0:
70,100,64992,2,0,P|27:114|-13:132,2,80,2|2|2,1:2|1:2|1:2,0:0:0:0:
159,153,66020,6,0,P|202:167|242:185,1,80,8|4,0:2|1:2,0:0:0:0:
305,105,66706,2,0,P|348:91|388:73,1,80,10|2,0:3|0:3,0:0:0:0:
460,143,67392,1,10,0:2:0:0:
394,223,67735,2,0,L|387:321,2,80,2|10|2,1:2|0:2|0:2,0:0:0:0:
297,183,68763,1,10,0:2:0:0:
212,243,69106,6,0,P|140:240|145:155,1,160,2|2,1:2|0:2,0:0:0:0:
40,118,70135,1,10,0:2:0:0:
103,35,70477,2,0,P|154:24|196:10,2,80,2|10|2,1:2|0:2|0:2,0:0:0:0:
40,118,71506,6,0,P|37:187|34:213,1,80,12|4,0:2|1:2,0:0:0:0:
118,261,72192,2,0,P|121:330|124:356,1,80,10|2,0:3|0:3,0:0:0:0:
221,370,72877,1,10,0:2:0:0:
301,303,73220,2,0,B|334:328|377:312|377:312|365:227,1,160,2|2,1:2|0:2,0:0:0:0:
399,134,74249,1,10,0:2:0:0:
329,56,74592,6,0,P|272:69|237:69,1,80,2|10,1:2|0:2,0:0:0:0:
193,156,75277,2,0,P|250:169|285:169,2,80,2|10|2,0:2|0:2|1:2,0:0:0:0:
106,213,76306,1,10,0:2:0:0:
172,293,76649,1,2,1:2:0:0:
273,268,76992,6,0,L|285:363,1,80,14|6,0:2|1:2,0:0:0:0:
384,368,77677,2,0,L|396:273,1,80,10|2,0:3|0:3,0:0:0:0:
468,215,78363,1,10,0:2:0:0:
412,126,78706,2,0,B|336:145|336:145|351:47,1,160,2|2,1:2|1:2,0:0:0:0:
442,19,79735,1,10,0:2:0:0:
502,102,80077,6,0,L|509:188,1,80,2|10,1:2|0:2,0:0:0:0:
417,233,80763,2,0,L|410:147,2,80,2|10|2,0:2|0:2|1:2,0:0:0:0:
361,321,81792,1,10,0:2:0:0:
269,271,82135,1,2,0:2:0:0:
190,339,82477,6,0,P|145:354|106:358,1,80,14|6,0:2|1:2,0:0:0:0:
77,259,83163,2,0,P|37:253|0:240,2,80,10|2|10,0:3|0:3|0:2,0:0:0:0:
159,194,84192,2,0,P|148:115|141:18,1,160,2|0,0:2|0:0,0:0:0:0:
243,12,85220,1,10,0:2:0:0:
323,77,85563,6,0,L|416:68,1,80,2|10,1:2|3:2,0:0:0:0:
377,170,86249,2,0,L|284:179,1,80,0|10,1:2|3:2,0:0:0:0:
96,122,87277,2,0,L|90:216,1,80,10|8,0:2|0:2,0:0:0:0:
152,285,87963,5,14,0:1:0:0:
253,262,88306,1,6,1:1:0:0:
322,339,88649,2,0,P|363:348|405:352,1,80,10|2,0:3|0:3,0:0:0:0:
481,285,89335,1,10,0:1:0:0:
504,184,89678,1,2,1:1:0:0:
427,115,90021,2,0,P|418:74|414:32,1,80,10|2,0:3|0:3,0:0:0:0:
317,73,90706,5,10,0:1:0:0:
216,96,91049,1,2,1:1:0:0:
147,19,91392,2,0,P|106:10|64:6,1,80,10|2,0:3|0:3,0:0:0:0:
22,99,92077,1,10,0:1:0:0:
0,200,92420,1,2,1:1:0:0:
76,269,92763,2,0,P|85:310|89:352,2,80,10|2|10,0:3|0:3|0:1,0:0:0:0:
0,200,93792,5,6,1:1:0:0:
256,159,94649,1,0,1:2:0:0:
232,313,95163,1,0,1:2:0:0:
66,112,96020,1,0,1:2:0:0:
218,145,96535,6,0,P|298:139|420:116,1,200,0|0,1:2|1:2,0:0:0:0:
495,250,97906,2,0,L|486:379,2,120,8|8|8,3:2|3:2|3:2,0:0:0:0:
441,160,99277,5,6,1:2:0:0:
473,61,99620,1,10,0:2:0:0:
378,18,99963,2,0,P|320:65|276:46,1,120,2|2,0:2|0:2,0:0:0:0:
180,37,100820,2,0,P|203:126|208:165,1,120,2|2,0:2|0:2,0:0:0:0:
304,189,101677,1,8,0:2:0:0:
264,285,102020,6,0,P|215:324|197:320,1,80,6|10,1:2|0:2,0:0:0:0:
107,279,102706,2,0,P|58:240|40:244,1,80,2|14,0:2|0:2,0:0:0:0:
25,139,103392,1,2,0:0:0:0:
127,123,103735,1,14,0:2:0:0:
207,188,104077,1,2,0:0:0:0:
309,204,104420,1,14,0:2:0:0:
391,140,104763,6,0,P|394:86|399:49,1,80,6|10,1:2|0:2,0:0:0:0:
302,16,105449,2,0,P|246:82|224:67,1,120,2|2,0:2|0:2,0:0:0:0:
146,27,106306,1,2,0:2:0:0:
34,136,106820,2,0,L|43:232,1,80,2|10,0:2|0:2,0:0:0:0:
123,279,107506,5,2,1:2:0:0:
224,256,107849,1,14,0:2:0:0:
296,181,108192,1,2,1:2:0:0:
397,204,108535,1,14,0:2:0:0:
481,144,108877,2,0,P|475:101|474:50,1,80,2|14,1:2|0:2,0:0:0:0:
383,11,109563,2,0,B|364:24|364:24|297:33,2,80,10|10|0,0:2|0:2|1:2,0:0:0:0:
464,76,110592,6,0,P|462:133|458:167,1,80,14|2,0:0|0:2,0:0:0:0:
361,191,111277,2,0,L|379:281,2,80,10|0|10,0:2|1:2|0:2,0:0:0:0:
285,118,112306,1,2,0:2:0:0:
216,196,112649,1,10,0:2:0:0:
141,122,112992,6,0,P|95:116|51:106,1,80,6|10,1:2|0:2,0:0:0:0:
42,211,113677,2,0,P|88:217|132:227,1,80,2|10,0:2|0:2,0:0:0:0:
216,196,114363,1,2,1:2:0:0:
241,296,114706,1,12,0:2:0:0:
322,231,115049,1,2,1:2:0:0:
297,131,115392,1,12,0:2:0:0:
385,76,115735,6,0,P|423:93|467:104,2,80,6|10|2,1:2|0:2|0:2,0:0:0:0:
306,7,116763,1,10,0:2:0:0:
216,59,117106,2,0,P|136:50|50:45,1,160,0|2,1:2|1:2,0:0:0:0:
7,137,118135,1,10,0:2:0:0:
77,212,118477,6,0,L|70:305,1,80,0|0,3:2|3:2,0:0:0:0:
164,337,119163,2,0,L|171:244,1,80,0|0,3:2|3:2,0:0:0:0:
261,207,119849,1,12,0:2:0:0:
505,13,120877,6,0,P|497:70|495:108,1,80,2|6,0:0|3:2,0:0:0:0:
415,158,121563,2,0,P|423:215|425:253,1,80,2|10,0:3|0:3,0:0:0:0:
483,323,122249,1,2,0:2:0:0:
389,369,122592,2,0,B|355:344|355:344|231:365,1,160,2|10,0:2|0:2,0:0:0:0:
138,336,123620,1,2,0:2:0:0:
172,237,123963,6,0,L|162:146,2,80,2|2|10,3:2|0:2|0:2,0:0:0:0:
274,257,124992,1,2,3:2:0:0:
356,193,125335,2,0,P|371:143|370:31,1,160,2|10,0:2|0:2,0:0:0:0:
272,1,126363,1,0,0:0:0:0:
190,65,126706,6,0,P|142:57|96:53,2,80,2|2|10,3:2|0:2|0:2,0:0:0:0:
277,122,127735,1,2,0:2:0:0:
205,197,128077,2,0,P|157:205|111:209,2,80,2|2|10,0:2|3:2|0:2,0:0:0:0:
277,122,129106,1,2,0:2:0:0:
361,182,129449,6,0,P|440:196|526:223,1,160,2|10,3:2|0:2,0:0:0:0:
485,318,130477,1,2,3:2:0:0:
380,315,130820,2,0,B|325:370|325:370|236:356,1,160,2|10,0:2|0:2,0:0:0:0:
140,369,131849,6,0,P|132:328|119:285,1,80,2|6,0:2|1:2,0:0:0:0:
193,216,132535,2,0,P|201:175|214:132,1,80,2|2,1:3|1:3,0:0:0:0:
176,40,133220,1,2,1:2:0:0:
103,114,133563,2,0,P|58:130|13:136,2,80,2|2|2,1:2|1:2|1:2,0:0:0:0:
176,40,134592,1,2,1:2:0:0:
277,60,134935,6,0,P|322:76|367:82,1,80,2|2,1:2|1:2,0:0:0:0:
421,160,135620,1,2,1:2:0:0:
334,217,135963,1,2,1:2:0:0:
408,289,136306,2,0,L|417:376,2,80,2|2|2,1:2|1:2|1:2,0:0:0:0:
334,217,137335,1,0,1:2:0:0:
279,305,137677,6,0,P|232:298|188:296,1,80,2|2,1:2|1:2,0:0:0:0:
150,203,138363,2,0,P|103:210|59:212,1,80,2|2,1:2|1:2,0:0:0:0:
17,121,139049,1,2,1:2:0:0:
96,54,139392,1,2,1:2:0:0:
186,105,139735,2,0,P|233:112|277:114,1,80,2|2,1:2|1:2,0:0:0:0:
335,37,140420,6,0,P|322:104|314:200,1,160,2|2,1:2|1:2,0:0:0:0:
244,272,141449,1,2,1:2:0:0:
324,337,141792,2,0,P|378:348|418:363,2,80,14|10|2,0:2|0:2|0:0,0:0:0:0:
231,289,142820,6,0,P|192:301|153:308,1,80,10|6,0:2|1:2,0:0:0:0:
93,222,143506,2,0,P|53:213|16:199,2,80,10|2|10,0:3|0:3|0:2,0:0:0:0:
187,177,144535,2,0,B|156:97|258:119|205:21,1,160,2|2,1:2|0:2,0:0:0:0:
110,1,145563,1,10,0:2:0:0:
74,98,145906,6,0,P|37:112|-11:124,2,80,2|10|2,1:2|0:2|0:2,0:0:0:0:
110,1,146935,1,10,0:2:0:0:
196,57,147277,2,0,P|232:71|281:83,2,80,2|10|2,1:2|0:2|0:2,0:0:0:0:
110,1,148306,6,0,P|101:55|90:89,1,80,14|6,0:2|1:2,0:0:0:0:
167,152,148992,2,0,P|176:206|187:240,1,80,10|2,0:3|0:3,0:0:0:0:
146,327,149677,1,8,0:2:0:0:
240,369,150020,2,0,P|319:360|417:353,1,160,2|0,1:2|0:0,0:0:0:0:
478,286,151049,1,10,0:2:0:0:
385,239,151392,6,0,P|366:207|373:152,1,80,2|10,0:0|0:2,0:0:0:0:
459,117,152077,2,0,P|478:85|471:30,2,80,2|10|2,0:0|0:2|0:0,0:0:0:0:
374,55,153106,1,10,0:2:0:0:
284,108,153449,1,2,1:2:0:0:
184,77,153792,6,0,P|128:88|89:90,1,80,14|6,0:2|1:2,0:0:0:0:
55,180,154477,2,0,P|111:191|150:193,1,80,10|2,0:3|0:3,0:0:0:0:
220,250,155163,1,10,0:2:0:0:
320,222,155506,1,6,1:2:0:0:
407,278,155849,1,10,0:3:0:0:
507,250,156192,1,2,0:3:0:0:
487,147,156535,6,0,L|496:56,1,80,10|6,0:2|1:2,0:0:0:0:
403,18,157220,2,0,L|394:109,1,80,10|2,0:3|0:3,0:0:0:0:
310,159,157906,1,10,0:2:0:0:
206,147,158249,1,6,1:2:0:0:
123,210,158592,1,10,0:3:0:0:
19,198,158935,1,2,0:3:0:0:
6,300,159277,6,0,P|40:316|87:347,1,80,10|6,0:2|1:2,0:0:0:0:
179,347,159963,2,0,P|213:331|260:300,1,80,10|2,0:3|0:3,0:0:0:0:
319,231,160649,1,10,0:2:0:0:
307,127,160992,1,6,1:2:0:0:
410,138,161335,1,8,0:2:0:0:
398,34,161678,1,2,0:3:0:0:
496,67,162020,6,0,L|506:156,1,80,10|6,0:2|0:2,0:0:0:0:
450,235,162706,2,0,L|460:324,1,80,10|2,0:3|1:3,0:0:0:0:
355,303,163392,1,10,0:2:0:0:
254,330,163735,1,6,0:2:0:0:
173,264,164077,2,0,L|79:289,1,80,10|10,0:3|0:3,0:0:0:0:
11,222,164763,5,14,0:1:0:0:
89,153,165106,1,6,1:1:0:0:
191,170,165449,2,0,P|196:128|196:86,1,80,10|2,0:3|0:3,0:0:0:0:
279,26,166135,1,10,0:1:0:0:
357,95,166478,1,2,1:1:0:0:
459,78,166821,2,0,P|464:119|464:161,1,80,10|2,0:3|0:3,0:0:0:0:
377,214,167506,5,10,0:1:0:0:
308,136,167849,1,2,1:1:0:0:
325,34,168192,2,0,P|283:28|241:28,1,80,10|2,0:3|0:3,0:0:0:0:
176,105,168877,1,10,0:1:0:0:
245,183,169220,1,2,1:1:0:0:
228,285,169563,2,0,P|269:290|311:290,2,80,10|2|10,0:3|0:3|0:1,0:0:0:0:
245,183,170592,5,6,1:1:0:0:
495,112,171449,1,0,1:2:0:0:
384,1,171963,1,0,1:2:0:0:
424,257,172820,1,0,1:2:0:0:
328,133,173335,6,0,P|250:127|112:126,1,200,0|0,1:2|1:2,0:0:0:0:
25,244,174706,2,0,P|34:282|114:271,2,120,8|8|8,0:2|3:2|3:2,0:0:0:0:
8,141,176077,5,6,1:2:0:0:
106,106,176420,1,10,0:2:0:0:
193,161,176763,2,0,B|272:172|272:172|294:224,1,120,2|2,0:2|0:2,0:0:0:0:
385,243,177620,2,0,P|400:152|401:113,1,120,2|2,0:2|0:2,0:0:0:0:
368,25,178477,1,8,0:2:0:0:
285,88,178820,6,0,L|195:78,1,80,6|10,1:2|0:2,0:0:0:0:
124,144,179506,2,0,L|134:234,1,80,2|10,0:2|0:2,0:0:0:0:
103,323,180192,1,6,1:2:0:0:
1,339,180535,1,10,0:2:0:0:
31,239,180877,1,6,1:2:0:0:
133,223,181220,1,8,0:2:0:0:
213,289,181563,6,0,P|220:342|228:378,1,80,6|10,1:2|0:2,0:0:0:0:
330,363,182249,2,0,P|385:356|394:300,1,120,2|2,0:2|1:2,0:0:0:0:
330,219,183106,1,2,1:2:0:0:
184,274,183620,2,0,L|88:270,1,80,2|10,0:2|0:2,0:0:0:0:
43,185,184306,5,2,1:2:0:0:
146,170,184649,1,14,0:2:0:0:
227,234,184992,1,2,1:2:0:0:
330,219,185335,1,14,0:2:0:0:
390,134,185677,2,0,P|384:91|383:40,1,80,2|14,1:2|0:2,0:0:0:0:
281,29,186363,2,0,B|260:17|260:17|193:14,2,80,8|8|0,0:2|0:2|1:2,0:0:0:0:
360,96,187392,6,0,P|416:103|450:105,1,80,14|2,0:2|0:2,0:0:0:0:
493,194,188077,1,10,0:2:0:0:
406,324,188592,2,0,P|351:348|286:355,1,120,2|2,1:2|0:2,0:0:0:0:
197,311,189449,1,10,0:0:0:0:
235,214,189792,6,0,P|226:174|221:135,1,80,6|10,1:2|0:0,0:0:0:0:
119,154,190477,2,0,P|127:193|132:232,1,80,2|10,0:2|0:2,0:0:0:0:
197,311,191163,1,2,1:2:0:0:
235,214,191506,1,14,0:2:0:0:
337,233,191849,1,2,1:2:0:0:
375,136,192192,1,14,0:2:0:0:
283,85,192535,6,0,P|243:97|198:102,2,80,6|10|2,1:2|0:2|0:2,0:0:0:0:
358,13,193563,1,10,0:2:0:0:
459,37,193906,2,0,P|463:116|472:196,1,160,2|2,0:0|0:2,0:0:0:0:
404,275,194935,1,10,0:2:0:0:
315,220,195277,6,0,L|222:213,1,80,0|0,3:2|3:2,0:0:0:0:
146,269,195963,2,0,L|53:262,1,80,0|0,3:2|3:2,0:0:0:0:
17,170,196649,2,0,P|52:108|95:120,2,120,8|8|8,3:2|3:2|3:2,0:0:0:0:
101,231,198020,5,2,3:3:0:0:
200,199,198363,2,0,P|257:215|283:217,2,80,14|2|10,0:1|0:1|0:1,0:0:0:0:
193,94,199392,2,0,B|271:71|271:71|300:117|348:117,1,160,2|2,1:1|0:1,0:0:0:0:
435,98,200420,1,8,0:1:0:0:
495,182,200763,5,0,1:1:0:0:
444,272,201106,2,0,P|459:308|473:360,2,80,10|2|10,0:1|0:1|0:1,0:0:0:0:
343,244,202135,2,0,P|282:250|167:272,1,160,2|2,1:1|0:1,0:0:0:0:
91,222,203163,1,10,0:1:0:0:
155,140,203506,5,4,1:1:0:0:
89,59,203849,2,0,P|49:56|9:50,2,80,10|2|10,0:1|0:1|0:1,0:0:0:0:
188,28,204878,2,0,B|268:16|268:16|288:110,1,160,2|2,0:1|0:1,0:0:0:0:
362,162,205906,1,8,0:1:0:0:
314,254,206249,6,0,L|325:348,2,80,0|10|2,1:1|0:1|0:1,0:0:0:0:
217,213,207278,1,10,0:1:0:0:
140,283,207620,2,0,P|95:294|51:297,1,80,2|10,1:1|0:1,0:0:0:0:
42,194,208306,2,0,P|87:183|131:180,1,80,2|10,0:0|0:1,0:0:0:0:
217,213,208992,5,2,1:3:0:0:
281,131,209335,2,0,L|271:44,2,80,14|2|10,0:1|0:1|0:1,0:0:0:0:
357,202,210364,2,0,B|336:281|336:281|361:324|411:293,1,160,2|2,1:1|0:1,0:0:0:0:
500,259,211392,1,8,0:1:0:0:
456,164,211735,5,0,1:1:0:0:
357,202,212078,2,0,L|265:196,2,80,10|2|10,0:1|0:1|0:1,0:0:0:0:
456,164,213106,2,0,P|409:90|342:117,1,160,2|2,1:1|1:1,0:0:0:0:
272,174,214135,1,10,0:1:0:0:
209,90,214478,5,4,1:2:0:0:
259,344,215335,1,2,1:2:0:0:
359,224,215849,1,2,1:2:0:0:
100,201,216706,1,2,1:2:0:0:
230,286,217220,6,0,P|294:270|295:213,2,120,2|2|2,1:2|1:2|1:2,0:0:0:0:
100,201,218763,1,10,0:2:0:0:
242,138,219277,2,0,L|230:52,1,80,10|10,0:2|0:2,0:0:0:0:
140,6,219963,5,4,1:1:0:0:
256,192,220049,12,6,225449,0:2:0:0:
