osu file format v14

[General]
AudioFilename: audio.mp3
AudioLeadIn: 0
PreviewTime: 96535
Countdown: 0
SampleSet: Soft
StackLeniency: 0
Mode: 0
LetterboxInBreaks: 0
EpilepsyWarning: 1
WidescreenStoryboard: 0

[Editor]
Bookmarks: 535,11506,22477,33449,44420,55392,66363,77335,87963,99277,110249,110592,119849,121220,132192,143163,154135,164763,176077,187049,187392,198020,198363,208992,219963,225449
DistanceSpacing: 1
BeatDivisor: 4
GridSize: 32
TimelineZoom: 1.7

[Metadata]
Title:Danzai Yamaxanadu!
TitleUnicode:断罪ヤマザナドゥ!
Artist:IOSYS
ArtistUnicode:IOSYS
Creator:Annabel
Version:Classic Expert
Source:東方花映塚 ~ Phantasmagoria of Flower View.
Tags:Ayyri eiri- honne BlastTheKidd Zelq StarCastler Yuuya_ke Hectic h4d0uk3n1 h3ct1c Entry Coeminals ginjani HEAVENLY MOON Leader Zetera Sala- WalkingDivan4Ik aknazar WD Delette Maruoko _milr PaRaDogi fieryrage Baack Convictor 六十年目の東方裁判 ~ Fate of Sixty Years 夕野ヨシミ Eastern Judgement in the Sixtieth Year Rokujuunenme Rokujuu Nenme Rokujuu-nen Me no Shinsoku Saiban 岩杉 夏 ARM 四季映姫・ヤマザナドゥ Shikieiki Yamazanadu Eiki Shiki 東方アゲハ Ageha Grimoire of Touhou BEST ALBUM vol.2 Team Shanghai Alice ZUN 東方Project PoFV Kaeizuka Flower Reflecting Mound TH9 Japanese Video Game Pop J-Pop JPop
BeatmapID:3121436
BeatmapSetID:1525635

[Difficulty]
HPDrainRate:5
CircleSize:3
OverallDifficulty:8.5
ApproachRate:9
SliderMultiplier:1.6
SliderTickRate:1

[Events]
//Background and Video events
Video,-150,"Danzai Yamaxanadu.avi"
0,0,"Shikieiki 275.png",0,0
//Break Periods
//Storyboard Layer 0 (Background)
//Storyboard Layer 1 (Fail)
//Storyboard Layer 2 (Pass)
//Storyboard Layer 3 (Foreground)
//Storyboard Layer 4 (Overlay)
//Storyboard Sound Samples

[TimingPoints]
535,342.857142857143,4,2,4,56,1,0
19735,-100,4,2,4,60,0,0
20420,-100,4,2,4,64,0,0
21106,-100,4,2,4,68,0,0
21620,-100,4,2,4,68,0,0
22477,-100,4,2,4,72,0,0
44420,-100,4,2,4,68,0,0
93877,-100,4,2,4,56,0,0
96535,-100,4,2,4,40,0,0
96877,-100,4,2,4,44,0,0
97220,-100,4,2,4,48,0,0
97563,-100,4,2,4,52,0,0
97906,-100,4,2,4,60,0,0
98420,-100,4,2,4,66,0,0
98935,-100,4,2,4,72,0,0
99277,-100,4,2,4,80,0,1
110249,-100,4,2,4,80,0,0
110592,-100,4,2,4,80,0,1
118477,-100,4,2,4,56,0,1
118820,-100,4,2,4,64,0,1
119163,-100,4,2,4,72,0,1
119506,-100,4,2,4,76,0,1
119849,-100,4,2,4,80,0,0
121220,-100,4,2,4,64,0,0
131677,-100,4,2,4,64,0,0
132192,-100,4,2,4,66,0,0
143163,-100,4,2,4,68,0,0
154135,-100,4,2,4,72,0,0
155506,-100,4,2,4,73,0,0
156877,-100,4,2,4,74,0,0
158249,-100,4,2,4,75,0,0
159620,-100,4,2,4,76,0,0
160992,-100,4,2,4,77,0,0
162363,-100,4,2,4,78,0,0
163735,-100,4,2,4,79,0,0
165106,-100,4,2,4,80,0,0
170677,-100,4,2,4,68,0,0
173335,-100,4,2,4,40,0,0
173677,-100,4,2,4,44,0,0
174020,-100,4,2,4,48,0,0
174363,-100,4,2,4,52,0,0
174706,-100,4,2,4,60,0,0
175220,-100,4,2,4,66,0,0
175735,-100,4,2,4,72,0,0
176077,-100,4,2,4,80,0,1
187049,-100,4,2,4,80,0,0
187392,-100,4,2,4,80,0,1
195277,-100,4,2,4,40,0,1
195620,-100,4,2,4,44,0,1
195963,-100,4,2,4,48,0,1
196306,-100,4,2,4,52,0,1
196649,-100,4,2,4,60,0,1
197163,-100,4,2,4,66,0,1
197677,-100,4,2,4,72,0,1
198020,-100,4,2,4,72,0,0
198363,-100,4,2,4,82,0,0
214563,-100,4,2,4,70,0,0
219277,-100,4,2,4,72,0,0
219620,-100,4,2,4,74,0,0
219963,-100,4,2,4,76,0,0
220049,-100,4,2,4,50,0,0

[Colours]
Combo1 : 191,11,38
Combo2 : 152,222,208
Combo3 : 54,171,148
Combo4 : 252,177,189

[HitObjects]
480,32,11163,5,2,0:2:0:0:
480,352,11506,5,2,3:2:0:0:
480,32,11849,5,2,0:2:0:0:
480,128,12020,1,0,3:0:0:0:
480,32,12192,1,10,0:2:0:0:
384,128,12535,1,2,0:2:0:0:
384,32,12706,1,2,0:2:0:0:
288,32,13049,1,2,3:2:0:0:
288,128,13220,1,2,3:2:0:0:
288,32,13392,1,2,0:2:0:0:
288,128,13563,1,10,0:2:0:0:
32,32,13906,5,2,0:2:0:0:
32,352,14249,5,2,3:2:0:0:
32,32,14592,5,2,0:2:0:0:
32,128,14763,1,0,3:0:0:0:
32,32,14935,1,10,0:2:0:0:
128,128,15277,1,2,0:2:0:0:
128,32,15449,1,2,0:2:0:0:
224,32,15792,1,2,0:2:0:0:
224,128,15963,1,2,3:2:0:0:
224,32,16306,1,10,0:2:0:0:
480,32,16649,5,2,0:2:0:0:
32,352,16992,5,2,3:2:0:0:
480,192,17335,5,2,0:2:0:0:
384,192,17506,1,0,3:0:0:0:
480,192,17677,1,10,0:2:0:0:
32,192,18020,5,2,0:2:0:0:
128,192,18192,1,2,0:2:0:0:
32,192,18363,1,2,0:2:0:0:
128,192,18535,1,2,3:2:0:0:
128,192,18706,1,2,3:2:0:0:
384,192,19049,1,10,0:2:0:0:
256,192,19392,1,2,0:2:0:0:
256,32,19735,5,2,3:2:0:0:
256,41,19820,1,0,0:0:0:0:
256,50,19906,1,2,0:2:0:0:
256,58,19992,1,0,0:0:0:0:
256,67,20077,1,2,0:2:0:0:
256,75,20163,1,0,0:0:0:0:
256,83,20249,1,2,0:2:0:0:
256,92,20335,1,0,0:0:0:0:
256,100,20420,1,10,0:2:0:0:
256,109,20506,1,0,0:0:0:0:
256,117,20592,1,0,0:0:0:0:
256,125,20677,1,0,0:0:0:0:
256,134,20763,1,2,3:2:0:0:
256,142,20849,1,0,0:0:0:0:
256,152,20935,6,0,L|256:211,1,40,2|0,3:2|0:0,0:0:0:0:
352,192,21106,1,0,0:0:0:0:
352,184,21192,1,0,0:0:0:0:
352,176,21277,2,0,L|352:120,1,40,2|0,3:2|0:0,0:0:0:0:
448,128,21449,2,0,L|448:184,1,40,2|0,3:2|0:0,0:0:0:0:
448,192,21620,2,0,L|448:136,1,40,0|0,1:2|0:0,0:0:0:0:
448,32,21792,1,2,1:2:0:0:
352,32,21963,1,0,1:2:0:0:
256,32,22135,1,8,0:2:0:0:
256,352,22477,5,6,1:2:0:0:
368,352,22649,1,0,0:0:0:0:
480,352,22820,2,0,L|480:256,1,80,10|0,0:1|0:0,0:0:0:0:
384,160,23163,2,0,L|384:256,1,80,2|0,0:1|1:1,0:0:0:0:
480,192,23506,1,10,0:1:0:0:
256,192,23677,1,2,0:1:0:0:
256,352,23849,5,2,1:1:0:0:
32,352,24192,2,0,L|32:256,2,80,10|2|2,0:1|1:1|0:1,0:0:0:0:
144,352,24706,1,0,1:1:0:0:
32,192,24877,1,8,0:1:0:0:
256,32,25220,5,0,1:1:0:0:
368,32,25392,1,0,0:0:0:0:
480,32,25563,2,0,L|480:128,1,80,10|0,0:1|0:0,0:0:0:0:
256,32,25906,2,0,L|256:128,1,80,2|0,0:1|1:1,0:0:0:0:
480,192,26249,1,10,0:1:0:0:
256,192,26420,1,2,0:1:0:0:
256,32,26592,5,2,1:1:0:0:
144,32,26763,1,0,0:0:0:0:
32,32,26935,2,0,L|116:32,1,80,10|2,0:1|0:1,0:0:0:0:
256,32,27277,1,2,1:1:0:0:
256,32,27449,1,0,1:0:0:0:
32,192,27620,1,10,0:1:0:0:
256,352,27963,5,4,1:1:0:0:
368,352,28135,1,0,0:0:0:0:
480,352,28306,2,0,L|480:256,1,80,10|0,0:1|0:0,0:0:0:0:
384,160,28649,2,0,L|384:256,1,80,2|0,0:1|1:1,0:0:0:0:
480,192,28992,1,10,0:1:0:0:
256,192,29163,1,2,1:1:0:0:
256,352,29335,5,2,1:1:0:0:
32,352,29677,2,0,L|32:256,2,80,10|2|2,0:1|0:1|0:1,0:0:0:0:
144,352,30192,1,0,1:1:0:0:
32,192,30363,1,8,0:1:0:0:
256,32,30706,5,0,1:1:0:0:
368,32,30877,1,0,1:0:0:0:
480,32,31049,2,0,L|480:128,1,80,10|0,0:1|0:0,0:0:0:0:
256,32,31392,2,0,L|256:128,1,80,2|0,0:1|1:1,0:0:0:0:
480,192,31735,1,10,0:1:0:0:
256,192,31906,1,0,0:0:0:0:
256,32,32077,5,2,1:1:0:0:
144,32,32249,1,0,1:1:0:0:
32,32,32420,1,10,0:1:0:0:
144,112,32592,2,0,L|144:16,1,80,2|0,1:1|0:0,0:0:0:0:
256,192,32935,1,0,1:0:0:0:
32,192,33106,1,10,0:1:0:0:
256,32,33449,5,4,1:2:0:0:
368,32,33620,1,0,0:0:0:0:
480,32,33792,2,0,L|480:128,1,80,10|0,0:1|0:0,0:0:0:0:
384,224,34135,2,0,L|384:128,1,80,2|0,0:1|1:1,0:0:0:0:
480,192,34477,1,10,0:1:0:0:
256,192,34649,1,2,0:1:0:0:
256,32,34820,5,2,1:1:0:0:
32,32,35163,2,0,L|32:128,2,80,10|2|2,0:1|1:1|0:1,0:0:0:0:
144,32,35677,1,0,1:1:0:0:
32,192,35849,1,8,0:1:0:0:
256,352,36192,5,0,1:1:0:0:
368,352,36363,1,0,0:0:0:0:
480,352,36535,2,0,L|480:256,1,80,10|0,0:1|0:0,0:0:0:0:
256,352,36877,2,0,L|256:256,1,80,2|0,0:1|1:1,0:0:0:0:
480,192,37220,1,10,0:1:0:0:
256,192,37392,1,2,0:1:0:0:
256,352,37563,5,2,1:1:0:0:
144,352,37735,1,0,0:0:0:0:
32,352,37906,2,0,L|116:352,1,80,10|2,0:1|0:1,0:0:0:0:
256,352,38249,1,2,1:1:0:0:
32,352,38420,1,0,1:0:0:0:
32,192,38592,1,10,0:1:0:0:
256,32,38935,5,4,1:1:0:0:
368,32,39106,1,0,0:0:0:0:
480,32,39277,2,0,L|480:128,1,80,10|0,0:1|0:0,0:0:0:0:
384,224,39620,2,0,L|384:128,1,80,2|0,0:1|1:1,0:0:0:0:
480,192,39963,1,10,0:1:0:0:
256,192,40135,1,2,1:1:0:0:
256,32,40306,5,2,1:1:0:0:
144,32,40477,1,0,1:1:0:0:
32,32,40649,2,0,L|32:128,2,80,10|2|2,0:1|0:1|0:1,0:0:0:0:
144,32,41163,1,0,1:1:0:0:
32,192,41335,1,8,0:1:0:0:
256,192,41677,5,0,1:2:0:0:
256,112,42192,1,0,1:2:0:0:
256,32,42706,1,2,1:1:0:0:
256,352,43220,1,8,0:2:0:0:
256,192,43563,1,2,1:1:0:0:
256,192,43649,1,2,1:1:0:0:
256,192,43735,1,14,1:1:0:0:
256,352,43906,1,2,1:2:0:0:
256,32,44077,5,14,0:1:0:0:
256,192,44420,5,6,1:2:0:0:
256,192,44763,6,0,L|416:192,1,160,10|2,0:3|0:3,0:0:0:0:
480,128,45277,5,2,1:2:0:0:
480,256,45449,1,10,0:2:0:0:
480,128,45620,1,0,0:0:0:0:
256,192,45792,1,2,1:2:0:0:
384,192,46135,1,10,0:2:0:0:
384,96,46306,1,2,0:2:0:0:
384,288,46649,1,2,1:2:0:0:
384,192,46820,1,10,0:2:0:0:
384,192,47163,5,2,1:2:0:0:
384,96,47335,1,2,0:2:0:0:
480,192,47506,1,10,0:2:0:0:
384,288,47677,1,2,0:2:0:0:
288,192,47849,1,2,0:2:0:0:
480,192,48192,1,10,0:2:0:0:
288,192,48363,1,2,0:2:0:0:
384,288,48535,5,2,1:2:0:0:
384,320,48877,1,10,0:2:0:0:
384,352,49220,1,2,0:2:0:0:
384,192,49392,1,0,1:2:0:0:
384,352,49563,1,8,0:2:0:0:
384,192,49906,5,2,1:2:0:0:
480,192,50077,1,2,0:2:0:0:
288,192,50249,1,10,0:2:0:0:
288,192,50420,1,0,0:0:0:0:
384,64,50592,1,2,0:2:0:0:
384,320,50935,1,10,0:2:0:0:
384,192,51106,1,2,0:2:0:0:
384,96,51277,5,2,1:2:0:0:
384,96,51449,1,2,1:2:0:0:
384,288,51620,1,10,0:2:0:0:
384,32,51792,1,2,0:2:0:0:
384,352,51963,1,2,0:2:0:0:
480,192,52306,1,10,0:2:0:0:
480,192,52477,1,2,1:2:0:0:
288,192,52649,5,2,1:2:0:0:
480,192,52820,1,2,0:2:0:0:
384,128,52992,1,8,0:2:0:0:
384,256,53163,1,2,0:2:0:0:
448,192,53335,1,2,0:2:0:0:
320,192,53506,1,2,1:2:0:0:
480,192,53677,1,10,0:2:0:0:
288,192,53849,1,0,0:0:0:0:
384,64,54020,5,2,1:2:0:0:
384,64,54192,1,2,1:2:0:0:
384,320,54363,1,10,0:2:0:0:
384,320,54535,1,0,0:0:0:0:
480,192,54706,1,2,0:2:0:0:
256,32,55049,5,14,0:2:0:0:
256,192,55220,1,0,3:0:0:0:
256,192,55306,1,0,3:0:0:0:
256,192,55392,5,6,1:2:0:0:
256,192,55735,6,0,L|96:192,1,160,10|2,0:3|0:3,0:0:0:0:
32,128,56249,5,2,1:2:0:0:
32,256,56420,1,10,0:2:0:0:
32,128,56592,1,2,0:2:0:0:
256,192,56763,5,2,1:2:0:0:
192,192,56877,5,2,0:2:0:0:
128,192,56992,5,2,0:2:0:0:
64,192,57106,5,10,0:2:0:0:
160,288,57277,1,2,0:2:0:0:
160,96,57449,1,2,0:2:0:0:
224,352,57620,1,2,1:2:0:0:
224,32,57792,1,10,0:2:0:0:
128,192,58135,5,2,1:2:0:0:
128,96,58306,1,2,0:2:0:0:
32,192,58477,1,10,0:2:0:0:
128,288,58649,1,2,0:2:0:0:
224,192,58820,1,2,0:2:0:0:
32,192,59163,1,10,0:2:0:0:
224,192,59335,1,2,0:2:0:0:
128,288,59506,5,2,1:2:0:0:
128,288,59677,1,2,1:2:0:0:
128,96,59849,1,10,0:2:0:0:
128,96,60020,1,2,1:2:0:0:
128,192,60192,1,2,0:2:0:0:
128,288,60363,1,0,1:2:0:0:
128,96,60535,1,8,0:2:0:0:
128,192,60877,5,2,1:2:0:0:
32,192,61049,1,2,0:2:0:0:
224,192,61220,1,10,0:2:0:0:
224,192,61392,1,2,0:2:0:0:
128,64,61563,1,2,0:2:0:0:
128,320,61906,1,10,0:2:0:0:
128,192,62077,1,2,1:2:0:0:
128,64,62249,5,2,0:2:0:0:
128,320,62420,1,0,1:2:0:0:
128,64,62592,1,10,0:2:0:0:
128,64,62935,1,2,0:2:0:0:
32,192,63277,1,10,0:2:0:0:
32,192,63449,1,2,0:2:0:0:
224,192,63620,5,2,1:2:0:0:
32,192,63792,1,2,0:2:0:0:
128,128,63963,1,10,0:2:0:0:
128,256,64135,1,2,0:2:0:0:
64,192,64306,1,2,0:2:0:0:
192,192,64477,1,2,1:2:0:0:
32,192,64649,1,10,3:2:0:0:
224,192,64820,1,0,3:2:0:0:
128,32,64992,5,2,1:2:0:0:
128,32,65163,1,2,1:2:0:0:
128,352,65335,1,2,1:2:0:0:
128,352,65506,1,2,1:2:0:0:
256,192,65677,1,2,1:2:0:0:
0,192,65849,1,0,1:2:0:0:
256,32,66020,5,8,0:2:0:0:
256,192,66192,1,0,3:0:0:0:
256,192,66277,1,0,3:0:0:0:
256,192,66363,5,4,1:2:0:0:
256,192,66706,6,0,L|416:192,1,160,10|2,0:3|0:3,0:0:0:0:
480,128,67220,5,2,1:2:0:0:
480,256,67392,1,10,0:2:0:0:
480,128,67563,1,2,0:0:0:0:
480,128,67649,1,2,0:0:0:0:
480,128,67735,1,2,1:2:0:0:
256,192,67906,1,2,0:0:0:0:
480,256,68077,1,10,0:2:0:0:
480,256,68163,1,2,0:0:0:0:
480,256,68249,1,2,0:0:0:0:
384,208,68420,1,2,0:2:0:0:
384,176,68506,1,2,0:2:0:0:
384,208,68592,1,2,1:2:0:0:
384,176,68677,1,2,0:2:0:0:
384,192,68763,1,10,0:2:0:0:
384,192,69106,5,2,1:2:0:0:
384,96,69277,1,2,0:2:0:0:
480,192,69449,1,10,0:2:0:0:
384,288,69620,1,2,0:2:0:0:
288,192,69792,1,2,0:2:0:0:
480,192,70135,1,10,0:2:0:0:
288,192,70306,1,2,0:2:0:0:
448,256,70477,5,2,1:2:0:0:
448,64,70649,1,2,1:2:0:0:
384,320,70820,1,10,0:2:0:0:
384,32,70992,1,2,0:2:0:0:
384,192,71163,1,2,0:2:0:0:
256,32,71506,5,12,0:2:0:0:
256,192,71677,1,0,1:0:0:0:
256,192,71849,5,4,1:2:0:0:
256,192,72192,6,0,L|96:192,1,160,10|2,0:3|0:3,0:0:0:0:
32,128,72706,5,2,1:2:0:0:
32,128,72792,1,2,0:2:0:0:
32,128,72877,1,10,0:2:0:0:
32,256,73049,1,0,0:0:0:0:
32,256,73135,1,2,0:2:0:0:
32,256,73220,5,2,1:2:0:0:
80,256,73306,1,2,0:2:0:0:
128,256,73392,1,2,0:2:0:0:
128,304,73477,1,2,0:2:0:0:
128,352,73563,5,10,0:2:0:0:
80,352,73649,1,2,0:2:0:0:
32,352,73735,1,2,0:2:0:0:
32,304,73820,1,2,0:2:0:0:
32,256,73906,5,2,0:2:0:0:
128,352,74077,1,0,1:0:0:0:
128,256,74249,1,10,0:2:0:0:
32,352,74420,1,0,0:0:0:0:
80,256,74592,5,2,1:2:0:0:
80,128,74763,1,2,0:2:0:0:
160,192,74935,1,10,0:2:0:0:
0,192,75106,1,2,1:2:0:0:
160,112,75277,1,2,0:2:0:0:
160,112,75449,1,2,1:2:0:0:
160,272,75620,1,10,0:2:0:0:
160,272,75792,1,2,0:2:0:0:
0,192,75963,5,2,1:2:0:0:
224,192,76135,1,2,0:2:0:0:
32,192,76306,1,10,0:2:0:0:
192,192,76477,1,2,0:2:0:0:
112,192,76649,1,2,1:2:0:0:
112,192,76820,1,0,1:2:0:0:
256,32,76992,5,14,0:2:0:0:
256,192,77163,1,0,3:0:0:0:
256,192,77249,1,0,3:0:0:0:
256,192,77335,5,6,1:2:0:0:
256,192,77677,6,0,L|416:192,1,160,10|2,0:3|0:3,0:0:0:0:
488,176,78191,5,2,1:2:0:0:
488,208,78277,1,2,0:2:0:0:
452,176,78363,1,10,0:2:0:0:
452,208,78449,1,2,0:2:0:0:
416,176,78534,1,2,0:2:0:0:
416,208,78620,1,2,0:2:0:0:
380,176,78706,1,2,1:2:0:0:
380,208,78792,1,2,0:2:0:0:
344,176,78877,1,2,1:2:0:0:
344,208,78963,1,2,0:2:0:0:
308,176,79049,1,10,0:2:0:0:
308,208,79135,1,2,0:2:0:0:
272,176,79220,1,2,0:2:0:0:
272,208,79306,1,2,0:2:0:0:
256,192,79392,1,2,1:2:0:0:
488,176,79563,1,2,1:2:0:0:
488,208,79649,1,2,1:2:0:0:
504,192,79735,1,10,0:2:0:0:
384,192,80077,5,2,1:2:0:0:
384,96,80249,1,2,0:2:0:0:
480,192,80420,1,10,0:2:0:0:
384,288,80592,1,2,0:2:0:0:
288,192,80763,1,2,0:2:0:0:
480,192,80935,1,2,1:2:0:0:
288,192,81106,1,10,0:2:0:0:
384,288,81277,1,2,0:2:0:0:
448,256,81449,5,2,1:2:0:0:
448,64,81620,1,2,1:2:0:0:
384,320,81792,1,10,0:2:0:0:
384,32,81963,1,2,0:2:0:0:
384,192,82135,1,2,0:2:0:0:
256,32,82306,1,0,1:0:0:0:
256,32,82392,1,0,1:0:0:0:
256,32,82477,5,14,0:2:0:0:
256,192,82649,1,2,1:2:0:0:
256,192,82820,5,6,1:2:0:0:
256,192,83163,6,0,L|96:192,1,160,10|2,0:3|0:3,0:0:0:0:
32,128,83677,5,2,1:2:0:0:
32,128,83763,1,2,0:2:0:0:
32,128,83849,1,10,0:2:0:0:
32,256,84020,1,0,1:2:0:0:
96,192,84192,1,2,0:2:0:0:
256,192,84363,1,0,1:2:0:0:
160,368,84535,1,10,0:2:0:0:
160,320,84620,1,2,0:2:0:0:
160,272,84706,1,2,0:2:0:0:
160,224,84792,1,2,0:2:0:0:
32,16,85049,1,2,1:2:0:0:
32,64,85134,1,2,0:2:0:0:
32,112,85220,1,10,0:2:0:0:
32,160,85306,1,2,0:2:0:0:
160,192,85563,5,2,1:2:0:0:
160,96,85735,1,0,1:2:0:0:
64,96,85906,1,10,3:2:0:0:
64,192,86077,1,2,1:2:0:0:
160,192,86249,5,0,1:2:0:0:
256,192,86420,1,2,1:2:0:0:
256,288,86592,1,10,3:2:0:0:
160,288,86763,1,2,1:2:0:0:
160,192,86935,5,0,3:2:0:0:
256,96,87106,1,2,1:2:0:0:
64,288,87277,1,10,0:2:0:0:
64,96,87620,1,8,0:2:0:0:
448,288,87792,1,0,1:2:0:0:
448,288,87877,1,0,1:2:0:0:
448,288,87963,5,14,0:1:0:0:
448,96,88135,1,0,1:0:0:0:
64,192,88306,1,6,1:1:0:0:
64,288,88649,5,10,0:3:0:0:
64,96,88820,1,0,0:0:0:0:
448,192,88992,1,2,0:3:0:0:
256,192,89163,1,0,1:0:0:0:
448,288,89335,5,10,0:1:0:0:
448,96,89506,1,0,0:0:0:0:
64,192,89677,1,2,1:1:0:0:
64,288,90020,5,10,0:3:0:0:
64,96,90192,1,0,0:0:0:0:
448,192,90363,1,2,0:3:0:0:
256,192,90535,1,0,1:0:0:0:
448,288,90706,5,10,0:1:0:0:
448,96,90877,1,0,0:0:0:0:
64,192,91049,1,2,1:1:0:0:
64,288,91392,5,10,0:3:0:0:
64,96,91563,1,0,0:0:0:0:
448,192,91735,1,2,0:3:0:0:
256,192,91906,1,0,1:0:0:0:
448,288,92077,5,10,0:1:0:0:
448,96,92249,1,0,0:0:0:0:
64,192,92420,1,2,1:1:0:0:
64,288,92763,5,10,0:3:0:0:
64,96,92935,1,0,0:0:0:0:
448,192,93106,1,2,0:3:0:0:
256,192,93277,1,0,1:0:0:0:
448,288,93449,5,10,0:1:0:0:
256,32,93792,5,6,1:1:0:0:
256,352,94649,1,0,1:0:0:0:
256,32,95163,1,0,1:0:0:0:
256,352,96020,1,0,1:0:0:0:
256,32,96535,5,0,1:2:0:0:
256,41,96620,1,0,3:2:0:0:
256,50,96706,1,0,3:2:0:0:
256,58,96792,1,0,3:2:0:0:
256,67,96877,1,0,3:2:0:0:
256,75,96963,1,0,3:2:0:0:
256,83,97049,1,0,3:2:0:0:
256,92,97135,1,0,3:2:0:0:
256,101,97220,1,0,3:2:0:0:
256,110,97306,1,0,3:2:0:0:
256,119,97392,6,0,L|256:178,1,40,0|0,1:2|3:2,0:0:0:0:
160,224,97563,1,0,3:2:0:0:
160,216,97649,1,0,3:2:0:0:
160,208,97735,1,0,3:2:0:0:
160,200,97820,1,0,3:2:0:0:
160,192,97906,6,0,L|160:133,1,40,8|0,3:2|3:2,0:0:0:0:
64,64,98077,2,0,L|64:104,1,40,0|0,1:2|3:2,0:0:0:0:
224,64,98249,1,0,3:2:0:0:
224,56,98335,1,0,3:2:0:0:
224,48,98420,6,0,L|224:-11,1,40,8|0,3:2|3:2,0:0:0:0:
133,191,98592,1,0,3:2:0:0:
133,199,98677,1,0,3:2:0:0:
133,207,98763,1,0,1:2:0:0:
133,287,98849,1,0,1:2:0:0:
133,366,98935,6,0,L|133:311,1,40,8|0,3:2|3:2,0:0:0:0:
133,18,99106,2,0,L|133:73,1,40,0|0,3:2|3:2,0:0:0:0:
0,192,99277,6,0,L|118:192,1,80,6|0,1:2|0:0,0:0:0:0:
512,192,99620,1,10,0:2:0:0:
432,192,99792,1,0,0:0:0:0:
468,36,99963,2,0,L|468:134,1,80,2|0,0:2|1:2,0:0:0:0:
468,348,100306,1,10,0:2:0:0:
468,348,100477,2,0,L|468:250,1,80,2|0,0:2|1:0,0:0:0:0:
352,192,100820,1,2,0:2:0:0:
352,192,100992,2,0,L|448:192,1,80,10|0,0:2|0:0,0:0:0:0:
256,192,101335,1,2,0:2:0:0:
480,128,101592,1,2,0:2:0:0:
480,256,101849,1,2,0:2:0:0:
352,32,102020,6,0,L|352:128,1,80,6|0,1:2|0:0,0:0:0:0:
352,352,102363,2,0,L|352:256,1,80,10|0,0:2|0:0,0:0:0:0:
512,192,102706,2,0,L|416:192,1,80,2|0,0:2|1:2,0:0:0:0:
96,192,103049,1,14,0:2:0:0:
176,192,103220,2,0,L|272:192,1,80,2|2,1:2|0:0,0:0:0:0:
256,32,103563,1,0,1:2:0:0:
176,32,103735,2,0,L|80:32,1,80,14|0,0:2|1:2,0:0:0:0:
96,352,104077,1,2,0:0:0:0:
176,352,104249,2,0,L|272:352,1,80,0|14,1:2|0:2,0:0:0:0:
512,192,104763,6,0,L|394:192,1,80,6|0,1:2|0:0,0:0:0:0:
0,192,105106,1,10,0:2:0:0:
80,192,105277,1,2,0:2:0:0:
44,36,105449,2,0,L|44:134,1,80,2|0,0:2|1:2,0:0:0:0:
44,348,105792,1,10,0:2:0:0:
44,348,105963,2,0,L|44:250,1,80,2|0,0:2|1:2,0:0:0:0:
160,192,106306,1,2,0:2:0:0:
160,192,106477,2,0,L|64:192,1,80,10|0,0:2|0:0,0:0:0:0:
256,192,106820,1,2,0:2:0:0:
160,288,106992,1,2,1:2:0:0:
160,96,107163,1,10,0:2:0:0:
64,192,107335,1,2,0:2:0:0:
256,192,107506,5,2,1:2:0:0:
256,96,107677,1,2,1:2:0:0:
256,288,107849,2,0,L|256:384,1,80,14|0,0:2|0:0,0:0:0:0:
352,160,108192,5,2,1:2:0:0:
352,64,108363,1,2,1:2:0:0:
352,256,108535,2,0,L|352:352,1,80,14|0,0:2|0:0,0:0:0:0:
448,128,108877,5,2,1:2:0:0:
448,32,109049,1,2,1:2:0:0:
448,224,109220,2,0,L|448:320,1,80,14|0,0:2|1:2,0:0:0:0:
160,96,109563,5,10,0:2:0:0:
160,119,109649,1,8,0:2:0:0:
160,144,109735,1,0,1:2:0:0:
160,169,109820,1,0,1:2:0:0:
160,192,109906,2,0,L|160:309,1,80,10|0,0:2|0:0,0:0:0:0:
160,0,110249,1,0,1:2:0:0:
160,384,110591,6,0,L|160:267,1,80,14|0,0:0|0:0,0:0:0:0:
160,0,110935,2,0,L|160:98,1,80,2|0,0:2|1:0,0:0:0:0:
32,192,111277,1,8,0:0:0:0:
32,192,111449,2,0,L|130:192,1,80,2|0,0:2|1:2,0:0:0:0:
256,96,111792,1,2,0:2:0:0:
256,96,111964,2,0,L|158:96,1,80,10|0,0:2|0:0,0:0:0:0:
256,288,112306,2,0,L|354:288,1,80,2|0,0:2|1:2,0:0:0:0:
480,128,112649,1,10,0:2:0:0:
400,128,112820,1,2,0:2:0:0:
480,352,112992,6,0,L|480:254,1,80,6|0,1:2|0:0,0:0:0:0:
384,32,113335,2,0,L|384:130,1,80,10|2,0:2|0:0,0:0:0:0:
288,352,113677,2,0,L|288:254,1,80,2|0,0:2|1:2,0:0:0:0:
192,32,114020,2,0,L|192:130,1,80,10|2,0:2|0:2,0:0:0:0:
96,352,114363,5,2,1:2:0:0:
96,192,114534,1,2,1:2:0:0:
96,352,114706,2,0,L|96:256,1,80,12|0,0:2|0:0,0:0:0:0:
416,352,115049,5,2,1:2:0:0:
416,192,115220,1,2,1:2:0:0:
416,352,115392,2,0,L|416:256,1,80,12|0,0:2|0:0,0:0:0:0:
96,352,115735,6,0,L|0:352,1,80,6|0,1:2|0:0,0:0:0:0:
416,272,116077,2,0,L|512:272,1,80,10|0,0:2|0:0,0:0:0:0:
96,272,116420,2,0,L|16:272,1,80,2|0,0:2|1:2,0:0:0:0:
416,352,116763,1,10,0:2:0:0:
416,352,116935,2,0,L|496:352,1,80,2|0,0:2|1:2,0:0:0:0:
256,192,117277,1,2,1:2:0:0:
256,96,117449,2,0,L|256:0,1,80,10|0,0:2|0:0,0:0:0:0:
256,192,117792,1,2,1:2:0:0:
384,192,117963,1,2,1:2:0:0:
128,192,118135,1,10,0:2:0:0:
256,192,118305,1,2,0:2:0:0:
240,32,118477,5,0,3:2:0:0:
272,32,118563,1,0,3:2:0:0:
240,52,118649,1,0,3:2:0:0:
272,52,118734,1,0,3:2:0:0:
240,72,118821,1,0,3:2:0:0:
272,72,118906,1,0,3:2:0:0:
240,92,118992,1,0,3:2:0:0:
272,92,119077,1,0,3:2:0:0:
240,112,119164,1,0,3:2:0:0:
272,112,119249,1,0,3:2:0:0:
240,132,119335,1,0,3:2:0:0:
272,132,119420,1,0,3:2:0:0:
240,152,119507,1,0,3:2:0:0:
272,152,119592,1,0,3:2:0:0:
240,172,119678,1,0,3:2:0:0:
272,172,119763,1,0,3:2:0:0:
256,192,119850,5,12,0:2:0:0:
256,32,120877,5,2,0:0:0:0:
256,192,121220,5,6,3:2:0:0:
256,192,121563,6,0,L|416:192,1,160,2|10,0:3|0:3,0:0:0:0:
480,128,122077,5,2,0:2:0:0:
480,256,122249,1,2,0:2:0:0:
480,128,122420,1,2,0:2:0:0:
256,192,122592,1,2,0:2:0:0:
384,192,122935,1,2,3:2:0:0:
384,288,123106,1,2,0:2:0:0:
384,96,123277,1,10,0:2:0:0:
384,192,123449,1,2,3:2:0:0:
384,96,123620,1,2,0:2:0:0:
384,288,123792,1,0,3:0:0:0:
384,192,123963,5,2,3:2:0:0:
384,96,124135,1,2,3:2:0:0:
480,192,124306,1,2,0:2:0:0:
384,288,124477,1,2,3:2:0:0:
288,192,124649,1,10,0:2:0:0:
288,192,124992,1,2,3:2:0:0:
480,192,125163,1,2,0:2:0:0:
288,192,125335,5,2,0:2:0:0:
480,192,125677,1,2,3:2:0:0:
384,256,125849,1,2,0:2:0:0:
448,192,126020,1,10,0:2:0:0:
320,192,126192,1,0,3:2:0:0:
320,192,126706,5,2,3:2:0:0:
480,192,126877,1,2,0:2:0:0:
288,192,127049,1,2,0:2:0:0:
288,192,127220,1,2,3:2:0:0:
384,64,127392,1,10,0:2:0:0:
384,64,127563,1,2,0:2:0:0:
384,320,127735,1,2,0:2:0:0:
384,192,127906,1,2,0:2:0:0:
384,64,128077,5,2,0:2:0:0:
384,64,128420,1,2,3:2:0:0:
384,192,128592,1,2,0:2:0:0:
384,64,128763,1,10,0:2:0:0:
384,320,129106,1,2,0:2:0:0:
384,320,129277,1,2,3:2:0:0:
288,192,129449,5,2,3:2:0:0:
480,192,129620,1,2,0:2:0:0:
384,128,129792,1,2,3:2:0:0:
384,256,129963,1,2,3:2:0:0:
448,192,130135,1,10,0:2:0:0:
320,192,130306,1,2,0:2:0:0:
480,192,130477,1,2,3:2:0:0:
288,192,130649,1,2,0:2:0:0:
384,64,130820,5,2,0:2:0:0:
384,64,130992,1,2,0:2:0:0:
384,320,131335,1,2,0:2:0:0:
480,192,131506,1,10,0:2:0:0:
256,32,131677,1,8,1:2:0:0:
256,32,131763,1,8,0:2:0:0:
256,32,131849,5,2,0:2:0:0:
256,192,132020,1,10,0:2:0:0:
256,192,132106,1,8,0:2:0:0:
256,192,132192,5,6,1:2:0:0:
256,192,132535,6,0,L|96:192,1,160,2|2,1:3|1:3,0:0:0:0:
32,128,133049,5,2,0:2:0:0:
32,128,133135,1,2,0:2:0:0:
32,128,133220,1,2,1:2:0:0:
32,256,133392,1,2,0:2:0:0:
256,192,133563,1,2,1:2:0:0:
96,192,133735,1,2,0:2:0:0:
256,192,133906,1,2,1:2:0:0:
96,192,134077,1,2,0:2:0:0:
128,96,134249,1,2,1:2:0:0:
128,288,134420,1,2,0:2:0:0:
128,96,134592,1,2,1:2:0:0:
128,192,134935,5,2,1:2:0:0:
128,96,135106,1,2,0:2:0:0:
32,192,135277,1,2,1:2:0:0:
128,288,135449,1,2,0:2:0:0:
224,192,135620,1,2,1:2:0:0:
224,192,135792,1,2,0:2:0:0:
32,192,135963,1,2,1:2:0:0:
224,192,136135,1,2,0:2:0:0:
128,288,136306,5,2,1:2:0:0:
128,320,136649,1,2,1:2:0:0:
128,352,136992,1,2,1:2:0:0:
128,32,137335,1,0,1:2:0:0:
128,192,137677,5,2,1:2:0:0:
32,192,137849,1,2,0:2:0:0:
224,192,138020,1,2,1:2:0:0:
224,192,138192,1,0,0:0:0:0:
128,64,138363,1,2,1:2:0:0:
128,320,138706,1,2,1:2:0:0:
128,192,138877,1,2,0:2:0:0:
128,32,139049,5,2,1:2:0:0:
128,352,139392,1,2,1:2:0:0:
128,32,139735,1,2,1:2:0:0:
32,192,140077,1,2,1:2:0:0:
32,192,140249,1,2,0:2:0:0:
224,192,140420,5,2,1:2:0:0:
32,192,140592,1,2,0:2:0:0:
128,128,140763,1,2,1:2:0:0:
128,256,140935,1,2,0:2:0:0:
64,192,141106,1,2,1:2:0:0:
192,192,141277,1,2,0:2:0:0:
32,192,141449,1,2,1:2:0:0:
224,192,141620,1,10,0:2:0:0:
128,32,141792,5,14,0:2:0:0:
128,192,141963,1,0,1:2:0:0:
128,32,142135,1,10,0:2:0:0:
128,352,142306,1,0,1:2:0:0:
128,320,142392,1,0,1:2:0:0:
128,32,142563,1,0,1:2:0:0:
128,64,142649,1,0,1:2:0:0:
256,32,142820,5,10,0:2:0:0:
256,192,142992,1,10,0:2:0:0:
256,192,143077,1,8,0:2:0:0:
256,192,143163,5,6,1:2:0:0:
256,192,143506,6,0,L|416:192,1,160,10|2,0:3|0:3,0:0:0:0:
480,128,144020,5,2,1:2:0:0:
480,128,144106,1,2,0:2:0:0:
480,128,144192,1,10,0:2:0:0:
480,256,144363,1,0,0:0:0:0:
256,192,144535,1,2,1:2:0:0:
296,192,144620,1,2,0:2:0:0:
336,192,144706,1,2,0:2:0:0:
376,192,144792,1,2,0:2:0:0:
416,192,144877,1,10,0:2:0:0:
512,192,145049,1,2,1:2:0:0:
416,320,145220,1,2,0:2:0:0:
416,288,145306,1,2,0:2:0:0:
416,64,145477,1,2,0:2:0:0:
416,96,145563,1,10,0:2:0:0:
384,192,145906,5,2,1:2:0:0:
384,96,146077,1,2,0:2:0:0:
480,192,146249,1,10,0:2:0:0:
384,288,146420,1,2,1:2:0:0:
288,192,146592,1,2,0:2:0:0:
288,192,146935,1,10,0:2:0:0:
480,192,147106,1,2,0:2:0:0:
352,320,147277,5,2,1:2:0:0:
352,64,147449,1,2,0:2:0:0:
480,320,147620,1,10,0:2:0:0:
480,64,147792,1,2,0:2:0:0:
416,192,147963,1,2,0:2:0:0:
256,32,148306,5,14,0:2:0:0:
256,192,148649,5,6,1:2:0:0:
256,192,148992,6,0,L|96:192,1,160,10|2,0:3|0:3,0:0:0:0:
32,128,149506,5,2,1:2:0:0:
32,256,149677,1,8,0:2:0:0:
256,192,150020,1,2,1:2:0:0:
0,192,150363,1,10,0:2:0:0:
256,192,150877,1,2,1:2:0:0:
0,192,151049,1,10,0:2:0:0:
256,192,151220,1,2,1:2:0:0:
128,192,151392,5,2,0:0:0:0:
224,96,151563,1,2,1:2:0:0:
224,192,151735,1,10,0:2:0:0:
128,96,151906,1,2,1:2:0:0:
128,144,151992,1,2,0:0:0:0:
128,192,152077,1,2,0:0:0:0:
128,288,152249,1,2,1:2:0:0:
224,96,152420,1,10,0:2:0:0:
224,288,152592,1,2,1:2:0:0:
224,96,152935,1,2,1:2:0:0:
224,288,153106,1,10,0:2:0:0:
32,192,153449,1,2,1:2:0:0:
256,192,153620,1,2,1:2:0:0:
256,32,153792,5,14,0:2:0:0:
256,192,153963,1,0,1:2:0:0:
256,192,154049,1,0,1:2:0:0:
256,192,154135,5,6,1:2:0:0:
256,192,154477,6,0,L|352:192,2,80,10|0|2,0:3|1:2|0:3,0:0:0:0:
256,192,154992,1,0,1:2:0:0:
256,32,155163,5,10,0:2:0:0:
256,192,155506,5,6,1:2:0:0:
256,192,155849,6,0,L|160:192,2,80,10|0|2,0:3|1:2|0:3,0:0:0:0:
256,32,156535,5,10,0:2:0:0:
256,192,156706,1,0,1:2:0:0:
256,192,156877,5,6,1:2:0:0:
256,192,157220,6,0,L|352:192,2,80,10|0|2,0:3|1:2|0:3,0:0:0:0:
256,192,157735,1,0,1:2:0:0:
256,32,157906,5,10,0:2:0:0:
256,192,158077,1,0,1:2:0:0:
256,192,158249,5,6,1:2:0:0:
256,192,158592,6,0,L|160:192,2,80,10|0|2,0:3|1:2|0:3,0:0:0:0:
256,192,159107,1,0,1:2:0:0:
256,32,159277,5,10,0:2:0:0:
256,192,159449,1,2,3:2:0:0:
256,192,159535,1,2,3:0:0:0:
256,192,159620,5,6,1:2:0:0:
256,192,159963,6,0,L|352:192,2,80,10|2|2,0:3|1:3|0:3,0:0:0:0:
256,192,160478,1,0,1:2:0:0:
256,32,160649,5,10,0:2:0:0:
256,192,160992,5,6,1:2:0:0:
256,192,161335,6,0,L|160:192,2,80,8|0|2,0:2|1:2|0:3,0:0:0:0:
256,192,161850,1,0,1:2:0:0:
256,32,162020,5,10,0:2:0:0:
256,192,162192,1,2,1:2:0:0:
256,192,162363,5,6,0:2:0:0:
256,64,162535,1,0,1:2:0:0:
256,192,162706,6,0,L|352:192,2,80,10|2|2,0:3|1:3|1:3,0:0:0:0:
256,192,163221,1,0,1:2:0:0:
256,32,163392,5,10,0:2:0:0:
256,192,163563,1,2,1:2:0:0:
256,192,163649,1,2,3:2:0:0:
256,192,163735,5,6,0:2:0:0:
256,64,163906,1,0,1:0:0:0:
256,192,164077,6,0,L|160:192,1,80,10|0,0:3|3:0,0:0:0:0:
256,192,164420,2,0,L|352:192,1,80,10|0,0:3|3:0,0:0:0:0:
64,288,164763,5,14,0:1:0:0:
64,96,164935,1,0,1:0:0:0:
448,192,165106,1,6,1:1:0:0:
448,288,165449,5,10,0:3:0:0:
448,96,165620,1,0,0:0:0:0:
64,192,165792,1,2,0:3:0:0:
256,192,165963,1,0,1:0:0:0:
64,288,166135,5,10,0:1:0:0:
64,96,166306,1,0,0:0:0:0:
448,192,166477,1,2,1:1:0:0:
448,288,166820,5,10,0:3:0:0:
448,96,166992,1,0,0:0:0:0:
64,192,167163,1,2,0:3:0:0:
256,192,167335,1,0,1:0:0:0:
64,288,167506,5,10,0:1:0:0:
64,96,167677,1,0,0:0:0:0:
448,192,167849,1,2,1:1:0:0:
448,192,168020,1,0,1:2:0:0:
448,288,168192,5,10,0:3:0:0:
448,96,168363,1,0,1:2:0:0:
64,192,168535,1,2,0:3:0:0:
256,192,168706,1,0,1:2:0:0:
64,288,168877,5,10,0:1:0:0:
64,96,169049,1,0,0:0:0:0:
448,192,169220,1,2,1:1:0:0:
448,288,169563,5,10,0:3:0:0:
448,96,169735,1,0,0:0:0:0:
64,192,169906,1,2,0:3:0:0:
256,192,170077,1,0,1:2:0:0:
64,288,170249,5,10,0:1:0:0:
256,32,170592,5,6,1:1:0:0:
256,352,171449,1,0,1:0:0:0:
256,32,171963,1,0,1:0:0:0:
256,352,172820,1,0,1:0:0:0:
256,32,173335,5,0,1:2:0:0:
256,41,173420,1,0,3:2:0:0:
256,50,173506,1,0,3:2:0:0:
256,58,173592,1,0,3:2:0:0:
256,67,173677,1,0,3:2:0:0:
256,75,173763,1,0,3:2:0:0:
256,83,173849,1,0,3:2:0:0:
256,92,173935,1,0,3:2:0:0:
256,92,174020,1,0,3:2:0:0:
256,101,174105,1,0,3:2:0:0:
256,119,174192,6,0,L|256:178,1,40,0|0,1:2|3:2,0:0:0:0:
352,224,174363,2,0,L|352:165,1,40,0|0,3:2|3:2,0:0:0:0:
416,64,174535,2,0,L|416:123,1,40,0|0,3:2|3:2,0:0:0:0:
512,256,174706,5,8,0:2:0:0:
512,224,174792,1,8,3:2:0:0:
512,192,174877,2,0,L|512:133,1,40,0|0,1:2|3:2,0:0:0:0:
384,0,175049,2,0,L|384:59,1,40,0|0,3:2|3:2,0:0:0:0:
384,352,175220,5,8,3:2:0:0:
384,320,175306,1,8,3:2:0:0:
384,288,175391,2,0,L|384:229,1,40,0|0,3:2|3:2,0:0:0:0:
512,0,175563,1,0,1:2:0:0:
512,96,175649,1,0,1:2:0:0:
512,192,175735,6,0,L|448:192,1,40,8|0,3:2|3:2,0:0:0:0:
0,192,175906,2,0,L|64:192,1,40,0|0,3:2|3:2,0:0:0:0:
256,0,176077,6,0,L|256:96,1,80,6|0,1:2|0:0,0:0:0:0:
256,384,176420,1,10,0:2:0:0:
256,304,176592,1,0,0:0:0:0:
412,340,176763,2,0,L|314:340,1,80,2|0,0:2|1:2,0:0:0:0:
100,340,177106,1,10,0:2:0:0:
100,340,177277,2,0,L|198:340,1,80,2|0,0:2|1:2,0:0:0:0:
256,224,177620,1,2,0:2:0:0:
256,224,177792,2,0,L|256:320,1,80,10|0,0:2|0:0,0:0:0:0:
256,128,178135,1,2,0:2:0:0:
320,352,178392,1,2,0:2:0:0:
192,352,178649,1,2,0:2:0:0:
480,192,178820,6,0,L|384:192,1,80,6|0,1:2|0:0,0:0:0:0:
32,192,179163,2,0,L|128:192,1,80,10|0,0:2|0:0,0:0:0:0:
256,0,179506,1,2,0:2:0:0:
256,192,179677,1,0,1:0:0:0:
256,0,179849,2,0,L|256:96,1,80,10|2,0:2|0:2,0:0:0:0:
32,352,180192,5,6,1:2:0:0:
32,256,180363,1,0,1:2:0:0:
32,160,180535,2,0,L|32:64,1,80,10|2,0:2|0:0,0:0:0:0:
480,32,180877,5,6,1:2:0:0:
480,128,181048,1,0,1:2:0:0:
480,224,181220,2,0,L|480:320,1,80,8|0,0:2|0:0,0:0:0:0:
0,192,181563,6,0,L|118:192,1,80,6|0,1:2|0:0,0:0:0:0:
512,192,181906,2,0,L|394:192,1,80,10|0,0:2|0:0,0:0:0:0:
256,32,182249,2,0,L|256:130,1,80,2|0,0:2|1:2,0:0:0:0:
256,344,182592,1,10,0:2:0:0:
256,344,182763,2,0,L|256:246,1,80,2|0,1:2|0:0,0:0:0:0:
352,192,183106,1,2,1:2:0:0:
352,192,183277,2,0,L|448:192,1,80,10|0,0:2|0:0,0:0:0:0:
256,192,183620,1,2,0:2:0:0:
352,288,183792,1,2,1:2:0:0:
352,96,183963,1,10,0:2:0:0:
448,192,184135,1,2,0:2:0:0:
256,192,184306,5,2,1:2:0:0:
256,96,184477,1,2,1:2:0:0:
256,288,184649,2,0,L|256:384,1,80,14|2,0:2|0:0,0:0:0:0:
128,160,184992,5,2,1:2:0:0:
128,64,185163,1,2,1:2:0:0:
128,256,185335,2,0,L|128:352,1,80,14|2,0:2|0:0,0:0:0:0:
0,128,185677,5,2,1:2:0:0:
0,32,185849,1,2,1:2:0:0:
0,224,186020,2,0,L|0:320,1,80,14|2,0:2|1:2,0:0:0:0:
512,128,186363,5,8,0:2:0:0:
512,151,186449,1,8,0:2:0:0:
512,176,186535,1,0,1:2:0:0:
512,201,186620,1,0,1:2:0:0:
512,224,186706,2,0,L|512:341,1,80,8|0,0:2|0:0,0:0:0:0:
512,32,187049,1,0,1:2:0:0:
512,384,187392,5,14,0:2:0:0:
512,304,187563,1,2,0:2:0:0:
512,0,187736,2,0,L|512:98,1,80,2|0,0:2|1:2,0:0:0:0:
256,192,188078,1,10,0:2:0:0:
256,192,188250,2,0,L|354:192,1,80,2|0,1:2|0:0,0:0:0:0:
256,32,188593,1,2,1:2:0:0:
256,32,188763,2,0,L|158:32,1,80,10|0,0:2|0:0,0:0:0:0:
256,160,189107,2,0,L|354:160,1,80,2|0,0:2|1:0,0:0:0:0:
224,320,189450,1,8,0:0:0:0:
144,320,189621,1,2,0:2:0:0:
32,128,189793,6,0,L|32:30,1,80,6|0,1:2|0:0,0:0:0:0:
32,288,190136,2,0,L|32:386,1,80,10|0,0:0|0:0,0:0:0:0:
128,224,190478,2,0,L|128:126,1,80,2|0,0:2|1:0,0:0:0:0:
384,144,190820,2,0,L|384:224,1,80,10|2,0:2|0:2,0:0:0:0:
160,384,191164,5,2,1:2:0:0:
160,224,191335,1,0,1:2:0:0:
160,384,191507,2,0,L|160:288,1,80,14|0,0:2|0:0,0:0:0:0:
352,384,191849,5,2,1:2:0:0:
352,224,192020,1,0,1:2:0:0:
352,384,192192,2,0,L|352:288,1,80,14|0,0:2|0:0,0:0:0:0:
96,352,192536,6,0,L|0:352,1,80,6|0,1:2|0:0,0:0:0:0:
416,272,192878,2,0,L|512:272,1,80,10|0,0:2|0:0,0:0:0:0:
96,272,193221,2,0,L|16:272,1,80,2|0,0:2|1:0,0:0:0:0:
416,352,193564,1,10,0:2:0:0:
416,352,193736,2,0,L|496:352,1,80,2|0,1:2|0:0,0:0:0:0:
256,192,194078,1,2,1:2:0:0:
256,96,194250,2,0,L|256:0,1,80,10|0,0:2|0:0,0:0:0:0:
256,192,194593,1,2,0:2:0:0:
128,192,194764,1,2,1:2:0:0:
384,192,194936,1,10,0:2:0:0:
256,192,195106,1,2,0:2:0:0:
272,32,195277,5,0,3:2:0:0:
240,32,195363,1,0,3:2:0:0:
272,52,195449,1,0,3:2:0:0:
240,52,195534,1,0,3:2:0:0:
272,72,195621,1,0,3:2:0:0:
240,72,195706,1,0,3:2:0:0:
272,92,195792,1,0,3:2:0:0:
240,92,195877,1,0,3:2:0:0:
272,112,195964,1,0,3:2:0:0:
240,112,196049,1,0,3:2:0:0:
272,132,196135,1,0,3:2:0:0:
240,132,196220,1,0,3:2:0:0:
272,152,196307,1,0,3:2:0:0:
240,152,196392,1,0,3:2:0:0:
272,172,196478,1,0,3:2:0:0:
240,172,196563,1,0,3:2:0:0:
256,192,196649,6,0,L|256:240,1,40,8|0,3:2|3:2,0:0:0:0:
376,288,196820,2,0,L|376:240,1,40,0|0,3:2|3:2,0:0:0:0:
136,248,196992,2,0,L|136:288,1,40,0|0,3:2|3:2,0:0:0:0:
256,152,197163,6,0,L|256:200,1,40,8|0,3:2|3:2,0:0:0:0:
408,288,197335,2,0,L|408:240,1,40,0|0,3:2|3:2,0:0:0:0:
104,248,197506,2,0,L|104:288,1,40,0|0,3:2|3:2,0:0:0:0:
256,112,197677,6,0,L|256:160,1,40,8|0,3:2|3:2,0:0:0:0:
256,352,197849,2,0,L|256:312,1,40,0|0,3:2|3:2,0:0:0:0:
256,32,198020,5,2,3:3:0:0:
256,32,198363,5,14,0:1:0:0:
368,32,198535,1,0,0:0:0:0:
480,32,198706,2,0,L|480:128,1,80,2|0,0:1|1:1,0:0:0:0:
384,224,199049,2,0,L|384:128,1,80,10|2,0:1|0:1,0:0:0:0:
480,192,199392,1,2,1:1:0:0:
256,192,199563,1,0,1:1:0:0:
256,32,199735,5,10,0:1:0:0:
32,32,199906,1,2,1:1:0:0:
256,32,200078,2,0,L|160:32,2,80,2|0|8,0:1|1:1|0:1,0:0:0:0:
256,32,200763,2,0,L|256:128,1,80,0|0,1:1|0:0,0:0:0:0:
256,352,201106,5,10,0:1:0:0:
368,352,201278,1,0,0:0:0:0:
480,352,201449,2,0,L|480:256,1,80,2|0,0:1|1:0,0:0:0:0:
256,192,201792,2,0,L|256:288,1,80,10|2,0:1|0:1,0:0:0:0:
480,192,202135,1,2,1:1:0:0:
256,192,202306,1,0,1:1:0:0:
256,352,202478,5,10,0:1:0:0:
144,352,202649,1,2,0:1:0:0:
32,352,202821,2,0,L|116:352,1,80,2|0,0:1|1:0,0:0:0:0:
256,352,203163,1,10,0:1:0:0:
256,32,203506,5,4,1:1:0:0:
144,32,203678,1,0,1:0:0:0:
32,32,203849,2,0,L|32:128,1,80,10|0,0:1|0:0,0:0:0:0:
128,224,204192,2,0,L|128:128,1,80,2|0,0:1|1:1,0:0:0:0:
32,192,204535,1,10,0:1:0:0:
256,192,204706,1,2,1:1:0:0:
256,32,204878,5,2,0:1:0:0:
480,32,205049,1,0,1:1:0:0:
256,32,205221,2,0,L|352:32,2,80,10|2|2,0:1|0:1|0:1,0:0:0:0:
32,32,205735,1,0,1:1:0:0:
256,32,205906,2,0,L|256:128,1,80,8|0,0:1|0:0,0:0:0:0:
256,352,206249,5,0,1:1:0:0:
256,352,206592,2,0,L|256:256,1,80,10|0,0:1|0:0,0:0:0:0:
256,32,206935,2,0,L|256:128,1,80,2|0,0:1|1:1,0:0:0:0:
128,192,207278,1,10,0:1:0:0:
384,192,207449,1,2,0:1:0:0:
256,352,207621,5,2,1:1:0:0:
368,352,207792,1,0,1:1:0:0:
480,352,207964,2,0,L|396:352,2,80,10|2|2,0:1|1:1|0:1,0:0:0:0:
512,320,208392,2,0,L|512:256,2,40,8|0|0,0:1|1:0|0:0,0:0:0:0:
480,352,208649,1,10,0:1:0:0:
440,352,208734,1,8,0:1:0:0:
400,352,208820,1,8,0:1:0:0:
256,352,208992,5,2,1:3:0:0:
256,352,209335,5,14,0:1:0:0:
144,352,209507,1,0,0:0:0:0:
32,352,209678,2,0,L|32:256,1,80,2|0,0:1|1:1,0:0:0:0:
128,160,210021,2,0,L|128:256,1,80,10|2,0:1|0:1,0:0:0:0:
32,192,210364,1,2,1:1:0:0:
256,352,210707,5,10,0:1:0:0:
480,352,210878,1,2,0:1:0:0:
256,352,211050,2,0,L|352:352,2,80,2|0|8,0:1|1:1|0:1,0:0:0:0:
256,352,211735,2,0,L|256:256,1,80,0|0,1:1|0:0,0:0:0:0:
256,32,212078,5,10,0:1:0:0:
144,32,212250,1,0,0:0:0:0:
32,32,212421,2,0,L|32:128,1,80,2|0,0:1|1:0,0:0:0:0:
256,192,212764,2,0,L|256:96,1,80,10|2,0:1|0:1,0:0:0:0:
32,192,213107,1,2,1:1:0:0:
256,192,213278,1,0,1:1:0:0:
256,32,213450,5,10,0:1:0:0:
368,32,213621,1,2,0:1:0:0:
480,32,213793,2,0,L|396:32,1,80,2|0,1:1|1:0,0:0:0:0:
256,32,214135,1,10,0:1:0:0:
256,352,214478,5,4,1:2:0:0:
480,352,214821,2,0,L|480:256,1,80,2|0,0:0|0:0,0:0:0:0:
384,160,215164,2,0,L|384:256,1,80,2|2,0:0|1:2,0:0:0:0:
480,192,215507,1,2,0:0:0:0:
256,192,215678,1,0,0:0:0:0:
256,352,215850,5,2,1:2:0:0:
32,352,216021,1,2,0:0:0:0:
32,320,216106,2,0,L|32:224,1,80,2|2,0:0|0:0,0:0:0:0:
32,192,216363,2,0,L|128:192,1,80,2|0,0:0|0:0,0:0:0:0:
480,192,216707,1,2,1:2:0:0:
256,192,217049,1,2,1:2:0:0:
256,32,217221,5,2,1:2:0:0:
256,32,217306,1,2,0:0:0:0:
256,192,217477,1,2,0:0:0:0:
256,192,217564,2,0,L|256:96,1,80,2|2,0:0|1:2,0:0:0:0:
256,64,217820,1,2,0:0:0:0:
256,32,217906,1,2,0:0:0:0:
256,352,218250,1,2,1:2:0:0:
256,192,218421,1,2,0:0:0:0:
256,352,218593,5,2,0:0:0:0:
480,352,218764,1,10,0:2:0:0:
480,320,218849,2,0,L|480:224,1,80,2|2,0:0|1:2,0:0:0:0:
480,192,219106,1,2,1:2:0:0:
416,192,219192,1,2,1:2:0:0:
352,192,219277,1,10,0:2:0:0:
160,192,219449,1,0,1:2:0:0:
256,192,219620,1,10,0:2:0:0:
256,32,219963,5,4,1:1:0:0:
256,192,220049,12,6,225449,0:2:0:0:
