osu file format v14

[General]
AudioFilename: audio.mp3
AudioLeadIn: 0
PreviewTime: -1
Countdown: 1
SampleSet: Soft
StackLeniency: 0.7
Mode: 2
LetterboxInBreaks: 0
WidescreenStoryboard: 0

[Editor]
Bookmarks: 22481,81110,81967,85052,111279,117451
DistanceSpacing: 1
BeatDivisor: 4
GridSize: 16
TimelineZoom: 1

[Metadata]
Title:Danzai! Yamaxanadu
TitleUnicode:Danzai! Yamaxanadu
Artist:IOSYS
ArtistUnicode:IOSYS
Creator:[224]Hyperw7
Version:Danzai!
Source:Touhou
Tags:[224]Hyperw7 not hell Phantasmagoria of Flower View shikieiki
BeatmapID:1309180
BeatmapSetID:620888

[Difficulty]
HPDrainRate:5
CircleSize:4
OverallDifficulty:9
ApproachRate:9.3
SliderMultiplier:2
SliderTickRate:1

[Events]
//Background and Video events
0,0,"단죄!.png",0,0
//Break Periods
//Storyboard Layer 0 (Background)
//Storyboard Layer 1 (Fail)
//Storyboard Layer 2 (Pass)
//Storyboard Layer 3 (Foreground)
//Storyboard Sound Samples

[TimingPoints]
11510,342.857142857143,4,1,1,100,1,0
44081,-100,4,2,1,100,0,0
45281,-125,4,1,1,100,0,0
55052,-125,4,2,1,100,0,0
56252,-125,4,1,1,100,0,0
66024,-125,4,2,1,100,0,0
87624,-100,4,1,1,100,0,0
87967,171.428571428571,4,1,1,100,1,0
87967,-83.3333333333333,4,2,1,100,0,0
89338,-111.111111111111,4,2,1,100,0,0
90709,-166.666666666667,4,2,1,100,0,0
92081,342.857142857143,4,2,1,100,1,0
92081,-166.666666666667,4,2,1,100,0,0
93452,685.714285714286,4,2,1,100,1,0
93452,-166.666666666667,4,2,1,100,0,0
96537,342.857142857143,5,1,1,100,1,0
120879,-100,5,2,1,100,0,0
122079,-100,5,1,1,100,0,0
131851,-100,5,2,1,100,0,0
133051,-100,5,1,1,100,0,0
142822,-100,5,2,1,100,0,0
153794,-100,5,2,1,100,0,0
156537,-80,5,2,1,100,0,0
159279,-66.6666666666667,5,2,1,100,0,0
162022,-57.1428571428571,5,2,1,100,0,0
164765,171.428571428571,4,1,1,100,1,0
164765,-83.3333333333333,4,2,1,100,0,0
165965,-111.111111111111,4,2,1,100,0,0
167507,-166.666666666667,4,2,1,100,0,0
168879,342.857142857143,4,1,1,100,1,0
168879,-166.666666666667,4,2,1,100,0,0
170250,685.714285714286,4,1,1,100,1,0
170250,-166.666666666667,4,1,1,100,0,0
173335,342.857142857143,4,1,1,100,1,0
214477,-83.3333333333333,4,2,1,100,0,0
215163,-55.5555555555556,4,2,1,100,0,0
215849,-100,4,2,1,100,0,0

[HitObjects]
256,192,11167,5,0,0:0:0:0:
96,192,11509,2,0,L|96:64,1,100
160,96,11852,2,0,L|288:96,1,100,8|0,0:0|0:0,0:0:0:0:
320,96,12195,2,0,L|320:320,1,200
64,288,12709,1,0,0:0:0:0:
256,288,13052,2,0,L|192:192,1,100,0|8,0:0|0:0,0:0:0:0:
320,224,13395,2,0,L|256:128,1,100,8|0,0:0|0:0,0:0:0:0:
384,160,13738,1,0,0:0:0:0:
128,192,13909,6,0,L|128:64,1,100
416,192,14252,2,0,L|416:64,1,100
352,96,14595,2,0,L|224:96,1,100,8|0,0:0|0:0,0:0:0:0:
192,96,14938,2,0,L|192:320,1,200
448,288,15452,1,0,0:0:0:0:
256,288,15795,2,0,L|320:192,1,100,0|8,0:0|0:0,0:0:0:0:
192,224,16138,2,0,L|256:128,1,100,8|8,0:0|0:0,0:0:0:0:
128,160,16481,1,0,0:0:0:0:
384,192,16652,6,0,L|416:96,1,100
128,192,16995,2,0,L|96:96,1,100,8|0,0:0|0:0,0:0:0:0:
256,192,17338,5,0,0:0:0:0:
384,192,17510,1,0,0:0:0:0:
128,192,17681,2,0,L|320:128,1,200
128,96,18195,1,0,0:0:0:0:
32,64,18367,2,0,L|128:32,1,100,8|0,0:0|0:0,0:0:0:0:
288,32,18710,2,0,L|416:32,1,100,8|0,0:0|0:0,0:0:0:0:
160,32,19052,2,0,L|32:32,1,100,8|0,0:0|0:0,0:0:0:0:
448,256,19395,2,0,L|480:96,1,100,8|0,0:0|0:0,0:0:0:0:
320,240,19738,6,0,L|256:208,1,50,8|0,0:0|0:0,0:0:0:0:
288,176,19910,2,0,L|352:112,1,50
416,160,20081,6,0,L|448:96,1,50,8|0,0:0|0:0,0:0:0:0:
384,96,20252,2,0,L|352:32,1,50
112,192,20424,6,0,L|80:128,1,50,8|0,0:0|0:0,0:0:0:0:
144,128,20595,2,0,L|208:128,1,50
416,192,20767,6,0,L|320:192,1,50,8|0,0:0|0:0,0:0:0:0:
128,256,20939,2,0,L|48:224,1,50
32,192,21110,6,0,L|0:128,1,50,8|8,0:0|0:0,0:0:0:0:
240,192,21281,2,0,L|304:160,1,50
464,192,21452,2,0,L|496:128,1,50,8|8,0:0|0:0,0:0:0:0:
432,128,21624,2,0,L|368:128,1,50
64,320,21795,2,8,L|52:224,1,50
448,320,21967,2,8,L|460:224,1,50
256,320,22138,2,0,L|256:224,1,50,8|0,0:0|0:0,0:0:0:0:
64,320,22310,2,0,L|52:224,1,50
448,320,22481,6,0,L|480:32,1,200,4|0,0:0|0:0,0:0:0:0:
96,192,23167,2,0,L|0:96,1,100
256,96,23510,2,8,L|320:0,1,100
64,0,23852,2,0,L|192:0,1,100
320,0,24195,2,8,L|448:0,1,100
160,320,24538,2,0,L|32:96,1,200
480,192,25224,6,0,L|256:192,1,200,4|0,0:0|0:0,0:0:0:0:
480,128,25910,2,0,L|352:128,1,100
132,128,26252,2,8,L|32:128,1,100
480,320,26595,2,0,L|512:192,1,100
240,192,26938,2,8,L|368:192,1,100
32,96,27281,1,0,0:0:0:0:
128,96,27452,1,0,0:0:0:0:
368,96,27624,1,0,0:0:0:0:
176,336,27967,6,0,B|32:192,1,200,4|0,0:0|0:0,0:0:0:0:
448,240,28652,2,0,L|448:112,1,100
320,128,28995,2,8,L|176:128,1,100
112,160,29338,2,0,L|32:64,1,100
320,160,29681,2,8,L|400:64,1,100
112,304,30024,2,0,B|48:224|48:224|160:112|160:112,1,200
336,192,30710,6,0,L|224:192,1,100,4|0,0:0|0:0,0:0:0:0:
496,192,31052,2,0,L|496:80,1,100
256,224,31395,2,0,L|400:64,1,200,8|8,0:0|0:0,0:0:0:0:
256,64,31910,1,8,0:0:0:0:
176,208,32081,6,0,L|144:144,1,50,4|0,0:0|0:0,0:0:0:0:
48,160,32252,2,8,L|64:96,1,50
208,80,32424,1,8,0:0:0:0:
480,192,32767,2,0,L|464:128,1,50,4|0,0:0|0:0,0:0:0:0:
320,128,32938,2,8,L|304:64,1,50
144,64,33110,1,8,0:0:0:0:
368,192,33452,6,0,L|160:192,1,200,4|0,0:0|0:0,0:0:0:0:
96,176,34138,2,0,L|240:176,1,100
464,176,34481,2,8,L|336:176,1,100
96,176,34824,2,0,L|96:64,1,100
368,96,35167,2,8,L|256:96,1,100
128,96,35510,1,0,0:0:0:0:
256,96,35681,1,8,0:0:0:0:
384,96,35852,1,8,0:0:0:0:
80,176,36195,6,0,L|208:176,2,100,4|0|8,0:0|0:0|0:0,0:0:0:0:
320,176,36710,1,8,0:0:0:0:
420,176,36881,2,0,L|292:176,2,100,0|0|8,0:0|0:0|0:0,0:0:0:0:
180,176,37395,1,8,0:0:0:0:
64,272,37567,6,0,L|48:160,1,100
256,272,37910,2,8,L|256:144,1,100
496,128,38252,2,8,L|384:128,2,100,0|8|8,0:0|0:0|0:0,0:0:0:0:
80,288,38938,6,0,L|64:96,1,150,4|0,0:0|0:0,0:0:0:0:
224,144,39281,2,0,L|256:32,1,100
400,144,39624,2,0,L|512:144,2,100,8|0|8,0:0|0:0|0:0,0:0:0:0:
112,144,40138,1,0,0:0:0:0:
356,144,40310,2,0,L|256:144,2,100,8|0|8,0:0|0:0|0:0,0:0:0:0:
480,144,40824,1,0,0:0:0:0:
32,224,40995,1,8,0:0:0:0:
192,224,41167,1,8,0:0:0:0:
48,160,41338,1,8,0:0:0:0:
320,160,41510,1,0,0:0:0:0:
512,224,41681,6,0,P|496:128|376:148,1,200,4|8,0:0|0:0,0:0:0:0:
104,117,42195,6,4,P|12:131|0:224,1,200,4|8,0:0|0:0,0:0:0:0:
350,170,42710,2,0,B|168:252,1,200,4|8,0:0|0:0,0:0:0:0:
14,64,43224,2,0,L|164:64,1,150,4|8,0:0|0:0,0:0:0:0:
432,112,43567,2,0,L|448:64,1,50,4|4,0:0|0:0,0:0:0:0:
64,192,43738,2,0,L|16:128,1,50
288,192,43910,2,0,L|256:144,1,50
64,64,44081,2,0,L|208:64,1,100,4|0,0:0|0:0,0:0:0:0:
432,64,44424,1,4,0:0:0:0:
164,64,44767,2,0,L|292:64,1,100
432,64,45110,1,8,0:0:0:0:
64,224,45281,6,0,L|64:112,1,80,2|0,0:0|0:0,0:0:0:0:
224,112,45624,1,0,0:0:0:0:
112,192,45795,2,0,P|48:96|16:16,1,160,2|0,0:0|0:0,0:0:0:0:
288,192,46310,2,0,P|352:96|384:16,1,160,2|0,0:0|0:0,0:0:0:0:
288,48,46824,2,0,L|368:48,1,80,2|0,0:0|0:0,0:0:0:0:
160,256,47167,6,0,L|48:256,1,80,2|0,0:0|0:0,0:0:0:0:
160,256,47510,2,0,L|256:256,1,80
160,256,47852,2,0,L|64:256,1,80,2|0,0:0|0:0,0:0:0:0:
352,256,48195,2,0,L|432:256,1,80
256,176,48538,1,2,0:0:0:0:
368,176,48710,1,0,0:0:0:0:
64,112,48881,1,2,0:0:0:0:
176,112,49052,1,0,0:0:0:0:
64,192,49224,2,0,L|64:80,1,80,2|0,0:0|0:0,0:0:0:0:
256,112,49567,2,0,L|160:112,1,80,8|0,0:0|0:0,0:0:0:0:
464,208,49910,6,0,L|336:208,2,80,2|0|0,0:0|0:0|0:0,0:0:0:0:
256,144,50424,1,0,0:0:0:0:
48,208,50595,6,0,L|176:208,2,80,2|0|0,0:0|0:0|0:0,0:0:0:0:
256,144,51110,1,0,0:0:0:0:
464,192,51281,6,0,L|432:64,1,80,2|0,0:0|0:0,0:0:0:0:
192,192,51624,2,0,L|144:80,1,80,2|0,0:0|0:0,0:0:0:0:
400,96,51967,2,0,L|512:96,1,80,2|0,0:0|0:0,0:0:0:0:
112,96,52310,1,8,0:0:0:0:
400,96,52481,1,8,0:0:0:0:
480,240,52652,6,0,L|512:144,1,80,2|0,0:0|0:0,0:0:0:0:
240,240,52995,2,0,L|272:128,1,80,2|0,0:0|0:0,0:0:0:0:
32,240,53338,6,0,L|0:144,1,80,2|0,0:0|0:0,0:0:0:0:
272,240,53681,2,0,L|240:128,1,80,2|0,0:0|0:0,0:0:0:0:
384,128,54024,5,8,0:0:0:0:
256,128,54195,1,2,0:0:0:0:
128,128,54367,5,8,0:0:0:0:
256,128,54538,1,2,0:0:0:0:
496,144,54710,2,0,L|496:256,1,80,12|0,0:0|0:0,0:0:0:0:
176,192,55052,6,0,L|304:192,1,80,4|0,0:0|0:0,0:0:0:0:
16,112,55395,1,4,0:0:0:0:
432,192,55738,6,0,L|304:192,1,80
496,112,56081,1,0,0:0:0:0:
176,192,56252,6,0,L|256:192,1,80,8|0,0:0|0:0,0:0:0:0:
176,144,56595,1,8,0:0:0:0:
448,192,56767,2,8,L|384:192,1,53.3333333333333
448,144,56995,1,8,0:0:0:0:
208,144,57110,2,0,L|288:144,1,80,8|0,0:0|0:0,0:0:0:0:
448,96,57452,2,0,L|352:96,1,80,2|0,0:0|0:0,0:0:0:0:
64,96,57795,2,0,L|160:96,1,80,2|0,0:0|0:0,0:0:0:0:
480,240,58138,6,0,L|352:240,1,80,10|0,0:0|0:0,0:0:0:0:
480,176,58481,1,0,0:0:0:0:
208,176,58652,1,0,0:0:0:0:
304,176,58824,2,0,L|320:80,1,80,10|0,0:0|0:0,0:0:0:0:
112,176,59167,2,0,L|96:80,1,80
496,192,59510,6,0,L|400:192,1,80,2|8,0:0|0:0,0:0:0:0:
176,192,59852,2,0,L|96:192,1,80,2|8,0:0|0:0,0:0:0:0:
336,192,60195,2,0,P|400:128|400:64,1,120,4|0,0:0|0:0,0:0:0:0:
64,128,60538,2,0,L|48:48,1,80,8|0,0:0|0:0,0:0:0:0:
336,256,60881,6,0,L|432:256,1,80,2|0,0:0|0:0,0:0:0:0:
272,176,61224,1,8,0:0:0:0:
432,176,61395,1,0,0:0:0:0:
176,256,61567,2,0,L|80:256,1,80,2|0,0:0|0:0,0:0:0:0:
240,176,61910,1,8,0:0:0:0:
80,176,62081,1,0,0:0:0:0:
512,192,62252,6,0,L|432:128,1,80,2|0,0:0|0:0,0:0:0:0:
288,112,62595,2,0,L|352:64,1,80,2|0,0:0|0:0,0:0:0:0:
496,288,62938,2,0,L|496:64,1,160,8|4,0:0|0:0,0:0:0:0:
256,192,63452,1,8,0:0:0:0:
336,240,63624,6,0,L|368:128,1,80,8|0,0:0|0:0,0:0:0:0:
176,160,63967,2,0,L|144:64,1,80,8|0,0:0|0:0,0:0:0:0:
448,304,64310,2,0,L|480:160,1,80,8|0,0:0|0:0,0:0:0:0:
64,304,64652,2,0,L|32:160,1,80,8|0,0:0|0:0,0:0:0:0:
496,192,64995,5,8,0:0:0:0:
368,192,65167,1,0,0:0:0:0:
16,192,65338,5,8,0:0:0:0:
144,192,65510,1,0,0:0:0:0:
256,192,65681,2,0,L|256:96,1,80,4|0,0:0|0:0,0:0:0:0:
464,192,66024,6,0,L|496:96,1,80,4|0,0:0|0:0,0:0:0:0:
256,96,66367,1,4,0:0:0:0:
144,192,66710,6,0,L|112:96,1,80
256,96,67053,1,0,0:0:0:0:
496,192,67224,6,8,L|512:144,1,40
464,128,67395,2,8,L|480:80,1,40
432,64,67567,2,2,L|432:16,1,40
224,32,67738,2,8,L|160:32,1,40
352,32,67910,2,8,L|400:32,1,40
192,208,68081,2,2,L|160:160,1,40
224,160,68252,2,2,L|272:160,1,40
32,144,68424,2,8,L|48:96,1,40
224,64,68595,2,0,L|272:64,2,40,8|8|2,0:0|0:0|0:0,0:0:0:0:
464,192,69110,6,2,L|464:128,1,40
304,128,69281,2,2,L|240:128,1,40
416,128,69452,2,8,L|432:80,1,40
224,80,69624,2,2,L|176:64,1,40
368,192,69795,2,2,L|416:176,1,40
160,176,69967,2,2,L|144:128,1,40
304,240,70138,2,8,L|352:240,1,40
96,224,70310,2,2,L|96:176,1,40
256,192,70481,6,0,L|368:192,1,80,8|0,0:0|0:0,0:0:0:0:
48,96,70824,2,0,L|144:96,1,80,8|0,0:0|0:0,0:0:0:0:
384,96,71167,2,0,L|464:96,1,80,8|0,0:0|0:0,0:0:0:0:
0,96,71510,5,4,0:0:0:0:
256,96,71681,1,0,0:0:0:0:
496,96,71852,1,4,0:0:0:0:
160,96,72195,5,0,0:0:0:0:
256,96,72367,1,0,0:0:0:0:
352,96,72538,1,0,0:0:0:0:
48,288,72710,6,2,L|48:224,1,40
208,288,72881,2,2,L|208:224,1,40
384,192,73052,2,2,L|320:192,1,40
128,192,73224,6,8,L|192:192,1,40
32,128,73395,2,2,L|16:80,1,40
208,192,73567,6,8,L|144:192,1,40
320,128,73738,2,2,L|336:80,1,40
480,192,73910,2,0,L|496:128,1,53.3333333333333,0|2,0:0|0:0,0:0:0:0:
64,192,74138,2,2,L|48:128,1,53.3333333333333,2|0,0:0|0:0,0:0:0:0:
352,256,74595,6,0,L|496:208,1,120,2|0,0:0|0:0,0:0:0:0:
288,176,74938,2,0,L|336:96,1,80,8|0,0:0|0:0,0:0:0:0:
160,256,75281,6,0,L|16:208,1,120,2|0,0:0|0:0,0:0:0:0:
224,176,75624,2,0,L|176:96,1,80,8|0,0:0|0:0,0:0:0:0:
48,240,75967,6,8,L|32:96,1,80
296,172,76310,2,8,L|216:172,1,80
464,240,76652,1,10,0:0:0:0:
192,272,76995,6,0,L|80:272,2,80,4|0|4,0:0|0:0|0:0,0:0:0:0:
304,272,77681,1,0,0:0:0:0:
512,272,77853,1,0,0:0:0:0:
416,272,78024,1,0,0:0:0:0:
160,240,78195,6,2,L|160:192,1,40
96,192,78367,2,2,L|96:144,1,40
32,144,78538,2,2,L|32:96,1,40
240,192,78710,2,2,L|288:192,1,40
352,160,78881,2,2,L|368:112,1,40
160,112,79053,2,2,L|176:64,1,40
240,64,79224,2,2,L|288:64,1,40
416,80,79396,2,2,L|448:128,1,40
240,64,79567,2,2,L|288:64,1,40
112,64,79738,1,2,0:0:0:0:
384,288,80081,6,0,L|384:176,1,80,8|0,0:0|0:0,0:0:0:0:
256,192,80424,2,0,L|256:80,1,80,8|0,0:0|0:0,0:0:0:0:
96,96,80767,2,0,L|224:96,1,80,8|0,0:0|0:0,0:0:0:0:
416,96,81110,2,0,L|288:96,1,80,8|0,0:0|0:0,0:0:0:0:
48,272,81452,6,0,L|128:272,2,80,8|8|0,0:0|0:0|0:0,0:0:0:0:
384,272,81967,6,0,L|464:272,2,80,8|8|0,0:0|0:0|0:0,0:0:0:0:
176,192,82481,5,12,0:0:0:0:
336,192,82652,5,8,0:0:0:0:
176,192,82824,5,4,0:0:0:0:
432,112,83167,5,0,0:0:0:0:
80,112,83338,5,0,0:0:0:0:
432,112,83510,5,0,0:0:0:0:
256,112,83681,2,8,L|256:160,1,40
368,176,83852,2,0,P|416:288|384:320,1,160,0|8,0:0|0:0,0:0:0:0:
128,304,84367,1,8,0:0:0:0:
272,224,84538,2,8,L|288:160,1,40,12|8,0:0|0:0,0:0:0:0:
240,224,84710,2,8,L|224:176,1,40
336,224,85052,2,8,L|352:160,1,40,12|8,0:0|0:0,0:0:0:0:
176,224,85224,2,8,L|160:160,1,40
416,224,85567,6,8,L|432:160,1,53.3333333333333,12|8,0:0|0:0,0:0:0:0:
80,224,85795,6,8,L|64:160,1,53.3333333333333
496,224,86252,2,8,L|512:160,1,53.3333333333333,12|8,0:0|0:0,0:0:0:0:
16,224,86481,2,8,L|0:160,1,53.3333333333333
512,224,86938,2,0,L|512:128,1,80,14|0,0:0|0:0,0:0:0:0:
0,224,87281,2,0,L|0:128,1,80,10|0,0:0|0:0,0:0:0:0:
368,224,87624,6,0,L|288:224,1,50,8|0,0:0|0:0,0:0:0:0:
144,224,87795,2,0,L|224:224,1,50,8|0,0:0|0:0,0:0:0:0:
496,192,87967,6,4,L|0:192,1,479.999985351563,12|4,0:0|0:0,0:0:0:0:
496,192,88652,6,0,L|0:192,1,479.999985351563
436,148,89338,6,4,L|44:148,1,359.999989013672
436,148,90024,6,0,L|44:148,1,359.999989013672
376,100,90709,6,4,L|112:100,1,239.999992675781
376,100,91395,6,0,L|112:100,1,239.999992675781
320,40,92081,6,4,L|176:40,1,119.999996337891
320,56,92766,6,0,L|176:56,1,119.999996337891
256,48,93452,6,0,B|0:48|0:48|-4:352,1,539.999983520508,0|8,0:0|0:0,0:0:0:0:
48,336,96622,1,0,0:0:0:0:
224,336,96708,2,0,L|288:336,1,50
464,336,96879,2,0,L|464:272,1,50
288,336,97051,2,0,L|208:336,1,50
80,272,97222,6,0,L|80:208,1,50,12|0,0:0|0:0,0:0:0:0:
144,208,97394,2,0,L|208:208,1,50
32,192,97565,2,0,L|64:128,1,50
208,128,97737,2,0,L|272:128,1,50
432,272,97908,6,8,L|432:208,1,50,12|0,0:0|0:0,0:0:0:0:
368,208,98080,2,0,L|304:208,1,50
480,192,98251,2,8,L|448:128,1,50,12|0,0:0|0:0,0:0:0:0:
308,128,98423,2,0,L|244:128,1,50
0,96,98594,5,8,0:0:0:0:
96,96,98679,1,8,0:0:0:0:
256,96,98765,1,8,0:0:0:0:
416,96,98851,1,8,0:0:0:0:
512,96,98937,2,0,L|512:272,1,150,4|0,0:0|0:0,0:0:0:0:
96,240,99279,6,0,L|16:240,2,50,8|0|0,0:0|0:0|0:0,0:0:0:0:
160,240,99537,1,0,0:0:0:0:
320,240,99622,6,0,L|384:224,1,50,8|0,0:0|0:0,0:0:0:0:
416,208,99794,2,0,L|448:128,1,50
320,128,99965,2,0,L|256:128,2,50,8|0|0,0:0|0:0|0:0,0:0:0:0:
256,96,100222,2,0,L|192:96,2,50,8|0|0,0:0|0:0|0:0,0:0:0:0:
160,64,100479,2,0,L|110:64,2,50,8|0|0,0:0|0:0|0:0,0:0:0:0:
208,64,100737,1,0,0:0:0:0:
352,144,100822,6,0,L|288:144,1,50,8|0,0:0|0:0,0:0:0:0:
448,96,100994,2,0,L|384:96,1,50,8|0,0:0|0:0,0:0:0:0:
352,64,101165,2,0,L|336:0,1,50
496,240,101337,6,0,L|464:192,1,50,8|0,0:0|0:0,0:0:0:0:
416,192,101508,1,0,0:0:0:0:
224,128,101594,6,0,L|256:80,1,50,8|0,0:0|0:0,0:0:0:0:
304,80,101765,1,0,0:0:0:0:
464,96,101851,6,0,L|416:48,1,50,8|0,0:0|0:0,0:0:0:0:
96,288,102022,6,0,L|48:272,1,50,8|0,0:0|0:0,0:0:0:0:
32,224,102194,2,0,L|16:144,1,50
208,192,102365,2,0,L|272:176,1,50,8|0,0:0|0:0,0:0:0:0:
304,144,102537,2,0,L|336:80,1,50
128,96,102708,6,0,L|64:96,1,50,8|0,0:0|0:0,0:0:0:0:
28,96,102879,2,0,L|108:96,1,50
432,192,103051,6,0,L|512:192,1,50,8|0,0:0|0:0,0:0:0:0:
224,192,103222,2,0,L|144:192,1,50,8|0,0:0|0:0,0:0:0:0:
320,288,103394,6,0,L|384:240,1,50,4|0,0:0|0:0,0:0:0:0:
368,208,103565,2,0,L|320:128,1,50
288,128,103737,2,0,L|224:96,1,50
176,96,103908,2,0,L|96:112,1,50
416,272,104079,6,0,L|480:256,1,50,4|0,0:0|0:0,0:0:0:0:
496,208,104251,2,0,L|416:176,1,50
288,160,104422,2,0,L|224:144,1,50
80,112,104594,2,0,L|16:80,1,50
448,144,104765,6,0,L|528:144,2,50,8|0|8,0:0|0:0|0:0,0:0:0:0:
256,144,105022,1,0,0:0:0:0:
320,144,105108,6,0,L|400:144,2,50,8|0|8,0:0|0:0|0:0,0:0:0:0:
128,144,105365,1,0,0:0:0:0:
64,144,105451,2,0,L|-16:144,1,50,8|0,0:0|0:0,0:0:0:0:
64,80,105622,2,0,L|128:80,1,50
288,192,105794,6,0,L|320:128,1,50,8|0,0:0|0:0,0:0:0:0:
464,128,105965,2,0,L|496:64,1,50,8|0,0:0|0:0,0:0:0:0:
448,48,106137,2,0,L|400:32,1,50
240,128,106308,6,0,L|288:80,1,50,8|0,0:0|0:0,0:0:0:0:
64,80,106479,2,0,L|48:16,1,50,8|0,0:0|0:0,0:0:0:0:
96,16,106651,2,0,L|160:16,1,50
416,112,106822,2,0,L|480:112,1,50,8|0,0:0|0:0,0:0:0:0:
304,112,106994,2,0,L|320:48,1,50,8|0,0:0|0:0,0:0:0:0:
384,64,107165,2,0,L|448:64,1,50,8|0,0:0|0:0,0:0:0:0:
224,64,107337,2,0,L|160:64,1,50,8|0,0:0|0:0,0:0:0:0:
336,288,107508,6,0,L|352:208,1,50,12|0,0:0|0:0,0:0:0:0:
176,288,107679,2,0,L|160:224,1,50,8|0,0:0|0:0,0:0:0:0:
336,288,107851,2,0,L|352:208,1,50,8|0,0:0|0:0,0:0:0:0:
356,176,108022,2,0,L|372:80,1,50
128,192,108194,6,0,L|112:112,1,50,12|0,0:0|0:0,0:0:0:0:
384,192,108365,2,0,L|400:128,1,50,8|0,0:0|0:0,0:0:0:0:
128,192,108537,2,0,L|112:112,1,50,8|0,0:0|0:0,0:0:0:0:
108,80,108708,2,0,L|92:-16,1,50
432,288,108879,6,0,L|448:208,1,50,12|0,0:0|0:0,0:0:0:0:
80,288,109051,6,0,L|70:238,1,50,8|0,0:0|0:0,0:0:0:0:
432,288,109222,2,0,L|448:208,1,50,8|0,0:0|0:0,0:0:0:0:
452,176,109393,2,0,L|468:80,1,50
160,128,109565,5,8,0:0:0:0:
0,96,109651,1,8,0:0:0:0:
160,96,109737,1,8,0:0:0:0:
336,96,109822,1,8,0:0:0:0:
496,96,109908,6,0,L|496:256,1,150,4|0,0:0|0:0,0:0:0:0:
176,224,110251,6,0,P|64:176|48:112,1,150,4|0,0:0|0:0,0:0:0:0:
272,160,110594,6,0,L|336:128,1,50,8|0,0:0|0:0,0:0:0:0:
368,96,110765,2,0,L|416:32,1,50
112,272,110937,6,0,L|48:272,1,50,8|0,0:0|0:0,0:0:0:0:
0,224,111108,2,0,L|64:224,1,50
240,128,111279,2,0,L|190:128,2,50,8|0|0,0:0|0:0|0:0,0:0:0:0:
306,96,111537,2,0,L|256:96,2,50,8|0|0,0:0|0:0|0:0,0:0:0:0:
368,96,111794,1,0,0:0:0:0:
448,64,111879,2,0,L|512:64,1,50,8|0,0:0|0:0,0:0:0:0:
400,32,112022,2,0,L|352:32,1,33.3333333333333,8|0,0:0|0:0,0:0:0:0:
352,0,112137,2,0,L|401:9,1,50
144,160,112308,6,0,L|80:144,1,50,8|0,0:0|0:0,0:0:0:0:
64,112,112479,1,0,0:0:0:0:
272,96,112565,6,0,L|336:80,1,50,8|0,0:0|0:0,0:0:0:0:
352,48,112736,1,0,0:0:0:0:
96,64,112822,6,0,L|32:64,1,50,8|0,0:0|0:0,0:0:0:0:
368,256,112994,6,0,L|464:256,1,50,8|0,0:0|0:0,0:0:0:0:
480,256,113165,2,0,L|496:176,1,50
192,256,113337,2,0,L|128:256,1,50,8|0,0:0|0:0,0:0:0:0:
96,224,113508,2,0,L|64:160,1,50
336,224,113679,2,0,L|384:176,1,50,8|0,0:0|0:0,0:0:0:0:
408,136,113851,2,0,L|424:72,1,50
208,176,114022,2,0,L|176:128,1,50,8|0,0:0|0:0,0:0:0:0:
192,80,114194,2,0,L|224:32,1,50
432,272,114365,6,0,L|416:208,1,50,12|0,0:0|0:0,0:0:0:0:
80,272,114537,6,0,L|96:208,1,50,8|0,0:0|0:0,0:0:0:0:
432,272,114708,6,0,L|416:208,1,50,8|0,0:0|0:0,0:0:0:0:
408,172,114879,2,0,L|392:108,1,50
176,272,115051,6,0,L|192:208,1,50,12|0,0:0|0:0,0:0:0:0:
336,272,115223,6,0,L|320:208,1,50,8|0,0:0|0:0,0:0:0:0:
176,272,115394,6,0,L|192:208,1,50,8|0,0:0|0:0,0:0:0:0:
200,172,115565,2,0,L|216:108,1,50
448,304,115737,6,0,L|512:304,1,50,8|0,0:0|0:0,0:0:0:0:
192,304,115908,2,0,L|192:240,1,50,8|0,0:0|0:0,0:0:0:0:
432,256,116079,2,0,L|496:224,1,50,8|0,0:0|0:0,0:0:0:0:
176,256,116251,2,0,L|144:192,1,50,8|0,0:0|0:0,0:0:0:0:
416,208,116422,2,0,L|464:160,1,50,8|0,0:0|0:0,0:0:0:0:
160,208,116594,2,0,L|112:160,1,50,8|0,0:0|0:0,0:0:0:0:
400,160,116765,2,0,L|432:96,1,50,8|0,0:0|0:0,0:0:0:0:
144,160,116937,2,0,L|96:144,1,50,8|0,0:0|0:0,0:0:0:0:
384,112,117108,6,0,L|384:48,1,50,8|0,0:0|0:0,0:0:0:0:
128,112,117280,2,0,L|64:112,1,50,8|0,0:0|0:0,0:0:0:0:
368,160,117451,2,0,L|336:96,1,50,8|0,0:0|0:0,0:0:0:0:
112,160,117623,2,0,L|48:192,1,50,8|0,0:0|0:0,0:0:0:0:
352,224,117794,2,0,L|304:176,1,50,8|0,0:0|0:0,0:0:0:0:
96,224,117966,2,8,L|48:272,1,50,8|0,0:0|0:0,0:0:0:0:
336,288,118137,2,0,L|272:256,1,50,8|0,0:0|0:0,0:0:0:0:
80,288,118309,2,0,L|48:352,1,50,8|0,0:0|0:0,0:0:0:0:
512,192,118479,6,8,L|432:192,1,50
288,192,118651,2,8,L|224:192,1,50
0,192,118822,6,0,L|80:192,1,50
224,192,118994,2,0,L|288:192,1,50
448,192,119165,2,8,L|512:192,1,50
288,192,119337,2,8,L|208:192,1,50
64,192,119508,2,0,L|0:192,1,50
224,192,119680,2,0,L|304:192,1,50
512,192,119851,1,4,0:0:0:0:
256,192,119965,12,0,120537,0:0:0:0:
208,192,120879,6,4,L|320:192,2,100,4|0|4,0:0|0:0|0:0,0:0:0:0:
352,160,121565,1,0,0:0:0:0:
176,160,121737,1,0,0:0:0:0:
352,160,121908,1,0,0:0:0:0:
496,160,122079,2,0,L|512:48,1,100,8|0,0:0|0:0,0:0:0:0:
368,48,122422,1,8,0:0:0:0:
224,240,122594,2,0,L|336:240,1,100,2|0,0:0|0:0,0:0:0:0:
144,144,122937,2,0,L|256:144,1,100,2|0,0:0|0:0,0:0:0:0:
480,144,123279,2,8,L|368:144,2,100
320,272,123965,6,0,L|288:160,1,100,2|0,0:0|0:0,0:0:0:0:
160,176,124308,2,0,L|128:64,1,100,2|0,0:0|0:0,0:0:0:0:
416,272,124651,2,0,L|384:144,1,100,8|0,0:0|0:0,0:0:0:0:
80,176,124994,2,0,L|48:64,1,100,8|0,0:0|0:0,0:0:0:0:
288,192,125337,2,0,L|176:192,1,100,2|0,0:0|0:0,0:0:0:0:
32,112,125679,2,2,L|160:112,1,100,8|0,0:0|0:0,0:0:0:0:
384,112,126022,1,8,0:0:0:0:
112,288,126708,6,0,L|48:192,1,100,8|0,0:0|0:0,0:0:0:0:
144,144,127051,2,0,L|16:128,1,100
320,240,127394,1,8,0:0:0:0:
464,208,127565,1,0,0:0:0:0:
304,128,127737,1,0,0:0:0:0:
448,96,127908,1,0,0:0:0:0:
208,272,128079,1,8,0:0:0:0:
64,272,128251,1,0,0:0:0:0:
16,176,128422,1,8,0:0:0:0:
224,176,128594,1,0,0:0:0:0:
432,176,128765,1,8,0:0:0:0:
432,288,129108,6,0,L|336:224,1,100,2|0,0:0|0:0,0:0:0:0:
208,192,129451,2,0,L|320:112,1,100,8|0,0:0|0:0,0:0:0:0:
96,160,129794,2,0,L|208:80,1,100,8|0,0:0|0:0,0:0:0:0:
432,160,130137,2,0,L|288:160,1,100,8|0,0:0|0:0,0:0:0:0:
512,80,130479,2,0,L|368:80,1,100,8|0,0:0|0:0,0:0:0:0:
96,256,130822,2,0,L|0:192,1,100,2|0,0:0|0:0,0:0:0:0:
192,176,131165,2,0,L|288:128,1,100,2|0,0:0|0:0,0:0:0:0:
16,128,131508,1,8,0:0:0:0:
448,336,131851,6,0,L|400:192,1,100,4|0,0:0|0:0,0:0:0:0:
256,224,132194,1,4,0:0:0:0:
448,336,132537,2,0,L|480:208,1,100
112,224,132879,1,0,0:0:0:0:
256,224,133051,2,0,L|304:176,2,50,8|0|0,0:0|0:0|0:0,0:0:0:0:
400,224,133394,1,2,0:0:0:0:
304,224,133565,6,0,L|272:96,1,100,8|0,0:0|0:0,0:0:0:0:
144,128,133908,2,0,L|112:16,1,100,8|0,0:0|0:0,0:0:0:0:
304,192,134251,2,8,L|304:48,1,100
464,80,134594,1,8,0:0:0:0:
192,256,134937,6,0,L|336:176,1,150,2|0,0:0|0:0,0:0:0:0:
192,176,135279,2,0,L|112:112,1,100,2|0,0:0|0:0,0:0:0:0:
400,224,135622,2,0,L|288:112,1,150,2|0,0:0|0:0,0:0:0:0:
32,112,135965,2,0,L|144:80,1,100,2|0,0:0|0:0,0:0:0:0:
512,256,136308,2,0,L|496:128,1,100,2|0,0:0|0:0,0:0:0:0:
256,192,136651,2,0,L|240:80,1,100,2|0,0:0|0:0,0:0:0:0:
0,96,136994,2,0,L|0:256,1,150,8|8,0:0|0:0,0:0:0:0:
256,192,137337,2,0,L|384:192,1,100,8|8,0:0|0:0,0:0:0:0:
64,272,137679,6,8,L|176:272,1,100
32,224,138022,2,0,L|0:64,1,150,2|0,0:0|0:0,0:0:0:0:
208,208,138365,2,0,L|112:64,1,150,2|0,0:0|0:0,0:0:0:0:
368,160,138708,2,0,L|256:96,1,100,2|0,0:0|0:0,0:0:0:0:
480,224,139051,2,0,L|512:64,1,150,2|0,0:0|0:0,0:0:0:0:
304,208,139394,2,0,L|400:64,1,150,2|0,0:0|0:0,0:0:0:0:
144,160,139737,2,2,L|288:80,1,150
144,80,140079,2,8,L|48:32,1,100
384,320,140422,6,0,L|432:160,1,150,2|0,0:0|0:0,0:0:0:0:
128,320,140765,6,0,L|80:160,1,150,2|0,0:0|0:0,0:0:0:0:
288,256,141108,6,0,L|336:96,1,150,2|0,0:0|0:0,0:0:0:0:
224,256,141451,6,0,L|176:96,1,150,2|0,0:0|0:0,0:0:0:0:
448,256,141794,6,0,L|464:176,1,50,4|0,0:0|0:0,0:0:0:0:
368,192,141965,2,8,L|352:144,1,50,4|8,0:0|0:0,0:0:0:0:
432,128,142137,1,8,0:0:0:0:
288,112,142308,2,8,L|320:64,1,50
32,64,142565,2,8,L|80:48,1,50
448,288,142822,6,0,L|480:224,1,50,4|0,0:0|0:0,0:0:0:0:
368,224,142994,2,0,L|352:160,1,50
448,224,143165,2,0,L|480:128,1,100,4|0,0:0|0:0,0:0:0:0:
304,128,143508,2,0,L|240:128,1,50,2|0,0:0|0:0,0:0:0:0:
80,80,143679,2,0,L|16:80,1,50,2|0,0:0|0:0,0:0:0:0:
256,176,143851,2,0,L|304:304,1,100,2|8,0:0|0:0,0:0:0:0:
128,272,144108,2,0,L|112:320,1,50,8|8,0:0|0:0,0:0:0:0:
336,240,144279,2,0,L|448:192,1,100,2|0,0:0|0:0,0:0:0:0:
224,208,144537,1,8,0:0:0:0:
208,160,144622,1,8,0:0:0:0:
224,112,144708,1,8,0:0:0:0:
272,96,144794,1,0,0:0:0:0:
80,144,144879,1,8,0:0:0:0:
64,96,144964,1,8,0:0:0:0:
112,64,145050,1,8,0:0:0:0:
160,32,145136,1,0,0:0:0:0:
0,192,145222,2,8,L|16:112,1,50
112,112,145394,2,8,L|176:96,1,50
320,224,145565,1,8,0:0:0:0:
352,192,145651,1,0,0:0:0:0:
352,144,145737,1,0,0:0:0:0:
320,112,145822,1,0,0:0:0:0:
448,288,145908,6,0,L|464:176,1,100,2|0,0:0|0:0,0:0:0:0:
256,192,146251,2,0,L|352:96,1,100,2|0,0:0|0:0,0:0:0:0:
176,288,146594,2,0,L|16:240,1,150,2|0,0:0|0:0,0:0:0:0:
256,192,146937,2,0,L|368:176,1,100,2|0,0:0|0:0,0:0:0:0:
48,256,147279,6,0,L|16:128,1,100,2|0,0:0|0:0,0:0:0:0:
208,256,147622,2,0,L|240:128,1,100,2|0,0:0|0:0,0:0:0:0:
496,272,147965,2,0,L|496:32,1,200,2|4,0:0|0:0,0:0:0:0:
256,64,148479,1,0,0:0:0:0:
16,64,148651,1,4,0:0:0:0:
384,192,148994,1,8,0:0:0:0:
256,192,149165,1,0,0:0:0:0:
128,192,149337,1,8,0:0:0:0:
400,192,149508,1,0,0:0:0:0:
400,144,149594,1,0,0:0:0:0:
400,96,149679,1,0,0:0:0:0:
112,224,149794,1,8,0:0:0:0:
96,144,149908,1,8,0:0:0:0:
32,80,150022,1,8,0:0:0:0:
240,176,150137,1,8,0:0:0:0:
256,96,150251,1,8,0:0:0:0:
320,32,150365,1,8,0:0:0:0:
400,16,150479,1,2,0:0:0:0:
480,16,150594,1,0,0:0:0:0:
192,32,150708,2,0,L|336:32,1,133.333333333333,2|0,0:0|0:0,0:0:0:0:
80,160,151108,1,8,0:0:0:0:
384,256,151394,2,0,L|336:160,1,100,4|0,0:0|0:0,0:0:0:0:
128,256,151737,2,0,L|176:160,1,100
448,192,152079,2,0,L|320:128,1,100,4|0,0:0|0:0,0:0:0:0:
64,192,152422,2,0,L|192:128,1,100
512,144,152765,2,0,L|368:112,1,100,4|0,0:0|0:0,0:0:0:0:
0,144,153108,2,0,L|144:112,1,100
512,192,153451,5,0,0:0:0:0:
256,192,153622,1,0,0:0:0:0:
0,192,153794,6,0,L|208:192,1,200,4|0,0:0|0:0,0:0:0:0:
0,192,154479,6,0,L|208:192,1,200
512,192,155165,6,0,L|304:192,1,200,4|0,0:0|0:0,0:0:0:0:
512,192,155850,6,0,L|288:192,1,200
0,192,156537,6,0,L|256:192,1,250,4|0,0:0|0:0,0:0:0:0:
0,192,157222,6,0,L|272:192,1,250
512,192,157908,6,0,L|224:192,1,250,4|0,0:0|0:0,0:0:0:0:
512,192,158593,6,0,L|224:192,1,250
0,256,159279,6,0,L|304:256,1,300.000011444092,4|0,0:0|0:0,0:0:0:0:
0,192,159964,6,0,L|336:192,1,300.000011444092
512,256,160651,6,0,L|160:256,1,300.000011444092,4|0,0:0|0:0,0:0:0:0:
512,192,161336,6,0,L|176:192,1,300.000011444092
0,192,162022,2,0,L|352:192,1,350.00000333786,4|0,0:0|0:0,0:0:0:0:
0,256,162708,2,0,L|352:256,1,350.00000333786
512,192,163394,2,0,L|160:192,1,350.00000333786,4|0,0:0|0:0,0:0:0:0:
512,256,164080,2,0,L|160:256,1,350.00000333786
16,192,164765,2,4,L|528:192,1,479.999985351563
16,192,165450,2,0,L|528:192,1,479.999985351563
76,144,166136,2,4,L|444:144,1,359.999989013672
76,144,166822,2,0,L|444:144,1,359.999989013672
136,80,167507,2,4,L|392:80,1,239.999992675781
136,80,168193,2,0,L|392:80,1,239.999992675781
196,28,168879,2,4,L|340:28,1,119.999996337891
196,28,169564,2,0,L|340:28,1,119.999996337891
256,48,170250,6,0,B|512:48|512:48|516:352,1,539.999983520508,0|12,0:0|0:0,0:0:0:0:
496,352,173420,1,0,0:0:0:0:
416,304,173506,2,0,L|352:304,1,50
512,256,173677,6,0,L|448:256,1,50
224,256,173849,2,0,L|160:256,1,50
16,336,174020,2,0,L|32:288,1,50,12|0,0:0|0:0,0:0:0:0:
96,288,174192,2,0,L|176:288,1,50
0,256,174363,6,0,L|64:256,1,50
288,256,174535,2,0,L|352:256,1,50
512,192,174706,6,0,L|480:144,1,50,12|0,0:0|0:0,0:0:0:0:
320,128,174877,2,0,L|240:96,1,50
512,192,175049,2,0,L|432:144,1,50,12|0,0:0|0:0,0:0:0:0:
96,112,175220,2,0,L|32:112,1,50
512,192,175391,2,8,L|462:192,1,50
272,144,175563,2,8,L|192:144,1,50
0,192,175735,6,0,L|0:352,1,150,12|0,0:0|0:0,0:0:0:0:
336,288,176077,6,0,L|416:288,1,50,8|0,0:0|0:0,0:0:0:0:
432,288,176249,2,0,L|496:288,1,50
288,224,176420,2,0,L|192:224,1,50,8|0,0:0|0:0,0:0:0:0:
192,192,176592,2,0,L|160:112,1,50
352,128,176763,2,0,L|416:128,1,50,8|0,0:0|0:0,0:0:0:0:
352,128,176935,2,0,L|288:128,1,50
480,128,177106,2,0,L|496:48,1,50,8|0,0:0|0:0,0:0:0:0:
192,192,177277,1,8,0:0:0:0:
160,160,177363,1,0,0:0:0:0:
144,112,177449,1,0,0:0:0:0:
176,80,177535,1,0,0:0:0:0:
32,192,177620,6,0,L|16:112,1,50,8|0,0:0|0:0,0:0:0:0:
208,224,177792,1,8,0:0:0:0:
224,192,177877,1,0,0:0:0:0:
224,144,177963,1,0,0:0:0:0:
192,96,178049,1,0,0:0:0:0:
384,208,178135,1,8,0:0:0:0:
400,160,178220,1,0,0:0:0:0:
368,128,178306,1,0,0:0:0:0:
320,112,178392,1,0,0:0:0:0:
464,112,178477,2,0,L|480:48,1,50,8|0,0:0|0:0,0:0:0:0:
256,112,178649,2,0,L|224:32,1,50,8|0,0:0|0:0,0:0:0:0:
64,288,178820,6,0,L|0:240,1,50,8|0,0:0|0:0,0:0:0:0:
16,208,178992,2,0,L|80:176,1,50
208,288,179163,2,0,L|160:224,1,50,8|0,0:0|0:0,0:0:0:0:
176,208,179335,2,0,L|224:144,1,50
352,288,179506,2,0,L|320:224,1,50,8|0,0:0|0:0,0:0:0:0:
320,192,179677,2,0,L|352:128,1,50
496,288,179849,2,0,L|496:224,1,50,8|0,0:0|0:0,0:0:0:0:
496,192,180020,2,0,L|496:128,1,50
160,336,180192,6,0,L|128:288,1,50,8|0,0:0|0:0,0:0:0:0:
224,256,180363,2,0,L|288:240,1,50
384,224,180535,2,0,L|352:160,1,50,12|0,0:0|0:0,0:0:0:0:
272,144,180706,2,0,L|208:128,1,50
48,352,180877,2,0,L|16:288,1,50,8|0,0:0|0:0,0:0:0:0:
224,224,181049,2,0,L|288:208,1,50
480,192,181220,2,0,L|448:128,1,50,12|0,0:0|0:0,0:0:0:0:
272,144,181392,2,0,L|224:128,1,50
112,240,181563,6,0,L|128:176,1,50,8|0,0:0|0:0,0:0:0:0:
288,176,181735,2,0,L|352:160,1,50
112,192,181906,2,0,L|96:128,1,50,8|0,0:0|0:0,0:0:0:0:
160,128,182077,2,0,L|224:112,1,50
64,336,182249,2,0,L|48:272,1,50,8|0,0:0|0:0,0:0:0:0:
48,240,182420,2,0,L|64:176,1,50
288,288,182592,2,0,L|352:288,2,50,8|0|0,0:0|0:0|0:0,0:0:0:0:
352,224,182820,2,0,L|383:234,1,33.3333333333333,8|0,0:0|0:0,0:0:0:0:
416,192,182935,2,0,L|368:160,1,50
144,160,183106,6,0,L|176:112,1,50,8|0,0:0|0:0,0:0:0:0:
352,112,183277,2,0,L|416:96,1,50,8|0,0:0|0:0,0:0:0:0:
464,80,183449,2,0,L|480:32,1,50
256,272,183620,2,0,L|208:224,1,50,8|0,0:0|0:0,0:0:0:0:
64,192,183792,2,0,L|16:144,1,50
256,272,183963,2,0,L|304:224,1,50,8|0,0:0|0:0,0:0:0:0:
448,192,184135,2,0,L|496:144,1,50
144,256,184306,6,0,L|176:192,1,50,12|0,0:0|0:0,0:0:0:0:
368,256,184477,2,0,L|336:192,1,50,8|0,0:0|0:0,0:0:0:0:
144,256,184649,2,8,L|176:176,1,50,8|0,0:0|0:0,0:0:0:0:
176,160,184820,2,0,L|208:80,1,50
400,256,184992,6,0,L|352:192,1,50,12|0,0:0|0:0,0:0:0:0:
112,256,185163,2,0,L|160:192,1,50,8|0,0:0|0:0,0:0:0:0:
400,256,185335,2,0,L|352:192,1,50,8|0,0:0|0:0,0:0:0:0:
336,160,185506,2,0,L|288:96,1,50
64,256,185677,6,0,L|128:208,1,50,12|0,0:0|0:0,0:0:0:0:
448,256,185849,2,0,L|384:208,1,50,8|0,0:0|0:0,0:0:0:0:
64,256,186020,2,0,L|128:208,1,50,8|0,0:0|0:0,0:0:0:0:
144,192,186192,2,0,L|208:144,1,50
352,128,186363,5,8,0:0:0:0:
512,96,186449,1,8,0:0:0:0:
352,96,186535,1,8,0:0:0:0:
176,96,186620,1,12,0:0:0:0:
16,96,186706,6,12,L|16:256,1,150
336,224,187049,6,0,P|448:176|464:112,1,150,4|0,0:0|0:0,0:0:0:0:
224,176,187392,2,0,L|160:160,1,50,8|0,0:0|0:0,0:0:0:0:
256,128,187563,2,0,L|272:64,1,50,8|0,0:0|0:0,0:0:0:0:
96,144,187735,1,8,0:0:0:0:
32,112,187820,1,0,0:0:0:0:
0,48,187906,1,0,0:0:0:0:
176,32,187992,6,0,L|240:32,2,50,8|0|0,0:0|0:0|0:0,0:0:0:0:
400,192,188249,2,0,L|480:176,1,50,8|0,0:0|0:0,0:0:0:0:
400,144,188420,2,0,L|336:128,1,50
80,272,188592,6,0,L|112:224,1,50,8|0,0:0|0:0,0:0:0:0:
256,224,188763,2,0,L|192:192,1,50,8|0,0:0|0:0,0:0:0:0:
160,176,188935,2,0,L|96:144,1,50
304,288,189106,2,0,L|368:256,2,50,8|0|0,0:0|0:0|0:0,0:0:0:0:
352,224,189363,2,0,L|400:192,2,50,8|0|0,0:0|0:0|0:0,0:0:0:0:
160,176,189620,2,0,L|96:128,1,50,8|0,0:0|0:0,0:0:0:0:
496,304,189792,6,0,L|496:224,1,50,8|0,0:0|0:0,0:0:0:0:
496,192,189963,2,0,L|496:128,1,50
352,304,190135,2,0,L|320:240,1,50,8|0,0:0|0:0,0:0:0:0:
336,208,190306,2,0,L|368:128,1,50
208,304,190477,2,0,L|176:240,1,50,8|0,0:0|0:0,0:0:0:0:
192,224,190649,2,0,L|224:160,1,50
64,304,190820,2,0,L|0:272,1,50,8|0,0:0|0:0,0:0:0:0:
16,240,190992,2,0,L|80:192,1,50
336,304,191163,6,0,L|400:304,1,50,12|0,0:0|0:0,0:0:0:0:
176,304,191335,2,0,L|112:304,1,50,8|0,0:0|0:0,0:0:0:0:
336,304,191506,2,0,L|400:304,1,50,8|0,0:0|0:0,0:0:0:0:
432,304,191677,2,0,L|496:304,1,50
192,304,191849,2,0,L|144:240,1,50,12|0,0:0|0:0,0:0:0:0:
320,304,192020,2,0,L|368:240,1,50,8|0,0:0|0:0,0:0:0:0:
176,272,192192,2,0,L|144:208,1,50,8|0,0:0|0:0,0:0:0:0:
128,176,192363,2,0,L|96:112,1,50
0,144,192535,6,0,L|16:64,1,50,8|0,0:0|0:0,0:0:0:0:
288,240,192706,2,0,L|272:160,1,50,8|0,0:0|0:0,0:0:0:0:
32,96,192877,2,0,L|64:48,1,50,8|0,0:0|0:0,0:0:0:0:
320,176,193049,2,0,L|288:112,1,50,8|0,0:0|0:0,0:0:0:0:
80,64,193220,2,0,L|128:32,1,50,8|0,0:0|0:0,0:0:0:0:
368,128,193392,2,0,L|304:64,1,50,8|0,0:0|0:0,0:0:0:0:
144,64,193563,2,0,L|208:32,1,50,8|0,0:0|0:0,0:0:0:0:
416,80,193735,2,0,L|352:48,1,50,8|0,0:0|0:0,0:0:0:0:
176,112,193906,6,0,L|240:112,1,50,8|0,0:0|0:0,0:0:0:0:
464,128,194077,2,0,L|384:128,1,50,8|0,0:0|0:0,0:0:0:0:
208,160,194249,2,0,L|288:208,1,50,8|0,0:0|0:0,0:0:0:0:
496,192,194420,2,0,L|416:208,1,50,8|0,0:0|0:0,0:0:0:0:
240,224,194592,2,0,L|272:272,1,50,8|0,0:0|0:0,0:0:0:0:
512,240,194763,2,0,L|432:288,1,50,8|0,0:0|0:0,0:0:0:0:
256,240,194935,2,0,L|256:320,1,50,8|0,0:0|0:0,0:0:0:0:
0,240,195106,2,0,L|80:288,1,50,8|0,0:0|0:0,0:0:0:0:
320,208,195277,6,0,L|352:256,1,50,8|0,0:0|0:0,0:0:0:0:
256,208,195449,2,0,L|256:272,1,50
174,208,195620,2,0,L|142:272,1,50,8|0,0:0|0:0,0:0:0:0:
256,208,195792,2,0,L|256:272,1,50
400,208,195963,2,0,L|432:288,1,50,8|0,0:0|0:0,0:0:0:0:
256,208,196135,2,0,L|256:272,1,50
96,208,196306,2,0,L|64:272,1,50,8|0,0:0|0:0,0:0:0:0:
256,208,196477,2,0,L|256:272,1,50
432,208,196649,6,8,L|496:240,1,50
256,208,196820,1,8,0:0:0:0:
80,208,196906,1,8,0:0:0:0:
432,192,196992,2,0,L|432:272,1,50,8|0,0:0|0:0,0:0:0:0:
80,208,197163,6,8,L|16:240,1,50
256,208,197335,1,8,0:0:0:0:
432,208,197420,1,8,0:0:0:0:
80,192,197506,2,0,L|80:272,1,50,8|4,0:0|0:0,0:0:0:0:
512,192,197677,5,12,0:0:0:0:
416,192,197763,1,12,0:0:0:0:
256,192,197849,1,12,0:0:0:0:
96,192,197935,1,12,0:0:0:0:
0,192,198020,6,0,L|0:352,1,150,12|0,0:0|0:0,0:0:0:0:
176,192,198363,6,0,L|352:192,1,150,4|0,0:0|0:0,0:0:0:0:
208,128,198706,2,0,L|96:128,1,100,8|0,0:0|0:0,0:0:0:0:
272,64,199049,2,0,L|144:64,1,100
448,272,199392,2,0,L|448:144,1,100,8|0,0:0|0:0,0:0:0:0:
208,128,199735,2,0,L|320:128,1,100
80,304,200077,2,0,B|32:192|128:128,1,200,8|0,0:0|0:0,0:0:0:0:
432,304,200763,6,0,L|448:176,1,100,4|0,0:0|0:0,0:0:0:0:
304,192,201106,2,0,L|336:64,1,100,2|0,0:0|0:0,0:0:0:0:
144,240,201449,2,0,L|16:128,1,150
128,112,201792,2,0,L|256:112,1,100,2|0,0:0|0:0,0:0:0:0:
480,320,202135,6,0,L|480:192,1,100,2|0,0:0|0:0,0:0:0:0:
208,192,202477,2,0,L|320:192,1,100,2|0,0:0|0:0,0:0:0:0:
32,112,202820,2,0,L|144:112,2,100,2|0|2,0:0|0:0|0:0,0:0:0:0:
352,256,203506,6,0,L|480:256,1,100,4|0,0:0|0:0,0:0:0:0:
288,192,203849,2,0,L|176:192,1,100,8|0,0:0|0:0,0:0:0:0:
384,160,204192,2,0,L|400:48,1,100,8|0,0:0|0:0,0:0:0:0:
224,48,204535,2,0,L|336:48,1,100
48,288,204877,6,0,L|64:160,1,100,8|0,0:0|0:0,0:0:0:0:
208,192,205220,2,0,L|224:64,1,100,8|0,0:0|0:0,0:0:0:0:
400,288,205563,2,0,P|432:160|384:96,1,200,8|0,0:0|0:0,0:0:0:0:
96,336,206249,6,0,L|48:160,1,150,6|0,0:0|0:0,0:0:0:0:
240,256,206592,6,0,L|288:80,1,150,2|0,0:0|0:0,0:0:0:0:
464,192,206935,6,0,L|424:336,1,150,2|0,0:0|0:0,0:0:0:0:
272,256,207277,6,0,L|224:80,1,150,2|0,0:0|0:0,0:0:0:0:
44,143,207620,6,8,L|32:192,1,50
112,128,207792,2,8,L|128:80,1,50
64,64,207963,1,8,0:0:0:0:
224,112,208135,2,8,L|192:48,1,50
480,112,208392,2,8,L|432:64,1,50
256,80,208649,5,8,0:0:0:0:
80,272,208735,1,8,0:0:0:0:
16,272,208820,1,8,0:0:0:0:
80,224,208906,1,8,0:0:0:0:
16,224,208992,6,0,L|16:48,1,150,12|0,0:0|0:0,0:0:0:0:
112,64,209335,2,0,L|272:64,1,150
368,192,209677,2,0,L|480:192,1,100,2|0,0:0|0:0,0:0:0:0:
304,128,210020,2,0,L|192:128,1,100,8|0,0:0|0:0,0:0:0:0:
480,288,210363,2,0,L|448:176,1,100,2|0,0:0|0:0,0:0:0:0:
304,176,210706,2,0,L|352:64,1,100,8|0,0:0|0:0,0:0:0:0:
160,224,211049,2,0,P|128:128|192:64,1,200,10|0,0:0|0:0,0:0:0:0:
448,304,211735,6,0,L|480:160,1,100,4|0,0:0|0:0,0:0:0:0:
336,208,212077,2,0,L|304:80,1,100
176,208,212420,6,0,L|200:110,1,100,4|0,0:0|0:0,0:0:0:0:
64,304,212762,2,0,L|42:206,1,100
464,192,213106,2,0,L|336:192,2,100,4|0|0,0:0|0:0|0:0,0:0:0:0:
48,192,213792,2,0,L|176:192,2,100,4|0|0,0:0|0:0|0:0,0:0:0:0:
380,192,214477,2,0,L|124:192,1,239.999992675781,4|0,0:0|0:0,0:0:0:0:
440,192,215163,2,0,L|24:192,1,359.999989013672,4|0,0:0|0:0,0:0:0:0:
336,272,215849,6,0,L|352:144,1,100,4|0,0:0|0:0,0:0:0:0:
176,272,216192,6,0,L|160:144,1,100
416,272,216535,6,0,L|480:144,1,100,4|0,0:0|0:0,0:0:0:0:
96,272,216877,6,0,L|32:144,1,100
496,192,217220,5,4,0:0:0:0:
16,192,217735,5,4,0:0:0:0:
496,192,218249,5,4,0:0:0:0:
16,192,218763,6,0,L|16:384,1,150,4|0,0:0|0:0,0:0:0:0:
64,336,219106,1,8,0:0:0:0:
448,336,219192,2,8,L|512:336,1,50
64,336,219363,2,8,L|0:336,1,50
256,288,219620,2,0,L|256:80,1,200,4|0,0:0|0:0,0:0:0:0:
256,192,220135,12,0,225449,0:0:0:0:
