osu file format v14

[General]
AudioFilename: audio.ogg
AudioLeadIn: 0
PreviewTime: 22394
Countdown: 0
SampleSet: Soft
StackLeniency: 0.4
Mode: 0
LetterboxInBreaks: 1
EpilepsyWarning: 1
WidescreenStoryboard: 1

[Editor]
Bookmarks: 77903
DistanceSpacing: 1
BeatDivisor: 2
GridSize: 16
TimelineZoom: 1

[Metadata]
Title:Cirno's Perfect Math Class (Nika Lenina Russian Version)
TitleUnicode:Cirno's Perfect Math Class (Nika Lenina Russian Version)
Artist:IOSYS
ArtistUnicode:IOSYS
Creator:dopaminos
Version:Normal
Source:東方紅魔郷 ~ the Embodiment of Scarlet Devil.
Tags:zun touhou koumakyou 東方氷雪歌集 arm miko quim 夕野ヨシミ yuuno yoshimi 上海アリス幻樂団 team shanghai alice おてんば恋娘 otenba koimusume video game japanese Sansuu Kyoushitsu 東方project electronic russian русский электроника schoolboy komore e4pi4mak 228 aye1337 enuhq Эрик Массман AnsverITO сырна цырна сирна цирна сырнин цырнин класс математики ника ленина Альона Кокоріна дура бака baka сhiruno
BeatmapID:4136476
BeatmapSetID:1990973

[Difficulty]
HPDrainRate:3
CircleSize:3.4
OverallDifficulty:4
ApproachRate:5
SliderMultiplier:1.1
SliderTickRate:1

[Events]
//Background and Video events
Video,460,"cirno.mp4"
0,0,"bg.jpg",0,0
//Break Periods
//Storyboard Layer 0 (Background)
//Storyboard Layer 1 (Fail)
//Storyboard Layer 2 (Pass)
//Storyboard Layer 3 (Foreground)
//Storyboard Layer 4 (Overlay)
//Storyboard Sound Samples

[TimingPoints]
537,342.857142857143,4,2,1,45,1,0
537,-111.111111111111,4,2,1,45,0,0
5508,-111.111111111111,4,2,2,45,0,0
6022,-111.111111111111,4,2,1,45,0,0
8422,-111.111111111111,4,2,3,45,0,0
8594,-111.111111111111,4,2,1,45,0,0
10994,-111.111111111111,4,2,1,50,0,0
11508,-105.263157894737,4,2,1,50,0,0
16651,-105.263157894737,4,2,3,50,0,0
16994,-105.263157894737,4,2,1,50,0,0
19737,-105.263157894737,4,2,1,55,0,0
21108,-105.263157894737,4,2,1,50,0,0
22479,-100,4,2,1,60,0,0
32765,-100,4,2,1,60,0,0
32937,-100,4,2,1,60,0,0
33108,-100,4,2,1,60,0,0
33279,-100,4,2,1,60,0,0
33451,-100,4,2,1,60,0,0
44079,-100,4,2,1,70,0,0
44422,-108.695652173913,4,2,1,70,0,0
66365,-117.647058823529,4,2,1,55,0,0
71508,-117.647058823529,4,2,3,55,0,0
71679,-117.647058823529,4,2,1,55,0,0
71851,-111.111111111111,4,2,1,70,0,0
77337,-100,4,2,1,70,0,0
82822,-105.263157894737,4,2,1,70,0,0
85565,-105.263157894737,4,2,1,75,0,0
88308,-100,4,2,1,70,0,0
93794,-105.263157894737,4,2,1,70,0,0
99279,-100,4,2,1,70,0,0
109565,-100,4,2,1,70,0,0
109737,-100,4,2,1,70,0,0
109908,-100,4,2,1,70,0,0
110079,-100,4,2,1,70,0,0
110251,-100,4,2,1,70,0,0
121222,-100,4,2,1,5,0,0
126708,-111.111111111111,4,2,1,5,0,0

[Colours]
Combo1 : 174,235,84
Combo2 : 33,184,222
Combo3 : 0,117,234

[HitObjects]
55,64,537,6,0,L|113:55,1,49.4999984893799,2|2,3:3|3:3,0:0:0:0:
141,94,879,1,10,1:3:0:0:
141,94,1051,2,0,L|257:111,1,98.9999969787599,10|2,1:3|3:2,0:0:0:0:
273,73,1565,1,10,1:3:0:0:
359,26,1908,2,0,P|385:21|407:24,1,49.4999984893799,2|2,3:3|3:3,0:0:0:0:
446,62,2250,1,10,1:3:0:0:
446,62,2422,2,0,L|428:178,1,98.9999969787599,8|2,1:3|3:2,0:0:0:0:
420,207,2936,1,8,1:3:0:0:
356,283,3279,6,0,P|313:267|256:289,1,98.9999969787599,10|10,3:3|1:3,0:0:0:0:
228,318,3794,1,0,3:3:0:0:
228,318,3965,2,0,L|123:316,1,98.9999969787599,10|10,3:3|1:3,0:0:0:0:
79,317,4479,1,0,3:3:0:0:
79,317,4651,1,10,1:3:0:0:
24,233,4994,2,0,L|24:174,1,49.4999984893799,10|10,1:3|1:3,0:0:0:0:
84,107,5508,1,2,1:3:0:0:
84,107,5679,1,2,1:3:0:0:
170,153,6022,6,0,P|209:160|238:166,1,49.4999984893799,2|2,3:3|3:3,0:0:0:0:
254,197,6365,1,10,1:3:0:0:
254,197,6537,2,0,P|301:189|358:206,1,98.9999969787599,10|2,1:3|3:2,0:0:0:0:
384,238,7051,1,10,1:3:0:0:
455,170,7394,2,0,L|432:68,1,98.9999969787599,10|0,3:3|3:3,0:0:0:0:
399,37,7908,2,0,P|354:58|305:60,1,98.9999969787599,10|10,1:3|1:3,0:0:0:0:
266,29,8422,1,0,1:1:0:0:
179,76,8765,6,0,L|198:175,1,98.9999969787599,8|8,3:3|1:3,0:0:0:0:
162,207,9279,1,0,3:3:0:0:
162,207,9451,2,0,L|140:305,1,98.9999969787599,10|8,3:3|1:3,0:0:0:0:
234,336,10137,2,0,B|306:319|306:319|379:334,1,148.49999546814,10|10,1:3|1:3,0:0:0:0:
475,301,10994,1,2,1:2:0:0:
475,301,11165,1,2,1:2:0:0:
402,226,11508,6,0,B|388:149|427:149|402:65,1,156.749995814324,6|2,3:2|1:2,0:0:0:0:
365,35,12194,2,0,L|304:25,1,52.2499986047745,2|2,1:2|1:2,0:0:0:0:
262,14,12537,1,2,1:2:0:0:
169,61,12879,2,0,L|102:70,2,52.2499986047745,2|2|2,1:2|1:2|1:2,0:0:0:0:
217,93,13394,1,2,1:2:0:0:
217,93,13565,1,2,1:2:0:0:
280,176,13908,1,2,1:2:0:0:
199,243,14251,6,0,B|160:257|111:240|133:220|91:206|49:225,1,156.749995814324,2|2,1:2|1:2,0:0:0:0:
18,266,14937,2,0,L|29:318,1,52.2499986047745,2|2,1:2|1:2,0:0:0:0:
43,366,15279,2,0,L|112:350,1,52.2499986047745,2|2,1:2|1:2,0:0:0:0:
137,325,15622,2,0,P|181:347|244:342,1,104.499997209549,2|2,1:2|1:2,0:0:0:0:
321,286,16308,1,2,3:2:0:0:
411,339,16651,1,2,1:2:0:0:
472,253,16994,6,0,B|450:160|450:160|460:135|460:135|441:39,1,208.999994419098,4|4,3:2|3:2,0:0:0:0:
234,50,18365,2,0,B|217:134|217:134|226:159|226:159|204:252,1,208.999994419098,4|4,3:2|3:2,0:0:0:0:
18,348,19737,1,2,1:2:0:0:
18,244,20079,1,4,3:2:0:0:
123,244,20422,1,2,1:2:0:0:
123,348,20764,1,4,3:2:0:0:
211,291,21108,2,0,B|312:316|312:316|416:291,1,208.999994419098,2|2,1:2|1:2,0:0:0:0:
502,90,22479,6,0,P|448:97|394:90,1,110,6|8,3:2|3:3,0:0:0:0:
355,54,22994,2,0,P|300:47|246:54,1,110,2|2,1:2|1:2,0:0:0:0:
207,93,23508,1,10,3:3:0:0:
129,170,23851,2,0,L|144:285,1,110,2|10,3:2|3:3,0:0:0:0:
182,318,24365,2,0,L|301:302,1,110,2|2,1:2|1:2,0:0:0:0:
345,292,24879,1,10,3:3:0:0:
323,184,25222,6,0,P|313:147|317:70,1,110,2|10,3:2|3:3,0:0:0:0:
276,36,25737,2,0,B|223:51|223:51|169:40,1,110,2|2,1:2|1:2,0:0:0:0:
121,12,26251,1,10,3:3:0:0:
34,80,26594,2,0,L|51:137,1,55,2|2,3:2|1:2,0:0:0:0:
88,171,26937,1,10,3:3:0:0:
88,171,27108,2,0,L|66:281,1,110,2|2,1:2|1:2,0:0:0:0:
105,317,27622,1,10,3:3:0:0:
204,364,27965,6,0,P|248:330|310:339,1,110,6|8,3:2|3:3,0:0:0:0:
344,365,28479,2,0,P|406:364|457:370,1,110,2|2,1:2|1:2,0:0:0:0:
493,330,28994,1,10,3:3:0:0:
428,240,29337,2,0,L|414:180,1,55,2|2,3:2|1:2,0:0:0:0:
454,147,29679,1,10,3:3:0:0:
454,147,29851,2,0,L|484:34,1,110,2|2,1:2|1:2,0:0:0:0:
435,11,30365,1,10,3:3:0:0:
326,31,30708,6,0,P|289:46|218:38,1,110,2|10,3:2|3:3,0:0:0:0:
181,78,31222,2,0,L|200:192,1,110,2|2,1:2|1:2,0:0:0:0:
238,225,31737,1,10,3:3:0:0:
160,302,32079,2,0,P|121:264|59:258,1,110,2|2,3:2|3:2,0:0:0:0:
43,212,32594,1,2,3:2:0:0:
43,212,32765,2,0,L|48:155,1,55,2|10,3:2|3:3,0:0:0:0:
4,123,33108,2,0,L|-1:66,1,55,10|2,3:3|1:2,0:0:0:0:
39,31,33451,5,6,3:2:0:0:
146,72,33794,1,8,3:3:0:0:
146,72,33965,2,0,P|191:72|263:64,1,110,2|2,1:2|1:2,0:0:0:0:
288,109,34479,1,10,3:3:0:0:
361,191,34822,1,2,3:2:0:0:
469,158,35165,1,10,3:3:0:0:
469,158,35336,2,0,P|469:203|497:270,1,110,2|2,1:2|1:2,0:0:0:0:
453,302,35850,1,10,3:3:0:0:
358,359,36194,5,2,3:2:0:0:
275,295,36537,1,10,3:3:0:0:
275,295,36708,2,0,P|270:236|275:180,1,110,2|2,1:2|1:2,0:0:0:0:
228,154,37222,1,10,3:3:0:0:
150,232,37565,2,0,L|97:215,1,55,2|2,3:2|1:2,0:0:0:0:
52,194,37908,1,10,3:3:0:0:
52,194,38079,2,0,P|30:148|51:85,1,110,2|2,1:2|1:2,0:0:0:0:
83,53,38594,1,10,3:3:0:0:
168,122,38937,6,0,P|166:171|159:234,1,110,6|8,3:2|3:3,0:0:0:0:
199,271,39451,2,0,P|243:252|319:267,1,110,2|2,1:2|1:2,0:0:0:0:
350,289,39965,1,10,3:3:0:0:
450,243,40308,2,0,P|432:194|442:128,1,110,10|10,3:3|3:3,0:0:0:0:
460,87,40822,2,0,L|349:48,1,110,10|10,1:3|1:3,0:0:0:0:
305,27,41336,1,10,3:3:0:0:
222,100,41679,6,0,P|230:140|236:181,2,82.5,10|10|10,3:3|3:3|3:3,0:0:0:0:
139,35,42537,1,10,1:3:0:0:
139,35,42708,1,10,1:3:0:0:
60,112,43051,2,0,P|52:140|45:171,1,55,10|10,1:3|1:3,0:0:0:0:
79,209,43394,2,0,P|73:248|78:292,1,82.5,10|10,1:3|1:3,0:0:0:0:
208,331,44079,1,6,1:2:0:0:
306,306,44422,6,0,P|299:251|309:206,1,101.199996602783,2|10,3:2|1:3,0:0:0:0:
275,176,44937,1,2,1:2:0:0:
275,176,45108,2,0,L|170:195,1,101.199996602783,2|8,3:2|1:3,0:0:0:0:
76,215,45794,2,0,L|53:164,1,50.5999983013917,2|2,3:2|1:2,0:0:0:0:
25,128,46137,2,0,L|52:79,1,50.5999983013917,10|2,1:3|1:2,0:0:0:0:
85,47,46479,2,0,L|192:62,1,101.199996602783,2|8,3:2|1:3,0:0:0:0:
252,137,47165,6,0,P|293:115|358:128,1,101.199996602783,2|10,3:2|1:3,0:0:0:0:
396,107,47679,1,2,1:2:0:0:
396,107,47851,2,0,L|403:52,2,50.5999983013917,2|2|10,3:2|1:2|1:3,0:0:0:0:
458,187,48537,1,2,3:2:0:0:
389,261,48879,1,10,1:3:0:0:
292,227,49222,2,0,B|243:238|243:238|188:225,1,101.199996602783,2|8,3:2|1:3,0:0:0:0:
134,144,49908,6,0,L|74:162,1,50.5999983013917,6|2,3:2|1:2,0:0:0:0:
70,206,50251,2,0,L|84:254,1,50.5999983013917,10|2,1:3|1:2,0:0:0:0:
121,288,50594,2,0,P|174:306|205:345,1,101.199996602783,2|8,3:2|1:3,0:0:0:0:
297,375,51279,2,0,L|402:351,1,101.199996602783,2|10,3:2|1:3,0:0:0:0:
443,369,51794,1,2,1:2:0:0:
443,369,51965,2,0,P|428:314|443:267,1,101.199996602783,2|8,3:2|1:3,0:0:0:0:
456,172,52651,6,0,L|466:116,1,50.5999983013917,2|2,3:2|1:2,0:0:0:0:
472,72,52994,1,10,1:3:0:0:
370,65,53337,2,0,L|360:121,1,50.5999983013917,2|2,3:2|1:2,0:0:0:0:
354,165,53680,1,10,1:3:0:0:
269,219,54022,2,0,P|214:216|152:223,1,101.199996602783,2|10,3:2|1:3,0:0:0:0:
132,256,54537,1,2,1:2:0:0:
132,256,54708,2,0,P|86:267|43:233,1,101.199996602783,2|10,3:2|1:3,0:0:0:0:
4,144,55394,6,0,L|34:44,1,101.199996602783,6|10,3:2|1:3,0:0:0:0:
75,19,55908,1,2,1:2:0:0:
75,19,56079,2,0,P|114:55|162:49,1,101.199996602783,2|10,3:2|1:3,0:0:0:0:
250,93,56765,2,0,L|352:75,1,101.199996602783,2|10,3:2|1:3,0:0:0:0:
399,64,57279,1,2,1:2:0:0:
399,64,57451,2,0,L|386:13,2,50.5999983013917,2|2|10,3:2|1:2|1:3,0:0:0:0:
470,135,58137,6,0,P|461:185|474:241,1,101.199996602783,2|10,3:2|1:3,0:0:0:0:
497,277,58651,1,2,1:2:0:0:
497,277,58822,2,0,L|484:334,1,50.5999983013917,2|2,3:2|1:2,0:0:0:0:
471,375,59165,1,10,1:3:0:0:
382,325,59508,1,2,3:2:0:0:
292,371,59851,1,10,1:3:0:0:
203,322,60194,2,0,P|203:274|197:218,1,101.199996602783,10|10,1:3|1:3,0:0:0:0:
256,139,60879,6,0,P|354:154|430:90,1,202.399993205567,4|4,3:2|3:2,0:0:0:0:
238,22,62251,1,4,3:2:0:0:
138,3,62594,1,6,3:2:0:0:
49,51,62937,2,0,P|43:101|49:156,1,101.199996602783,6|6,3:2|3:2,0:0:0:0:
119,222,63622,6,0,B|179:245|238:223|202:197|257:176|310:190,1,202.399993205567,6|6,3:2|3:2,0:0:0:0:
380,261,64651,1,2,1:2:0:0:
474,223,64994,2,0,P|474:184|481:120,1,101.199996602783,10|10,1:3|1:3,0:0:0:0:
444,86,65508,1,10,1:3:0:0:
444,86,65679,2,0,P|403:100|337:72,1,101.199996602783,10|10,1:3|1:3,0:0:0:0:
278,22,66365,6,0,B|142:63|142:63|4:22,1,280.500005350113,6|0,3:2|0:0,0:0:0:0:
9,117,67737,2,0,P|60:152|94:321,1,233.750004458428,6|2,3:2|1:2,0:0:0:0:
81,354,68765,1,2,1:2:0:0:
174,351,69108,6,0,B|322:388|322:325|455:352,1,280.500005350113,6|0,3:2|0:0,0:0:0:0:
497,270,70479,2,0,P|438:241|382:88,1,233.750004458428,6|8,3:2|1:3,0:0:0:0:
407,52,71508,1,0,1:1:0:0:
316,27,71851,6,0,L|257:16,1,49.4999984893799,2|10,3:2|1:3,0:0:0:0:
232,53,72194,1,2,3:2:0:0:
232,53,72365,2,0,L|131:71,1,98.9999969787599,10|8,1:3|1:3,0:0:0:0:
99,105,72879,1,0,3:3:0:0:
20,165,73222,1,2,3:2:0:0:
53,258,73565,1,0,3:3:0:0:
152,256,73908,1,10,3:3:0:0:
181,162,74251,1,10,1:3:0:0:
207,66,74594,6,0,P|253:91|301:83,1,98.9999969787599,0|10,3:3|1:3,0:0:0:0:
365,12,75279,2,0,P|403:45|461:47,1,98.9999969787599,0|10,3:3|1:3,0:0:0:0:
504,133,75965,2,0,L|489:187,1,49.4999984893799,10|10,1:3|1:3,0:0:0:0:
454,215,76308,2,0,L|471:275,1,49.4999984893799,10|10,1:3|1:3,0:0:0:0:
431,296,76651,2,0,P|384:285|336:295,1,98.9999969787599,10|2,1:3|1:2,0:0:0:0:
242,352,77337,6,0,L|115:341,1,110,6|10,3:2|1:3,0:0:0:0:
93,303,77851,1,2,1:2:0:0:
93,303,78022,2,0,P|101:271|91:244,1,55,2|2,3:2|1:2,0:0:0:0:
55,211,78365,2,0,P|47:179|57:152,1,55,10|2,1:3|1:2,0:0:0:0:
92,119,78708,2,0,P|145:144|207:132,1,110,2|10,3:2|1:3,0:0:0:0:
233,98,79222,1,2,1:2:0:0:
233,98,79394,1,2,3:2:0:0:
320,31,79737,1,10,1:3:0:0:
406,98,80079,6,0,B|390:194|428:194|407:277,1,165,2|2,3:2|1:2,0:0:0:0:
371,299,80765,2,0,P|344:307|316:301,1,55,2|2,3:2|1:2,0:0:0:0:
279,340,81108,2,0,P|252:332|223:338,1,55,10|2,1:3|1:2,0:0:0:0:
175,358,81451,2,0,L|126:306,1,55
97,283,81794,1,10,1:3:0:0:
175,206,82137,1,10,1:3:0:0:
97,128,82479,1,14,1:2:0:0:
170,54,82822,6,0,P|224:70|268:52,1,104.499997209549,6|8,3:2|1:3,0:0:0:0:
304,15,83337,1,2,3:2:0:0:
304,15,83508,2,0,L|358:4,1,52.2499986047745,2|2,3:2|3:2,0:0:0:0:
392,41,83851,2,0,L|443:51,1,52.2499986047745,10|2,1:3|3:2,0:0:0:0:
502,137,84365,1,2,3:2:0:0:
502,137,84537,2,0,L|495:196,1,52.2499986047745,10|2,1:3|3:2,0:0:0:0:
458,225,84879,2,0,L|399:216,1,52.2499986047745,2|2,3:2|3:2,0:0:0:0:
354,211,85222,1,8,1:3:0:0:
304,303,85565,6,0,P|249:329|188:317,1,104.499997209549,6|10,3:2|1:3,0:0:0:0:
172,292,86079,1,2,1:2:0:0:
172,292,86251,2,0,L|54:284,1,104.499997209549,2|10,3:2|1:3,0:0:0:0:
32,253,86765,1,2,1:2:0:0:
32,253,86937,1,2,3:2:0:0:
37,148,87279,1,10,1:3:0:0:
141,150,87622,2,0,L|197:139,1,52.2499986047745,10|10,1:3|1:3,0:0:0:0:
229,103,87965,2,0,L|285:114,1,52.2499986047745,10|10,1:3|1:3,0:0:0:0:
312,158,88308,6,0,P|364:212|409:210,1,110,6|10,3:2|1:3,0:0:0:0:
434,174,88822,1,2,1:2:0:0:
434,174,88994,2,0,L|425:114,2,55,0|2|10,3:3|1:2|1:3,0:0:0:0:
486,270,89679,2,0,L|477:326,1,55,2|2,3:2|1:2,0:0:0:0:
438,363,90022,2,0,L|382:354,1,55,10|2,1:3|1:2,0:0:0:0:
344,315,90365,2,0,L|277:322,1,55,2|2,3:2|1:2,0:0:0:0:
234,329,90708,1,10,1:3:0:0:
156,251,91051,6,0,P|171:198|162:145,1,110,2|10,3:2|1:3,0:0:0:0:
194,99,91565,1,2,1:2:0:0:
194,99,91737,2,0,L|252:89,2,55,2|2|10,3:2|1:2|1:3,0:0:0:0:
116,21,92422,2,0,L|55:6,1,55,2|10,3:2|1:3,0:0:0:0:
19,42,92765,2,0,L|0:97,1,55,10|2,1:3|3:2,0:0:0:0:
40,133,93108,2,0,P|49:183|58:256,1,110,10|14,1:3|1:2,0:0:0:0:
122,323,93794,6,0,P|178:323|239:309,1,104.499997209549,6|8,3:2|1:3,0:0:0:0:
276,302,94308,1,2,3:2:0:0:
276,302,94479,2,0,L|288:352,2,52.2499986047745,2|0|10,3:2|3:3|1:3,0:0:0:0:
349,227,95165,2,0,L|368:174,1,52.2499986047745,2|2,1:2|3:2,0:0:0:0:
403,140,95508,2,0,L|385:90,1,52.2499986047745,10|2,1:3|3:2,0:0:0:0:
348,53,95851,2,0,L|239:77,1,104.499997209549,2|10,3:2|1:3,0:0:0:0:
162,138,96537,2,0,P|120:121|61:142,1,104.499997209549,6|10,3:2|1:3,0:0:0:0:
65,243,97222,2,0,P|106:259|165:238,1,104.499997209549,4|10,3:2|1:3,0:0:0:0:
260,196,98765,5,6,3:2:0:0:
260,196,98936,1,10,1:3:0:0:
309,97,99279,2,0,P|375:79|419:92,1,110,6|10,3:2|3:3,0:0:0:0:
452,128,99794,2,0,L|434:240,1,110,2|2,1:2|1:2,0:0:0:0:
458,286,100308,1,10,3:3:0:0:
371,354,100651,2,0,P|327:366|266:342,1,110,2|10,3:2|3:3,0:0:0:0:
229,305,101165,2,0,P|185:293|124:317,1,110,2|2,1:2|1:2,0:0:0:0:
87,353,101679,1,10,3:3:0:0:
14,270,102022,6,0,L|53:165,1,110,2|10,3:2|3:3,0:0:0:0:
13,127,102537,2,0,L|114:80,1,110,2|2,1:2|1:2,0:0:0:0:
152,43,103051,2,0,L|204:62,1,55,10|2,3:3|1:2,0:0:0:0:
254,82,103394,1,2,3:2:0:0:
354,36,103737,1,10,3:3:0:0:
354,36,103908,2,0,P|406:71|464:64,1,110,2|2,1:2|1:2,0:0:0:0:
505,57,104422,1,10,3:3:0:0:
469,161,104765,6,0,L|448:280,1,110,6|8,3:2|3:3,0:0:0:0:
410,308,105279,2,0,P|373:279|303:286,1,110,2|2,1:2|1:2,0:0:0:0:
273,320,105794,1,10,3:3:0:0:
170,279,106137,2,0,L|51:291,1,110,2|10,3:2|3:3,0:0:0:0:
26,246,106651,2,0,P|46:194|23:140,1,110,2|2,1:2|1:2,0:0:0:0:
5,97,107165,1,10,3:3:0:0:
93,31,107508,2,0,B|155:48|155:48|208:33,1,110,2|10,3:2|3:3,0:0:0:0:
249,13,108022,2,0,B|316:6|303:40|353:49,1,110,2|2,1:2|1:2,0:0:0:0:
388,87,108537,1,10,3:3:0:0:
465,164,108879,6,0,P|448:215|464:267,1,110,2|2,3:2|3:2,0:0:0:0:
424,306,109394,1,2,3:2:0:0:
424,306,109565,2,0,L|364:325,1,55,2|10,3:2|3:3,0:0:0:0:
332,283,109908,2,0,L|272:270,1,55,10|2,3:3|1:2,0:0:0:0:
239,310,110251,5,6,3:2:0:0:
135,348,110594,1,8,3:3:0:0:
135,348,110765,2,0,P|72:351|31:325,1,110,2|2,1:2|1:2,0:0:0:0:
10,277,111279,1,10,3:3:0:0:
80,192,111622,1,2,3:2:0:0:
6,117,111965,1,10,3:3:0:0:
6,117,112136,2,0,P|3:58|10:2,1,110,2|2,1:2|1:2,0:0:0:0:
64,7,112650,1,10,3:3:0:0:
157,65,112994,5,2,3:2:0:0:
256,17,113337,1,10,3:3:0:0:
256,17,113508,2,0,B|312:28|312:28|373:14,1,110,2|2,1:2|1:2,0:0:0:0:
402,55,114022,1,10,3:3:0:0:
475,136,114365,2,0,L|460:197,1,55,2|2,3:2|1:2,0:0:0:0:
491,236,114708,1,10,3:3:0:0:
491,236,114879,2,0,L|510:355,1,110,2|2,1:2|1:2,0:0:0:0:
468,382,115394,1,10,3:3:0:0:
378,318,115737,6,0,P|333:336|264:314,1,110,6|8,3:2|3:3,0:0:0:0:
235,283,116251,2,0,L|242:165,1,110,2|2,1:2|1:2,0:0:0:0:
202,134,116765,1,10,3:3:0:0:
141,42,117108,2,0,P|96:24|27:46,1,110,10|10,3:3|3:3,0:0:0:0:
0,76,117622,2,0,L|7:194,1,110,10|10,1:3|1:3,0:0:0:0:
45,224,118136,1,10,3:3:0:0:
124,299,118479,6,0,P|114:349|101:390,2,82.5,10|10|10,3:3|3:3|3:3,0:0:0:0:
215,235,119337,1,10,1:3:0:0:
215,235,119508,1,10,1:3:0:0:
134,159,119851,2,0,P|134:122|132:99,1,55,10|10,1:3|1:3,0:0:0:0:
171,65,120194,2,0,P|212:89|247:84,1,82.5,10|10,1:3|1:3,0:0:0:0:
356,3,120879,1,6,1:2:0:0:
256,192,121137,12,0,126708,0:0:0:0:
