osu file format v14

[General]
AudioFilename: audio.ogg
AudioLeadIn: 0
PreviewTime: 22394
Countdown: 0
SampleSet: Soft
StackLeniency: 0.4
Mode: 0
LetterboxInBreaks: 1
EpilepsyWarning: 1
WidescreenStoryboard: 1

[Editor]
Bookmarks: 77903
DistanceSpacing: 1.4
BeatDivisor: 16
GridSize: 16
TimelineZoom: 1.4

[Metadata]
Title:Cirno's Perfect Math Class (Nika Lenina Russian Version)
TitleUnicode:Cirno's Perfect Math Class (Nika Lenina Russian Version)
Artist:IOSYS
ArtistUnicode:IOSYS
Creator:dopaminos
Version:Insane
Source:東方紅魔郷 ~ the Embodiment of Scarlet Devil.
Tags:zun touhou koumakyou 東方氷雪歌集 arm miko quim 夕野ヨシミ yuuno yoshimi 上海アリス幻樂団 team shanghai alice おてんば恋娘 otenba koimusume video game japanese Sansuu Kyoushitsu 東方project electronic russian русский электроника schoolboy komore e4pi4mak 228 aye1337 enuhq Эрик Массман AnsverITO сырна цырна сирна цирна сырнин цырнин класс математики ника ленина Альона Кокоріна дура бака baka сhiruno
BeatmapID:4223855
BeatmapSetID:1990973

[Difficulty]
HPDrainRate:5
CircleSize:4
OverallDifficulty:7.7
ApproachRate:8.5
SliderMultiplier:1.35
SliderTickRate:1

[Events]
//Background and Video events
Video,460,"cirno.mp4"
0,0,"bg.jpg",0,0
//Break Periods
//Storyboard Layer 0 (Background)
//Storyboard Layer 1 (Fail)
//Storyboard Layer 2 (Pass)
//Storyboard Layer 3 (Foreground)
//Storyboard Layer 4 (Overlay)
//Storyboard Sound Samples

[TimingPoints]
537,342.857142857143,4,2,1,45,1,0
537,-111.111111111111,4,2,1,45,0,0
5508,-111.111111111111,4,2,2,45,0,0
5937,-111.111111111111,4,2,2,45,0,0
6022,-111.111111111111,4,2,1,45,0,0
8422,-111.111111111111,4,2,3,45,0,0
8594,-111.111111111111,4,2,1,45,0,0
10994,-111.111111111111,4,2,1,50,0,0
11508,-105.263157894737,4,2,1,50,0,0
16651,-105.263157894737,4,2,3,50,0,0
16994,-105.263157894737,4,2,1,50,0,0
19737,-76.9230769230769,4,2,1,55,0,0
21108,-76.9230769230769,4,2,1,50,0,0
22479,-100,4,2,1,60,0,0
32765,-100,4,2,1,60,0,0
32937,-100,4,2,1,60,0,0
33108,-100,4,2,1,60,0,0
33279,-100,4,2,1,60,0,0
33451,-100,4,2,1,60,0,0
44079,-76.9230769230769,4,2,1,70,0,0
44337,-111.111111111111,4,2,1,70,0,0
44422,-108.695652173913,4,2,1,70,0,0
66365,-200,4,2,1,55,0,0
71508,-200,4,2,3,55,0,0
71679,-200,4,2,1,55,0,0
71851,-133.333333333333,4,2,1,70,0,0
73222,-111.111111111111,4,2,1,70,0,0
74594,-90.9090909090909,4,2,1,70,0,0
76651,-133.333333333333,4,2,1,70,0,0
77337,-100,4,2,1,70,0,0
82137,-133.333333333333,4,2,1,70,0,0
82822,-105.263157894737,4,2,1,70,0,0
85565,-105.263157894737,4,2,1,75,0,0
88308,-100,4,2,1,70,0,0
93794,-105.263157894737,4,2,1,70,0,0
96537,-76.9230769230769,4,2,1,70,0,0
99279,-100,4,2,1,70,0,0
109565,-100,4,2,1,70,0,0
109737,-100,4,2,1,70,0,0
109908,-100,4,2,1,70,0,0
110079,-100,4,2,1,70,0,0
110251,-100,4,2,1,70,0,0
120794,-111.111111111111,4,2,1,70,0,0
120879,-111.111111111111,4,2,1,70,0,0
121222,-100,4,2,1,5,0,0
126708,-111.111111111111,4,2,1,5,0,0

[Colours]
Combo1 : 174,235,84
Combo2 : 33,184,222
Combo3 : 0,117,234

[HitObjects]
140,111,537,5,2,3:3:0:0:
215,101,708,1,2,3:3:0:0:
372,111,879,1,10,1:3:0:0:
297,101,1051,2,0,B|282:164|294:222,1,121.499996292114,10|2,1:3|3:2,0:0:0:0:
203,305,1565,2,0,B|209:276|201:244,1,60.7499981460572,10|0,1:3|3:3,0:0:0:0:
38,233,1908,5,2,3:3:0:0:
55,313,2079,1,2,3:3:0:0:
40,149,2251,1,10,1:3:0:0:
57,69,2422,2,0,L|188:43,1,121.499996292114,8|2,1:3|3:2,0:0:0:0:
241,96,2937,2,0,L|312:115,1,60.7499981460572,8|0,1:3|3:3,0:0:0:0:
157,180,3279,5,10,3:3:0:0:
111,60,3451,1,10,1:3:0:0:
111,60,3537,1,2,1:2:0:0:
111,60,3622,2,0,L|46:47,1,60.7499981460572,10|0,1:3|3:3,0:0:0:0:
241,96,3965,5,10,3:3:0:0:
335,25,4137,1,10,1:3:0:0:
335,25,4223,1,2,1:2:0:0:
335,25,4308,2,0,L|400:38,1,60.7499981460572,10|0,1:3|3:3,0:0:0:0:
457,240,4651,1,10,1:3:0:0:
373,221,4822,1,10,1:3:0:0:
388,134,4994,1,10,1:3:0:0:
472,153,5165,1,10,1:3:0:0:
302,291,5508,5,2,1:3:0:0:
302,291,5594,1,2,1:3:0:0:
302,291,5679,2,0,B|244:295|253:315|194:330,1,91.1249972190858,2|0,1:3|0:0,0:0:0:0:
187,349,6022,2,0,P|150:351|111:349,1,60.7499981460572,2|2,3:3|3:3,0:0:0:0:
81,247,6365,1,10,1:3:0:0:
26,376,6537,2,0,P|14:320|-2:250,1,121.499996292114,10|2,1:3|3:2,0:0:0:0:
66,162,7051,2,0,P|97:174|128:176,1,60.7499981460572,10|0,1:3|3:3,0:0:0:0:
257,40,7394,6,0,P|226:42|198:54,1,60.7499981460572,10|0,3:3|3:3,0:0:0:0:
313,169,7737,1,0,3:3:0:0:
392,18,7908,2,0,L|413:80,1,60.7499981460572,10|0,1:3|0:0,0:0:0:0:
487,158,8251,1,10,1:3:0:0:
487,158,8337,1,8,1:3:0:0:
487,158,8422,2,0,L|466:220,1,60.7499981460572,0|0,1:1|3:3,0:0:0:0:
308,297,8765,6,0,P|348:301|378:306,1,60.7499981460572,8|8,3:3|1:3,0:0:0:0:
392,318,9022,1,8,1:3:0:0:
392,318,9108,1,8,1:3:0:0:
338,374,9279,1,0,3:3:0:0:
199,227,9451,6,0,P|159:231|129:236,1,60.7499981460572,10|8,3:3|1:3,0:0:0:0:
115,248,9708,1,8,1:3:0:0:
115,248,9794,1,8,1:3:0:0:
169,304,9965,1,0,3:3:0:0:
307,172,10137,5,10,1:3:0:0:
257,39,10309,1,10,1:3:0:0:
348,77,10479,1,10,1:3:0:0:
216,133,10651,1,10,1:3:0:0:
348,77,10994,5,2,1:2:0:0:
348,77,11165,2,0,P|343:111|345:137,1,60.7499981460572,2|2,1:2|1:2,0:0:0:0:
349,264,11508,6,0,B|334:200|358:204|344:134,1,128.249996575356,6|2,3:2|1:2,0:0:0:0:
422,230,12022,1,2,1:2:0:0:
422,230,12194,2,0,P|426:265|423:293,1,64.1249982876778,2|2,1:2|1:2,0:0:0:0:
271,292,12537,2,0,P|268:260|272:229,1,64.1249982876778,2|2,1:2|1:2,0:0:0:0:
427,154,12879,5,2,1:2:0:0:
269,153,13051,1,2,1:2:0:0:
431,69,13222,1,2,1:2:0:0:
273,68,13394,1,2,1:2:0:0:
351,201,13565,2,0,P|347:239|350:329,1,128.249996575356,2|2,1:2|1:2,0:0:0:0:
205,232,14079,1,2,1:2:0:0:
205,232,14251,6,0,P|208:168|203:104,1,128.249996575356,2|2,1:2|1:2,0:0:0:0:
348,268,14765,1,2,1:2:0:0:
348,268,14937,2,0,P|386:258|414:264,1,64.1249982876778,2|2,1:2|1:2,0:0:0:0:
293,356,15279,2,0,P|261:360|231:350,1,64.1249982876778,2|2,1:2|1:2,0:0:0:0:
179,246,15622,1,2,1:2:0:0:
109,368,15794,6,0,L|103:336,4,32.0624991438389,2|2|2|2|2,1:2|1:2|1:2|1:2|1:2,0:0:0:0:
30,227,16308,1,2,3:2:0:0:
30,227,16394,1,0,3:3:0:0:
30,227,16479,2,0,L|39:187,1,32.0624991438389,0|0,3:3|3:3,0:0:0:0:
132,121,16651,2,0,P|165:122|196:120,1,64.1249982876778,2|0,1:2|1:1,0:0:0:0:
328,3,16994,6,0,P|342:80|355:151,1,128.249996575356,4|0,3:2|1:1,0:0:0:0:
491,329,17679,2,0,P|438:308|363:322,1,128.249996575356,4|0,3:2|1:1,0:0:0:0:
97,236,18365,2,0,P|128:234|161:233,1,64.1249982876778,4|0,3:2|1:1,0:0:0:0:
292,293,18708,2,0,P|260:292|229:290,1,64.1249982876778,0|0,1:1|1:1,0:0:0:0:
353,211,19051,1,4,3:2:0:0:
393,292,19222,1,0,1:1:0:0:
502,156,19394,1,0,1:1:0:0:
416,127,19565,1,0,1:1:0:0:
490,380,19737,6,0,P|476:312|442:195,1,175.499991966248,2|4,1:2|3:2,0:0:0:0:
215,112,20422,2,0,B|323:133|260:176|368:217,1,175.499991966248,2|4,1:2|3:2,0:0:0:0:
255,384,21108,5,2,1:2:0:0:
260,196,21965,5,2,1:2:0:0:
260,196,22137,2,0,P|179:202|134:173,1,131.624993974686,2|0,1:2|0:0,0:0:0:0:
117,146,22479,2,0,L|131:75,1,67.5,6|2,3:2|1:2,0:0:0:0:
223,7,22822,1,8,3:3:0:0:
335,92,22994,2,0,P|278:119|211:89,1,135,2|2,1:2|1:2,0:0:0:0:
416,31,23508,1,10,3:3:0:0:
416,31,23594,1,2,1:2:0:0:
416,31,23679,1,2,1:2:0:0:
500,121,23851,6,0,L|513:191,1,67.5,2|2,3:2|1:2,0:0:0:0:
403,119,24194,1,10,3:3:0:0:
329,235,24365,1,2,1:2:0:0:
504,374,24622,1,2,1:2:0:0:
504,374,24707,1,2,1:2:0:0:
406,338,24879,2,0,P|369:341|336:337,1,67.5,10|2,3:3|1:2,0:0:0:0:
205,165,25222,6,0,P|238:161|272:164,1,67.5,2|2,3:2|1:2,0:0:0:0:
149,256,25565,1,10,3:3:0:0:
51,137,25737,2,0,P|63:186|15:261,1,135,2|2,1:2|1:2,0:0:0:0:
106,342,26251,1,10,3:3:0:0:
106,342,26337,1,2,1:2:0:0:
106,342,26422,1,2,1:2:0:0:
226,250,26594,6,0,L|221:178,1,67.5,2|2,3:2|1:2,0:0:0:0:
335,270,26937,1,10,3:3:0:0:
423,171,27108,1,2,1:2:0:0:
423,171,27194,1,2,1:2:0:0:
309,75,27365,1,2,1:2:0:0:
309,75,27451,1,2,1:2:0:0:
467,16,27622,2,0,P|423:20|388:13,1,67.5,10|2,3:3|1:2,0:0:0:0:
501,140,27965,6,0,L|509:212,1,67.5,6|2,3:2|1:2,0:0:0:0:
407,318,28308,1,8,3:3:0:0:
299,173,28479,2,0,B|380:189|342:218|415:239,1,135,2|2,1:2|1:2,0:0:0:0:
268,332,28994,1,10,3:3:0:0:
268,332,29079,1,2,1:2:0:0:
268,332,29165,1,2,1:2:0:0:
187,226,29337,6,0,L|203:155,1,67.5,2|2,3:2|1:2,0:0:0:0:
94,255,29679,1,10,3:3:0:0:
32,146,29851,1,2,1:2:0:0:
199,80,30108,1,2,1:2:0:0:
199,80,30194,1,2,1:2:0:0:
291,137,30365,2,0,P|331:138|373:143,1,67.5,10|2,3:3|1:2,0:0:0:0:
427,289,30708,6,0,L|421:212,1,67.5,2|2,3:2|1:2,0:0:0:0:
321,331,31051,1,10,3:3:0:0:
188,182,31222,2,0,P|229:225|308:220,1,135,2|2,1:2|1:2,0:0:0:0:
138,294,31737,1,10,3:3:0:0:
138,294,31822,1,2,1:2:0:0:
138,294,31908,1,2,1:2:0:0:
52,164,32079,2,0,L|63:122,3,33.75,2|2|2|2,3:2|3:2|3:2|3:2,0:0:0:0:
169,22,32422,2,0,L|177:54,3,33.75,2|2|2|2,3:2|3:2|3:2|3:2,0:0:0:0:
293,162,32765,5,2,3:2:0:0:
193,222,32937,1,10,3:3:0:0:
295,56,33108,1,10,3:3:0:0:
384,231,33279,1,2,1:2:0:0:
476,114,33451,6,0,L|487:186,1,67.5,6|2,3:2|1:2,0:0:0:0:
362,62,33794,1,8,3:3:0:0:
248,191,33965,2,0,B|158:175|194:152|126:135,1,135,2|2,1:2|1:2,0:0:0:0:
55,236,34479,1,10,3:3:0:0:
55,236,34565,1,2,1:2:0:0:
55,236,34651,1,2,1:2:0:0:
146,327,34822,6,0,L|227:319,1,67.5,2|2,3:2|1:2,0:0:0:0:
122,194,35165,1,10,3:3:0:0:
54,334,35337,1,2,1:2:0:0:
249,384,35594,1,2,1:2:0:0:
249,384,35679,1,2,1:2:0:0:
317,343,35851,2,0,P|359:344|393:342,1,67.5,10|2,3:3|1:2,0:0:0:0:
476,227,36194,6,0,L|488:298,1,67.5,2|2,3:2|1:2,0:0:0:0:
382,179,36537,1,10,3:3:0:0:
296,277,36708,2,0,P|256:245|174:245,1,135,2|2,1:2|1:2,0:0:0:0:
113,328,37222,1,10,3:3:0:0:
113,328,37308,1,2,1:2:0:0:
113,328,37394,1,2,1:2:0:0:
19,182,37565,6,0,L|29:260,1,67.5,2|2,3:2|1:2,0:0:0:0:
122,113,37908,1,10,3:3:0:0:
233,188,38079,1,2,1:2:0:0:
233,188,38165,1,2,1:2:0:0:
337,150,38337,1,2,1:2:0:0:
337,150,38423,1,2,1:2:0:0:
419,210,38594,2,0,P|418:250|421:283,1,67.5,10|2,3:3|1:2,0:0:0:0:
284,356,38937,6,0,P|321:351|356:363,1,67.5,6|2,3:2|1:2,0:0:0:0:
215,208,39279,1,8,3:3:0:0:
139,381,39451,2,0,L|106:239,1,135,2|2,1:2|1:2,0:0:0:0:
221,130,39965,1,10,3:3:0:0:
221,130,40051,1,2,1:2:0:0:
221,130,40137,1,2,1:2:0:0:
110,60,40308,6,0,P|74:60|37:44,1,67.5,10|10,3:3|1:3,0:0:0:0:
142,176,40651,1,10,3:3:0:0:
247,32,40822,1,10,1:3:0:0:
359,190,41079,1,10,1:3:0:0:
359,190,41165,1,10,1:3:0:0:
437,133,41337,2,0,P|477:139|506:135,1,67.5,10|10,3:3|1:3,0:0:0:0:
374,342,41679,5,10,3:3:0:0:
374,342,41764,1,10,1:3:0:0:
257,244,41936,1,10,3:3:0:0:
257,244,42022,1,10,1:3:0:0:
357,115,42194,1,10,3:3:0:0:
357,115,42280,1,10,1:3:0:0:
474,214,42452,1,10,3:3:0:0:
474,214,42537,1,10,1:3:0:0:
291,309,42708,2,0,P|251:315|220:318,1,67.5,10|10,1:3|1:3,0:0:0:0:
408,173,43051,5,10,1:3:0:0:
481,342,43222,1,10,1:3:0:0:
318,225,43394,1,10,1:3:0:0:
471,94,43565,1,10,1:3:0:0:
471,94,43651,1,10,1:3:0:0:
324,30,44079,6,0,B|251:24|278:65|191:58,1,131.624993974686,6|0,1:2|0:0,0:0:0:0:
183,82,44422,2,0,P|194:136|181:183,1,93.1499968730164,2|2,3:2|1:2,0:0:0:0:
164,209,44765,2,0,L|175:273,1,62.0999979153443,10|2,1:3|1:2,0:0:0:0:
324,371,45108,2,0,P|294:342|206:349,1,124.199995830689,2|8,3:2|1:3,0:0:0:0:
405,297,45794,2,0,L|391:234,1,62.0999979153443,2|2,3:2|1:2,0:0:0:0:
354,207,46051,1,2,1:2:0:0:
354,207,46137,2,0,L|365:141,1,62.0999979153443,10|2,1:3|1:2,0:0:0:0:
424,34,46479,2,0,P|476:40|504:105,1,124.199995830689,2|8,3:2|1:3,0:0:0:0:
305,30,47165,6,0,L|242:2,1,62.0999979153443,2|2,3:2|1:2,0:0:0:0:
276,145,47508,2,0,L|331:104,1,62.0999979153443,10|2,1:3|1:2,0:0:0:0:
177,54,47850,2,0,L|184:122,1,62.0999979153443,2|2,3:2|1:2,0:0:0:0:
97,214,48194,1,10,1:3:0:0:
16,121,48365,1,2,1:2:0:0:
193,224,48537,2,0,P|190:277|192:354,1,124.199995830689,2|10,3:2|1:3,0:0:0:0:
310,159,49222,2,0,P|311:96|308:34,1,124.199995830689,2|8,3:2|1:3,0:0:0:0:
439,243,49908,6,0,L|372:223,1,62.0999979153443,6|2,3:2|1:2,0:0:0:0:
348,300,50251,2,0,L|415:320,1,62.0999979153443,10|2,1:3|1:2,0:0:0:0:
489,178,50594,2,0,L|369:142,1,124.199995830689,2|8,3:2|1:3,0:0:0:0:
73,243,51279,6,0,L|140:223,1,62.0999979153443,2|2,3:2|1:2,0:0:0:0:
164,300,51622,2,0,L|97:320,1,62.0999979153443,10|2,1:3|1:2,0:0:0:0:
23,178,51965,2,0,L|142:142,1,124.199995830689,2|8,3:2|1:3,0:0:0:0:
256,159,52651,5,2,3:2:0:0:
178,113,52822,1,2,1:2:0:0:
96,162,52994,2,0,P|94:200|96:228,1,62.0999979153443,10|2,1:3|1:2,0:0:0:0:
214,317,53337,5,2,3:2:0:0:
292,271,53508,1,2,1:2:0:0:
374,320,53680,2,0,P|376:358|374:386,1,62.0999979153443,10|2,1:3|1:2,0:0:0:0:
444,222,54022,6,0,L|452:189,3,31.0499989576722,2|2|2|2,3:2|1:2|1:2|1:2,0:0:0:0:
500,129,54365,2,0,L|492:96,3,31.0499989576722,10|2|2|2,1:3|1:2|1:2|1:2,0:0:0:0:
393,20,54708,2,0,P|362:15|331:13,1,62.0999979153443,2|2,3:2|1:2,0:0:0:0:
299,43,54965,1,2,3:2:0:0:
299,43,55051,2,0,L|309:110,1,62.0999979153443,10|10,1:3|1:3,0:0:0:0:
181,190,55394,6,0,L|168:117,1,62.0999979153443,6|2,3:2|1:2,0:0:0:0:
138,99,55651,1,2,1:2:0:0:
138,99,55737,2,0,L|147:30,1,62.0999979153443,10|2,1:3|1:2,0:0:0:0:
12,163,56079,2,0,P|50:188|73:242,1,93.1499968730164,2|0,3:2|0:0,0:0:0:0:
102,258,56422,1,10,1:3:0:0:
280,355,56765,6,0,L|293:282,1,62.0999979153443,2|2,3:2|1:2,0:0:0:0:
323,264,57022,1,2,1:2:0:0:
323,264,57108,2,0,L|314:195,1,62.0999979153443,10|2,1:3|1:2,0:0:0:0:
433,285,57451,1,2,3:2:0:0:
501,161,57622,1,2,1:2:0:0:
381,77,57794,2,0,P|343:81|312:75,1,62.0999979153443,10|0,1:3|0:0,0:0:0:0:
164,15,58137,6,0,L|194:132,1,93.1499968730164,2|2,3:2|1:2,0:0:0:0:
212,135,58479,2,0,P|205:172|214:196,1,62.0999979153443,10|2,1:3|1:2,0:0:0:0:
299,194,58822,2,0,P|307:164|300:135,1,62.0999979153443,2|2,3:2|1:2,0:0:0:0:
216,279,59165,1,10,1:3:0:0:
297,279,59337,1,2,1:2:0:0:
167,342,59508,5,2,3:2:0:0:
352,349,59679,1,8,1:3:0:0:
352,349,59765,1,8,1:3:0:0:
352,349,59851,1,10,1:3:0:0:
256,205,60022,1,8,1:3:0:0:
256,205,60108,1,8,1:3:0:0:
256,205,60194,1,10,1:3:0:0:
167,342,60365,1,8,1:3:0:0:
167,342,60451,1,8,1:3:0:0:
167,342,60537,2,0,L|127:354,3,31.0499989576722,10|8|10|8,1:3|1:3|1:3|1:3,0:0:0:0:
256,205,60879,6,0,L|256:169,2,31.0499989576722,4|2|2,3:2|1:2|1:2,0:0:0:0:
348,272,61222,2,0,L|414:261,1,62.0999979153443,2|2,1:2|1:2,0:0:0:0:
256,205,61565,6,0,L|256:169,2,31.0499989576722,4|2|2,3:2|1:2|1:2,0:0:0:0:
164,272,61908,2,0,L|98:261,1,62.0999979153443,2|2,1:2|1:2,0:0:0:0:
256,78,62251,5,4,3:2:0:0:
256,78,62337,1,2,1:2:0:0:
256,78,62422,1,2,1:2:0:0:
367,175,62594,1,6,3:2:0:0:
256,284,62765,2,0,L|256:315,2,31.0499989576722,0|2|6,0:0|1:2|3:2,0:0:0:0:
145,175,63108,1,6,3:2:0:0:
256,78,63279,1,6,3:2:0:0:
121,27,63622,6,0,P|88:24|57:29,1,62.0999979153443,6|2,3:2|1:2,0:0:0:0:
63,105,63965,2,0,P|96:108|127:103,1,62.0999979153443,2|2,1:2|1:2,0:0:0:0:
254,16,64308,6,0,P|251:49|256:80,1,62.0999979153443,6|2,3:2|1:2,0:0:0:0:
328,200,64651,2,0,P|332:169|329:138,1,62.0999979153443,2|2,1:2|1:2,0:0:0:0:
217,235,64994,2,0,L|183:245,3,31.0499989576722,10|2|10|10,1:3|1:2|1:3|1:3,0:0:0:0:
144,258,65337,2,0,P|108:257|70:259,1,62.0999979153443,10|10,1:3|1:3,0:0:0:0:
254,337,65679,2,0,L|288:347,3,31.0499989576722,10|2|10|10,1:3|1:2|1:3|1:3,0:0:0:0:
327,360,66022,2,0,P|363:359|401:361,1,62.0999979153443,10|10,1:3|1:3,0:0:0:0:
506,305,66365,6,0,P|475:214|380:197,1,202.5,6|0,3:2|0:0,0:0:0:0:
224,325,67737,2,0,L|396:299,1,168.75,6|2,3:2|1:2,0:0:0:0:
428,293,68765,1,2,1:2:0:0:
256,89,69108,6,0,B|139:120|185:156|82:192,1,202.5,6|0,3:2|0:0,0:0:0:0:
38,243,70479,2,0,P|36:268|34:291,1,33.75,6|2,3:2|1:2,0:0:0:0:
84,338,70822,1,2,1:2:0:0:
84,338,70994,2,0,P|123:328|156:331,1,67.5,2|8,1:2|1:3,0:0:0:0:
215,284,71508,1,0,1:1:0:0:
215,284,71594,1,0,1:1:0:0:
215,284,71679,1,0,3:3:0:0:
295,362,71851,6,0,L|312:292,1,50.6250019311906,2|10,3:2|1:3,0:0:0:0:
383,379,72194,1,2,3:2:0:0:
498,250,72365,2,0,B|429:269|455:286|398:306,1,101.250003862381,10|8,1:3|1:3,0:0:0:0:
302,179,72879,2,0,P|331:170|358:174,1,50.6250019311906,0|8,3:3|1:3,0:0:0:0:
202,284,73222,6,0,L|195:217,1,60.7499981460572,2|8,3:2|3:3,0:0:0:0:
74,102,73565,2,0,L|67:169,1,60.7499981460572,0|8,3:3|3:3,0:0:0:0:
232,34,73908,2,0,P|195:20|163:30,1,60.7499981460572,10|8,3:3|3:3,0:0:0:0:
320,119,74251,2,0,L|383:107,1,60.7499981460572,10|8,1:3|1:3,0:0:0:0:
302,250,74594,2,0,L|447:222,1,148.50000453186,0|10,3:3|1:3,0:0:0:0:
208,363,75279,2,0,L|62:335,1,148.50000453186,0|10,3:3|1:3,0:0:0:0:
121,147,75965,6,0,L|160:140,1,37.1250011329651,10|10,1:3|1:3,0:0:0:0:
212,86,76137,2,0,L|251:93,1,37.1250011329651,10|10,1:3|1:3,0:0:0:0:
299,153,76308,1,10,1:3:0:0:
294,186,76393,1,10,1:3:0:0:
294,219,76479,1,10,1:3:0:0:
298,252,76565,1,10,1:3:0:0:
310,278,76651,2,0,P|308:319|310:383,1,101.250003862381,10|2,1:3|1:2,0:0:0:0:
199,155,77337,6,0,P|201:102|199:19,1,135,6|10,3:2|1:3,0:0:0:0:
106,91,77851,1,2,1:2:0:0:
25,12,78022,2,0,P|16:51|22:80,1,67.5,2|2,3:2|1:2,0:0:0:0:
82,238,78365,2,0,P|86:204|78:172,1,67.5,10|2,1:3|1:2,0:0:0:0:
2,301,78708,5,2,3:2:0:0:
151,380,78879,1,2,1:2:0:0:
154,247,79051,1,10,1:3:0:0:
67,347,79222,1,2,1:2:0:0:
151,380,79394,2,0,B|222:367|222:390|288:381,1,135,2|10,3:2|1:3,0:0:0:0:
355,268,79908,1,2,1:2:0:0:
445,382,80079,6,0,P|457:320|520:279,1,135,2|10,3:2|1:3,0:0:0:0:
373,123,80594,1,2,1:2:0:0:
281,242,80765,2,0,L|265:164,1,67.5,2|2,3:2|1:2,0:0:0:0:
185,24,81108,2,0,L|171:90,1,67.5,10|2,1:3|1:2,0:0:0:0:
76,171,81451,1,2,3:2:0:0:
169,295,81622,5,10,1:3:0:0:
169,295,81707,1,10,1:3:0:0:
169,295,81794,2,0,L|162:333,1,33.75,10|2,1:3|1:2,0:0:0:0:
328,370,81965,1,2,3:2:0:0:
328,370,82050,1,2,1:2:0:0:
328,370,82137,2,0,L|301:262,1,101.250003862381,10|14,1:3|1:2,0:0:0:0:
392,147,82822,6,0,P|454:144|496:190,1,128.249996575356,6|8,3:2|1:3,0:0:0:0:
367,278,83337,1,2,3:2:0:0:
254,145,83508,2,0,L|265:212,1,64.1249982876778,2|2,3:2|3:2,0:0:0:0:
192,302,83851,1,10,1:3:0:0:
192,302,84022,1,2,3:2:0:0:
90,100,84365,5,2,3:2:0:0:
38,163,84537,2,0,P|37:197|38:228,1,64.1249982876778,10|2,1:3|3:2,0:0:0:0:
144,225,84879,2,0,P|145:193|144:161,1,64.1249982876778,2|2,3:2|3:2,0:0:0:0:
257,52,85222,1,8,1:3:0:0:
257,52,85308,1,8,1:3:0:0:
257,52,85394,1,8,1:3:0:0:
357,145,85565,6,0,L|291:136,1,64.1249982876778,6|2,3:2|1:2,0:0:0:0:
402,205,85908,2,0,L|468:196,1,64.1249982876778,10|2,1:3|1:2,0:0:0:0:
218,136,86251,6,0,L|155:145,1,64.1249982876778,2|2,3:2|1:2,0:0:0:0:
46,196,86594,2,0,L|110:205,1,64.1249982876778,10|2,1:3|1:2,0:0:0:0:
256,360,86937,6,0,B|267:304|244:301|252:233,1,128.249996575356,2|10,3:2|1:3,0:0:0:0:
338,157,87451,1,0,0:0:0:0:
416,218,87622,2,0,L|412:254,2,32.0624991438389,10|8|10,1:3|1:3|1:3,0:0:0:0:
484,65,87965,1,10,1:3:0:0:
466,37,88051,1,8,1:3:0:0:
434,23,88137,1,10,1:3:0:0:
401,26,88222,1,8,1:3:0:0:
375,50,88308,6,0,P|328:56|229:68,1,135,6|10,3:2|1:3,0:0:0:0:
179,150,88822,1,2,1:2:0:0:
259,266,88994,2,0,P|266:227|261:190,1,67.5,0|2,3:3|1:2,0:0:0:0:
79,167,89337,2,0,P|72:206|77:243,1,67.5,10|2,1:3|1:2,0:0:0:0:
155,121,89679,5,2,3:2:0:0:
195,223,89851,1,2,1:2:0:0:
80,82,90022,1,10,1:3:0:0:
0,227,90194,1,2,1:2:0:0:
127,319,90365,2,0,B|198:305|195:331|259:338,1,135,2|10,3:2|1:3,0:0:0:0:
376,384,90879,1,2,1:2:0:0:
467,220,91051,6,0,P|421:252|346:233,1,135,2|10,3:2|1:3,0:0:0:0:
273,113,91565,1,2,1:2:0:0:
206,239,91737,2,0,L|184:167,1,67.5,2|2,3:2|1:2,0:0:0:0:
378,43,92079,2,0,L|358:107,1,67.5,10|2,1:3|1:2,0:0:0:0:
269,5,92422,5,2,3:2:0:0:
178,94,92594,1,10,1:3:0:0:
178,94,92679,1,10,1:3:0:0:
178,94,92765,2,0,P|136:93|103:90,1,67.5,10|2,1:3|3:2,0:0:0:0:
213,276,93108,2,0,P|280:270|348:269,1,135,10|14,1:3|1:2,0:0:0:0:
95,341,93794,6,0,P|108:278|95:213,1,128.249996575356,6|8,3:2|1:3,0:0:0:0:
40,142,94308,1,2,3:2:0:0:
91,66,94479,2,0,L|160:51,1,64.1249982876778,2|0,3:2|3:3,0:0:0:0:
249,167,94822,2,0,L|186:153,1,64.1249982876778,10|2,1:3|3:2,0:0:0:0:
311,84,95165,5,2,1:2:0:0:
362,157,95337,1,2,3:2:0:0:
312,232,95508,2,0,P|311:277|314:308,1,64.1249982876778,10|2,1:3|3:2,0:0:0:0:
186,153,95851,5,2,3:2:0:0:
135,226,96023,1,2,3:2:0:0:
192,305,96194,1,10,1:3:0:0:
192,305,96279,1,8,1:3:0:0:
192,305,96365,1,10,1:3:0:0:
0,358,96537,6,0,P|83:343|175:393,1,175.499991966248,6|10,3:2|1:3,0:0:0:0:
417,174,97222,2,0,B|327:196|327:196|241:170,1,175.499991966248,4|10,3:2|1:3,0:0:0:0:
260,196,98765,5,6,3:2:0:0:
260,196,98937,1,10,1:3:0:0:
182,51,99279,6,0,L|107:64,1,67.5,6|2,3:2|1:2,0:0:0:0:
199,157,99622,1,10,3:3:0:0:
99,264,99794,2,0,P|140:301|220:285,1,135,2|2,1:2|1:2,0:0:0:0:
318,148,100308,1,10,3:3:0:0:
318,148,100394,1,2,1:2:0:0:
318,148,100479,1,2,1:2:0:0:
388,279,100651,6,0,L|380:349,1,67.5,2|2,3:2|1:2,0:0:0:0:
502,254,100994,1,10,3:3:0:0:
432,160,101165,1,2,1:2:0:0:
493,26,101422,1,2,1:2:0:0:
493,26,101508,1,2,1:2:0:0:
416,1,101679,2,0,P|381:4|347:0,1,67.5,10|2,3:3|1:2,0:0:0:0:
255,151,102022,6,0,P|288:147|322:150,1,67.5,2|2,3:2|1:2,0:0:0:0:
217,243,102365,1,10,3:3:0:0:
112,113,102537,2,0,B|97:181|124:179|110:248,1,135,2|2,1:2|1:2,0:0:0:0:
186,329,103051,1,10,3:3:0:0:
186,329,103137,1,2,1:2:0:0:
186,329,103222,1,2,1:2:0:0:
290,195,103394,6,0,P|338:160|408:184,1,135,2|10,3:2|3:3,0:0:0:0:
423,309,103908,2,0,P|375:344|305:320,1,135,2|2,1:2|1:2,0:0:0:0:
357,251,104422,1,10,3:3:0:0:
273,52,104765,6,0,L|281:122,1,67.5,6|2,3:2|1:2,0:0:0:0:
171,22,105108,1,8,3:3:0:0:
45,167,105279,2,0,B|121:150|91:125|165:108,1,135,2|2,1:2|1:2,0:0:0:0:
259,204,105794,1,10,3:3:0:0:
259,204,105879,1,2,1:2:0:0:
259,204,105965,1,2,1:2:0:0:
375,69,106137,6,0,P|416:72|449:67,1,67.5,2|2,3:2|1:2,0:0:0:0:
324,161,106479,1,10,3:3:0:0:
394,249,106651,1,2,1:2:0:0:
297,368,106908,1,2,1:2:0:0:
297,368,106994,1,2,1:2:0:0:
224,325,107165,2,0,P|184:328|153:325,1,67.5,10|2,3:3|1:2,0:0:0:0:
71,182,107508,6,0,L|61:251,1,67.5,2|2,3:2|1:2,0:0:0:0:
148,133,107851,1,10,3:3:0:0:
276,231,108022,2,0,P|207:251|167:208,1,135,2|2,1:2|1:2,0:0:0:0:
312,90,108537,1,10,3:3:0:0:
312,90,108622,1,2,1:2:0:0:
312,90,108708,1,2,1:2:0:0:
421,201,108879,2,0,L|429:233,3,33.75,2|2|2|2,3:2|3:2|3:2|3:2,0:0:0:0:
299,354,109222,2,0,L|307:322,3,33.75,2|2|2|2,3:2|3:2|3:2|3:2,0:0:0:0:
421,201,109565,5,2,3:2:0:0:
321,141,109737,1,10,3:3:0:0:
427,316,109908,1,10,3:3:0:0:
512,132,110079,1,2,1:2:0:0:
421,201,110251,6,0,P|383:208|352:205,1,67.5,6|2,3:2|1:2,0:0:0:0:
257,92,110594,1,8,3:3:0:0:
160,223,110765,2,0,P|209:218|279:272,1,135,2|2,1:2|1:2,0:0:0:0:
188,340,111279,1,10,3:3:0:0:
188,340,111365,1,2,1:2:0:0:
188,340,111451,1,2,1:2:0:0:
45,241,111622,6,0,L|60:316,1,67.5,2|2,3:2|1:2,0:0:0:0:
133,150,111965,1,10,3:3:0:0:
229,224,112137,1,2,1:2:0:0:
358,153,112394,1,2,1:2:0:0:
358,153,112479,1,2,1:2:0:0:
422,197,112651,2,0,P|459:195|493:199,1,67.5,10|2,3:3|1:2,0:0:0:0:
296,85,112994,6,0,P|262:88|228:86,1,67.5,2|2,3:2|1:2,0:0:0:0:
137,18,113337,1,10,3:3:0:0:
54,182,113508,2,0,P|41:119|25:46,1,135,2|2,1:2|1:2,0:0:0:0:
154,143,114022,1,10,3:3:0:0:
154,143,114108,1,2,1:2:0:0:
154,143,114194,1,2,1:2:0:0:
243,20,114365,6,0,L|228:85,1,67.5,2|2,3:2|1:2,0:0:0:0:
312,146,114708,1,10,3:3:0:0:
430,82,114879,1,2,1:2:0:0:
430,82,114965,1,2,1:2:0:0:
512,188,115137,1,2,1:2:0:0:
512,188,115223,1,2,1:2:0:0:
392,278,115394,2,0,P|359:269|326:274,1,67.5,10|2,3:3|1:2,0:0:0:0:
188,356,115737,6,0,P|221:361|253:352,1,67.5,6|2,3:2|1:2,0:0:0:0:
128,221,116079,1,8,3:3:0:0:
53,379,116251,2,0,P|33:304|12:243,1,135,2|2,1:2|1:2,0:0:0:0:
120,123,116765,1,10,3:3:0:0:
120,123,116851,1,2,1:2:0:0:
120,123,116937,1,2,1:2:0:0:
221,208,117108,6,0,L|288:221,1,67.5,10|10,3:3|1:3,0:0:0:0:
402,110,117451,1,10,3:3:0:0:
467,253,117622,1,10,1:3:0:0:
308,75,117879,1,10,1:3:0:0:
308,75,117965,1,10,1:3:0:0:
241,129,118137,2,0,P|203:132|172:127,1,67.5,10|10,3:3|1:3,0:0:0:0:
121,336,118479,5,10,3:3:0:0:
121,336,118564,1,10,1:3:0:0:
4,238,118736,1,10,3:3:0:0:
4,238,118822,1,10,1:3:0:0:
104,109,118994,1,10,3:3:0:0:
104,109,119080,1,10,1:3:0:0:
221,208,119252,1,10,3:3:0:0:
221,208,119337,1,10,1:3:0:0:
60,290,119508,2,0,P|25:309|-3:321,1,67.5,10|10,1:3|1:3,0:0:0:0:
221,208,119851,5,10,1:3:0:0:
283,368,120022,1,10,1:3:0:0:
129,256,120194,1,10,1:3:0:0:
264,80,120365,1,10,1:3:0:0:
264,80,120451,2,0,P|310:75|398:88,1,135,10|0,1:3|0:0,0:0:0:0:
410,131,120879,5,6,1:2:0:0:
256,192,121051,12,0,126708,0:0:0:0:
