osu file format v14

[General]
AudioFilename: audio.ogg
AudioLeadIn: 0
PreviewTime: 22394
Countdown: 0
SampleSet: Soft
StackLeniency: 0.4
Mode: 0
LetterboxInBreaks: 1
EpilepsyWarning: 1
WidescreenStoryboard: 1

[Editor]
Bookmarks: 22479,44422,66365,71851
DistanceSpacing: 1.3
BeatDivisor: 8
GridSize: 4
TimelineZoom: 2.3

[Metadata]
Title:Cirno's Perfect Math Class (Nika Lenina Russian Version)
TitleUnicode:Cirno's Perfect Math Class (Nika Lenina Russian Version)
Artist:IOSYS
ArtistUnicode:IOSYS
Creator:dopaminos
Version:Enu's Expert
Source:東方紅魔郷 ~ the Embodiment of Scarlet Devil.
Tags:zun touhou koumakyou 東方氷雪歌集 arm miko quim 夕野ヨシミ yuuno yoshimi 上海アリス幻樂団 team shanghai alice おてんば恋娘 otenba koimusume video game japanese Sansuu Kyoushitsu 東方project electronic russian русский электроника schoolboy komore e4pi4mak 228 aye1337 enuhq Эрик Массман AnsverITO сырна цырна сирна цирна сырнин цырнин класс математики ника ленина Альона Кокоріна дура бака baka сhiruno
BeatmapID:4223468
BeatmapSetID:1990973

[Difficulty]
HPDrainRate:5.5
CircleSize:4
OverallDifficulty:8.4
ApproachRate:9
SliderMultiplier:1.82
SliderTickRate:1

[Events]
//Background and Video events
Video,460,"cirno.mp4"
0,0,"hello.jpg",0,0
//Break Periods
2,66565,71251
//Storyboard Layer 0 (Background)
//Storyboard Layer 1 (Fail)
//Storyboard Layer 2 (Pass)
//Storyboard Layer 3 (Foreground)
//Storyboard Layer 4 (Overlay)
//Storyboard Sound Samples

[TimingPoints]
537,342.857142857143,4,2,1,45,1,0
537,-125,4,2,1,45,0,0
5508,-125,4,2,2,45,0,0
6022,-125,4,2,1,45,0,0
8422,-125,4,2,3,45,0,0
8594,-125,4,2,1,45,0,0
10994,-125,4,2,1,50,0,0
11508,-111.111111111111,4,2,1,50,0,0
16651,-111.111111111111,4,2,3,50,0,0
16994,-90.9090909090908,4,2,1,50,0,0
18365,-111.111111111111,4,2,1,50,0,0
19737,-71.4285714285714,4,2,1,55,0,0
21108,-71.4285714285714,4,2,1,50,0,0
21451,-111.111111111111,4,2,1,50,0,0
21965,-71.4285714285714,4,2,1,50,0,0
22137,-249.999999999999,4,2,1,50,0,0
22479,-100,4,2,1,60,0,0
27108,-83.3333333333333,4,2,1,60,0,0
27965,-100,4,2,1,60,0,0
32079,-71.4285714285714,4,2,1,60,0,0
33451,-100,4,2,1,60,0,0
38079,-83.3333333333333,4,2,1,60,0,0
38937,-100,4,2,1,60,0,0
41508,-71.4285714285714,4,2,1,60,0,0
44079,-71.4285714285714,4,2,1,70,0,0
44422,-100,4,2,1,70,0,0
62937,-71.4285714285714,4,2,1,70,0,0
63622,-100,4,2,1,70,0,0
66365,-100,4,2,1,55,0,0
71508,-100,4,2,3,55,0,0
71679,-100,4,2,1,55,0,0
71851,-111.111111111111,4,2,1,70,0,0
74594,-76.9230769230769,4,2,1,70,0,0
74937,-111.111111111111,4,2,1,70,0,0
75279,-71.4285714285714,4,2,1,70,0,0
75622,-100,4,2,1,70,0,0
76308,-71.4285714285714,4,2,1,70,0,0
77337,-100,4,2,1,70,0,0
85565,-100,4,2,1,75,0,0
88308,-100,4,2,1,70,0,0
96537,-71.4285714285714,4,2,1,70,0,0
99279,-100,4,2,1,70,0,0
103994,-83.3333333333333,4,2,1,70,0,0
104765,-100,4,2,1,70,0,0
108879,-71.4285714285714,4,2,1,70,0,0
110251,-100,4,2,1,70,0,0
114965,-83.3333333333333,4,2,1,70,0,0
115737,-100,4,2,1,70,0,0
118137,-71.4285714285714,4,2,1,70,0,0
120879,-50,4,2,1,70,0,0
120922,-50,4,2,1,5,0,0
121222,-100,4,2,1,5,0,0
126708,-111.111111111111,4,2,1,5,0,0

[Colours]
Combo1 : 174,235,84
Combo2 : 33,184,222
Combo3 : 0,117,234

[HitObjects]
60,244,537,6,0,P|49:281|33:312,2,72.8,2|2|10,3:3|3:3|1:3,0:0:0:0:
1,378,1051,2,0,P|66:345|135:323,1,145.6,10|2,1:3|3:2,0:0:0:0:
193,372,1565,1,10,1:3:0:0:
292,278,1737,1,0,3:3:0:0:
152,156,1908,6,0,P|163:193|179:224,2,72.8,2|2|10,3:3|3:3|1:3,0:0:0:0:
211,290,2422,2,0,P|146:257|77:235,1,145.6,8|2,1:3|3:2,0:0:0:0:
152,358,2937,1,8,1:3:0:0:
267,227,3108,1,0,3:3:0:0:
332,288,3279,5,10,3:3:0:0:
454,176,3451,1,10,1:3:0:0:
454,176,3537,1,2,1:2:0:0:
454,176,3622,2,0,L|433:106,1,72.8,10|0,1:3|3:3,0:0:0:0:
286,217,3965,5,10,3:3:0:0:
164,105,4137,1,10,1:3:0:0:
164,105,4223,1,2,1:2:0:0:
164,105,4308,2,0,L|184:35,1,72.8,10|0,1:3|3:3,0:0:0:0:
67,259,4651,5,10,1:3:0:0:
253,147,4822,1,10,1:3:0:0:
26,0,4994,1,10,1:3:0:0:
138,186,5165,1,10,1:3:0:0:
394,0,5508,1,2,1:3:0:0:
394,0,5594,1,2,1:3:0:0:
394,0,5679,1,2,1:3:0:0:
394,0,6022,6,0,L|414:69,1,72.8,2|2,3:3|3:3,0:0:0:0:
464,127,6365,1,10,1:3:0:0:
325,61,6537,2,0,P|256:81|215:139,1,145.6,10|2,1:3|3:2,0:0:0:0:
245,213,7051,1,10,1:3:0:0:
310,153,7222,1,0,3:3:0:0:
138,2,7394,6,0,P|149:33|158:71,1,72.8,10|0,3:3|3:3,0:0:0:0:
32,228,7737,1,0,3:3:0:0:
67,90,7908,2,0,P|78:121|87:159,1,72.8,10|0,1:3|0:0,0:0:0:0:
251,114,8251,1,10,1:3:0:0:
251,114,8337,1,8,1:3:0:0:
250,114,8422,2,0,L|236:147,1,36.4,0|0,1:1|0:0,0:0:0:0:
199,256,8594,2,0,L|185:289,1,36.4,0|0,3:3|0:0,0:0:0:0:
149,361,8765,5,8,3:3:0:0:
291,281,8937,1,8,1:3:0:0:
318,311,9022,1,8,1:3:0:0:
356,323,9108,1,8,1:3:0:0:
512,206,9279,1,0,3:3:0:0:
480,369,9451,1,10,3:3:0:0:
480,369,9537,1,0,3:0:0:0:
480,369,9622,1,8,1:3:0:0:
480,369,9708,1,8,1:3:0:0:
480,369,9794,1,8,1:3:0:0:
361,244,9965,1,0,3:3:0:0:
492,121,10137,5,10,1:3:0:0:
345,258,10308,1,10,1:3:0:0:
157,116,10479,1,10,1:3:0:0:
286,338,10651,1,10,1:3:0:0:
34,157,10994,5,2,1:2:0:0:
41,137,11165,1,2,1:2:0:0:
11,240,11337,1,2,1:2:0:0:
176,101,11508,6,0,P|254:116|299:186,1,163.799995001221,6|2,3:2|1:2,0:0:0:0:
467,171,12022,1,2,1:2:0:0:
384,112,12194,2,0,L|406:34,1,81.8999975006104,2|2,1:2|1:2,0:0:0:0:
468,263,12537,2,0,L|490:185,1,81.8999975006104,2|2,1:2|1:2,0:0:0:0:
356,312,12879,5,2,1:2:0:0:
465,177,13051,1,2,1:2:0:0:
261,58,13222,1,2,1:2:0:0:
370,206,13393,1,2,1:2:0:0:
370,206,13565,5,2,1:2:0:0:
282,80,13736,1,0,0:0:0:0:
451,178,13907,1,2,1:2:0:0:
367,301,14079,1,2,1:2:0:0:
201,153,14251,6,0,B|118:160|138:209|49:214,1,163.799995001221,2|2,1:2|1:2,0:0:0:0:
138,336,14765,1,2,1:2:0:0:
190,241,14937,2,0,P|176:280|165:322,1,81.8999975006104,2|2,1:2|1:2,0:0:0:0:
10,154,15279,2,0,P|23:193|34:235,1,81.8999975006104,2|2,1:2|1:2,0:0:0:0:
197,80,15622,5,2,1:2:0:0:
101,0,15794,1,2,1:2:0:0:
101,0,15879,1,2,1:2:0:0:
101,0,15965,1,2,1:2:0:0:
82,35,16050,1,2,1:2:0:0:
77,75,16136,1,2,1:2:0:0:
87,115,16222,1,2,1:2:0:0:
110,148,16308,6,0,L|98:187,1,40.9499987503052,2|0,3:2|3:3,0:0:0:0:
55,246,16479,2,0,L|66:285,1,40.9499987503052,0|0,3:3|3:3,0:0:0:0:
204,160,16651,6,0,L|192:199,1,40.9499987503052,2|0,1:2|1:1,0:0:0:0:
149,258,16822,2,0,L|160:297,1,40.9499987503052,0|0,1:1|1:1,0:0:0:0:
371,209,16994,6,0,L|185:133,1,200.200006109619,4|0,3:2|1:1,0:0:0:0:
512,306,17679,6,0,L|326:381,1,200.200006109619,4|0,3:2|1:1,0:0:0:0:
258,337,18194,1,0,1:1:0:0:
258,337,18279,1,0,0:0:0:0:
257,337,18365,2,0,P|232:369|194:384,1,81.8999975006104,4|0,3:2|1:1,0:0:0:0:
17,314,18708,2,0,P|26:353|53:382,1,81.8999975006104,0|0,1:1|1:1,0:0:0:0:
166,272,19051,5,4,3:2:0:0:
143,252,19137,1,0,3:0:0:0:
157,226,19222,1,0,3:1:0:0:
135,181,19308,1,0,3:0:0:0:
156,141,19394,1,0,3:1:0:0:
139,104,19479,1,0,3:0:0:0:
161,72,19565,1,0,3:1:0:0:
151,41,19651,1,0,3:0:0:0:
113,27,19737,6,0,B|254:63|215:83|348:123,1,254.799992224121,2|4,1:2|3:2,0:0:0:0:
399,27,20422,6,0,B|257:63|296:83|163:123,1,254.799992224121,2|4,1:2|3:2,0:0:0:0:
0,273,21108,5,2,1:2:0:0:
73,204,21279,1,2,1:2:0:0:
73,204,21365,1,2,1:2:0:0:
73,204,21451,2,0,P|92:238|118:313,1,81.8999975006104,2|2,1:2|1:2,0:0:0:0:
73,348,21794,1,2,1:2:0:0:
212,215,21965,6,0,L|271:238,1,63.6999980560303,2|0,1:2|0:0,0:0:0:0:
341,203,22137,6,0,P|325:161|312:146,1,54.6,2|0,1:2|0:0,0:0:0:0:
366,94,22479,6,0,P|427:123|492:144,1,136.5,6|0,3:2|0:0,0:0:0:0:
512,72,22822,1,8,3:3:0:0:
350,237,22994,2,0,P|375:316|486:360,1,182,2|2,1:2|1:2,0:0:0:0:
512,266,23422,1,0,0:0:0:0:
512,266,23508,2,0,L|468:278,1,45.5,10|2,3:3|1:2,0:0:0:0:
305,370,23679,5,2,1:2:0:0:
312,377,23765,1,2,1:2:0:0:
312,377,23851,2,0,B|258:363|258:363|241:338|241:338|185:325,1,136.5,2|2,3:2|1:2,0:0:0:0:
130,373,24194,1,10,3:3:0:0:
45,218,24365,2,0,P|32:259|11:303,1,91,2|0,1:2|0:0,0:0:0:0:
0,320,24622,1,2,1:2:0:0:
0,320,24708,1,2,1:2:0:0:
176,206,24879,2,0,P|156:165|142:121,1,91,10|2,3:3|1:2,0:0:0:0:
356,14,25222,6,0,P|364:98|296:144,1,136.5,2|0,3:2|0:0,0:0:0:0:
276,184,25565,1,10,3:3:0:0:
99,0,25737,2,0,B|172:24|176:70|250:100,1,182,2|2,1:2|1:2,0:0:0:0:
438,0,26251,1,10,3:3:0:0:
477,22,26336,1,2,1:2:0:0:
503,59,26422,1,2,1:2:0:0:
512,103,26508,1,2,1:2:0:0:
503,147,26593,5,2,3:2:0:0:
390,263,26765,1,2,1:2:0:0:
512,384,26937,1,10,3:3:0:0:
297,267,27108,1,2,1:2:0:0:
297,267,27194,2,0,P|304:245|317:217,1,54.5999983337403,2|0,1:2|0:0,0:0:0:0:
187,384,27365,1,2,1:2:0:0:
187,384,27451,2,0,P|180:362|167:334,1,54.5999983337403,2|0,1:2|0:0,0:0:0:0:
105,250,27622,1,10,3:3:0:0:
280,361,27794,1,2,1:2:0:0:
10,235,27965,6,0,P|8:169|55:123,1,136.5,6|0,3:2|0:0,0:0:0:0:
131,123,28308,1,8,3:3:0:0:
5,352,28479,2,0,B|50:336|50:336|88:348|88:348|128:328|182:324,1,182,2|2,1:2|1:2,0:0:0:0:
164,248,28908,1,0,0:0:0:0:
164,248,28994,2,0,L|152:204,1,45.5,10|2,3:3|1:2,0:0:0:0:
428,344,29165,5,2,1:2:0:0:
428,344,29251,1,2,1:2:0:0:
428,344,29337,2,0,B|385:341|344:364|344:364|293:345|275:303,1,182,2|10,3:2|3:3,0:0:0:0:
512,265,29851,2,0,P|471:252|427:231,1,91,2|0,1:2|0:0,0:0:0:0:
410,220,30108,1,2,1:2:0:0:
410,220,30194,1,2,1:2:0:0:
335,47,30365,2,0,P|294:66|250:80,1,91,10|2,3:3|1:2,0:0:0:0:
487,0,30708,6,0,P|458:61|437:126,1,136.5,2|0,3:2|0:0,0:0:0:0:
500,174,31051,1,10,3:3:0:0:
382,355,31222,2,0,P|356:267|314:187,1,182,2|2,1:2|1:2,0:0:0:0:
170,326,31737,2,0,L|216:345,1,45.5,10|2,3:3|1:2,0:0:0:0:
270,331,31908,1,2,1:2:0:0:
34,239,32079,6,0,P|24:269|10:298,1,63.6999980560303,2|2,3:2|3:2,0:0:0:0:
187,222,32251,2,0,P|173:193|163:162,1,63.6999980560303,2|2,3:2|3:2,0:0:0:0:
142,23,32422,2,0,P|111:13|82:-1,1,63.6999980560303,2|2,3:2|3:2,0:0:0:0:
0,151,32594,2,0,P|28:137|59:127,1,63.6999980560303,2|2,3:2|3:2,0:0:0:0:
277,0,32765,5,2,3:2:0:0:
133,174,32937,1,10,3:3:0:0:
326,269,33108,1,10,3:3:0:0:
213,92,33279,1,2,1:2:0:0:
41,317,33451,6,0,P|125:325|171:257,1,136.5,6|0,3:2|0:0,0:0:0:0:
211,237,33794,1,8,3:3:0:0:
0,30,33965,2,0,B|30:80|30:80|14:123|14:123|39:157|47:200,1,182,2|2,1:2|1:2,0:0:0:0:
137,209,34394,1,0,0:0:0:0:
137,209,34480,2,0,L|125:165,1,45.5,10|2,3:3|1:2,0:0:0:0:
290,31,34651,5,2,1:2:0:0:
290,31,34737,1,2,1:2:0:0:
290,31,34822,2,0,B|232:30|212:58|118:53,1,136.5,2|2,3:2|1:2,0:0:0:0:
92,11,35165,1,10,3:3:0:0:
273,152,35337,2,0,P|260:193|239:237,1,91,2|0,1:2|0:0,0:0:0:0:
228,254,35594,1,2,1:2:0:0:
228,254,35680,1,2,1:2:0:0:
399,105,35851,2,0,P|439:86|483:72,1,91,10|2,3:3|1:2,0:0:0:0:
512,332,36194,6,0,P|496:267|439:235,1,136.5,2|0,3:2|0:0,0:0:0:0:
373,186,36537,1,10,3:3:0:0:
240,384,36708,2,0,P|319:339|406:314,1,182,2|2,1:2|1:2,0:0:0:0:
154,204,37222,1,10,3:3:0:0:
163,248,37307,1,2,1:2:0:0:
154,292,37393,1,2,1:2:0:0:
128,329,37479,1,2,1:2:0:0:
89,351,37564,5,2,3:2:0:0:
249,161,37737,1,2,1:2:0:0:
74,247,37908,1,10,3:3:0:0:
185,93,38079,1,2,1:2:0:0:
185,93,38165,2,0,P|178:71|165:43,1,54.5999983337403,2|0,1:2|0:0,0:0:0:0:
301,247,38337,1,2,1:2:0:0:
301,247,38423,2,0,P|294:269|281:297,1,54.5999983337403,2|0,1:2|0:0,0:0:0:0:
482,73,38594,1,10,3:3:0:0:
298,157,38765,1,2,1:2:0:0:
512,357,38937,6,0,P|491:290|462:231,1,136.5,6|0,3:2|0:0,0:0:0:0:
380,221,39280,1,8,3:3:0:0:
242,370,39451,2,0,P|154:356|103:283,1,182,2|2,1:2|1:2,0:0:0:0:
39,338,39879,1,0,0:0:0:0:
39,338,39965,2,0,L|27:382,1,45.5,10|2,3:3|1:2,0:0:0:0:
201,229,40137,2,0,L|189:273,1,45.5,2|2,1:2|1:2,0:0:0:0:
9,158,40308,6,0,P|96:131|178:92,1,182,10|10,3:3|3:3,0:0:0:0:
363,242,40822,2,0,P|409:168|374:88,1,182,10|10,1:3|1:3,0:0:0:0:
245,256,41337,1,10,3:3:0:0:
245,256,41422,1,0,0:0:0:0:
245,256,41508,2,0,P|257:284|268:317,1,63.6999980560303,10|0,1:3|0:0,0:0:0:0:
340,353,41679,5,10,3:3:0:0:
329,384,41764,1,10,1:3:0:0:
155,284,41937,5,10,3:3:0:0:
166,314,42022,1,10,1:3:0:0:
355,187,42194,5,10,3:3:0:0:
344,217,42279,1,10,1:3:0:0:
151,91,42451,5,10,3:3:0:0:
162,121,42536,1,10,1:3:0:0:
330,21,42708,1,10,1:3:0:0:
202,211,42879,1,10,1:3:0:0:
404,293,43051,5,10,1:3:0:0:
329,33,43222,1,10,1:3:0:0:
479,161,43394,1,10,1:3:0:0:
332,384,43565,1,10,1:3:0:0:
386,370,43651,1,10,1:3:0:0:
332,384,44079,6,0,B|263:344|218:349|154:312,1,191.099994168091,6|0,1:2|0:0,0:0:0:0:
79,317,44422,6,0,P|60:278|45:232,1,91,2|2,3:2|1:2,0:0:0:0:
0,171,44679,1,2,1:2:0:0:
0,171,44765,2,0,P|18:132|33:86,1,91,10|2,1:3|1:2,0:0:0:0:
161,219,45108,2,0,P|241:183|284:103,1,182,2|8,3:2|1:3,0:0:0:0:
431,354,45794,6,0,P|449:315|464:269,1,91,2|2,3:2|1:2,0:0:0:0:
379,242,46051,1,2,1:2:0:0:
379,242,46137,2,0,P|360:280|345:326,1,91,10|2,1:3|1:2,0:0:0:0:
414,158,46479,2,0,B|335:151|323:186|232:176,1,182,2|8,3:2|1:3,0:0:0:0:
0,384,47165,6,0,P|29:328|51:257,1,136.5,2|0,3:2|0:0,0:0:0:0:
101,201,47508,2,0,P|82:163|67:117,1,91,10|2,1:3|1:2,0:0:0:0:
223,254,47851,2,0,P|179:267|138:288,1,91,2|2,3:2|1:2,0:0:0:0:
222,152,48194,2,0,P|262:172|306:186,1,91,10|2,1:3|1:2,0:0:0:0:
439,248,48537,6,0,B|373:106|373:106|385:67,2,182,2|10|2,3:2|1:3|3:2,0:0:0:0:
472,321,49394,1,0,0:0:0:0:
344,257,49565,1,8,1:3:0:0:
130,380,49908,6,0,P|149:341|164:295,1,91,6|2,3:2|1:2,0:0:0:0:
209,234,50165,1,0,0:0:0:0:
209,234,50251,2,0,P|191:195|176:149,1,91,10|2,1:3|1:2,0:0:0:0:
0,78,50594,2,0,B|47:116|47:116|50:174|107:224,1,182,2|8,3:2|1:3,0:0:0:0:
325,43,51279,6,0,P|286:25|240:10,1,91,2|2,3:2|1:2,0:0:0:0:
213,95,51536,1,2,1:2:0:0:
213,95,51622,2,0,P|251:114|297:129,1,91,10|2,1:3|1:2,0:0:0:0:
471,0,51965,2,0,B|519:54|519:54|487:100|471:182,1,182,2|8,3:2|1:3,0:0:0:0:
257,327,52651,5,2,3:2:0:0:
320,207,52822,1,2,1:2:0:0:
403,291,52994,1,10,1:3:0:0:
258,352,53165,5,2,1:2:0:0:
334,206,53336,1,2,3:2:0:0:
434,308,53508,1,2,1:2:0:0:
317,182,53679,5,10,1:3:0:0:
419,296,53851,1,2,1:2:0:0:
370,127,54022,6,0,P|285:168|201:196,1,182,2|10,3:2|1:3,0:0:0:0:
255,48,54537,1,2,1:2:0:0:
106,63,54708,2,0,P|144:82|190:97,1,91,2|2,3:2|1:2,0:0:0:0:
255,48,54965,1,2,3:2:0:0:
255,48,55051,2,0,L|297:65,1,45.5,10|0,1:3|0:0,0:0:0:0:
505,101,55222,5,0,0:0:0:0:
505,101,55308,1,0,0:0:0:0:
505,101,55394,2,0,P|486:62|471:16,1,91,6|2,3:2|1:2,0:0:0:0:
380,45,55651,1,2,1:2:0:0:
380,45,55737,2,0,P|398:84|413:130,1,91,10|2,1:3|1:2,0:0:0:0:
436,272,56079,1,0,0:0:0:0:
482,219,56251,2,0,L|464:261,1,45.5
378,360,56422,2,0,P|336:341|293:327,1,91,10|2,1:3|1:2,0:0:0:0:
184,109,56765,6,0,P|166:148|151:194,1,91,2|2,3:2|1:2,0:0:0:0:
236,221,57022,1,2,1:2:0:0:
236,221,57108,2,0,P|255:183|270:137,1,91,10|2,1:3|1:2,0:0:0:0:
103,331,57451,1,0,0:0:0:0:
101,262,57622,2,0,L|119:304,1,45.5
225,384,57793,2,0,P|267:365|310:351,1,91,10|2,1:3|1:2,0:0:0:0:
512,384,58137,6,0,P|483:328|461:257,1,136.5,2|2,3:2|1:2,0:0:0:0:
411,201,58480,2,0,P|430:163|445:117,1,91,10|2,1:3|1:2,0:0:0:0:
288,0,58822,2,0,P|302:44|323:85,1,91,2|2,3:2|1:2,0:0:0:0:
512,0,59165,2,0,P|471:20|427:34,1,91,10|2,1:3|1:2,0:0:0:0:
305,176,59508,6,0,P|264:156|220:142,1,91,2|8,3:2|1:3,0:0:0:0:
197,136,59765,1,8,1:3:0:0:
197,136,59851,1,10,1:3:0:0:
0,0,60022,1,8,1:3:0:0:
0,0,60108,1,8,1:3:0:0:
0,0,60194,2,0,L|18:44,1,45.5,10|0,1:3|0:0,0:0:0:0:
81,87,60365,6,0,L|62:131,1,45.5,8|8,1:3|1:3,0:0:0:0:
0,261,60537,6,0,L|18:305,1,45.5,10|8,1:3|1:3,0:0:0:0:
68,381,60708,5,10,1:3:0:0:
68,381,60794,1,8,1:3:0:0:
68,381,60879,1,4,3:2:0:0:
85,367,60964,1,2,1:2:0:0:
104,355,61050,1,2,1:2:0:0:
126,348,61136,1,0,0:0:0:0:
148,345,61221,1,2,1:2:0:0:
171,346,61307,1,0,0:0:0:0:
193,351,61393,1,2,1:2:0:0:
214,361,61478,1,0,0:0:0:0:
232,374,61565,5,4,3:2:0:0:
218,357,61650,1,2,1:2:0:0:
206,338,61736,1,2,1:2:0:0:
199,316,61822,1,0,0:0:0:0:
196,294,61907,1,2,1:2:0:0:
197,271,61993,1,0,0:0:0:0:
202,249,62079,1,2,1:2:0:0:
212,228,62164,1,0,0:0:0:0:
225,210,62251,6,0,L|182:192,3,45.5,4|2|2|0,3:2|1:2|1:2|0:0,0:0:0:0:
410,76,62594,2,0,L|452:58,3,45.5,6|0|0|2,3:2|0:0|0:0|1:2,0:0:0:0:
251,0,62937,6,0,P|265:28|274:58,1,63.6999980560303,6|0,3:2|0:0,0:0:0:0:
358,244,63108,2,0,P|343:272|334:302,1,63.6999980560303,6|0,3:2|0:0,0:0:0:0:
512,134,63279,5,6,3:2:0:0:
291,384,63622,6,0,P|231:354|164:332,1,136.5,6|0,3:2|0:0,0:0:0:0:
104,285,63965,2,0,P|63:305|21:322,1,91,2|2,1:2|1:2,0:0:0:0:
218,161,64308,2,0,P|201:203|180:243,1,91,6|2,3:2|1:2,0:0:0:0:
88,142,64651,2,0,P|67:101|50:59,1,91,2|2,1:2|1:2,0:0:0:0:
40,34,64908,1,0,0:0:0:0:
40,34,64994,1,10,1:3:0:0:
256,192,65079,12,6,66365,3:2:0:0:
468,93,71851,6,0,P|486:55|499:17,1,81.8999975006104,2|10,3:2|1:3,0:0:0:0:
429,163,72194,2,0,P|410:199|397:238,1,81.8999975006104,2|10,3:2|1:3,0:0:0:0:
250,137,72537,2,0,P|231:99|218:61,1,81.8999975006104,0|8,3:3|1:3,0:0:0:0:
288,207,72880,2,0,P|306:243|319:282,1,81.8999975006104,0|8,3:3|1:3,0:0:0:0:
163,175,73222,6,0,P|144:182|124:189,3,40.9499987503052,2|0|8|0,3:3|3:3|3:3|3:3,3:3:0:0:
100,196,73565,1,0,3:3:0:0:
179,42,73737,1,8,3:3:0:0:
179,42,73822,1,0,0:0:0:0:
179,42,73908,1,10,3:3:0:0:
239,134,74079,1,8,3:3:0:0:
314,237,74251,1,10,1:3:0:0:
439,44,74423,5,8,1:3:0:0:
439,44,74508,1,0,0:0:0:0:
439,44,74594,2,0,B|352:58|361:97|274:111,1,177.449991876984,0|0,3:3|0:0,0:0:0:0:
218,61,74937,1,10,1:3:0:0:
0,349,75279,6,0,P|15:319|24:290,1,63.6999980560303,0|0,3:3|0:0,0:0:0:0:
164,159,75451,2,0,P|148:129|139:100,1,63.6999980560303
209,273,75622,2,0,P|114:230|40:203,1,182,10|10,1:3|1:3,0:0:0:0:
0,141,76051,5,10,1:3:0:0:
0,141,76137,2,0,L|18:91,1,45.5,10|10,1:3|1:3,0:0:0:0:
205,292,76308,2,0,P|214:324|227:351,1,63.6999980560303,10|10,1:3|1:3,0:0:0:0:
329,125,76479,1,10,1:3:0:0:
267,136,76565,1,10,1:3:0:0:
220,179,76651,5,10,1:3:0:0:
395,23,76822,1,0,0:0:0:0:
382,209,76994,1,2,1:2:0:0:
260,44,77165,1,2,1:2:0:0:
313,276,77337,6,0,P|389:238|481:206,1,182,2|10,3:2|1:3,0:0:0:0:
344,63,77851,1,2,1:2:0:0:
448,90,78022,2,0,P|405:81|359:67,1,91,2|2,3:2|1:2,0:0:0:0:
180,0,78365,2,0,P|137:8|91:22,1,91,10|2,1:3|1:2,0:0:0:0:
244,200,78708,5,2,3:2:0:0:
130,277,78879,1,2,1:2:0:0:
230,76,79051,1,10,1:3:0:0:
349,269,79222,1,2,1:2:0:0:
249,82,79394,2,0,P|290:94|336:105,1,91,2|2,3:2|1:2,0:0:0:0:
512,0,79737,1,10,1:3:0:0:
401,165,79908,1,2,1:2:0:0:
256,0,80079,6,0,P|155:134|165:161,1,182,2|10,3:2|1:3,0:0:0:0:
0,210,80594,1,2,1:2:0:0:
27,106,80765,2,0,L|4:195,1,91,2|2,3:2|1:2,0:0:0:0:
59,261,81022,1,0,0:0:0:0:
59,261,81108,2,0,L|36:350,1,91,10|2,1:3|1:2,0:0:0:0:
257,225,81451,5,2,3:2:0:0:
131,384,81622,1,10,1:3:0:0:
172,335,81708,1,10,1:3:0:0:
144,291,81794,1,10,1:3:0:0:
171,247,81879,1,2,1:2:0:0:
150,209,81965,1,2,3:2:0:0:
169,168,82051,1,2,1:2:0:0:
157,147,82137,1,10,1:3:0:0:
157,147,82479,5,14,1:2:0:0:
372,0,82822,6,0,P|416:76|379:156,1,182,6|8,3:2|1:3,0:0:0:0:
266,86,83337,1,2,3:2:0:0:
266,86,83422,1,0,0:0:0:0:
266,86,83508,2,0,L|293:-2,2,91,2|2|10,3:2|3:2|1:3,0:0:0:0:
299,156,84022,1,2,3:2:0:0:
130,44,84365,5,2,3:2:0:0:
130,44,84451,1,0,0:0:0:0:
130,44,84537,2,0,L|67:63,1,45.5,10|0,1:3|0:0,0:0:0:0:
16,81,84708,1,2,3:2:0:0:
141,231,84879,2,0,P|160:191|149:148,1,91,2|2,3:2|3:2,0:0:0:0:
141,134,85137,1,0,0:0:0:0:
141,134,85222,1,8,1:3:0:0:
29,220,85394,5,8,1:3:0:0:
29,220,85479,1,0,0:0:0:0:
29,220,85565,2,0,L|57:306,1,91,6|2,3:2|1:2,0:0:0:0:
247,227,85908,1,10,1:3:0:0:
158,351,86079,1,2,1:2:0:0:
259,206,86251,2,0,P|239:163|230:119,2,91,2|2|10,3:2|1:2|1:3,0:0:0:0:
422,343,86765,1,2,1:2:0:0:
481,186,86937,6,0,P|429:229|363:239,1,136.5,2|0,3:2|0:0,0:0:0:0:
330,173,87279,2,0,P|349:130|358:86,1,91,10|0,1:3|0:0,0:0:0:0:
368,62,87537,1,0,0:0:0:0:
368,62,87622,2,0,P|347:72|326:79,1,45.5,10|0,1:3|0:0,0:0:0:0:
229,113,87794,1,10,1:3:0:0:
198,79,87879,1,0,0:0:0:0:
184,35,87965,1,10,1:3:0:0:
41,184,88137,1,10,1:3:0:0:
0,0,88308,6,0,P|67:20|105:121,1,182,14|10,3:2|1:3,0:0:0:0:
41,184,88822,1,2,1:2:0:0:
175,289,88994,2,0,P|131:303|90:321,1,91,0|2,3:3|1:2,0:0:0:0:
310,234,89337,2,0,P|353:219|394:201,1,91,10|2,1:3|1:2,0:0:0:0:
302,361,89679,5,2,3:2:0:0:
403,226,89851,1,2,1:2:0:0:
193,108,90022,1,10,1:3:0:0:
300,261,90193,1,2,1:2:0:0:
458,118,90365,2,0,P|415:103|374:85,2,91,2|2|10,3:2|1:2|1:3,0:0:0:0:
363,5,90879,1,2,1:2:0:0:
190,145,91051,6,0,P|113:69|102:-21,1,182,2|10,3:2|1:3,0:0:0:0:
2,221,91565,1,2,1:2:0:0:
2,221,91651,1,0,0:0:0:0:
2,220,91737,2,0,P|39:194|58:154,1,91,2|2,3:2|1:2,0:0:0:0:
13,87,92079,1,10,1:3:0:0:
107,244,92251,1,2,1:2:0:0:
273,142,92422,5,2,3:2:0:0:
219,0,92594,1,10,1:3:0:0:
178,49,92680,1,10,1:3:0:0:
206,93,92766,1,10,1:3:0:0:
179,137,92851,1,0,0:0:0:0:
200,175,92937,1,2,3:2:0:0:
181,216,93023,1,0,0:0:0:0:
193,237,93109,1,10,1:3:0:0:
193,237,93451,5,14,1:2:0:0:
469,40,93794,6,0,P|393:-4|313:33,1,182,6|8,3:2|1:3,0:0:0:0:
383,146,94309,1,2,3:2:0:0:
383,146,94394,1,0,0:0:0:0:
383,146,94480,2,0,L|471:119,2,91,2|0|10,3:2|3:3|1:3,0:0:0:0:
313,113,94994,1,2,3:2:0:0:
439,298,95165,6,0,P|460:259|453:214,1,91,2|2,1:2|3:2,0:0:0:0:
271,301,95508,2,0,P|263:345|285:384,1,91,10|2,1:3|3:2,0:0:0:0:
346,230,95851,1,2,3:2:0:0:
183,320,96022,1,2,3:2:0:0:
183,320,96108,1,0,0:0:0:0:
183,320,96194,2,0,P|121:292|94:258,1,91,10|10,1:3|1:3,0:0:0:0:
281,101,96537,6,0,B|317:242|337:203|377:336,1,254.799992224121,6|10,3:2|1:3,0:0:0:0:
0,235,97222,6,0,B|40:102|60:141|96:0,1,254.799992224121,4|10,3:2|1:3,0:0:0:0:
95,0,97908,5,0,0:0:0:0:
275,151,98765,5,6,3:2:0:0:
407,0,98937,1,10,1:3:0:0:
407,0,99279,6,0,P|428:67|457:126,1,136.5,6|0,3:2|0:0,0:0:0:0:
505,184,99622,1,10,3:3:0:0:
324,80,99794,2,0,B|227:112|266:146|171:179,1,182,2|2,1:2|1:2,0:0:0:0:
117,129,100222,1,0,0:0:0:0:
117,129,100308,2,0,L|129:85,1,45.5,10|2,3:3|1:2,0:0:0:0:
0,242,100479,5,2,1:2:0:0:
0,242,100565,1,2,1:2:0:0:
0,242,100651,2,0,P|44:291|110:294,1,136.5,2|2,3:2|1:2,0:0:0:0:
163,234,100994,1,10,3:3:0:0:
273,384,101165,2,0,P|286:343|307:299,1,91,2|0,1:2|0:0,0:0:0:0:
318,282,101422,1,2,1:2:0:0:
318,282,101508,1,2,1:2:0:0:
512,384,101679,2,0,P|498:343|477:299,1,91,10|2,3:3|1:2,0:0:0:0:
326,157,102022,6,0,P|393:136|452:107,1,136.5,2|0,3:2|0:0,0:0:0:0:
493,40,102365,1,10,3:3:0:0:
390,221,102537,2,0,B|358:124|324:163|291:68,1,182,2|2,1:2|1:2,0:0:0:0:
159,198,103051,1,10,3:3:0:0:
115,207,103136,1,2,1:2:0:0:
71,198,103222,1,2,1:2:0:0:
34,172,103308,1,2,1:2:0:0:
12,133,103393,5,2,3:2:0:0:
149,45,103565,1,2,1:2:0:0:
286,133,103737,1,10,3:3:0:0:
232,5,103908,1,2,1:2:0:0:
232,5,103994,2,0,P|239:27|252:55,1,54.5999983337403,2|0,1:2|0:0,0:0:0:0:
348,262,104165,1,2,1:2:0:0:
348,262,104251,2,0,P|341:240|328:212,1,54.5999983337403,2|0,1:2|0:0,0:0:0:0:
500,157,104422,1,10,3:3:0:0:
399,340,104594,1,2,1:2:0:0:
243,192,104765,6,0,P|176:213|117:242,1,136.5,6|0,3:2|0:0,0:0:0:0:
76,309,105108,1,8,3:3:0:0:
287,384,105279,2,0,P|301:315|206:216,1,182,2|2,1:2|1:2,0:0:0:0:
195,165,105708,1,0,0:0:0:0:
195,165,105794,2,0,L|207:121,1,45.5,10|2,3:3|1:2,0:0:0:0:
152,336,105965,5,2,1:2:0:0:
152,336,106051,1,2,1:2:0:0:
152,336,106137,2,0,B|109:339|68:316|68:316|17:335|-1:377,1,182,2|10,3:2|3:3,0:0:0:0:
195,165,106651,2,0,P|154:152|110:131,1,91,2|0,1:2|0:0,0:0:0:0:
93,120,106908,1,2,1:2:0:0:
93,120,106994,1,2,1:2:0:0:
138,245,107165,1,10,3:3:0:0:
264,69,107337,1,2,1:2:0:0:
403,238,107508,6,0,P|405:304|358:350,1,136.5,2|0,3:2|0:0,0:0:0:0:
282,350,107851,1,10,3:3:0:0:
506,186,108022,2,0,P|419:156|337:117,1,182,2|2,1:2|1:2,0:0:0:0:
512,0,108537,2,0,L|493:46,1,45.5,10|2,3:3|1:2,0:0:0:0:
507,100,108708,1,2,1:2:0:0:
311,24,108879,6,0,P|282:38|252:47,1,63.6999980560303,2|2,3:2|3:2,0:0:0:0:
192,89,109051,2,0,P|161:79|133:65,1,63.6999980560303,2|2,3:2|3:2,0:0:0:0:
302,307,109222,2,0,P|287:278|278:248,1,63.6999980560303,2|2,3:2|3:2,0:0:0:0:
237,187,109394,2,0,P|246:156|260:128,1,63.6999980560303,2|2,3:2|3:2,0:0:0:0:
159,360,109565,5,2,3:2:0:0:
338,173,109737,1,10,3:3:0:0:
146,47,109908,1,10,3:3:0:0:
237,187,110079,1,2,1:2:0:0:
345,6,110251,6,0,P|412:27|471:56,1,136.5,6|0,3:2|0:0,0:0:0:0:
512,123,110594,1,8,3:3:0:0:
370,308,110765,2,0,B|318:232|318:232|352:206|374:155,1,182,2|2,1:2|1:2,0:0:0:0:
443,205,111194,1,0,0:0:0:0:
443,205,111280,2,0,L|455:249,1,45.5,10|2,3:3|1:2,0:0:0:0:
304,96,111451,5,2,1:2:0:0:
304,96,111537,1,2,1:2:0:0:
304,96,111623,2,0,P|260:47|194:44,1,136.5,2|2,3:2|1:2,0:0:0:0:
142,98,111965,1,10,3:3:0:0:
0,0,112137,2,0,P|13:41|34:85,1,91,2|0,1:2|0:0,0:0:0:0:
45,102,112394,1,2,1:2:0:0:
45,102,112480,1,2,1:2:0:0:
109,231,112651,2,0,P|128:271|142:315,1,91,10|2,3:3|1:2,0:0:0:0:
293,195,112994,6,0,P|226:174|167:145,1,136.5,2|0,3:2|0:0,0:0:0:0:
148,69,113337,1,10,3:3:0:0:
373,139,113508,2,0,P|389:224|327:286,1,182,2|2,1:2|1:2,0:0:0:0:
365,1,114022,1,10,3:3:0:0:
387,40,114107,1,2,1:2:0:0:
424,66,114193,1,2,1:2:0:0:
468,75,114279,1,2,1:2:0:0:
512,66,114364,5,2,3:2:0:0:
261,129,114537,1,2,1:2:0:0:
424,66,114708,1,10,3:3:0:0:
488,230,114879,1,2,1:2:0:0:
488,230,114965,2,0,P|495:252|508:280,1,54.5999983337403,2|0,1:2|0:0,0:0:0:0:
323,293,115137,1,2,1:2:0:0:
323,293,115222,2,0,P|330:315|343:343,1,54.5999983337403,2|0,1:2|0:0,0:0:0:0:
161,234,115394,1,10,3:3:0:0:
330,373,115565,1,2,1:2:0:0:
422,105,115737,6,0,P|355:126|296:155,1,136.5,6|0,3:2|0:0,0:0:0:0:
255,222,116080,1,8,3:3:0:0:
110,0,116251,2,0,P|105:70|-11:141,1,182,2|2,1:2|1:2,0:0:0:0:
0,67,116679,1,0,0:0:0:0:
0,67,116765,2,0,L|12:23,1,45.5,10|2,3:3|1:2,0:0:0:0:
111,226,116937,2,0,L|123:182,1,45.5,2|2,1:2|1:2,0:0:0:0:
292,66,117108,6,0,P|318:152|357:235,1,182,10|10,3:3|3:3,0:0:0:0:
147,14,117622,2,0,P|173:100|212:183,1,182,10|10,1:3|1:3,0:0:0:0:
171,250,118051,1,0,0:0:0:0:
171,250,118137,2,0,P|143:236|111:226,1,63.6999980560303,10|0,3:3|0:0,0:0:0:0:
343,305,118308,2,0,P|373:314|401:328,1,63.6999980560303,10|0,1:3|0:0,0:0:0:0:
202,382,118479,5,10,3:3:0:0:
213,352,118564,1,10,1:3:0:0:
425,242,118737,5,10,3:3:0:0:
414,212,118822,1,10,1:3:0:0:
210,116,118994,5,10,3:3:0:0:
221,86,119079,1,10,1:3:0:0:
433,30,119251,5,10,3:3:0:0:
422,0,119336,1,10,1:3:0:0:
205,204,119508,6,0,P|175:190|145:180,1,63.6999980560303,10|0,1:3|0:0,0:0:0:0:
74,233,119679,1,10,1:3:0:0:
311,95,119851,5,10,1:3:0:0:
189,360,120022,1,10,1:3:0:0:
392,214,120194,1,10,1:3:0:0:
182,33,120365,1,10,1:3:0:0:
245,0,120451,1,10,1:3:0:0:
496,384,120879,6,0,P|503:362|511:341,1,45.5,6|0,1:2|0:0,0:0:0:0:
