osu file format v14

[General]
AudioFilename: audio.ogg
AudioLeadIn: 0
PreviewTime: 22394
Countdown: 0
SampleSet: Soft
StackLeniency: 0.7
Mode: 0
LetterboxInBreaks: 1
EpilepsyWarning: 1
WidescreenStoryboard: 1

[Editor]
Bookmarks: 22479,44422,66365,99279
DistanceSpacing: 0.7
BeatDivisor: 4
GridSize: 16
TimelineZoom: 1.6

[Metadata]
Title:Cirno's Perfect Math Class (Nika Lenina Russian Version)
TitleUnicode:Cirno's Perfect Math Class (Nika Lenina Russian Version)
Artist:IOSYS
ArtistUnicode:IOSYS
Creator:dopaminos
Version:E2pi2ma8's Lunatic
Source:東方紅魔郷 ~ the Embodiment of Scarlet Devil.
Tags:zun touhou koumakyou 東方氷雪歌集 arm miko quim 夕野ヨシミ yuuno yoshimi 上海アリス幻樂団 team shanghai alice おてんば恋娘 otenba koimusume video game japanese Sansuu Kyoushitsu 東方project electronic russian русский электроника schoolboy komore e4pi4mak 228 aye1337 enuhq Эрик Массман AnsverITO сырна цырна сирна цирна сырнин цырнин класс математики ника ленина Альона Кокоріна дура бака baka сhiruno
BeatmapID:4223481
BeatmapSetID:1990973

[Difficulty]
HPDrainRate:5
CircleSize:4
OverallDifficulty:8
ApproachRate:9
SliderMultiplier:1.35
SliderTickRate:1

[Events]
//Background and Video events
0,0,"82699176_p0.jpg",0,0
Video,460,"cirno.mp4"
//Break Periods
//Storyboard Layer 0 (Background)
//Storyboard Layer 1 (Fail)
//Storyboard Layer 2 (Pass)
//Storyboard Layer 3 (Foreground)
//Storyboard Layer 4 (Overlay)
//Storyboard Sound Samples

[TimingPoints]
537,342.857142857143,4,2,0,60,1,0
5508,-33.3333333333333,4,2,0,60,0,0
5679,-1000,4,2,0,60,0,0
8765,-100,4,2,0,60,0,0
11508,-100,4,2,0,55,0,0
15794,-100,4,2,0,60,0,0
16308,-100,4,2,0,65,0,0
19737,-50,4,2,0,75,0,0
21108,-50,4,2,0,55,0,0
22479,-66.6666666666667,4,3,0,70,0,0
32079,-66.6666666666667,4,3,0,75,0,0
32765,-66.6666666666667,4,1,0,80,0,0
32937,-66.6666666666667,4,2,0,80,0,0
33108,-66.6666666666667,4,1,0,80,0,0
33451,-66.6666666666667,4,3,0,70,0,0
44422,-83.3333333333333,4,2,0,65,0,0
54022,-66.6666666666667,4,2,0,70,0,0
54708,-66.6666666666667,4,2,0,55,0,0
54879,-66.6666666666667,4,2,0,60,0,0
55051,-66.6666666666667,4,2,0,65,0,0
55222,-66.6666666666667,4,2,0,70,0,0
55394,-66.6666666666667,4,2,0,75,0,0
55651,-100,4,2,0,70,0,0
56422,-50,4,2,0,70,0,0
58137,-66.6666666666667,4,2,0,70,0,0
60879,-66.6666666666667,4,3,0,60,0,0
61565,-66.6666666666667,4,3,0,65,0,0
67737,-66.6666666666667,4,2,0,55,0,0
71851,-66.6666666666667,4,2,0,60,0,0
73222,-66.6666666666667,4,2,0,65,0,0
74594,-66.6666666666667,4,2,0,75,0,0
74937,-44.4444444444445,4,2,0,75,0,0
75279,-44.4444444444445,4,2,0,75,0,0
75965,-40,4,2,0,75,0,0
76137,-50,4,2,0,75,0,0
76308,-66.6666666666667,4,2,0,75,0,0
76479,-40,4,2,0,75,0,0
76822,-66.6666666666667,4,2,0,50,0,0
77337,-100,4,2,0,70,0,0
82137,-66.6666666666667,4,2,0,70,0,0
87965,-44.4444444444445,4,2,0,70,0,0
88308,-66.6666666666667,4,2,0,70,0,0
96537,-50,4,2,0,70,0,0
98765,-40,4,2,0,70,0,0
98937,-50,4,2,0,70,0,0
99279,-66.6666666666667,4,3,0,70,0,0
108879,-66.6666666666667,4,3,0,75,0,0
110251,-66.6666666666667,4,3,0,70,0,0
120879,-33.3333333333333,4,2,0,80,0,0

[Colours]
Combo1 : 134,68,166
Combo2 : 111,162,208
Combo3 : 17,58,251
Combo4 : 85,210,125
Combo5 : 238,57,57
Combo6 : 233,211,92
Combo7 : 197,197,197
Combo8 : 214,147,217

[HitObjects]
212,316,537,101,2,3:0:0:0:
197,241,708,1,0,0:0:0:0:
276,229,879,1,0,1:0:0:0:
292,307,1051,1,0,1:0:0:0:
292,307,1394,1,2,0:0:0:0:
276,229,1565,1,0,3:0:0:0:
197,241,1737,1,0,0:0:0:0:
212,316,1908,1,2,3:0:0:0:
197,241,2079,1,0,0:0:0:0:
276,229,2251,1,0,1:0:0:0:
292,307,2422,1,0,1:0:0:0:
292,307,2765,1,2,0:0:0:0:
276,229,2937,1,0,3:0:0:0:
197,241,3108,1,0,0:0:0:0:
110,130,3279,53,0,1:0:0:0:
33,102,3451,37,0,3:0:0:0:
161,7,3622,69,2,0:0:0:0:
95,48,3794,37,0,3:0:0:0:
4,61,3965,69,0,1:0:0:0:
101,132,4137,37,0,3:0:0:0:
169,15,4308,69,2,0:0:0:0:
87,56,4479,37,0,3:0:0:0:
5,247,4651,102,0,P|61:247|88:253,1,67.5,2|0,1:3|0:0,0:0:0:0:
266,259,4994,21,0,1:0:0:0:
266,259,5165,1,0,1:0:0:0:
172,16,5508,54,2,L|145:155,1,101.250003862381,2|0,0:0|0:0,1:0:0:0:
18,149,5679,38,2,L|19:139,1,10.125,0|0,3:0|0:0,1:0:0:0:
0,265,6022,101,2,3:0:0:0:
0,265,6194,1,0,0:0:0:0:
0,265,6365,1,0,1:0:0:0:
0,265,6537,1,0,1:0:0:0:
446,56,6879,53,2,0:0:0:0:
446,56,7051,1,0,3:0:0:0:
446,56,7222,1,2,0:0:0:0:
320,259,7394,85,2,3:0:0:0:
313,188,7565,1,0,0:0:0:0:
235,191,7737,1,0,1:0:0:0:
246,269,7908,1,0,1:0:0:0:
504,319,8251,21,2,3:0:0:0:
504,319,8337,1,0,3:0:0:0:
504,319,8422,1,2,3:0:0:0:
512,156,8594,1,2,3:2:0:0:
478,172,8679,1,0,3:0:0:0:
447,182,8765,6,0,P|422:169|373:153,1,67.5,4|0,1:2|0:0,0:0:0:0:
299,160,9108,2,0,P|346:172|374:185,1,67.5,2|0,3:0|0:0,0:0:0:0:
457,384,9451,101,4,1:2:0:0:
407,314,9622,1,2,3:0:0:0:
407,314,9708,1,0,3:0:0:0:
407,314,9794,2,0,P|406:266|416:222,1,67.5,0|0,1:0|0:0,0:0:0:0:
165,54,10137,69,8,1:3:0:0:
58,142,10308,69,0,1:0:0:0:
20,12,10479,37,2,3:0:0:0:
93,65,10651,69,2,1:2:0:0:
256,191,11508,37,4,1:0:0:0:
0,332,12022,101,0,0:0:0:0:
34,308,12194,1,2,0:0:0:0:
63,325,12365,1,0,0:0:0:0:
99,311,12537,1,2,0:0:0:0:
128,322,12708,1,0,0:0:0:0:
163,308,12879,1,2,0:0:0:0:
415,326,13737,1,0,0:0:0:0:
458,339,13908,1,2,0:0:0:0:
484,322,14079,1,0,0:0:0:0:
512,335,14251,1,2,0:0:0:0:
363,142,15794,5,2,3:2:0:0:
336,187,15879,101,0,3:0:0:0:
287,202,15965,5,2,3:2:0:0:
256,237,16051,101,0,3:0:0:0:
183,263,16137,5,2,3:2:0:0:
117,315,16222,101,0,3:0:0:0:
46,309,16308,6,0,L|33:264,3,33.75,2|0|0|0,1:2|0:0|3:0|0:0,0:0:0:0:
82,213,16651,2,0,L|71:165,3,33.75,0|0|0|0,1:0|0:0|3:0|0:0,0:0:0:0:
236,334,16994,85,4,1:0:0:0:
37,112,17679,5,4,1:2:0:0:
244,0,18365,53,0,1:0:0:0:
231,87,18537,1,2,3:0:0:0:
257,75,18623,1,0,3:0:0:0:
282,65,18708,1,0,3:0:0:0:
342,160,18879,1,2,0:0:0:0:
141,156,19051,1,0,1:0:0:0:
140,248,19222,1,2,3:0:0:0:
140,248,19308,1,0,3:0:0:0:
140,248,19394,1,0,3:0:0:0:
340,248,19565,1,2,0:0:0:0:
26,325,19737,102,2,P|25:239|4:116,1,202.5,4|0,1:2|0:0,1:0:0:0:
63,72,20079,54,0,B|58:39|58:39|10:55,2,67.5,4|0|0,1:0|0:0|0:0,0:0:0:0:
469,329,20422,54,2,P|475:247|510:94,1,202.5,4|0,1:2|0:0,1:0:0:0:
499,52,20765,86,0,B|473:25|473:25|474:79,2,67.5,4|0|0,1:0|0:0|0:0,0:0:0:0:
256,291,21108,101,0,3:0:0:0:
182,259,21279,85,2,3:0:0:0:
182,259,21365,1,0,3:0:0:0:
182,259,21451,1,2,3:2:0:0:
314,239,21622,85,2,3:0:0:0:
271,367,21794,101,2,3:2:0:0:
256,291,21965,101,2,3:0:0:0:
256,291,22137,69,2,3:2:0:0:
98,40,22479,5,6,1:0:0:0:
157,95,22651,1,0,3:0:0:0:
179,18,22822,1,2,3:0:0:0:
98,40,22994,2,0,P|126:96|130:147,1,101.250003862381,2|0,1:0|0:0,0:0:0:0:
179,18,23337,1,0,3:0:0:0:
179,18,23422,1,0,3:0:0:0:
179,18,23508,2,0,P|201:25|240:24,1,50.6250019311906,2|0,3:2|3:0,3:0:0:0:
98,40,23679,2,0,P|72:40|48:48,1,50.6250019311906,2|0,3:0|3:0,3:0:0:0:
229,184,23851,5,2,1:0:0:0:
206,265,24022,1,0,0:0:0:0:
132,239,24194,1,2,0:0:0:0:
168,98,24365,1,2,1:0:0:0:
229,184,24622,1,2,0:2:0:0:
229,184,24708,1,2,0:0:0:0:
206,265,24879,1,2,0:2:0:0:
132,239,25051,1,2,0:0:0:0:
101,43,25222,102,0,P|145:18|194:10,2,101.250003862381,2|0|2,1:0|0:0|0:0,0:0:0:0:
168,98,25737,1,2,1:0:0:0:
206,265,26079,1,2,0:0:0:0:
331,197,26251,53,2,0:2:0:0:
331,197,26337,1,0,0:0:0:0:
331,197,26422,1,2,0:0:0:0:
183,190,26594,1,6,0:2:0:0:
183,190,26679,1,0,0:0:0:0:
183,190,26765,1,2,0:0:0:0:
255,257,26937,1,0,1:0:0:0:
338,114,27108,1,2,1:0:0:0:
338,114,27194,2,0,L|283:133,1,50.6250019311906
166,99,27365,1,2,1:0:0:0:
166,99,27451,2,0,L|221:118,1,50.6250019311906
255,257,27622,1,2,1:0:0:0:
255,257,27794,1,2,0:0:0:0:
381,120,27965,37,6,1:0:0:0:
463,74,28137,1,0,0:0:0:0:
375,24,28308,1,2,0:0:0:0:
381,120,28479,2,0,P|438:157|464:189,1,101.250003862381,2|0,1:0|0:0,0:0:0:0:
463,74,28822,1,2,0:0:0:0:
463,74,28908,1,0,0:0:0:0:
463,74,28994,2,0,P|470:32|476:15,1,50.6250019311906,2|0,0:2|0:0,0:0:0:0:
375,24,29165,1,2,0:0:0:0:
305,201,29337,21,2,1:0:0:0:
393,194,29508,1,0,0:0:0:0:
393,194,29679,1,2,0:0:0:0:
266,124,29851,1,2,1:0:0:0:
269,280,30108,1,2,0:2:0:0:
269,280,30194,1,2,0:0:0:0:
305,201,30365,1,2,0:2:0:0:
393,194,30537,1,2,0:0:0:0:
375,24,30708,86,0,P|360:72|360:122,2,101.250003862381,2|0|2,1:0|0:0|0:0,0:0:0:0:
463,74,31222,1,2,1:0:0:0:
467,206,31565,1,2,0:0:0:0:
374,192,31737,70,0,L|315:201,1,50.6250019311906
136,183,31908,2,0,L|204:199,1,50.6250019311906
376,109,32079,1,2,1:0:0:0:
359,113,32165,1,0,0:0:0:0:
344,116,32251,2,0,L|265:136,1,50.6250019311906,2|0,0:0|0:0,0:0:0:0:
138,93,32422,1,2,1:0:0:0:
152,99,32508,1,0,0:0:0:0:
167,105,32594,2,0,L|241:138,1,50.6250019311906,2|0,0:0|0:0,0:0:0:0:
211,264,32765,2,2,B|219:281|219:281|284:280|284:280|295:243,3,101.250003862381,4|2|0|2,1:2|3:2|1:0|3:2,0:0:0:0:
124,187,33451,5,2,1:0:0:0:
218,157,33622,1,0,0:0:0:0:
188,63,33794,1,2,0:0:0:0:
49,0,33965,2,0,P|73:43|88:92,1,101.250003862381,2|0,1:0|0:0,0:0:0:0:
188,63,34308,1,2,0:0:0:0:
188,63,34394,1,0,0:0:0:0:
188,63,34479,2,0,P|225:44|243:36,1,50.6250019311906,2|0,0:2|0:0,0:0:0:0:
218,157,34651,2,0,P|235:183|240:208,1,50.6250019311906,2|0,0:0|0:0,0:0:0:0:
189,320,34822,53,2,1:0:0:0:
189,320,34994,1,0,0:0:0:0:
271,292,35165,1,2,0:0:0:0:
161,229,35337,1,2,1:0:0:0:
218,157,35594,1,2,0:2:0:0:
218,157,35680,1,2,0:0:0:0:
188,63,35851,2,0,P|139:80|93:105,1,101.250003862381,2|2,0:2|0:0,0:0:0:0:
218,157,36194,54,0,P|241:201|258:249,1,101.250003862381,2|0,1:0|0:0,0:0:0:0:
189,320,36537,1,2,0:0:0:0:
142,214,36708,1,2,1:0:0:0:
376,169,37051,101,2,0:0:0:0:
376,169,37222,2,2,B|302:203|302:203|398:233,1,151.875005793572,0|0,0:0|0:0,1:0:0:0:
139,177,37565,2,2,B|214:202|214:202|120:228,1,151.875005793572,2|0,1:0|0:0,1:0:0:0:
244,278,37908,2,2,B|240:307|240:307|286:307|286:307|278:243,1,101.250003862381,2|2,0:0|1:0,1:0:0:0:
342,95,38336,1,2,0:2:0:0:
342,95,38422,2,0,L|286:144,1,50.6250019311906,2|0,1:0|0:0,0:0:0:0:
168,81,38594,2,0,L|203:116,1,50.6250019311906,2|0,1:0|0:0,0:0:0:0:
203,116,38765,1,2,0:0:0:0:
213,361,38937,69,6,1:0:0:0:
317,320,39108,1,0,0:0:0:0:
232,248,39279,1,2,0:0:0:0:
274,283,39451,1,2,1:0:0:0:
255,318,39622,1,0,0:0:0:0:
240,293,39794,1,2,0:0:0:0:
262,283,39965,1,2,0:2:0:0:
256,296,40137,1,2,0:0:0:0:
336,312,40308,101,6,1:0:0:0:
211,364,40479,101,0,0:0:0:0:
221,218,40651,85,2,0:0:0:0:
370,175,40822,37,6,1:0:0:0:
74,138,41165,101,4,0:0:0:0:
165,117,41337,85,2,0:0:0:0:
254,9,41508,37,4,0:0:0:0:
344,155,41679,54,2,L|276:184,1,50.6250019311906,4|0,1:2|0:2,1:0:0:0:
401,86,41937,2,2,L|327:52,1,50.6250019311906,2|0,1:3|0:2,1:0:0:0:
500,87,42194,2,2,L|470:20,1,50.6250019311906,4|0,1:2|0:2,1:0:0:0:
470,197,42451,2,2,L|529:160,1,50.6250019311906,2|0,1:3|0:2,1:0:0:0:
368,256,42708,2,2,L|267:320,1,101.250003862381,4|2,1:2|0:0,1:0:0:0:
91,322,43051,69,6,1:0:0:0:
8,275,43222,1,2,0:0:0:0:
93,229,43394,1,2,1:0:0:0:
19,172,43565,1,2,0:2:0:0:
19,172,43651,2,2,L|6:116,1,50.6250019311906,0|0,1:0|0:0,1:0:0:0:
305,14,44079,2,0,P|231:8|197:0,1,101.250003862381
60,123,44422,86,0,P|68:181|68:223,1,80.9999975280763,4|2,1:0|0:0,0:0:0:0:
265,170,44765,2,0,P|258:130|250:91,1,80.9999975280763,0|2,3:0|0:0,0:0:0:0:
411,126,45108,2,0,P|420:183|425:310,1,161.999995056153,0|8,1:0|0:0,0:0:0:0:
425,287,45794,5,0,1:0:0:0:
491,221,45965,1,2,0:0:0:0:
425,287,46137,1,0,3:0:0:0:
302,309,46308,1,2,0:0:0:0:
211,248,46479,2,0,P|142:223|20:212,1,161.999995056153,0|8,0:0|0:0,0:0:0:0:
54,211,47165,5,0,1:0:0:0:
160,193,47337,1,2,0:0:0:0:
54,211,47508,1,8,0:0:0:0:
160,193,47679,1,2,0:0:0:0:
267,199,47851,2,0,P|253:252|248:288,1,80.9999975280763,0|2,1:0|0:0,0:0:0:0:
333,276,48194,2,0,P|340:236|352:198,1,80.9999975280763,8|2,0:0|0:0,0:0:0:0:
46,162,48537,5,4,1:1:0:0:
250,73,48879,37,2,1:2:0:0:
482,127,49222,85,4,1:2:0:0:
408,68,49394,1,2,3:2:0:0:
408,68,49479,1,0,3:0:0:0:
408,68,49565,2,0,P|352:50|312:42,1,80.9999975280763,2|0,3:0|0:0,0:0:0:0:
84,142,49908,85,4,1:0:0:0:
97,270,50079,1,2,0:0:0:0:
220,258,50251,1,0,3:0:0:0:
206,136,50422,1,2,0:0:0:0:
40,207,50594,2,0,P|80:277|104:355,1,161.999995056153,0|8,1:0|0:0,0:0:0:0:
103,354,51279,5,0,1:0:0:0:
184,265,51451,1,2,0:0:0:0:
297,296,51622,1,0,3:0:0:0:
389,221,51794,1,2,0:0:0:0:
423,76,51965,2,0,P|444:22|462:-15,1,80.9999975280763,0|0,1:0|0:0,0:0:0:0:
491,191,52308,2,0,P|508:131|519:90,1,80.9999975280763,8|2,0:0|0:0,0:0:0:0:
204,110,52651,53,2,1:0:0:0:
257,233,52822,1,2,3:2:0:0:
289,84,52994,37,8,0:0:0:0:
179,246,53165,1,2,3:2:0:0:
135,183,53337,69,2,1:0:0:0:
349,131,53508,1,2,3:2:0:0:
289,84,53679,37,8,0:0:0:0:
179,246,53851,1,2,3:2:0:0:
46,97,54022,2,2,B|-76:71|68:9|204:53|152:121|48:139|97:233,1,303.750011587143,0|0,1:0|3:0,1:1:0:0:
171,69,54708,37,2,3:2:0:0:
150,65,54794,1,0,3:0:0:0:
130,61,54879,1,2,3:0:0:0:
109,57,54965,1,0,3:0:0:0:
76,18,55051,85,6,3:2:0:0:
86,67,55137,1,0,3:0:0:0:
96,116,55222,1,2,3:0:0:0:
107,165,55308,1,0,3:0:0:0:
71,203,55394,101,4,1:0:0:0:
313,371,55651,1,2,0:0:0:0:
313,371,55737,1,8,0:0:0:0:
435,325,55908,1,0,3:0:0:0:
223,318,56079,2,0,P|207:374|208:403,1,67.5,0|0,1:0|0:0,0:0:0:0:
512,299,56422,102,2,P|456:285|298:263,1,202.5,6|0,0:2|0:0,1:1:0:0:
234,320,56765,21,0,1:0:0:0:
149,171,56937,1,0,3:2:0:0:
346,165,57108,37,10,3:2:0:0:
346,54,57279,1,0,1:0:0:0:
346,165,57451,1,0,1:0:0:0:
182,255,57622,70,2,L|80:223,1,67.5,4|0,1:0|0:0,1:0:0:0:
218,189,57794,2,2,B|239:238|248:292|248:292|289:270|357:258,1,202.5,12|0,1:2|0:0,1:0:0:0:
181,336,58137,86,0,P|123:319|70:307,1,101.250003862381,4|0,1:0|3:0,0:0:0:0:
43,245,58479,1,10,3:2:0:0:
43,245,58565,1,0,3:0:0:0:
43,245,58651,1,2,3:0:0:0:
285,96,58822,5,8,0:0:0:0:
164,111,58994,1,2,0:0:0:0:
122,316,59165,1,8,0:0:0:0:
102,189,59337,1,2,0:0:0:0:
241,370,59508,1,12,0:0:0:0:
355,321,59679,1,2,3:0:0:0:
378,275,59765,1,0,3:0:0:0:
382,224,59851,1,2,3:2:0:0:
285,99,60022,2,0,P|311:129|344:149,1,50.6250019311906,2|0,3:0|0:0,0:0:0:0:
249,0,60194,37,0,0:0:0:0:
142,66,60365,2,2,L|88:27,1,50.6250019311906,4|0,1:0|0:0,1:0:0:0:
355,68,60537,2,2,L|420:15,2,50.6250019311906,12|0|0,1:2|0:0|0:0,1:0:0:0:
150,225,60879,6,0,L|78:236,1,50.6250019311906,6|0,0:0|0:0,0:0:0:0:
242,283,61051,2,0,L|254:356,1,50.6250019311906,2|0,0:2|0:0,0:0:0:0:
166,297,61222,2,0,L|116:346,1,50.6250019311906,2|0,0:0|0:0,0:0:0:0:
314,277,61394,2,0,L|364:337,1,50.6250019311906,2|0,0:2|0:0,0:0:0:0:
234,173,61565,53,4,0:0:0:0:
185,160,61651,1,0,0:0:0:0:
234,173,61737,1,2,0:2:0:0:
261,141,61822,1,0,0:0:0:0:
234,173,61908,1,2,0:0:0:0:
239,205,61994,1,0,0:0:0:0:
234,173,62079,1,2,0:2:0:0:
311,62,62251,38,0,L|328:0,2,50.6250019311906,4|0|0,1:2|0:0|0:0,0:0:0:0:
144,67,62594,2,0,L|118:16,2,50.6250019311906,4|0|0,1:2|0:0|0:0,0:0:0:0:
164,161,62937,85,8,1:0:0:0:
278,141,63108,1,2,1:3:0:0:
234,201,63279,69,2,0:2:0:0:
7,234,63622,101,0,1:0:0:0:
31,157,63794,1,2,0:2:0:0:
69,258,63965,1,2,0:0:0:0:
78,276,64137,1,2,0:2:0:0:
288,341,64308,5,0,1:0:0:0:
324,239,64479,21,2,0:2:0:0:
324,239,64651,1,2,0:0:0:0:
324,239,64822,85,2,0:2:0:0:
469,373,64994,5,0,1:0:0:0:
469,373,65079,1,0,0:0:0:0:
469,373,65165,1,2,0:0:0:0:
261,363,65337,37,0,1:0:0:0:
261,363,65422,1,0,0:0:0:0:
261,363,65508,1,2,0:0:0:0:
56,355,65679,37,2,1:2:0:0:
119,222,65851,38,0,L|184:197,1,50.6250019311906,2|0,1:3|0:0,0:0:0:0:
230,169,66022,22,0,L|306:203,1,50.6250019311906,2|0,1:2|0:0,0:0:0:0:
345,215,66194,86,0,L|432:188,1,50.6250019311906,2|0,1:3|0:0,0:0:0:0:
465,181,66365,85,4,1:2:0:0:
361,281,67737,69,0,3:0:0:0:
379,204,68594,1,0,0:0:0:0:
379,204,68765,1,0,0:0:0:0:
252,0,69108,85,0,3:0:0:0:
255,226,70479,1,0,3:0:0:0:
255,226,71337,1,2,0:3:0:0:
255,226,71508,1,2,0:0:0:0:
127,158,71851,21,4,1:2:0:0:
67,78,72022,2,0,P|116:80|137:86,1,50.6250019311906,2|0,0:0|0:0,0:0:0:0:
248,131,72194,1,0,3:0:0:0:
255,36,72365,2,0,P|214:60|198:77,1,50.6250019311906,2|0,0:0|0:0,0:0:0:0:
155,229,72537,2,0,B|159:222|159:222|203:239|237:204|237:204|261:224,3,101.250003862381,0|0|0|2,1:0|3:0|1:0|3:0,0:0:0:0:
125,371,73222,21,4,3:0:0:0:
122,355,73308,1,0,3:0:0:0:
117,340,73393,1,2,3:0:0:0:
110,326,73479,1,0,3:0:0:0:
102,312,73565,2,0,L|67:254,1,50.6250019311906,10|2,3:2|3:2,3:0:0:0:
2,176,73822,1,2,0:0:0:0:
2,176,73908,2,0,L|57:279,1,101.250003862381,2|0,3:0|0:0,0:0:0:0:
103,358,74251,1,8,0:0:0:0:
353,171,74594,86,2,B|277:171|277:171|337:258,1,151.875005793572,0|0,0:0|0:0,1:0:0:0:
178,54,74937,2,2,B|213:124|213:124|122:119,1,151.875005793572,4|2,1:0|3:0,0:0:0:0:
117,212,75279,2,2,B|99:292|190:331|241:254|241:254|144:218|110:161,1,303.750011587143,0|14,1:2|1:2,1:0:0:0:
396,126,75965,70,2,L|509:171,1,84.375,0|0,1:0|3:0,3:0:0:0:
379,112,76137,2,2,L|445:102,1,67.5,0|0,3:0|3:0,3:0:0:0:
368,110,76308,2,2,L|339:50,1,50.6250019311906,0|0,1:0|3:0,3:0:0:0:
375,128,76479,2,2,L|327:231,1,84.375,0|0,3:0|3:0,3:0:0:0:
346,124,76651,1,4,1:2:0:0:
250,180,76822,101,2,3:0:0:0:
242,148,76994,1,2,3:2:0:0:
273,163,77165,1,2,3:0:0:0:
135,102,77337,53,4,1:0:0:0:
86,162,77508,2,0,P|89:219|112:249,1,67.5,2|0,3:0|0:0,0:0:0:0:
158,272,77851,1,2,3:0:0:0:
170,361,78022,2,0,P|223:343|251:344,1,67.5,2|0,1:2|0:0,0:0:0:0:
283,277,78365,1,0,1:0:0:0:
362,225,78537,1,2,3:0:0:0:
342,133,78708,1,0,1:0:0:0:
343,36,78879,2,0,P|297:45|259:43,1,67.5,2|2,0:0|3:0,0:0:0:0:
161,8,79222,1,2,0:0:0:0:
37,97,79394,1,4,1:2:0:0:
0,198,79565,2,0,P|53:193|85:197,1,67.5,2|0,3:0|3:0,0:0:0:0:
15,296,79908,1,2,0:3:0:0:
108,365,80079,1,2,1:2:0:0:
204,366,80251,1,0,3:0:0:0:
281,316,80422,1,2,0:3:0:0:
322,202,80594,1,0,3:0:0:0:
313,65,80765,2,0,P|266:50|228:44,1,67.5,2|0,1:2|3:0,0:0:0:0:
90,24,81108,1,2,0:0:0:0:
21,132,81279,1,0,3:0:0:0:
72,257,81451,1,4,1:2:0:0:
258,182,81622,53,2,3:2:0:0:
272,176,81708,1,0,3:2:0:0:
272,160,81794,1,2,3:2:0:0:
258,155,81879,1,0,3:2:0:0:
248,168,81965,1,2,3:2:0:0:
344,122,82137,2,0,P|268:69|174:142,1,202.500007724762,0|0,1:0|3:2,0:0:0:0:
257,305,82822,53,4,1:0:0:0:
488,89,83337,69,0,3:0:0:0:
24,89,83679,1,0,1:0:0:0:
246,268,84022,101,0,3:0:0:0:
187,30,84365,1,0,3:0:0:0:
187,30,84537,2,0,P|230:20|296:34,1,101.250003862381,6|0,1:2|0:0,0:0:0:0:
388,213,84879,53,0,3:0:0:0:
370,110,85051,1,2,0:3:0:0:
388,213,85222,1,4,3:2:0:0:
306,190,85393,2,0,L|221:167,1,50.6250019311906,2|0,3:2|3:0,3:0:0:0:
152,194,85565,5,4,1:0:0:0:
152,194,85737,1,0,3:0:0:0:
152,194,85908,1,8,0:0:0:0:
40,213,86079,1,2,3:2:0:0:
36,35,86251,2,0,P|46:85|47:136,3,101.250003862381,0|2|8|2,1:3|3:3|0:0|0:3,0:3:0:0:
241,95,86937,53,4,1:2:0:0:
397,140,87279,1,0,3:0:0:0:
283,181,87622,2,0,B|267:200|267:200|325:217|325:217|317:175,1,101.250003862381,4|0,1:2|0:0,0:0:0:0:
194,311,87965,38,2,B|211:300|211:300|206:278|206:278|234:262|234:262|225:236|225:236|246:222|246:222|237:188,1,151.875005793572,8|0,1:3|0:0,0:1:0:0:
74,99,88308,2,0,P|101:175|108:218,2,101.250003862381,4|0|2,1:0|3:0|0:2,0:0:0:0:
167,53,88822,1,2,0:0:0:0:
206,144,88994,1,0,1:0:0:0:
206,144,89165,1,0,3:0:0:0:
251,1,89337,2,0,P|309:7|356:20,1,101.250003862381,0|0,1:0|0:0,0:0:0:0:
442,168,89679,1,2,3:0:0:0:
453,144,89851,1,0,3:0:0:0:
478,124,90022,1,2,1:3:0:0:
508,53,90194,1,2,3:2:0:0:
434,28,90365,1,2,3:2:0:0:
374,205,90537,2,0,P|310:202|272:217,1,101.250003862381,0|0,3:0|0:0,0:0:0:0:
181,195,90879,1,2,0:3:0:0:
181,195,91051,2,0,P|262:227|302:343,1,202.500007724762,0|0,1:0|0:0,0:0:0:0:
319,98,91565,69,0,3:0:0:0:
319,98,91737,1,0,1:0:0:0:
240,99,91908,1,2,0:3:0:0:
240,99,92079,1,2,0:2:0:0:
283,164,92251,1,0,3:0:0:0:
281,243,92422,21,0,1:0:0:0:
170,220,92594,2,0,P|201:204|219:196,1,50.6250019311906,2|0,3:0|3:0,3:0:0:0:
397,228,92765,2,0,P|366:212|348:204,1,50.6250019311906,2|0,3:2|3:0,3:0:0:0:
281,243,92937,2,0,L|278:305,1,50.6250019311906,2|0,3:0|3:0,3:0:0:0:
283,164,93108,1,6,3:2:0:0:
153,30,93451,6,0,P|207:63|217:75,1,50.6250019311906,0|0,1:0|0:0,0:0:0:0:
197,53,93794,2,2,P|133:61|97:191,1,202.500007724762,4|0,1:0|0:0,0:0:0:0:
183,145,94308,1,2,3:2:0:0:
285,50,94479,2,0,P|269:111|267:171,1,101.250003862381,2|0,1:3|0:0,0:0:0:0:
321,217,94822,1,2,3:2:0:0:
321,217,94994,1,2,3:0:0:0:
368,328,95165,86,0,P|304:318|259:313,1,101.250003862381,2|0,1:2|0:0,0:0:0:0:
110,269,95508,54,0,P|164:263|211:252,1,101.250003862381,2|0,3:2|0:0,0:0:0:0:
27,88,95851,38,0,P|55:138|65:192,1,101.250003862381,2|0,1:2|0:0,0:0:0:0:
168,136,96194,2,0,P|197:122|230:129,1,50.6250019311906,2|0,3:2|3:0,3:0:0:0:
356,112,96365,2,0,P|326:103|293:121,1,50.6250019311906,2|0,3:0|3:0,3:0:0:0:
335,225,96537,22,2,P|320:278|206:232,1,202.5,4|0,1:2|0:0,1:0:0:0:
314,210,96879,1,4,1:0:0:0:
146,70,97222,6,0,P|222:159|275:110,1,202.5,4|0,1:2|0:0,1:0:0:0:
165,58,97565,1,4,1:0:0:0:
165,58,98765,6,0,B|180:40|228:42|228:42|254:113,1,84.375,0|0,3:0|2:0,0:0:0:0:
277,133,98937,2,0,B|288:199|288:199|239:115,1,135,0|0,1:0|3:0,0:0:0:0:
0,261,99279,38,2,P|75:217|182:94,1,202.500007724762,6|2,1:0|0:0,0:0:0:0:
238,29,99794,2,2,P|182:75|78:63,1,151.875005793572,2|0,1:0|0:0,0:0:0:0:
133,158,100137,1,2,0:0:0:0:
157,183,100222,1,0,0:0:0:0:
135,211,100308,1,2,0:2:0:0:
109,185,100394,1,0,0:0:0:0:
78,202,100479,1,2,0:0:0:0:
94,233,100565,1,0,0:0:0:0:
47,238,100651,6,2,P|98:198|136:150,1,101.250003862381,2|0,1:0|0:0,0:0:0:0:
216,32,100994,1,0,0:0:0:0:
127,215,101165,1,2,1:0:0:0:
216,32,101422,1,2,0:2:0:0:
216,32,101507,1,2,0:0:0:0:
119,204,101679,2,0,P|158:146|198:106,1,101.250003862381,2|0,0:2|0:0,0:0:0:0:
219,0,102022,102,2,P|184:62|146:100,1,101.250003862381,2|0,1:0|0:0,0:0:0:0:
36,216,102365,1,2,0:0:0:0:
242,67,102537,2,2,P|181:108|99:188,1,151.875005793572,2|0,1:0|0:0,0:0:0:0:
92,156,102879,1,2,0:0:0:0:
64,178,102965,1,0,0:0:0:0:
86,205,103051,1,2,0:2:0:0:
61,230,103137,1,0,0:0:0:0:
36,205,103222,2,0,L|-8:243,1,50.6250019311906,2|0,0:0|0:0,0:0:0:0:
252,274,103394,101,4,1:2:0:0:
327,194,103565,85,2,0:2:0:0:
183,190,103737,1,2,0:3:0:0:
255,358,103908,1,4,1:2:0:0:
255,358,103994,1,2,0:2:0:0:
257,167,104165,101,2,0:2:0:0:
257,156,104251,1,2,0:0:0:0:
257,145,104337,1,2,0:2:0:0:
257,135,104422,1,2,1:0:0:0:
257,135,104594,1,0,1:0:0:0:
443,78,104765,70,0,P|413:22|364:1,1,101.250003862381,6|0,1:0|0:0,0:0:0:0:
302,23,105108,1,2,0:0:0:0:
315,273,105279,86,0,P|269:234|299:118,1,151.875005793572,2|0,1:0|0:0,0:0:0:0:
340,107,105622,5,2,0:0:0:0:
367,116,105708,1,0,0:0:0:0:
353,134,105794,1,2,0:2:0:0:
345,112,105879,1,0,0:0:0:0:
364,108,105965,1,2,0:0:0:0:
359,118,106051,1,0,0:0:0:0:
342,81,106137,6,0,P|399:62|453:105,1,101.250003862381,2|0,1:0|0:0,0:0:0:0:
467,146,106479,85,2,0:0:0:0:
241,68,106651,1,2,1:0:0:0:
279,257,106908,1,2,0:2:0:0:
279,257,106994,1,2,0:0:0:0:
241,68,107165,1,2,0:2:0:0:
467,146,107337,1,2,0:0:0:0:
377,0,107508,22,0,P|356:68|339:109,1,101.250003862381,2|0,1:0|0:0,0:0:0:0:
313,163,107765,1,0,0:0:0:0:
313,163,107851,1,2,0:0:0:0:
247,261,108022,86,0,P|273:198|318:111,1,151.875005793572,2|0,1:0|0:0,0:0:0:0:
360,65,108365,1,2,0:0:0:0:
355,36,108451,1,0,0:0:0:0:
387,21,108537,2,0,L|376:102,1,50.6250019311906,2|0,0:2|0:0,0:0:0:0:
404,148,108708,1,2,0:0:0:0:
185,195,108879,86,0,L|113:178,1,50.6250019311906,6|0,1:2|0:0,0:0:0:0:
327,196,109051,2,0,L|393:181,1,50.6250019311906,2|0,1:3|0:0,0:0:0:0:
179,141,109222,2,0,L|119:117,1,50.6250019311906,6|0,1:2|0:0,0:0:0:0:
307,156,109394,2,0,L|383:135,1,50.6250019311906,2|0,1:3|0:0,0:0:0:0:
259,363,109565,21,6,1:0:0:0:
255,273,109737,1,2,3:0:0:0:
251,163,109908,69,0,1:0:0:0:
247,92,110079,1,2,0:0:0:0:
140,24,110251,53,6,1:0:0:0:
12,209,110508,1,2,0:2:0:0:
12,209,110594,1,2,0:0:0:0:
89,209,110765,2,0,P|134:152|189:69,1,151.875005793572,2|0,1:0|0:0,0:0:0:0:
138,21,111108,6,0,L|87:81,1,50.6250019311906,2|0,0:0|0:0,0:0:0:0:
178,97,111279,2,0,L|208:145,1,50.6250019311906,2|0,0:2|0:0,0:0:0:0:
69,239,111451,1,2,0:0:0:0:
18,228,111537,1,0,0:0:0:0:
0,179,111622,70,0,P|51:213|88:253,1,101.250003862381,2|0,1:0|0:0,0:0:0:0:
209,97,111965,2,0,L|162:147,1,50.6250019311906,2|0,0:0|0:0,0:0:0:0:
240,180,112137,1,2,1:0:0:0:
0,179,112394,37,2,0:2:0:0:
0,179,112480,1,2,0:0:0:0:
94,250,112651,1,2,0:2:0:0:
206,100,112822,1,2,0:0:0:0:
133,34,112994,102,0,P|86:99|27:159,1,151.875005793572,2|0,1:0|0:0,0:0:0:0:
31,174,113337,2,0,P|54:186|77:217,1,50.6250019311906,2|0,0:0|0:0,0:0:0:0:
169,314,113508,6,0,P|202:264|267:187,1,151.875005793572,2|0,1:0|0:0,0:0:0:0:
250,122,113851,37,2,0:0:0:0:
268,91,113937,1,0,0:0:0:0:
302,97,114022,1,2,0:2:0:0:
327,92,114108,1,0,0:0:0:0:
357,109,114194,1,2,0:0:0:0:
147,166,114365,6,2,B|193:192|193:192|131:229,1,101.250003862381,2|0,1:0|0:0,1:0:0:0:
349,222,114622,2,2,B|298:200|298:200|358:170,1,101.250003862381,0|0,0:0|0:0,1:0:0:0:
249,264,114879,21,2,1:0:0:0:
226,30,115137,69,2,0:2:0:0:
256,47,115222,1,2,0:0:0:0:
234,75,115308,1,2,0:2:0:0:
261,96,115394,1,2,1:0:0:0:
255,184,115565,5,0,1:0:0:0:
66,108,115737,5,6,1:0:0:0:
43,287,116079,5,2,0:0:0:0:
113,357,116251,5,2,1:0:0:0:
251,372,116508,1,2,0:2:0:0:
251,372,116594,5,2,0:0:0:0:
332,359,116765,5,2,0:2:0:0:
402,312,116937,5,2,0:0:0:0:
458,196,117108,5,2,1:0:0:0:
429,26,117451,5,2,0:0:0:0:
323,0,117622,5,2,1:0:0:0:
190,12,117879,1,2,0:2:0:0:
190,12,117965,5,2,0:0:0:0:
70,85,118137,6,0,L|10:70,2,50.6250019311906,2|0|0,0:0|0:0|0:0,0:0:0:0:
191,93,118479,5,4,1:2:0:0:
191,93,118565,85,0,0:0:0:0:
322,93,118737,21,2,1:3:0:0:
322,93,118823,85,0,0:0:0:0:
330,247,118994,21,4,1:2:0:0:
330,247,119080,85,0,0:0:0:0:
193,246,119251,21,2,1:3:0:0:
193,246,119337,85,0,0:0:0:0:
8,230,119508,21,4,1:2:0:0:
106,171,119679,1,2,0:0:0:0:
8,230,119851,1,2,1:2:0:0:
106,171,120022,1,2,0:0:0:0:
8,230,120194,1,2,1:2:0:0:
8,230,120365,1,0,1:0:0:0:
8,230,120451,1,2,0:2:0:0:
157,0,120879,38,2,B|140:66|140:66|87:97|87:97|67:195,1,202.500007724762,12|0,1:0|0:0,1:2:0:0:
