osu file format v14

[General]
AudioFilename: audio.ogg
AudioLeadIn: 0
PreviewTime: 22394
Countdown: 0
SampleSet: Soft
StackLeniency: 0.4
Mode: 0
LetterboxInBreaks: 1
EpilepsyWarning: 1
WidescreenStoryboard: 1

[Editor]
Bookmarks: 77903
DistanceSpacing: 1
BeatDivisor: 4
GridSize: 16
TimelineZoom: 1.4

[Metadata]
Title:Cirno's Perfect Math Class (Nika Lenina Russian Version)
TitleUnicode:Cirno's Perfect Math Class (Nika Lenina Russian Version)
Artist:IOSYS
ArtistUnicode:IOSYS
Creator:dopaminos
Version:Another
Source:東方紅魔郷 ~ the Embodiment of Scarlet Devil.
Tags:zun touhou koumakyou 東方氷雪歌集 arm miko quim 夕野ヨシミ yuuno yoshimi 上海アリス幻樂団 team shanghai alice おてんば恋娘 otenba koimusume video game japanese Sansuu Kyoushitsu 東方project electronic russian русский электроника schoolboy komore e4pi4mak 228 aye1337 enuhq Эрик Массман AnsverITO сырна цырна сирна цирна сырнин цырнин класс математики ника ленина Альона Кокоріна дура бака baka сhiruno
BeatmapID:4136742
BeatmapSetID:1990973

[Difficulty]
HPDrainRate:5.2
CircleSize:4.2
OverallDifficulty:8.2
ApproachRate:9
SliderMultiplier:1.6
SliderTickRate:1

[Events]
//Background and Video events
Video,460,"cirno.mp4"
0,0,"bg.jpg",0,0
//Break Periods
//Storyboard Layer 0 (Background)
//Storyboard Layer 1 (Fail)
//Storyboard Layer 2 (Pass)
//Storyboard Layer 3 (Foreground)
//Storyboard Layer 4 (Overlay)
//Storyboard Sound Samples

[TimingPoints]
537,342.857142857143,4,2,1,45,1,0
537,-111.111111111111,4,2,1,45,0,0
5508,-111.111111111111,4,2,2,45,0,0
5937,-111.111111111111,4,2,2,45,0,0
6022,-111.111111111111,4,2,1,45,0,0
8422,-111.111111111111,4,2,3,45,0,0
8594,-111.111111111111,4,2,1,45,0,0
10994,-111.111111111111,4,2,1,50,0,0
11508,-105.263157894737,4,2,1,50,0,0
16651,-105.263157894737,4,2,3,50,0,0
16994,-105.263157894737,4,2,1,50,0,0
19737,-76.9230769230769,4,2,1,55,0,0
21108,-76.9230769230769,4,2,1,50,0,0
22479,-100,4,2,1,60,0,0
32765,-100,4,2,1,60,0,0
32937,-100,4,2,1,60,0,0
33108,-100,4,2,1,60,0,0
33279,-100,4,2,1,60,0,0
33451,-100,4,2,1,60,0,0
43994,-111.111111111111,4,2,1,5,0,0
44079,-76.9230769230769,4,2,1,70,0,0
44422,-108.695652173913,4,2,1,70,0,0
66365,-200,4,2,1,55,0,0
71508,-200,4,2,3,55,0,0
71679,-200,4,2,1,55,0,0
71851,-133.333333333333,4,2,1,70,0,0
73222,-111.111111111111,4,2,1,70,0,0
74594,-90.9090909090909,4,2,1,70,0,0
77337,-100,4,2,1,70,0,0
82137,-133.333333333333,4,2,1,70,0,0
82822,-105.263157894737,4,2,1,70,0,0
85565,-105.263157894737,4,2,1,75,0,0
88308,-100,4,2,1,70,0,0
93794,-105.263157894737,4,2,1,70,0,0
96537,-76.9230769230769,4,2,1,70,0,0
99279,-100,4,2,1,70,0,0
109565,-100,4,2,1,70,0,0
109737,-100,4,2,1,70,0,0
109908,-100,4,2,1,70,0,0
110079,-100,4,2,1,70,0,0
110251,-100,4,2,1,70,0,0
120794,-111.111111111111,4,2,1,70,0,0
120879,-111.111111111111,4,2,1,70,0,0
121222,-100,4,2,1,5,0,0
126708,-111.111111111111,4,2,1,5,0,0

[Colours]
Combo1 : 174,235,84
Combo2 : 33,184,222
Combo3 : 0,117,234

[HitObjects]
48,201,537,5,2,3:3:0:0:
119,173,708,1,2,3:3:0:0:
209,232,879,1,10,1:3:0:0:
296,209,1051,2,0,B|362:203|362:221|440:220,1,143.999995605469,10|2,1:3|3:2,0:0:0:0:
500,182,1565,2,0,P|493:224|499:262,1,71.9999978027344,10|0,1:3|3:3,0:0:0:0:
309,375,1908,5,2,3:3:0:0:
277,308,2079,1,2,3:3:0:0:
361,182,2251,1,10,1:3:0:0:
275,130,2422,2,0,P|344:138|393:89,1,143.999995605469,8|2,1:3|3:2,0:0:0:0:
295,0,2937,2,0,L|320:71,1,71.9999978027344,8|0,1:3|3:3,0:0:0:0:
188,164,3279,5,10,3:3:0:0:
81,90,3451,1,10,1:3:0:0:
81,90,3537,1,2,1:2:0:0:
81,90,3622,2,0,L|102:12,1,71.9999978027344,10|0,1:3|3:3,0:0:0:0:
50,205,3965,5,10,3:3:0:0:
223,69,4137,1,10,1:3:0:0:
223,69,4223,1,2,1:2:0:0:
223,69,4308,2,0,L|202:-9,1,71.9999978027344,10|0,1:3|3:3,0:0:0:0:
122,284,4651,1,10,1:3:0:0:
241,350,4822,1,10,1:3:0:0:
307,230,4994,1,10,1:3:0:0:
188,164,5165,1,10,1:3:0:0:
348,308,5509,5,2,1:3:0:0:
348,308,5594,1,2,1:3:0:0:
348,308,5680,2,0,B|395:300|396:314|458:317,1,107.999996704102,2|0,1:3|0:0,0:0:0:0:
495,354,6022,2,0,P|487:310|491:278,1,71.9999978027344,2|2,3:3|3:3,0:0:0:0:
440,109,6365,1,10,1:3:0:0:
350,176,6537,2,0,P|418:156|486:209,1,143.999995605469,10|2,1:3|3:2,0:0:0:0:
299,253,7051,2,0,L|218:243,1,71.9999978027344,10|0,1:3|3:3,0:0:0:0:
115,116,7394,5,10,3:3:0:0:
9,292,7565,1,0,3:3:0:0:
180,179,7737,1,0,3:3:0:0:
227,244,7908,2,0,P|222:296|220:335,1,71.9999978027344,10|0,1:3|0:0,0:0:0:0:
367,362,8251,1,10,1:3:0:0:
367,362,8337,1,8,1:3:0:0:
367,362,8422,2,0,P|319:355|286:359,1,71.9999978027344,0|0,1:1|3:3,0:0:0:0:
417,197,8765,6,0,P|452:198|488:192,1,71.9999978027344,8|8,3:3|1:3,0:0:0:0:
488,192,9021,1,8,1:3:0:0:
488,192,9107,1,8,1:3:0:0:
461,287,9279,1,0,3:3:0:0:
257,137,9451,6,0,P|221:138|185:132,1,71.9999978027344,10|8,3:3|1:3,0:0:0:0:
186,132,9707,1,8,1:3:0:0:
186,132,9793,1,8,1:3:0:0:
243,255,9965,1,0,3:3:0:0:
332,120,10137,1,10,1:3:0:0:
194,35,10308,1,10,1:3:0:0:
105,170,10480,1,10,1:3:0:0:
243,255,10651,1,10,1:3:0:0:
316,27,10994,5,2,1:2:0:0:
316,32,11165,2,0,P|313:71|319:105,1,71.9999978027344,2|2,1:2|1:2,0:0:0:0:
323,254,11508,2,0,B|306:178|334:182|317:98,1,151.999995941162,6|2,3:2|1:2,0:0:0:0:
249,144,12022,1,2,1:2:0:0:
249,144,12194,2,0,P|201:144|168:141,1,75.9999979705811,2|2,1:2|1:2,0:0:0:0:
392,213,12537,2,0,P|440:213|473:210,1,75.9999979705811,2|2,1:2|1:2,0:0:0:0:
289,307,12879,5,2,1:2:0:0:
368,366,13051,1,2,1:2:0:0:
297,184,13222,1,2,1:2:0:0:
179,349,13394,1,2,1:2:0:0:
362,240,13565,2,0,B|438:231|446:258|516:249,1,151.999995941162,2|2,1:2|1:2,0:0:0:0:
224,147,14079,1,2,1:2:0:0:
224,147,14251,6,0,B|147:138|139:165|69:156,1,151.999995941162,2|2,1:2|1:2,0:0:0:0:
108,8,14765,1,2,1:2:0:0:
108,8,14937,2,0,P|112:55|108:89,1,75.9999979705811,2|2,1:2|1:2,0:0:0:0:
185,298,15279,2,0,P|181:251|185:217,1,75.9999979705811,2|2,1:2|1:2,0:0:0:0:
299,80,15622,5,2,1:2:0:0:
380,227,15794,1,2,1:2:0:0:
342,231,15879,1,2,1:2:0:0:
307,217,15965,1,2,1:2:0:0:
282,189,16051,1,2,1:2:0:0:
273,152,16136,1,2,1:2:0:0:
282,116,16222,1,2,1:2:0:0:
299,80,16308,2,0,L|293:40,3,37.9999989852906,2|0|0|0,3:2|3:3|3:3|3:3,0:0:0:0:
428,133,16651,6,0,L|434:93,1,37.9999989852906,2|0,1:2|1:1,0:0:0:0:
280,260,16822,2,0,L|274:222,1,37.9999989852906,0|0,1:1|1:1,0:0:0:0:
368,343,16994,2,0,B|446:338|435:373|516:384,1,151.999995941162,4|0,3:2|1:1,0:0:0:0:
279,260,17508,1,0,1:1:0:0:
214,317,17679,2,0,P|164:292|78:326,1,151.999995941162,4|0,3:2|1:1,0:0:0:0:
228,109,18194,1,0,1:1:0:0:
352,240,18365,5,4,0:0:0:0:
453,110,18537,1,0,1:0:0:0:
505,274,18708,2,0,P|498:311|506:349,1,75.9999979705811,0|0,1:1|1:1,0:0:0:0:
350,123,19051,2,0,P|357:86|350:48,1,75.9999979705811,4|0,3:2|1:1,0:0:0:0:
165,216,19394,1,0,1:1:0:0:
281,88,19565,1,0,1:1:0:0:
166,5,19737,6,0,B|54:12|104:98|-12:116,1,207.999990478516,2|4,1:2|3:2,0:0:0:0:
126,310,20422,2,0,P|234:306|290:387,1,207.999990478516,2|4,1:2|3:2,0:0:0:0:
338,228,21108,5,2,1:2:0:0:
402,85,21279,1,2,1:2:0:0:
398,75,21365,1,2,1:2:0:0:
394,63,21450,1,2,1:2:0:0:
300,19,21622,1,2,1:2:0:0:
420,160,21794,1,2,1:2:0:0:
199,105,21965,1,2,1:2:0:0:
441,1,22137,2,0,P|500:52|511:133,1,155.999992858887,2|0,1:2|0:0,0:0:0:0:
492,162,22479,6,0,P|491:213|494:248,1,80,6|2,3:2|1:2,0:0:0:0:
426,330,22822,1,8,3:3:0:0:
266,144,22994,2,0,P|309:191|408:192,1,160,2|2,1:2|1:2,0:0:0:0:
210,56,23509,1,10,3:3:0:0:
187,88,23594,1,2,1:2:0:0:
151,106,23680,1,2,1:2:0:0:
112,104,23766,1,2,1:2:0:0:
78,83,23851,5,2,3:2:0:0:
19,153,24022,1,2,1:2:0:0:
19,153,24108,1,2,1:2:0:0:
19,153,24194,1,10,3:3:0:0:
150,285,24365,1,2,1:2:0:0:
150,285,24451,1,2,1:2:0:0:
260,115,24623,1,2,1:2:0:0:
260,115,24708,1,2,1:2:0:0:
79,226,24879,2,0,P|24:234|-16:237,1,80,10|2,3:3|1:2,0:0:0:0:
242,341,25222,6,0,P|290:353|324:343,1,80,2|2,3:2|1:2,0:0:0:0:
396,226,25565,1,10,3:3:0:0:
286,106,25737,2,0,L|300:268,1,160,2|2,1:2|1:2,0:0:0:0:
206,0,26251,1,10,3:3:0:0:
178,28,26336,1,2,1:2:0:0:
166,66,26422,1,2,1:2:0:0:
173,105,26508,1,2,1:2:0:0:
197,136,26593,5,2,3:2:0:0:
158,213,26765,1,2,1:2:0:0:
158,213,26851,1,2,1:2:0:0:
158,213,26937,1,10,3:3:0:0:
284,369,27109,1,2,1:2:0:0:
284,369,27194,1,2,1:2:0:0:
356,173,27366,1,2,1:2:0:0:
356,173,27452,1,2,1:2:0:0:
190,330,27622,2,0,P|140:329|103:328,1,80,10|2,3:3|1:2,0:0:0:0:
355,255,27965,6,0,P|405:254|442:253,1,80,6|2,3:2|1:2,0:0:0:0:
305,114,28308,1,8,3:3:0:0:
206,271,28479,2,0,P|123:287|72:224,1,160,2|2,1:2|1:2,0:0:0:0:
139,71,28994,1,10,3:3:0:0:
107,87,29079,1,2,1:2:0:0:
71,86,29165,1,2,1:2:0:0:
38,70,29251,1,2,1:2:0:0:
17,40,29336,5,2,3:2:0:0:
94,0,29508,1,2,1:2:0:0:
94,0,29594,1,2,1:2:0:0:
94,0,29679,1,10,3:3:0:0:
260,40,29851,1,2,1:2:0:0:
260,40,29937,1,2,1:2:0:0:
417,0,30108,1,2,1:2:0:0:
417,0,30193,1,2,1:2:0:0:
460,150,30365,2,0,P|459:190|459:229,1,80,10|2,3:3|1:2,0:0:0:0:
266,91,30708,6,0,P|266:130|266:170,1,80,2|2,3:2|1:2,0:0:0:0:
164,292,31051,1,10,3:3:0:0:
329,370,31222,2,0,B|422:357|414:348|408:338|450:329|491:330,1,160,2|2,1:2|1:2,0:0:0:0:
214,218,31737,1,10,3:3:0:0:
219,249,31822,1,2,1:2:0:0:
224,280,31908,1,2,1:2:0:0:
230,312,31994,1,2,1:2:0:0:
235,343,32079,6,0,L|225:384,1,40,2|2,3:2|3:2,0:0:0:0:
416,259,32251,2,0,L|425:297,1,40,2|2,3:2|3:2,0:0:0:0:
237,113,32422,6,0,L|196:103,1,40,2|2,3:2|3:2,0:0:0:0:
396,185,32594,1,2,3:2:0:0:
425,175,32679,1,2,3:2:0:0:
452,167,32765,1,2,3:2:0:0:
313,36,32937,1,10,3:3:0:0:
214,218,33108,2,0,P|162:225|125:232,1,80,10|2,3:3|1:2,0:0:0:0:
325,51,33451,6,0,P|314:89|328:125,1,80,6|2,3:2|1:2,0:0:0:0:
472,16,33794,1,8,3:3:0:0:
383,212,33965,2,0,B|289:198|324:246|228:241,1,160,2|2,1:2|1:2,0:0:0:0:
74,133,34479,1,10,3:3:0:0:
85,97,34564,1,2,1:2:0:0:
112,73,34650,1,2,1:2:0:0:
149,66,34736,1,2,1:2:0:0:
183,78,34821,5,2,3:2:0:0:
258,180,34994,1,2,1:2:0:0:
258,180,35079,1,2,1:2:0:0:
258,180,35165,1,10,3:3:0:0:
123,333,35337,1,2,1:2:0:0:
123,333,35422,1,2,1:2:0:0:
25,182,35593,1,2,1:2:0:0:
25,182,35679,1,2,1:2:0:0:
231,279,35851,2,0,P|270:286|315:294,1,80,10|2,3:3|1:2,0:0:0:0:
132,109,36194,6,0,P|126:155|126:193,1,80,2|2,3:2|1:2,0:0:0:0:
85,270,36537,1,10,3:3:0:0:
277,150,36708,2,0,P|320:214|295:313,1,160,2|2,1:2|1:2,0:0:0:0:
490,376,37222,1,10,3:3:0:0:
460,372,37307,1,2,1:2:0:0:
430,369,37393,1,2,1:2:0:0:
400,366,37479,1,2,1:2:0:0:
370,363,37564,5,2,3:2:0:0:
430,289,37737,1,2,1:2:0:0:
430,289,37822,1,2,1:2:0:0:
430,289,37908,1,10,3:3:0:0:
311,128,38079,1,2,1:2:0:0:
311,128,38165,1,2,1:2:0:0:
442,5,38337,1,2,1:2:0:0:
442,5,38423,1,2,1:2:0:0:
511,151,38594,2,0,P|509:197|513:236,1,80,10|2,3:3|1:2,0:0:0:0:
312,48,38937,6,0,P|314:94|310:133,1,80,6|2,3:2|1:2,0:0:0:0:
211,264,39279,1,8,3:3:0:0:
56,93,39451,2,0,B|142:93|141:118|218:118,1,160,2|2,1:2|1:2,0:0:0:0:
148,294,39965,1,10,3:3:0:0:
116,288,40050,1,2,1:2:0:0:
91,269,40136,1,2,1:2:0:0:
76,241,40222,1,2,1:2:0:0:
75,210,40307,5,10,3:3:0:0:
9,276,40479,1,10,1:3:0:0:
9,276,40565,1,10,1:3:0:0:
9,276,40651,1,10,3:3:0:0:
150,104,40822,1,10,1:3:0:0:
150,104,40908,1,10,1:3:0:0:
202,304,41079,1,10,1:3:0:0:
202,304,41165,1,10,1:3:0:0:
78,150,41337,2,0,P|28:140|-9:132,1,80,10|10,3:3|1:3,0:0:0:0:
329,80,41679,5,10,3:3:0:0:
364,66,41765,1,10,1:3:0:0:
145,181,41936,5,10,3:3:0:0:
110,167,42022,1,10,1:3:0:0:
382,280,42194,5,10,3:3:0:0:
417,266,42280,1,10,1:3:0:0:
197,350,42451,5,10,3:3:0:0:
162,336,42537,1,10,1:3:0:0:
281,158,42708,2,0,L|296:245,1,80,10|10,1:3|1:3,0:0:0:0:
390,45,43051,1,10,1:3:0:0:
476,222,43222,1,10,1:3:0:0:
301,77,43394,1,10,1:3:0:0:
385,265,43565,1,10,1:3:0:0:
341,319,43651,2,0,B|269:324|282:362|197:385,1,160,10|0,1:3|0:0,0:0:0:0:
129,328,44079,6,0,P|119:258|127:162,1,155.999992858887,6|0,1:2|0:0,0:0:0:0:
149,139,44422,2,0,L|132:61,1,73.599997529297,2|2,3:2|1:2,0:0:0:0:
168,34,44679,1,2,1:2:0:0:
168,34,44765,2,0,P|211:50|253:40,1,73.599997529297,10|2,1:3|1:2,0:0:0:0:
414,1,45108,2,0,L|394:155,1,147.199995058594,2|8,3:2|1:3,0:0:0:0:
452,343,45794,2,0,L|433:266,1,73.599997529297,2|2,3:2|1:2,0:0:0:0:
404,258,46051,1,2,1:2:0:0:
404,258,46137,2,0,P|369:277|330:273,1,73.599997529297,10|2,1:3|1:2,0:0:0:0:
332,137,46479,2,0,L|475:170,1,147.199995058594,2|8,3:2|1:3,0:0:0:0:
60,343,47165,6,0,L|79:266,1,73.599997529297,2|2,3:2|1:2,0:0:0:0:
160,288,47508,2,0,L|142:359,1,73.599997529297,10|2,1:3|1:2,0:0:0:0:
104,192,47850,2,0,L|177:209,1,73.599997529297,2|2,3:2|1:2,0:0:0:0:
72,84,48194,1,10,1:3:0:0:
5,204,48365,1,2,1:2:0:0:
156,126,48537,2,0,P|200:133|238:124,1,73.599997529297,2|0,3:2|0:0,0:0:0:0:
334,33,48879,2,0,P|329:93|323:183,2,147.199995058594,10|2|8,1:3|3:2|1:3,0:0:0:0:
456,309,49908,6,0,P|426:328|388:325,1,73.599997529297,6|2,3:2|1:2,0:0:0:0:
374,254,50251,2,0,P|404:234|442:238,1,73.599997529297,10|2,1:3|1:2,0:0:0:0:
310,349,50594,2,0,B|225:354|232:373|157:380,1,147.199995058594,2|8,3:2|1:3,0:0:0:0:
18,172,51279,2,0,P|28:218|35:252,1,73.599997529297,2|2,3:2|1:2,0:0:0:0:
69,286,51537,1,2,1:2:0:0:
69,287,51622,2,0,L|56:361,1,73.599997529297,10|2,1:3|1:2,0:0:0:0:
237,272,51965,2,0,P|206:225|114:225,1,147.199995058594,2|8,3:2|1:3,0:0:0:0:
301,335,52651,5,2,3:2:0:0:
387,284,52822,1,2,1:2:0:0:
466,311,52994,2,0,P|463:355|461:391,1,73.599997529297,10|2,1:3|1:2,0:0:0:0:
356,200,53337,5,2,3:2:0:0:
222,150,53508,1,2,1:2:0:0:
157,211,53680,2,0,P|160:255|162:291,1,73.599997529297,10|2,1:3|1:2,0:0:0:0:
347,170,54022,6,0,L|338:130,3,36.7999987646485,2|2|2|2,3:2|1:2|1:2|1:2,0:0:0:0:
451,82,54365,2,0,L|459:46,3,36.7999987646485,10|2|2|2,1:3|1:2|1:2|1:2,0:0:0:0:
284,10,54708,1,2,3:2:0:0:
270,43,54793,1,10,1:3:0:0:
243,68,54879,1,2,1:2:0:0:
209,79,54965,1,2,3:2:0:0:
173,72,55051,2,0,P|135:56|95:27,1,73.599997529297,10|10,1:3|1:3,0:0:0:0:
0,202,55394,6,0,L|86:184,1,73.599997529297,6|2,3:2|1:2,0:0:0:0:
111,159,55651,1,2,1:2:0:0:
111,159,55737,2,0,L|197:174,1,73.599997529297,10|2,1:3|1:2,0:0:0:0:
250,348,56079,2,0,P|236:303|242:277,1,73.599997529297,2|0,3:2|0:0,0:0:0:0:
384,191,56422,1,10,1:3:0:0:
442,22,56765,6,0,L|457:97,1,73.599997529297,2|2,3:2|1:2,0:0:0:0:
425,130,57022,1,2,1:2:0:0:
425,130,57108,2,0,P|372:120|342:129,1,73.599997529297,10|2,1:3|1:2,0:0:0:0:
291,171,57451,1,2,3:2:0:0:
368,18,57622,1,2,1:2:0:0:
491,219,57794,2,0,P|456:229|421:241,1,73.599997529297,10|0,1:3|0:0,0:0:0:0:
197,339,58137,6,0,P|232:349|267:361,1,73.599997529297,2|2,3:2|1:2,0:0:0:0:
304,345,58394,1,2,1:2:0:0:
304,345,58479,2,0,P|318:300|303:271,1,73.599997529297,10|2,1:3|1:2,0:0:0:0:
199,158,58822,1,2,3:2:0:0:
119,291,58994,1,2,1:2:0:0:
299,196,59165,2,0,P|292:159|286:123,1,73.599997529297,10|2,1:3|1:2,0:0:0:0:
391,3,59508,5,2,3:2:0:0:
484,119,59679,1,8,1:3:0:0:
484,119,59765,1,8,1:3:0:0:
484,119,59851,1,10,1:3:0:0:
321,46,60022,1,8,1:3:0:0:
321,46,60108,1,8,1:3:0:0:
321,46,60194,1,10,1:3:0:0:
178,165,60365,5,8,1:3:0:0:
147,167,60450,1,8,1:3:0:0:
117,158,60536,1,10,1:3:0:0:
92,140,60622,1,8,1:3:0:0:
75,116,60707,1,10,1:3:0:0:
66,85,60793,1,8,1:3:0:0:
68,55,60879,6,0,L|84:21,2,36.7999987646485,4|2|2,3:2|1:2|1:2,0:0:0:0:
1,177,61222,2,0,L|20:251,1,73.599997529297,2|2,1:2|1:2,0:0:0:0:
189,103,61565,6,0,L|173:69,2,36.7999987646485,4|2|2,3:2|1:2|1:2,0:0:0:0:
249,238,61908,2,0,L|230:309,1,73.599997529297,2|2,1:2|1:2,0:0:0:0:
439,58,62251,6,0,L|454:24,2,36.7999987646485,4|2|2,3:2|1:2|1:2,0:0:0:0:
361,275,62594,2,0,L|379:346,1,73.599997529297,6|0,3:2|0:0,0:0:0:0:
411,384,62851,1,2,1:2:0:0:
411,384,62937,2,0,P|451:369|483:372,1,73.599997529297,6|6,3:2|3:2,0:0:0:0:
334,151,63279,1,6,3:2:0:0:
239,327,63622,6,0,P|198:338|167:326,1,73.599997529297,6|2,3:2|1:2,0:0:0:0:
169,249,63965,2,0,P|203:238|238:249,1,73.599997529297,2|2,1:2|1:2,0:0:0:0:
96,285,64308,1,6,3:2:0:0:
62,217,64479,1,2,1:2:0:0:
108,152,64651,1,2,1:2:0:0:
185,164,64822,1,2,1:2:0:0:
227,231,64994,2,0,L|233:275,3,36.7999987646485,10|2|10|10,1:3|1:2|1:3|1:3,0:0:0:0:
170,311,65337,2,0,L|164:355,3,36.7999987646485,10|2|10|10,1:3|1:2|1:3|1:3,0:0:0:0:
278,343,65679,6,0,L|324:347,1,36.7999987646485,10|2,1:3|1:2,0:0:0:0:
151,225,65851,2,0,L|102:220,1,36.7999987646485,10|10,1:3|1:3,0:0:0:0:
315,148,66022,6,0,L|357:151,1,36.7999987646485,10|10,1:3|1:3,0:0:0:0:
162,43,66194,2,0,L|117:39,1,36.7999987646485,10|10,1:3|1:3,0:0:0:0:
260,272,66365,6,0,P|296:240|436:325,1,240,6|0,3:2|0:0,0:0:0:0:
186,344,67737,2,0,B|124:352|132:367|67:383,1,120,6|2,3:2|1:2,0:0:0:0:
11,302,68594,1,2,1:2:0:0:
11,302,68766,2,0,P|12:275|18:253,1,40,2|0,1:2|0:0,0:0:0:0:
127,81,69108,6,0,B|270:69|207:157|329:192,1,240,6|0,3:2|0:0,0:0:0:0:
426,98,70479,2,0,P|422:125|420:138,1,40,6|2,3:2|1:2,0:0:0:0:
487,195,70822,1,2,1:2:0:0:
487,195,70994,2,0,L|504:285,1,80,2|8,1:2|1:3,0:0:0:0:
404,360,71508,1,0,1:1:0:0:
386,336,71593,1,0,1:1:0:0:
359,322,71679,1,0,3:3:0:0:
330,320,71765,1,0,3:3:0:0:
302,332,71851,6,0,P|258:339|235:343,1,60.0000022888184,2|10,3:2|1:3,0:0:0:0:
136,241,72194,1,2,3:2:0:0:
184,186,72365,2,0,P|186:157|183:125,1,60.0000022888184,10|0,1:3|3:3,0:0:0:0:
249,33,72708,1,8,1:3:0:0:
358,111,72879,2,0,P|317:105|285:112,1,60.0000022888184,0|8,3:3|1:3,0:0:0:0:
405,202,73222,6,0,L|396:275,1,71.9999978027344,2|8,3:2|3:3,0:0:0:0:
211,122,73565,2,0,L|220:195,1,71.9999978027344,0|8,3:3|3:3,0:0:0:0:
21,253,73908,1,10,3:3:0:0:
56,249,73993,1,8,3:3:0:0:
91,257,74079,1,8,3:3:0:0:
121,276,74165,1,8,3:3:0:0:
144,304,74251,2,0,P|142:344|141:377,1,71.9999978027344,10|8,1:3|1:3,0:0:0:0:
359,113,74594,6,0,B|265:116|278:162|196:172,1,176.000005371094,0|10,3:3|1:3,0:0:0:0:
373,355,75279,2,0,P|438:372|514:297,1,176.000005371094,0|10,3:3|1:3,0:0:0:0:
304,64,75965,5,10,1:3:0:0:
273,68,76050,1,10,1:3:0:0:
243,73,76136,1,10,1:3:0:0:
212,77,76222,1,10,1:3:0:0:
188,105,76308,1,10,1:3:0:0:
144,100,76393,1,10,1:3:0:0:
100,95,76479,1,10,1:3:0:0:
56,91,76565,1,10,1:3:0:0:
9,81,76651,2,0,P|6:131|9:263,1,176.000005371094,10|2,1:3|1:2,0:0:0:0:
71,311,77165,1,2,1:2:0:0:
172,175,77337,6,0,P|228:232|312:204,1,160,6|10,3:2|1:3,0:0:0:0:
394,93,77851,1,2,1:2:0:0:
470,192,78022,2,0,P|474:237|478:277,1,80,2|2,3:2|1:2,0:0:0:0:
301,104,78365,2,0,P|304:64|308:24,1,80,10|2,1:3|1:2,0:0:0:0:
209,141,78708,5,2,3:2:0:0:
161,23,78879,1,2,1:2:0:0:
84,169,79051,1,10,1:3:0:0:
236,8,79222,1,2,1:2:0:0:
340,201,79394,2,0,P|340:238|337:285,1,80,2|2,3:2|1:2,0:0:0:0:
177,362,79737,2,0,P|177:322|179:282,1,80,10|2,1:3|1:2,0:0:0:0:
308,106,80079,6,0,P|354:155|445:140,1,160,2|10,3:2|1:3,0:0:0:0:
265,26,80594,1,2,1:2:0:0:
204,101,80765,2,0,P|213:152|221:189,1,80,2|2,3:2|1:2,0:0:0:0:
298,310,81108,2,0,P|307:259|315:222,1,80,10|2,1:3|1:2,0:0:0:0:
104,140,81451,1,2,3:2:0:0:
10,271,81622,5,10,1:3:0:0:
43,251,81707,1,10,1:3:0:0:
83,247,81793,1,10,1:3:0:0:
119,262,81879,1,2,1:2:0:0:
145,292,81964,1,2,3:2:0:0:
157,331,82051,1,2,1:2:0:0:
141,374,82137,2,0,L|13:361,1,120.000004577637,10|14,1:3|1:2,0:0:0:0:
286,132,82822,6,0,B|268:206|305:203|286:291,1,151.999995941162,6|8,3:2|1:3,0:0:0:0:
344,347,83337,1,2,3:2:0:0:
344,347,83422,1,0,0:0:0:0:
344,347,83508,2,0,P|387:339|423:332,1,75.9999979705811,2|2,3:2|3:2,0:0:0:0:
512,223,83851,1,10,1:3:0:0:
450,179,84022,2,0,L|364:170,1,75.9999979705811,2|0,3:2|0:0,0:0:0:0:
204,26,84365,5,2,3:2:0:0:
204,26,84451,1,0,0:0:0:0:
204,26,84537,1,10,1:3:0:0:
108,194,84708,1,2,3:2:0:0:
20,21,84879,2,0,P|22:60|20:103,1,75.9999979705811,2|2,3:2|3:2,0:0:0:0:
109,279,85222,1,8,1:3:0:0:
109,279,85308,1,8,1:3:0:0:
109,279,85394,1,8,1:3:0:0:
207,112,85565,5,6,3:2:0:0:
325,263,85736,1,2,1:2:0:0:
449,52,85907,2,0,P|407:39|370:20,1,75.9999979705811,10|2,1:3|1:2,0:0:0:0:
198,230,86251,1,2,3:2:0:0:
316,79,86422,1,2,1:2:0:0:
440,290,86593,2,0,P|398:303|361:322,1,75.9999979705811,10|2,1:3|1:2,0:0:0:0:
316,79,86937,6,0,P|389:62|468:125,2,151.999995941162,2|10|10,3:2|1:3|1:3,0:0:0:0:
295,109,87708,1,8,1:3:0:0:
295,109,87794,2,0,L|306:156,1,37.9999989852906,10|0,1:3|0:0,0:0:0:0:
183,252,87965,1,10,1:3:0:0:
160,221,88050,1,8,1:3:0:0:
126,205,88136,1,10,1:3:0:0:
89,205,88222,1,8,1:3:0:0:
55,223,88308,6,0,L|85:385,1,160,6|10,3:2|1:3,0:0:0:0:
218,226,88822,1,2,1:2:0:0:
218,226,88994,2,0,L|202:307,1,80,0|2,3:3|1:2,0:0:0:0:
350,376,89337,2,0,P|306:355|267:366,1,80,10|2,1:3|1:2,0:0:0:0:
397,182,89679,1,2,3:2:0:0:
479,364,89851,1,2,1:2:0:0:
508,135,90022,1,10,1:3:0:0:
394,297,90194,1,2,1:2:0:0:
299,123,90365,6,0,P|250:113|212:126,1,80,2|2,3:2|1:2,0:0:0:0:
221,241,90708,2,0,P|259:248|298:238,1,80,10|2,1:3|1:2,0:0:0:0:
99,103,91051,2,0,B|80:185|113:185|98:267,1,160,2|10,3:2|1:3,0:0:0:0:
237,348,91565,1,2,1:2:0:0:
237,348,91737,2,0,P|194:324|152:332,1,80,2|2,3:2|1:2,0:0:0:0:
309,193,92079,2,0,L|319:282,1,80,10|2,1:3|1:2,0:0:0:0:
167,140,92422,1,2,3:2:0:0:
304,15,92594,5,10,1:3:0:0:
323,44,92679,1,10,1:3:0:0:
350,67,92765,1,10,1:3:0:0:
384,79,92851,1,0,0:0:0:0:
420,80,92936,1,2,3:2:0:0:
455,70,93022,1,0,0:0:0:0:
484,49,93108,2,0,L|499:209,1,160,10|14,1:3|1:2,0:0:0:0:
344,326,93794,6,0,B|261:319|282:364|187:359,1,151.999995941162,6|8,3:2|1:3,0:0:0:0:
142,287,94308,1,2,3:2:0:0:
142,287,94479,2,0,P|182:267|218:277,1,75.9999979705811,2|0,3:2|3:3,0:0:0:0:
59,147,94822,2,0,L|46:236,1,75.9999979705811,10|2,1:3|3:2,0:0:0:0:
164,66,95165,5,2,1:2:0:0:
253,216,95337,1,2,3:2:0:0:
253,216,95422,1,2,1:2:0:0:
253,216,95508,2,0,P|300:211|340:205,1,75.9999979705811,10|2,1:3|3:2,0:0:0:0:
449,96,95851,2,0,P|402:91|362:85,1,75.9999979705811,2|2,3:2|3:2,0:0:0:0:
448,288,96194,1,10,1:3:0:0:
448,288,96279,1,8,1:3:0:0:
448,288,96365,1,10,1:3:0:0:
266,26,96537,6,0,B|167:16|176:77|67:71,1,207.999990478516,6|10,3:2|1:3,0:0:0:0:
279,364,97222,2,0,P|382:361|448:283,1,207.999990478516,4|10,3:2|1:3,0:0:0:0:
255,190,98765,5,6,3:2:0:0:
255,190,98937,1,10,1:3:0:0:
158,120,99279,6,0,P|157:171|160:206,1,80,6|2,3:2|1:2,0:0:0:0:
248,298,99622,1,10,3:3:0:0:
385,120,99794,2,0,P|307:121|250:68,1,160,2|2,1:2|1:2,0:0:0:0:
464,20,100308,1,10,3:3:0:0:
469,49,100393,1,2,1:2:0:0:
475,78,100479,1,2,1:2:0:0:
482,108,100565,1,2,1:2:0:0:
488,137,100651,5,2,3:2:0:0:
426,253,100822,1,2,1:2:0:0:
426,253,100908,1,2,1:2:0:0:
426,253,100994,1,10,3:3:0:0:
274,163,101165,1,2,1:2:0:0:
274,163,101251,1,2,1:2:0:0:
374,24,101422,1,2,1:2:0:0:
374,24,101508,1,2,1:2:0:0:
303,65,101679,2,0,P|259:75|220:69,1,80,10|2,3:3|1:2,0:0:0:0:
11,50,102022,6,0,L|24:128,1,80,2|2,3:2|1:2,0:0:0:0:
118,3,102365,1,10,3:3:0:0:
255,178,102537,2,0,B|167:176|197:226|102:234,1,160,2|2,1:2|1:2,0:0:0:0:
230,349,103051,1,10,3:3:0:0:
263,345,103136,1,2,1:2:0:0:
297,351,103222,1,2,1:2:0:0:
328,364,103308,1,2,1:2:0:0:
356,384,103393,5,2,3:2:0:0:
449,325,103565,1,2,1:2:0:0:
449,325,103651,1,2,1:2:0:0:
449,325,103737,1,10,3:3:0:0:
362,196,103908,1,2,1:2:0:0:
362,196,103994,1,2,1:2:0:0:
444,37,104165,1,2,1:2:0:0:
444,37,104251,1,2,1:2:0:0:
511,179,104422,2,0,L|505:259,1,80,10|2,3:3|1:2,0:0:0:0:
336,102,104765,6,0,L|330:22,1,80,6|2,3:2|1:2,0:0:0:0:
250,164,105108,1,8,3:3:0:0:
167,106,105279,2,0,P|103:141|13:116,1,160,2|2,1:2|1:2,0:0:0:0:
243,16,105794,1,10,3:3:0:0:
263,46,105879,1,2,1:2:0:0:
295,64,105965,1,2,1:2:0:0:
331,64,106051,1,2,1:2:0:0:
364,48,106137,5,2,3:2:0:0:
449,141,106308,1,2,1:2:0:0:
449,141,106394,1,2,1:2:0:0:
449,141,106479,1,10,3:3:0:0:
309,261,106651,1,2,1:2:0:0:
309,261,106737,1,2,1:2:0:0:
213,135,106908,1,2,1:2:0:0:
213,135,106994,1,2,1:2:0:0:
87,263,107165,2,0,P|128:252|165:260,1,80,10|2,3:3|1:2,0:0:0:0:
363,356,107508,6,0,P|324:363|285:352,1,80,2|2,3:2|1:2,0:0:0:0:
405,201,107851,1,10,3:3:0:0:
492,364,108022,2,0,L|511:201,1,160,2|2,1:2|1:2,0:0:0:0:
388,60,108537,1,10,3:3:0:0:
352,73,108622,1,2,1:2:0:0:
325,98,108708,1,2,1:2:0:0:
300,126,108794,1,2,1:2:0:0:
268,145,108879,6,0,L|208:137,1,40,2|2,3:2|3:2,0:0:0:0:
40,20,109051,2,0,L|100:12,1,40,2|2,3:2|3:2,0:0:0:0:
26,186,109222,6,0,L|16:227,1,40,2|2,3:2|3:2,0:0:0:0:
211,63,109394,1,2,3:2:0:0:
200,34,109479,1,2,3:2:0:0:
193,7,109565,1,2,3:2:0:0:
38,102,109737,1,10,3:3:0:0:
176,223,109908,2,0,P|228:232|261:237,1,80,10|2,3:3|1:2,0:0:0:0:
372,48,110251,6,0,P|363:88|371:126,1,80,6|2,3:2|1:2,0:0:0:0:
263,262,110594,1,8,3:3:0:0:
156,71,110765,2,0,B|244:88|214:124|301:153,1,160,2|2,1:2|1:2,0:0:0:0:
58,244,111279,1,10,3:3:0:0:
52,207,111364,1,2,1:2:0:0:
46,170,111450,1,2,1:2:0:0:
40,133,111536,1,2,1:2:0:0:
34,96,111621,5,2,3:2:0:0:
140,41,111794,1,2,1:2:0:0:
140,41,111879,1,2,1:2:0:0:
140,41,111965,1,10,3:3:0:0:
314,76,112137,1,2,1:2:0:0:
314,76,112222,1,2,1:2:0:0:
466,14,112394,1,2,1:2:0:0:
466,14,112479,1,2,1:2:0:0:
434,188,112651,2,0,P|432:235|436:273,1,80,10|2,3:3|1:2,0:0:0:0:
289,62,112994,6,0,P|291:108|287:147,1,80,2|2,3:2|1:2,0:0:0:0:
199,251,113336,1,10,3:3:0:0:
50,75,113508,2,0,P|102:32|190:42,1,160,2|2,1:2|1:2,0:0:0:0:
262,139,114022,1,10,3:3:0:0:
257,175,114107,1,2,1:2:0:0:
252,211,114193,1,2,1:2:0:0:
246,247,114279,1,2,1:2:0:0:
241,283,114364,5,2,3:2:0:0:
106,357,114536,1,2,1:2:0:0:
106,357,114622,1,2,1:2:0:0:
106,357,114708,1,10,3:3:0:0:
28,172,114879,1,2,1:2:0:0:
28,172,114965,1,2,1:2:0:0:
216,104,115136,1,2,1:2:0:0:
216,104,115222,1,2,1:2:0:0:
98,38,115394,2,0,P|48:28|11:20,1,80,10|2,3:3|1:2,0:0:0:0:
176,206,115737,6,0,P|226:196|263:188,1,80,6|2,3:2|1:2,0:0:0:0:
350,89,116079,1,8,3:3:0:0:
465,236,116251,2,0,P|445:178|488:87,1,160,2|2,1:2|1:2,0:0:0:0:
393,339,116765,1,10,3:3:0:0:
361,350,116850,1,2,1:2:0:0:
328,352,116936,1,2,1:2:0:0:
296,345,117022,1,2,1:2:0:0:
267,328,117108,5,10,3:3:0:0:
336,258,117279,1,10,1:3:0:0:
336,258,117365,1,10,1:3:0:0:
336,258,117451,1,10,3:3:0:0:
218,105,117622,1,10,1:3:0:0:
218,105,117708,1,10,1:3:0:0:
388,13,117879,1,10,1:3:0:0:
388,13,117965,1,10,1:3:0:0:
509,170,118137,2,0,L|500:252,1,80,10|10,3:3|1:3,0:0:0:0:
183,80,118479,5,10,3:3:0:0:
143,64,118565,1,10,1:3:0:0:
367,181,118736,5,10,3:3:0:0:
410,163,118822,1,10,1:3:0:0:
123,284,118994,5,10,3:3:0:0:
79,267,119080,1,10,1:3:0:0:
327,352,119251,5,10,3:3:0:0:
367,335,119337,1,10,1:3:0:0:
256,147,119508,2,0,L|241:234,1,80,10|10,1:3|1:3,0:0:0:0:
17,112,119851,5,10,1:3:0:0:
216,34,120022,1,10,1:3:0:0:
167,247,120194,1,10,1:3:0:0:
54,21,120365,1,10,1:3:0:0:
111,80,120451,2,0,B|184:94|187:129|255:146,1,160,10|0,1:3|0:0,0:0:0:0:
335,78,120879,5,6,1:2:0:0:
256,192,121051,12,0,126708,0:0:0:0:
