osu file format v14

[General]
AudioFilename: Cirno no Perfect Sansuu Kyoushitsu sawawa Shissou Remix.mp3
AudioLeadIn: 0
PreviewTime: 220573
Countdown: 0
SampleSet: Soft
StackLeniency: 0.7
Mode: 3
LetterboxInBreaks: 0
SpecialStyle: 0
WidescreenStoryboard: 0

[Editor]
Bookmarks: 1428,11223,21019,30815,40611,50407,60203,69999,79795,89591,99387,109183,118979,128774,138570,148366,158162,167958,177754,187550,192448,202244
DistanceSpacing: 1.5
BeatDivisor: 4
GridSize: 32
TimelineZoom: 1.8

[Metadata]
Title:Cirno no Perfect Sansuu Kyoushitsu (sawawa Shissou Remix)
TitleUnicode:チルノのパーフェクトさんすう教室 (さわわ疾走 Remix)
Artist:IOSYS
ArtistUnicode:IOSYS
Creator:FAMoss
Version:Hard
Source:東方紅魔郷 ~ the Embodiment of Scarlet Devil.
Tags:ZUN 東方Project touhou koumakyou 東方氷雪歌集 ARM hito miko quim Team Shanghai Alice おてんば恋娘 Otenba Koimusume みんなのパーフェクトチルパ天国 everyone's perfect heaven math class sprinting person cover album 夕野ヨシミ th06 Beloved Tomboyish Daughter Girl in Love Stage 2 Theme Arno @お仕事募 ちよこ Chiyoko tuhu EoSD track 7 piano vocal japanese electronic instrumental marathon IO-0326
BeatmapID:2274499
BeatmapSetID:1087685

[Difficulty]
HPDrainRate:8
CircleSize:4
OverallDifficulty:8
ApproachRate:5
SliderMultiplier:1.4
SliderTickRate:1

[Events]
//Background and Video events
0,0,"BG (74025591).jpg",0,0
//Break Periods
//Storyboard Layer 0 (Background)
//Storyboard Layer 1 (Fail)
//Storyboard Layer 2 (Pass)
//Storyboard Layer 3 (Foreground)
//Storyboard Layer 4 (Overlay)
//Storyboard Sound Samples
Sample,11223,0,"push_scratch.wav",70
Sample,21019,0,"push_scratch.wav",70
Sample,30815,0,"push_scratch.wav",70
Sample,36708,0,"S2.wav",50
Sample,36861,0,"S2.wav",50
Sample,40611,0,"push_scratch.wav",70
Sample,50407,0,"push_scratch.wav",70
Sample,57831,0,"S2.wav",50
Sample,60203,0,"push_scratch.wav",70
Sample,69999,0,"push_scratch.wav",70
Sample,71530,0,"F7S_s.wav",100
Sample,79795,0,"push_scratch.wav",70
Sample,81325,0,"F7S_s.wav",100
Sample,89591,0,"push_scratch.wav",70
Sample,99387,0,"push_scratch.wav",70
Sample,109183,0,"push_scratch.wav",70
Sample,118979,0,"push_scratch.wav",70
Sample,126402,0,"S2.wav",50
Sample,126555,0,"S2.wav",50
Sample,127167,0,"S2.wav",50
Sample,127320,0,"S2.wav",50
Sample,127473,0,"S2.wav",50
Sample,128774,0,"push_scratch.wav",70
Sample,138570,0,"push_scratch.wav",70
Sample,140101,0,"F7S_s.wav",100
Sample,148366,0,"push_scratch.wav",70
Sample,149897,0,"F7S_s.wav",100
Sample,167958,0,"push_scratch.wav",70
Sample,177754,0,"push_scratch.wav",70
Sample,186402,0,"S2.wav",60
Sample,187550,0,"push_scratch.wav",70
Sample,192448,0,"push_scratch.wav",70
Sample,202244,0,"push_scratch.wav",70
Sample,203774,0,"F7S_s.wav",100
Sample,212040,0,"push_scratch.wav",70
Sample,213570,0,"F7S_s.wav",100
Sample,221836,0,"push_scratch.wav",70
Sample,231632,0,"push_scratch.wav",70

[TimingPoints]
1428,306.122448979592,4,2,1,70,1,0
21019,-100,4,2,1,70,0,1
29591,-100,4,2,1,70,0,0
30815,-100,4,2,1,70,0,1
40611,-100,4,2,1,70,0,0
69999,-100,4,2,1,70,0,1
78570,-100,4,2,1,70,0,0
79795,-100,4,2,1,70,0,1
87142,-100,4,2,1,70,0,0
89591,-100,4,2,1,70,0,1
98162,-100,4,2,1,70,0,0
99387,-100,4,2,1,70,0,1
109183,-100,4,2,1,70,0,0
138570,-100,4,2,1,70,0,1
147142,-100,4,2,1,70,0,0
148366,-100,4,2,1,70,0,1
155713,-100,4,2,1,70,0,0
202244,-100,4,2,1,70,0,1
210815,-100,4,2,1,70,0,0
212040,-100,4,2,1,70,0,1
219387,-100,4,2,1,70,0,0
221836,-100,4,2,1,70,0,1
230407,-100,4,2,1,70,0,0
231632,-100,4,2,1,70,0,1
241428,-100,4,2,1,70,0,0

[HitObjects]
64,192,1428,5,2,0:0:0:0:
448,192,1428,1,4,0:0:0:0:
448,192,1581,1,0,0:0:0:70:LR_Snare Drum.wav
192,192,1734,1,0,0:0:0:70:LR_Snare Drum 3.wav
320,192,1887,1,0,0:0:0:70:LR_Snare Drum 2.wav
64,192,1963,1,0,0:0:0:70:LR_Snare Drum 3.wav
192,192,2193,1,0,0:0:0:70:LR_Snare Drum.wav
192,192,2346,1,0,0:0:0:70:LR_Snare Drum 3.wav
320,192,2499,1,0,0:0:0:70:LR_Snare Drum 3.wav
64,192,2652,1,0,0:0:0:70:LR_Snare Drum.wav
64,192,2805,1,0,0:0:0:70:LR_Snare Drum.wav
320,192,2958,1,0,0:0:0:70:LR_Snare Drum 3.wav
192,192,3111,1,0,0:0:0:70:LR_Snare Drum 2.wav
448,192,3188,1,0,0:0:0:70:LR_Snare Drum 3.wav
64,192,3264,1,0,0:0:0:70:LR_Snare Drum.wav
320,192,3417,1,0,0:0:0:70:LR_Snare Drum 3.wav
320,192,3570,1,0,0:0:0:70:LR_Snare Drum.wav
64,192,3723,1,0,0:0:0:70:LR_Snare Drum 2.wav
192,192,3800,1,0,0:0:0:70:LR_Snare Drum 2.wav
448,192,3876,1,0,0:0:0:70:LR_Snare Drum.wav
448,192,4030,1,0,0:0:0:70:LR_Snare Drum.wav
192,192,4183,1,0,0:0:0:70:LR_Snare Drum 3.wav
192,192,4336,1,0,0:0:0:70:LR_Snare Drum 2.wav
320,192,4489,1,0,0:0:0:70:LR_Snare Drum 2.wav
320,192,4642,1,0,0:0:0:70:LR_Snare Drum.wav
64,192,4795,1,0,0:0:0:70:LR_Snare Drum 3.wav
64,192,4948,1,0,0:0:0:70:LR_Snare Drum 2.wav
448,192,5101,1,0,0:0:0:70:LR_Snare Drum.wav
448,192,5254,1,0,0:0:0:70:LR_Snare Drum.wav
64,192,5407,1,0,0:0:0:70:LR_Snare Drum 3.wav
64,192,5560,1,0,0:0:0:70:LR_Snare Drum.wav
192,192,5637,1,0,0:0:0:70:LR_Snare Drum 3.wav
448,192,5713,1,0,0:0:0:70:LR_Snare Drum 2.wav
320,192,5866,1,0,0:0:0:70:LR_Snare Drum.wav
320,192,6019,1,0,0:0:0:70:LR_Snare Drum.wav
192,192,6172,1,0,0:0:0:70:LR_Snare Drum 2.wav
64,192,6325,1,0,0:0:0:70:LR_Snare Drum.wav
448,192,6325,1,0,0:0:0:0:
448,192,6479,1,0,0:0:0:70:LR_Snare Drum.wav
192,192,6632,1,0,0:0:0:70:LR_Snare Drum 3.wav
320,192,6785,1,0,0:0:0:70:LR_Snare Drum 2.wav
64,192,6861,1,0,0:0:0:70:LR_Snare Drum 3.wav
192,192,7091,1,0,0:0:0:70:LR_Snare Drum.wav
192,192,7244,1,0,0:0:0:70:LR_Snare Drum 3.wav
320,192,7397,1,0,0:0:0:70:LR_Snare Drum 2.wav
64,192,7550,1,0,0:0:0:70:LR_Snare Drum.wav
64,192,7703,1,0,0:0:0:70:LR_Snare Drum.wav
320,192,7856,1,0,0:0:0:70:LR_Snare Drum 3.wav
320,192,8009,1,0,0:0:0:70:LR_Snare Drum 2.wav
192,192,8162,1,0,0:0:0:70:LR_Snare Drum.wav
64,192,8239,1,0,0:0:0:0:
448,192,8315,1,0,0:0:0:70:LR_Snare Drum 3.wav
448,192,8468,1,0,0:0:0:70:LR_Snare Drum 2.wav
192,192,8621,1,0,0:0:0:70:LR_Snare Drum 2.wav
320,192,8698,1,0,0:0:0:70:LR_Snare Drum 2.wav
64,192,8774,1,0,0:0:0:70:LR_Snare Drum.wav
64,192,8928,1,0,0:0:0:70:LR_Snare Drum.wav
448,192,9081,1,0,0:0:0:70:LR_Snare Drum 3.wav
448,192,9234,1,0,0:0:0:70:LR_Snare Drum.wav
192,192,9387,1,0,0:0:0:70:LR_Snare Drum.wav
192,192,9540,1,0,0:0:0:70:LR_Snare Drum.wav
320,192,9693,1,0,0:0:0:70:LR_Snare Drum 3.wav
320,192,9846,1,0,0:0:0:70:LR_Snare Drum.wav
64,192,9999,1,0,0:0:0:70:LR_Snare Drum.wav
64,192,10152,1,0,0:0:0:70:LR_Snare Drum 3.wav
448,192,10305,1,0,0:0:0:70:LR_Snare Drum.wav
448,192,10458,1,0,0:0:0:70:LR_Snare Drum 3.wav
448,192,10764,128,0,10917:0:0:0:100:D6S_s.wav
192,192,10917,128,0,11070:0:0:0:100:E6S_s.wav
320,192,11070,128,0,11223:0:0:0:100:F6S_s.wav
64,192,11223,128,6,11683:0:0:0:0:
192,192,11223,1,0,0:0:0:100:A6S_s.wav
448,192,11223,1,0,0:0:0:0:
448,192,11683,1,0,0:0:0:100:A6S_s.wav
192,192,11836,1,0,0:0:0:100:F6S_s.wav
320,192,11989,1,0,0:0:0:100:A6S_s.wav
64,192,12142,1,0,0:0:0:100:F6S_s.wav
192,192,12295,1,0,0:0:0:100:E6S_s.wav
448,192,12448,1,0,0:0:0:100:D6S_s.wav
320,192,12601,1,0,0:0:0:100:D7S_s.wav
320,192,12754,1,0,0:0:0:100:F7S_s.wav
64,192,12907,1,0,0:0:0:100:A7S_s.wav
64,192,13060,1,0,0:0:0:100:D8S_s.wav
448,192,13213,1,0,0:0:0:100:D6S_s.wav
320,192,13366,1,0,0:0:0:100:F6S_s.wav
192,192,13519,1,0,0:0:0:100:A6S_s.wav
448,192,13672,128,0,14132:0:0:0:100:D7S_s.wav
64,192,14132,1,0,0:0:0:100:D7S_s.wav
320,192,14285,1,0,0:0:0:100:C7S_s.wav
64,192,14438,1,0,0:0:0:100:D7S_s.wav
192,192,14591,1,0,0:0:0:100:C7S_s.wav
448,192,14744,1,0,0:0:0:100:G6S_s.wav
320,192,14897,1,0,0:0:0:100:A6S.wav
64,192,15050,1,0,0:0:0:100:A#6S_Bb6S_s.wav
192,192,15126,1,0,0:0:0:100:A6S_s.wav
320,192,15203,1,0,0:0:0:100:A#6S_Bb6S_s.wav
448,192,15356,1,0,0:0:0:100:A#6S_Bb6S_s.wav
320,192,15433,1,0,0:0:0:0:
192,192,15509,1,0,0:0:0:100:A6S_s.wav
320,192,15815,128,0,16121:0:0:0:100:E6S_s.wav
64,192,16121,1,2,0:0:0:0:
192,192,16121,1,4,0:0:0:0:
448,192,16121,1,0,0:0:0:0:
192,192,16274,1,0,0:0:0:50:S1.wav
448,192,16351,1,0,0:0:0:50:S1.wav
320,192,16428,1,0,0:0:0:50:S1.wav
64,192,16504,1,0,0:0:0:50:S1.wav
192,192,16581,1,0,0:0:0:50:S1.wav
320,192,16657,1,0,0:0:0:50:S1.wav
64,192,16734,1,4,0:0:0:0:
448,192,16734,1,2,0:0:0:0:
448,192,16887,1,0,0:0:0:50:S1.wav
320,192,16963,1,0,0:0:0:50:S1.wav
192,192,17040,1,0,0:0:0:50:S1.wav
64,192,17116,1,0,0:0:0:50:S1.wav
320,192,17193,1,0,0:0:0:50:S1.wav
192,192,17269,1,0,0:0:0:50:S1.wav
64,192,17346,1,2,0:0:0:0:
448,192,17346,1,4,0:0:0:0:
64,192,17499,1,0,0:0:0:50:S1.wav
192,192,17575,1,0,0:0:0:50:S1.wav
320,192,17652,1,0,0:0:0:50:S1.wav
448,192,17729,1,0,0:0:0:50:S1.wav
192,192,17805,1,0,0:0:0:50:S1.wav
320,192,17882,1,0,0:0:0:50:S1.wav
64,192,17958,1,4,0:0:0:0:
448,192,17958,1,2,0:0:0:0:
192,192,18035,1,0,0:0:0:60:S1.wav
448,192,18111,1,0,0:0:0:60:S1.wav
320,192,18188,1,0,0:0:0:60:S1.wav
192,192,18264,1,0,0:0:0:70:S1.wav
64,192,18341,1,0,0:0:0:70:S1.wav
320,192,18417,1,0,0:0:0:70:S1.wav
192,192,18494,1,0,0:0:0:70:S1.wav
64,192,18570,128,0,18876:0:0:0:0:
320,192,18876,1,4,0:0:0:0:
448,192,18876,1,2,0:0:0:0:
448,192,19183,128,0,19489:0:0:0:0:
64,192,19489,1,2,0:0:0:0:
192,192,19489,1,4,0:0:0:0:
320,192,19795,1,0,0:0:0:0:
64,192,19948,1,0,0:0:0:0:
192,192,20024,1,0,0:0:0:0:
320,192,20101,1,0,0:0:0:0:
448,192,20254,1,0,0:0:0:0:
192,192,20407,1,0,0:0:0:0:
320,192,20560,1,0,0:0:0:0:
320,192,20713,128,0,21019:0:0:0:0:
64,192,21019,1,2,0:0:0:0:
192,192,21019,1,4,0:0:0:0:
448,192,21019,1,0,0:0:0:0:
320,192,21172,1,0,0:0:0:0:
64,192,21325,1,8,0:0:0:0:
448,192,21325,1,0,0:0:0:0:
64,192,21479,1,0,0:0:0:0:
320,192,21632,1,2,0:0:0:0:
448,192,21632,1,0,0:0:0:0:
192,192,21785,1,0,0:0:0:0:
64,192,21938,128,8,22244:0:0:0:0:
448,192,21938,1,0,0:0:0:0:
320,192,22091,1,0,0:0:0:0:
320,192,22244,1,2,0:0:0:0:
448,192,22244,1,0,0:0:0:0:
192,192,22397,1,0,0:0:0:0:
64,192,22550,1,8,0:0:0:0:
448,192,22550,1,0,0:0:0:0:
448,192,22703,1,0,0:0:0:0:
64,192,22856,1,2,0:0:0:0:
192,192,22856,1,0,0:0:0:0:
320,192,23009,1,0,0:0:0:0:
64,192,23162,1,8,0:0:0:0:
448,192,23162,1,0,0:0:0:0:
448,192,23315,1,0,0:0:0:0:
64,192,23468,1,2,0:0:0:0:
192,192,23468,1,0,0:0:0:0:
320,192,23621,1,0,0:0:0:0:
64,192,23774,1,8,0:0:0:0:
448,192,23774,1,0,0:0:0:0:
64,192,23928,1,0,0:0:0:0:
320,192,24081,1,2,0:0:0:0:
448,192,24081,1,0,0:0:0:0:
192,192,24234,1,0,0:0:0:0:
64,192,24387,128,8,24693:0:0:0:0:
448,192,24387,1,0,0:0:0:0:
320,192,24540,1,0,0:0:0:0:
320,192,24693,1,2,0:0:0:0:
448,192,24693,1,0,0:0:0:0:
192,192,24846,1,0,0:0:0:0:
64,192,24999,1,8,0:0:0:0:
448,192,24999,1,0,0:0:0:0:
448,192,25152,1,0,0:0:0:0:
64,192,25305,1,2,0:0:0:0:
192,192,25305,1,0,0:0:0:0:
192,192,25458,1,0,0:0:0:0:
320,192,25611,1,8,0:0:0:0:
448,192,25611,1,0,0:0:0:0:
192,192,25764,1,0,0:0:0:0:
320,192,25917,1,2,0:0:0:0:
448,192,25917,1,0,0:0:0:0:
192,192,26070,1,0,0:0:0:0:
64,192,26223,1,8,0:0:0:0:
448,192,26223,1,0,0:0:0:0:
448,192,26376,1,0,0:0:0:0:
64,192,26530,1,2,0:0:0:0:
192,192,26530,1,0,0:0:0:0:
320,192,26683,1,0,0:0:0:0:
64,192,26836,1,8,0:0:0:0:
448,192,26836,128,0,27142:0:0:0:0:
192,192,26989,1,0,0:0:0:0:
64,192,27142,1,2,0:0:0:0:
192,192,27142,1,0,0:0:0:0:
320,192,27295,1,0,0:0:0:0:
64,192,27448,1,8,0:0:0:0:
448,192,27448,1,0,0:0:0:0:
64,192,27601,1,0,0:0:0:0:
320,192,27754,1,2,0:0:0:0:
448,192,27754,1,0,0:0:0:0:
192,192,27907,1,0,0:0:0:0:
64,192,28060,1,8,0:0:0:0:
448,192,28060,1,0,0:0:0:0:
64,192,28213,1,0,0:0:0:0:
320,192,28366,1,2,0:0:0:0:
448,192,28366,1,0,0:0:0:0:
192,192,28519,1,0,0:0:0:0:
64,192,28672,1,8,0:0:0:0:
448,192,28672,1,0,0:0:0:0:
448,192,28825,1,0,0:0:0:0:
64,192,28979,1,2,0:0:0:0:
192,192,28979,1,0,0:0:0:0:
320,192,29132,1,0,0:0:0:0:
64,192,29285,1,8,0:0:0:0:
448,192,29285,128,0,29591:0:0:0:0:
192,192,29438,1,0,0:0:0:0:
64,192,29591,1,0,0:0:0:50:K.wav
192,192,29591,1,0,0:0:0:0:
320,192,29667,1,0,0:0:0:50:K.wav
64,192,29744,1,0,0:0:0:50:K.wav
320,192,29820,1,0,0:0:0:50:K.wav
64,192,29897,1,0,0:0:0:50:K.wav
448,192,29973,1,0,0:0:0:50:K.wav
192,192,30050,1,0,0:0:0:50:K.wav
320,192,30126,1,0,0:0:0:50:K.wav
64,192,30203,1,0,0:0:0:70:tom01.wav
448,192,30203,1,0,0:0:0:0:
64,192,30356,1,0,0:0:0:70:tom02.wav
320,192,30509,1,0,0:0:0:70:tom03.wav
320,192,30662,1,0,0:0:0:70:tom04.wav
64,192,30815,1,4,0:0:0:0:
192,192,30815,1,2,0:0:0:0:
448,192,30815,1,0,0:0:0:0:
320,192,30968,1,0,0:0:0:0:
64,192,31121,1,8,0:0:0:0:
448,192,31121,1,0,0:0:0:0:
64,192,31274,1,0,0:0:0:0:
320,192,31428,1,2,0:0:0:0:
448,192,31428,1,0,0:0:0:0:
192,192,31581,1,0,0:0:0:0:
64,192,31734,128,8,32040:0:0:0:0:
448,192,31734,1,0,0:0:0:0:
320,192,31887,1,0,0:0:0:0:
320,192,32040,1,2,0:0:0:0:
448,192,32040,1,0,0:0:0:0:
192,192,32193,1,0,0:0:0:0:
64,192,32346,1,8,0:0:0:0:
448,192,32346,1,0,0:0:0:0:
448,192,32499,1,0,0:0:0:0:
64,192,32652,1,2,0:0:0:0:
192,192,32652,1,0,0:0:0:0:
320,192,32805,1,0,0:0:0:0:
64,192,32958,1,8,0:0:0:0:
448,192,32958,1,0,0:0:0:0:
448,192,33111,1,0,0:0:0:0:
64,192,33264,1,2,0:0:0:0:
192,192,33264,1,0,0:0:0:0:
320,192,33417,1,0,0:0:0:0:
64,192,33570,1,8,0:0:0:0:
448,192,33570,1,0,0:0:0:0:
64,192,33723,1,0,0:0:0:0:
320,192,33876,1,2,0:0:0:0:
448,192,33876,1,0,0:0:0:0:
192,192,34030,1,0,0:0:0:0:
64,192,34183,128,8,34489:0:0:0:0:
448,192,34183,1,0,0:0:0:0:
320,192,34336,1,0,0:0:0:0:
320,192,34489,1,2,0:0:0:0:
448,192,34489,1,0,0:0:0:0:
192,192,34642,1,0,0:0:0:0:
64,192,34795,1,8,0:0:0:0:
448,192,34795,1,0,0:0:0:0:
448,192,34948,1,0,0:0:0:0:
64,192,35101,1,2,0:0:0:0:
192,192,35101,1,0,0:0:0:0:
192,192,35254,1,0,0:0:0:0:
320,192,35407,1,8,0:0:0:0:
448,192,35407,1,0,0:0:0:0:
192,192,35560,1,0,0:0:0:0:
320,192,35713,1,2,0:0:0:0:
448,192,35713,1,0,0:0:0:0:
64,192,35790,1,0,0:0:0:50:S2.wav
192,192,35866,1,0,0:0:0:50:S2.wav
320,192,35943,1,0,0:0:0:50:S2.wav
64,192,36019,1,8,0:0:0:0:
448,192,36019,1,0,0:0:0:0:
448,192,36172,1,0,0:0:0:0:
64,192,36325,1,2,0:0:0:0:
192,192,36325,1,0,0:0:0:0:
320,192,36479,1,0,0:0:0:0:
64,192,36632,1,8,0:0:0:0:
448,192,36632,128,0,36938:0:0:0:0:
192,192,36785,1,0,0:0:0:50:S2.wav
64,192,36938,1,2,0:0:0:0:
192,192,36938,1,0,0:0:0:0:
448,192,37014,1,0,0:0:0:50:S2.wav
320,192,37091,1,0,0:0:0:50:S2.wav
192,192,37167,1,0,0:0:0:50:S2.wav
64,192,37244,1,8,0:0:0:0:
448,192,37244,1,0,0:0:0:0:
320,192,37320,1,0,0:0:0:50:S2.wav
64,192,37397,1,0,0:0:0:50:S2.wav
192,192,37473,1,0,0:0:0:50:S2.wav
320,192,37550,1,2,0:0:0:0:
448,192,37550,1,0,0:0:0:0:
64,192,37626,1,0,0:0:0:50:S2.wav
192,192,37703,1,0,0:0:0:50:S2.wav
320,192,37780,1,0,0:0:0:50:S2.wav
64,192,37856,1,8,0:0:0:0:
448,192,37856,1,0,0:0:0:0:
192,192,37933,1,0,0:0:0:50:S2.wav
448,192,38009,1,0,0:0:0:50:S2.wav
320,192,38086,1,0,0:0:0:50:S2.wav
192,192,38162,1,2,0:0:0:0:
192,192,38239,1,2,0:0:0:0:
448,192,38392,1,8,0:0:0:0:
448,192,38468,1,8,0:0:0:0:
64,192,38621,1,2,0:0:0:0:
64,192,38698,1,2,0:0:0:0:
320,192,38851,1,8,0:0:0:0:
320,192,38928,1,8,0:0:0:0:
192,192,39081,1,2,0:0:0:0:
64,192,39081,1,0,0:0:0:0:
448,192,39234,1,8,0:0:0:0:
320,192,39234,1,0,0:0:0:0:
192,192,39387,1,2,0:0:0:0:
64,192,39387,1,0,0:0:0:0:
192,192,39540,1,2,0:0:0:0:
64,192,39540,1,0,0:0:0:0:
192,192,39693,1,2,0:0:0:0:
64,192,39693,1,0,0:0:0:0:
448,192,39846,1,8,0:0:0:0:
320,192,39846,1,0,0:0:0:0:
192,192,39922,1,2,0:0:0:0:
64,192,39922,1,0,0:0:0:0:
320,192,40305,1,0,0:0:0:50:strike.wav
64,192,40305,1,0,0:0:0:0:
448,192,40305,1,0,0:0:0:0:
64,192,40611,1,2,0:0:0:0:
320,192,40611,1,4,0:0:0:0:
448,192,40611,128,0,40917:0:0:0:0:
192,192,40764,1,0,0:0:0:0:
64,192,40917,128,8,41223:0:0:0:0:
320,192,40917,1,0,0:0:0:0:
192,192,41070,1,0,0:0:0:0:
320,192,41223,128,2,41530:0:0:0:0:
448,192,41223,1,0,0:0:0:0:
192,192,41376,1,0,0:0:0:0:
64,192,41530,1,8,0:0:0:0:
448,192,41530,1,0,0:0:0:0:
320,192,41683,1,0,0:0:0:0:
64,192,41836,128,2,42142:0:0:0:0:
192,192,41836,1,0,0:0:0:0:
320,192,41989,1,0,0:0:0:0:
192,192,42142,1,8,0:0:0:0:
448,192,42142,128,0,42448:0:0:0:0:
320,192,42295,1,0,0:0:0:0:
64,192,42448,1,2,0:0:0:0:
192,192,42448,128,0,42754:0:0:0:0:
320,192,42601,1,0,0:0:0:0:
64,192,42754,1,8,0:0:0:0:
448,192,42754,1,0,0:0:0:0:
192,192,42907,1,0,0:0:0:0:
320,192,43060,1,2,0:0:0:0:
448,192,43060,128,0,43366:0:0:0:0:
64,192,43213,1,0,0:0:0:0:
192,192,43366,128,8,43672:0:0:0:0:
320,192,43366,1,0,0:0:0:0:
448,192,43519,1,0,0:0:0:0:
64,192,43672,1,2,0:0:0:0:
320,192,43672,128,0,43979:0:0:0:0:
192,192,43825,1,0,0:0:0:0:
64,192,43979,1,8,0:0:0:0:
448,192,43979,1,0,0:0:0:0:
320,192,44132,1,0,0:0:0:0:
64,192,44285,128,2,44591:0:0:0:0:
448,192,44285,1,0,0:0:0:0:
192,192,44438,1,0,0:0:0:0:
320,192,44591,128,8,44897:0:0:0:0:
448,192,44591,1,0,0:0:0:0:
192,192,44744,1,0,0:0:0:0:
64,192,44897,128,2,45509:0:0:0:0:
448,192,44897,1,0,0:0:0:0:
448,192,45050,1,0,0:0:0:0:
192,192,45203,1,8,0:0:0:0:
192,192,45356,1,0,0:0:0:0:
320,192,45509,1,2,0:0:0:0:
448,192,45509,1,0,0:0:0:0:
192,192,45586,1,0,0:0:0:0:
448,192,45662,1,0,0:0:0:0:
320,192,45739,1,0,0:0:0:0:
64,192,45815,1,8,0:0:0:0:
192,192,45815,1,0,0:0:0:0:
320,192,45968,1,0,0:0:0:0:
64,192,46121,1,2,0:0:0:0:
448,192,46121,128,0,46428:0:0:0:0:
192,192,46274,1,0,0:0:0:0:
64,192,46428,1,8,0:0:0:0:
320,192,46428,1,0,0:0:0:0:
320,192,46581,1,0,0:0:0:0:
64,192,46734,1,2,0:0:0:0:
192,192,46734,1,0,0:0:0:0:
64,192,46887,1,0,0:0:0:0:
192,192,46963,1,0,0:0:0:0:
320,192,47040,1,8,0:0:0:0:
448,192,47040,1,0,0:0:0:0:
192,192,47193,1,0,0:0:0:0:
64,192,47346,128,2,47652:0:0:0:0:
448,192,47346,1,0,0:0:0:0:
320,192,47499,1,0,0:0:0:0:
192,192,47652,1,8,0:0:0:0:
448,192,47652,1,0,0:0:0:0:
192,192,47805,1,0,0:0:0:0:
64,192,47958,1,2,0:0:0:0:
448,192,47958,1,4,0:0:0:0:
320,192,48111,1,0,0:0:0:0:
64,192,48264,1,8,0:0:0:0:
192,192,48264,1,0,0:0:0:0:
320,192,48417,1,0,0:0:0:0:
64,192,48570,1,2,0:0:0:0:
448,192,48570,1,4,0:0:0:0:
192,192,48723,1,0,0:0:0:0:
320,192,48876,1,8,0:0:0:0:
448,192,48876,1,0,0:0:0:0:
192,192,49030,1,0,0:0:0:0:
64,192,49183,1,4,0:0:0:0:
448,192,49183,128,0,49795:0:0:0:50:K.wav
320,192,49336,1,0,0:0:0:50:K.wav
64,192,49489,1,0,0:0:0:50:K.wav
320,192,49642,1,0,0:0:0:50:K.wav
64,192,49795,1,0,0:0:0:50:K.wav
192,192,49871,1,0,0:0:0:50:K.wav
320,192,49948,1,0,0:0:0:50:K.wav
448,192,50024,1,0,0:0:0:0:
64,192,50101,1,0,0:0:0:50:K.wav
192,192,50178,1,0,0:0:0:0:
448,192,50254,1,0,0:0:0:50:K.wav
320,192,50331,1,0,0:0:0:0:
64,192,50407,128,4,50713:0:0:0:0:
192,192,50407,1,2,0:0:0:0:
448,192,50407,1,0,0:0:0:0:
320,192,50560,1,0,0:0:0:0:
192,192,50713,1,8,0:0:0:0:
448,192,50713,128,0,51019:0:0:0:0:
320,192,50866,1,0,0:0:0:0:
64,192,51019,1,2,0:0:0:0:
192,192,51019,128,0,51325:0:0:0:0:
320,192,51172,1,0,0:0:0:0:
64,192,51325,1,8,0:0:0:0:
448,192,51325,1,0,0:0:0:0:
192,192,51479,1,0,0:0:0:0:
320,192,51632,1,2,0:0:0:0:
448,192,51632,128,0,51938:0:0:0:0:
192,192,51785,1,0,0:0:0:0:
64,192,51938,128,8,52244:0:0:0:0:
320,192,51938,1,0,0:0:0:0:
192,192,52091,1,0,0:0:0:0:
320,192,52244,128,2,52550:0:0:0:0:
448,192,52244,1,0,0:0:0:0:
192,192,52397,1,0,0:0:0:0:
64,192,52550,1,8,0:0:0:0:
448,192,52550,1,0,0:0:0:0:
320,192,52703,1,0,0:0:0:0:
64,192,52856,128,2,53162:0:0:0:0:
192,192,52856,1,0,0:0:0:0:
448,192,53009,1,0,0:0:0:0:
192,192,53162,1,8,0:0:0:0:
320,192,53162,128,0,53468:0:0:0:0:
64,192,53315,1,0,0:0:0:0:
192,192,53468,128,2,53774:0:0:0:0:
448,192,53468,1,0,0:0:0:0:
320,192,53621,1,0,0:0:0:0:
64,192,53774,1,8,0:0:0:0:
448,192,53774,1,0,0:0:0:0:
192,192,53928,1,0,0:0:0:0:
64,192,54081,1,2,0:0:0:0:
448,192,54081,128,0,54387:0:0:0:0:
320,192,54234,1,0,0:0:0:0:
64,192,54387,1,8,0:0:0:0:
192,192,54387,128,0,54693:0:0:0:0:
320,192,54540,1,0,0:0:0:0:
64,192,54693,1,2,0:0:0:0:
448,192,54693,128,0,55305:0:0:0:0:
320,192,54846,1,0,0:0:0:0:
64,192,54999,1,8,0:0:0:0:
320,192,55152,1,0,0:0:0:0:
64,192,55305,1,2,0:0:0:0:
192,192,55305,1,4,0:0:0:0:
320,192,55382,1,0,0:0:0:0:
64,192,55458,1,0,0:0:0:0:
192,192,55535,1,0,0:0:0:0:
448,192,55611,1,0,0:0:0:0:
320,192,55688,1,0,0:0:0:0:
64,192,55764,1,0,0:0:0:0:
192,192,55841,1,0,0:0:0:0:
320,192,55917,1,4,0:0:0:0:
448,192,55917,1,2,0:0:0:0:
192,192,55994,1,0,0:0:0:0:
448,192,56070,1,0,0:0:0:0:
320,192,56147,1,0,0:0:0:0:
64,192,56223,1,0,0:0:0:0:
192,192,56300,1,0,0:0:0:0:
448,192,56376,1,0,0:0:0:0:
320,192,56453,1,0,0:0:0:0:
64,192,56530,1,2,0:0:0:0:
192,192,56530,1,4,0:0:0:0:
320,192,56606,1,0,0:0:0:0:
64,192,56683,1,0,0:0:0:0:
192,192,56759,1,0,0:0:0:0:
448,192,56836,1,0,0:0:0:0:
320,192,56912,1,0,0:0:0:0:
64,192,56989,1,0,0:0:0:0:
192,192,57065,1,0,0:0:0:0:
320,192,57142,1,4,0:0:0:0:
448,192,57142,1,2,0:0:0:0:
64,192,57218,1,0,0:0:0:0:
192,192,57295,1,8,0:0:0:0:
448,192,57295,1,4,0:0:0:0:
64,192,57448,1,4,0:0:0:0:
448,192,57448,1,2,0:0:0:0:
64,192,57754,1,2,0:0:0:0:
448,192,57754,128,4,58060:0:0:0:0:
192,192,57907,1,0,0:0:0:50:S2.wav
64,192,58060,1,0,0:0:0:70:LR_Snare Drum 3.wav
320,192,58060,1,0,0:0:0:0:
192,192,58213,1,0,0:0:0:0:
64,192,58366,128,4,58672:0:0:0:0:
448,192,58366,1,2,0:0:0:0:
320,192,58519,1,0,0:0:0:50:S2.wav
192,192,58672,1,0,0:0:0:70:LR_Snare Drum 3.wav
448,192,58672,1,0,0:0:0:0:
320,192,58825,1,0,0:0:0:0:
64,192,58979,1,4,0:0:0:0:
192,192,58979,1,2,0:0:0:0:
448,192,59055,1,0,0:0:0:70:LR_Snare Drum 3.wav
320,192,59132,1,0,0:0:0:70:LR_Snare Drum 3.wav
192,192,59208,1,0,0:0:0:70:tom01.wav
64,192,59285,1,0,0:0:0:70:tom02.wav
448,192,59285,1,0,0:0:0:0:
320,192,59361,1,0,0:0:0:70:tom03.wav
192,192,59438,1,0,0:0:0:70:tom04.wav
448,192,59514,1,0,0:0:0:70:LR_Snare Drum 3.wav
192,192,59591,1,0,0:0:0:50:S2.wav
64,192,59591,1,0,0:0:0:0:
320,192,59667,1,0,0:0:0:50:S2.wav
448,192,59744,1,0,0:0:0:50:S2.wav
192,192,59820,1,0,0:0:0:50:S2.wav
320,192,59897,1,0,0:0:0:50:S2.wav
64,192,59973,1,0,0:0:0:50:S2.wav
192,192,60050,1,0,0:0:0:50:S2.wav
320,192,60126,1,0,0:0:0:50:S2.wav
64,192,60203,128,6,61428:0:0:0:0:
448,192,60203,1,0,0:0:0:100:B4S_s.wav
320,192,60356,1,0,0:0:0:100:A4S_s.wav
448,192,60509,1,0,0:0:0:100:B4S_s.wav
192,192,60662,1,0,0:0:0:100:D5S_s.wav
320,192,60815,1,0,0:0:0:0:
192,192,60968,1,0,0:0:0:0:
448,192,61121,1,0,0:0:0:0:
320,192,61274,1,0,0:0:0:0:
448,192,61428,128,0,62652:0:0:0:100:B4S_s.wav
192,192,61581,1,0,0:0:0:100:A4S_s.wav
320,192,61734,1,0,0:0:0:100:B4S_s.wav
64,192,61887,1,0,0:0:0:100:D5S_s.wav
320,192,62040,1,0,0:0:0:0:
192,192,62193,1,0,0:0:0:100:E5S_s.wav
320,192,62346,1,0,0:0:0:100:B4S_s.wav
64,192,62499,1,0,0:0:0:100:A4S_s.wav
192,192,62652,128,0,63876:0:0:0:100:B4S_s.wav
448,192,62805,1,0,0:0:0:100:A4S_s.wav
320,192,62958,1,0,0:0:0:100:B4S_s.wav
64,192,63111,1,0,0:0:0:100:D5S_s.wav
448,192,63264,1,0,0:0:0:0:
64,192,63417,1,0,0:0:0:0:
320,192,63570,1,0,0:0:0:0:
448,192,63723,1,0,0:0:0:0:
320,192,63876,128,0,64489:0:0:0:100:B4S_s.wav
64,192,64030,1,0,0:0:0:100:A4S_s.wav
192,192,64183,1,0,0:0:0:100:B4S_s.wav
448,192,64336,1,0,0:0:0:100:F#5S_Gb5S_s.wav
192,192,64489,1,0,0:0:0:0:
64,192,64642,1,2,0:0:0:0:
320,192,64642,1,4,0:0:0:0:
448,192,64642,1,0,0:0:0:100:F#5S_Gb5S_s.wav
64,192,64795,1,6,0:0:0:0:
448,192,64795,1,0,0:0:0:100:E5S_s.wav
64,192,65101,1,2,0:0:0:0:
192,192,65101,1,4,0:0:0:0:
448,192,65101,1,0,0:0:0:0:
192,192,65254,1,0,0:0:0:0:
64,192,65407,1,8,0:0:0:0:
448,192,65407,1,0,0:0:0:0:
320,192,65560,1,0,0:0:0:0:
64,192,65713,1,2,0:0:0:0:
192,192,65713,1,0,0:0:0:0:
320,192,65866,1,0,0:0:0:0:
192,192,66019,1,8,0:0:0:0:
448,192,66019,1,0,0:0:0:0:
192,192,66172,1,0,0:0:0:50:S2.wav
64,192,66325,1,2,0:0:0:0:
320,192,66325,1,4,0:0:0:0:
448,192,66325,1,0,0:0:0:0:
320,192,66479,1,0,0:0:0:0:
64,192,66632,1,8,0:0:0:0:
448,192,66632,1,0,0:0:0:0:
192,192,66785,1,0,0:0:0:0:
320,192,66938,1,2,0:0:0:0:
448,192,66938,1,0,0:0:0:0:
192,192,67091,1,0,0:0:0:50:S2.wav
320,192,67167,1,0,0:0:0:50:S2.wav
64,192,67244,1,8,0:0:0:0:
448,192,67244,1,0,0:0:0:0:
64,192,67397,1,0,0:0:0:50:S2.wav
320,192,67550,1,0,0:0:0:0:
448,192,67550,128,0,67856:0:0:0:0:
64,192,67626,1,0,0:0:0:0:
192,192,67703,1,0,0:0:0:0:
320,192,67780,1,0,0:0:0:0:
64,192,67856,1,2,0:0:0:0:
192,192,67856,1,4,0:0:0:0:
64,192,68162,128,0,68468:0:0:0:0:
192,192,68162,1,0,0:0:0:0:
448,192,68239,1,0,0:0:0:0:
320,192,68315,1,0,0:0:0:0:
192,192,68392,1,0,0:0:0:0:
320,192,68468,1,4,0:0:0:0:
448,192,68468,1,2,0:0:0:0:
64,192,68774,1,2,0:0:0:0:
192,192,68774,1,4,0:0:0:0:
320,192,68851,1,0,0:0:0:50:S2.wav
448,192,68928,1,0,0:0:0:50:S2.wav
192,192,69004,1,0,0:0:0:50:S2.wav
64,192,69081,1,0,0:0:0:50:S2.wav
448,192,69081,1,0,0:0:0:0:
320,192,69157,1,0,0:0:0:50:S2.wav
64,192,69234,1,0,0:0:0:50:S2.wav
192,192,69310,1,0,0:0:0:50:S2.wav
320,192,69387,1,0,0:0:0:50:S2.wav
448,192,69387,1,0,0:0:0:0:
64,192,69540,128,0,69693:0:0:0:0:
320,192,69693,128,0,69846:0:0:0:0:
192,192,69846,128,0,69999:0:0:0:0:
64,192,69999,1,2,0:0:0:0:
320,192,69999,1,4,0:0:0:0:
448,192,69999,128,0,70305:0:0:0:0:
192,192,70152,1,0,0:0:0:0:
64,192,70305,1,8,0:0:0:0:
320,192,70305,1,0,0:0:0:0:
192,192,70458,128,0,70611:0:0:0:0:
320,192,70611,1,2,0:0:0:0:
448,192,70611,128,0,70764:0:0:0:0:
64,192,70764,128,0,70917:0:0:0:0:
320,192,70917,128,8,71070:0:0:0:0:
448,192,70917,1,0,0:0:0:0:
192,192,71070,128,0,71223:0:0:0:0:
64,192,71223,1,2,0:0:0:0:
448,192,71223,128,0,71836:0:0:0:0:
320,192,71376,1,0,0:0:0:100:D7S_s.wav
320,192,71530,1,8,0:0:0:0:
64,192,71683,1,0,0:0:0:100:A7S_s.wav
64,192,71836,1,2,0:0:0:0:
192,192,71836,1,0,0:0:0:100:D8S_s.wav
448,192,71989,128,0,72142:0:0:0:0:
64,192,72142,128,8,72295:0:0:0:0:
192,192,72142,1,0,0:0:0:0:
320,192,72295,128,0,72448:0:0:0:0:
64,192,72448,128,2,72754:0:0:0:0:
448,192,72448,1,0,0:0:0:0:
320,192,72601,1,0,0:0:0:0:
192,192,72754,1,8,0:0:0:0:
448,192,72754,1,0,0:0:0:0:
320,192,72907,128,0,73060:0:0:0:0:
64,192,73060,128,2,73213:0:0:0:0:
192,192,73060,1,0,0:0:0:0:
448,192,73213,128,0,73366:0:0:0:0:
64,192,73366,1,8,0:0:0:0:
192,192,73366,128,0,73519:0:0:0:0:
320,192,73519,128,0,73672:0:0:0:0:
64,192,73672,1,2,0:0:0:0:
448,192,73672,1,4,0:0:0:0:
192,192,73825,1,0,0:0:0:100:C#7S_Db7S_s.wav
320,192,73902,1,0,0:0:0:100:A#6S_Bb6S_s.wav
64,192,73979,1,12,0:0:0:0:
448,192,73979,1,0,0:0:0:100:A6S_s.wav
192,192,74055,1,0,0:0:0:100:A#6S_Bb6S_s.wav
320,192,74132,1,0,0:0:0:100:A6S_s.wav
192,192,74208,1,0,0:0:0:100:G6S_s.wav
64,192,74285,1,6,0:0:0:0:
448,192,74285,1,0,0:0:0:100:A6S_s.wav
320,192,74591,128,0,74897:0:0:0:0:
192,192,74744,128,0,74897:0:0:0:0:
64,192,74897,1,2,0:0:0:0:
448,192,74897,1,4,0:0:0:0:
320,192,75050,1,0,0:0:0:0:
192,192,75203,1,8,0:0:0:0:
448,192,75203,1,0,0:0:0:0:
64,192,75356,1,0,0:0:0:0:
320,192,75509,1,2,0:0:0:0:
448,192,75509,1,0,0:0:0:0:
64,192,75662,1,2,0:0:0:0:
192,192,75662,1,0,0:0:0:0:
320,192,75739,1,2,0:0:0:0:
448,192,75739,1,0,0:0:0:0:
64,192,75815,1,8,0:0:0:0:
192,192,75815,1,0,0:0:0:0:
320,192,75968,1,2,0:0:0:0:
448,192,75968,1,0,0:0:0:0:
64,192,76274,1,2,0:0:0:0:
192,192,76274,1,4,0:0:0:0:
64,192,76428,1,8,0:0:0:0:
448,192,76428,1,4,0:0:0:0:
320,192,76581,1,0,0:0:0:0:
64,192,76734,1,2,0:0:0:0:
192,192,76734,1,4,0:0:0:0:
320,192,76887,1,2,0:0:0:0:
448,192,76887,1,0,0:0:0:0:
64,192,76963,1,2,0:0:0:0:
192,192,76963,1,0,0:0:0:0:
320,192,77040,1,8,0:0:0:0:
448,192,77040,1,4,0:0:0:0:
64,192,77193,1,2,0:0:0:0:
192,192,77193,1,0,0:0:0:0:
64,192,77346,1,2,0:0:0:0:
448,192,77346,1,4,0:0:0:0:
320,192,77499,1,0,0:0:0:0:
192,192,77575,1,0,0:0:0:0:
320,192,77652,1,8,0:0:0:0:
448,192,77652,1,0,0:0:0:0:
192,192,77805,1,0,0:0:0:0:
64,192,77958,1,2,0:0:0:0:
448,192,77958,1,4,0:0:0:0:
192,192,78111,1,0,0:0:0:0:
320,192,78188,1,0,0:0:0:0:
64,192,78264,1,8,0:0:0:0:
192,192,78264,1,0,0:0:0:0:
320,192,78417,1,0,0:0:0:0:
64,192,78570,128,2,78800:0:0:0:0:
192,192,78570,1,4,0:0:0:0:
64,192,78876,128,2,79106:0:0:0:0:
320,192,78876,1,4,0:0:0:0:
64,192,79183,1,4,0:0:0:0:
320,192,79183,1,2,0:0:0:0:
448,192,79183,1,0,0:0:0:0:
448,192,79336,128,0,79489:0:0:0:0:
192,192,79489,128,0,79642:0:0:0:0:
320,192,79642,128,0,79795:0:0:0:0:
64,192,79795,128,2,80101:0:0:0:0:
192,192,79795,1,4,0:0:0:0:
448,192,79795,1,0,0:0:0:0:
320,192,79948,1,0,0:0:0:0:
192,192,80101,1,8,0:0:0:0:
448,192,80101,1,0,0:0:0:0:
320,192,80254,128,0,80407:0:0:0:0:
64,192,80407,128,2,80560:0:0:0:0:
192,192,80407,1,0,0:0:0:0:
448,192,80560,128,0,80713:0:0:0:0:
64,192,80713,1,8,0:0:0:0:
192,192,80713,128,0,80866:0:0:0:0:
320,192,80866,128,0,81019:0:0:0:0:
64,192,81019,128,2,81632:0:0:0:0:
448,192,81019,1,0,0:0:0:0:
192,192,81172,1,0,0:0:0:100:D7S_s.wav
192,192,81325,1,8,0:0:0:0:
448,192,81479,1,0,0:0:0:100:A7S_s.wav
320,192,81632,1,2,0:0:0:0:
448,192,81632,1,0,0:0:0:100:D8S_s.wav
64,192,81785,128,0,81938:0:0:0:0:
320,192,81938,1,8,0:0:0:0:
448,192,81938,128,0,82091:0:0:0:0:
192,192,82091,128,0,82244:0:0:0:0:
64,192,82244,1,2,0:0:0:0:
448,192,82244,128,0,82550:0:0:0:0:
192,192,82397,1,0,0:0:0:0:
64,192,82550,1,8,0:0:0:0:
320,192,82550,1,0,0:0:0:0:
192,192,82703,128,0,82856:0:0:0:0:
320,192,82856,1,2,0:0:0:0:
448,192,82856,128,0,83009:0:0:0:0:
64,192,83009,128,0,83162:0:0:0:0:
320,192,83162,128,8,83315:0:0:0:0:
448,192,83162,1,0,0:0:0:0:
192,192,83315,128,0,83468:0:0:0:0:
64,192,83468,1,2,0:0:0:0:
448,192,83468,1,4,0:0:0:0:
320,192,83621,1,0,0:0:0:100:C#7S_Db7S_s.wav
192,192,83698,1,0,0:0:0:100:A#6S_Bb6S_s.wav
64,192,83774,1,12,0:0:0:0:
448,192,83774,1,0,0:0:0:100:A6S_s.wav
320,192,83851,1,0,0:0:0:100:A#6S_Bb6S_s.wav
192,192,83928,1,0,0:0:0:100:A6S_s.wav
320,192,84004,1,0,0:0:0:100:G6S_s.wav
64,192,84081,1,6,0:0:0:0:
448,192,84081,1,0,0:0:0:100:A6S_s.wav
192,192,84387,128,0,84693:0:0:0:0:
320,192,84540,1,0,0:0:0:0:
64,192,84693,1,2,0:0:0:0:
448,192,84693,1,4,0:0:0:0:
192,192,84846,1,0,0:0:0:0:
64,192,84999,1,8,0:0:0:0:
320,192,84999,1,0,0:0:0:0:
448,192,85152,1,0,0:0:0:0:
320,192,85229,1,0,0:0:0:0:
64,192,85305,1,2,0:0:0:0:
192,192,85305,1,0,0:0:0:0:
320,192,85458,1,2,0:0:0:0:
448,192,85458,1,0,0:0:0:0:
64,192,85535,1,2,0:0:0:0:
192,192,85535,1,0,0:0:0:0:
320,192,85611,1,8,0:0:0:0:
448,192,85611,1,0,0:0:0:0:
192,192,85764,1,2,0:0:0:0:
64,192,85917,1,2,0:0:0:0:
448,192,85917,1,4,0:0:0:0:
320,192,86070,1,2,0:0:0:0:
448,192,86070,1,0,0:0:0:0:
64,192,86147,1,2,0:0:0:0:
192,192,86147,1,0,0:0:0:0:
320,192,86223,1,8,0:0:0:0:
448,192,86223,1,4,0:0:0:0:
192,192,86376,1,0,0:0:0:0:
320,192,86530,1,2,0:0:0:0:
448,192,86530,1,4,0:0:0:0:
64,192,86683,1,2,0:0:0:0:
192,192,86683,1,0,0:0:0:0:
320,192,86759,1,2,0:0:0:0:
448,192,86759,1,0,0:0:0:0:
64,192,86836,1,8,0:0:0:0:
192,192,86836,1,4,0:0:0:0:
320,192,86989,1,2,0:0:0:0:
64,192,87142,128,0,87448:0:0:0:0:
192,192,87142,1,0,0:0:0:0:
448,192,87218,1,0,0:0:0:0:
320,192,87295,1,0,0:0:0:0:
192,192,87371,1,0,0:0:0:0:
320,192,87448,1,2,0:0:0:0:
448,192,87448,1,4,0:0:0:0:
320,192,87754,1,0,0:0:0:0:
448,192,87754,128,0,88060:0:0:0:0:
64,192,87831,1,0,0:0:0:0:
192,192,87907,1,0,0:0:0:0:
320,192,87984,1,0,0:0:0:0:
64,192,88060,1,4,0:0:0:0:
192,192,88060,1,2,0:0:0:0:
64,192,88366,128,0,88519:0:0:0:0:
320,192,88519,1,0,0:0:0:0:
192,192,88672,128,0,88825:0:0:0:0:
448,192,88825,1,0,0:0:0:0:
192,192,88979,1,0,0:0:0:70:S1.wav
64,192,89132,1,8,0:0:0:0:
192,192,89132,1,0,0:0:0:0:
64,192,89285,128,0,89514:0:0:0:100:SFX Hardcore Kick.wav
448,192,89285,128,0,89514:0:0:0:0:
64,192,89591,1,2,0:0:0:0:
320,192,89591,1,0,0:0:0:0:
448,192,89591,1,4,0:0:0:0:
192,192,89744,1,0,0:0:0:0:
64,192,89897,1,8,0:0:0:0:
448,192,89897,1,0,0:0:0:0:
448,192,90050,1,0,0:0:0:0:
64,192,90203,1,2,0:0:0:0:
192,192,90203,1,0,0:0:0:0:
320,192,90356,1,0,0:0:0:0:
64,192,90509,1,8,0:0:0:0:
192,192,90586,1,0,0:0:0:0:
448,192,90662,1,0,0:0:0:0:
320,192,90739,1,0,0:0:0:0:
64,192,90815,1,2,0:0:0:0:
192,192,90815,1,0,0:0:0:0:
320,192,90968,1,0,0:0:0:0:
64,192,91121,1,8,0:0:0:0:
448,192,91121,1,0,0:0:0:0:
64,192,91274,1,0,0:0:0:0:
320,192,91428,1,2,0:0:0:0:
448,192,91428,1,0,0:0:0:0:
320,192,91581,128,0,91734:0:0:0:0:
64,192,91734,1,8,0:0:0:0:
448,192,91734,1,0,0:0:0:0:
64,192,91887,128,0,92040:0:0:0:0:
320,192,92040,1,2,0:0:0:0:
448,192,92040,1,0,0:0:0:0:
192,192,92193,1,0,0:0:0:0:
64,192,92346,1,8,0:0:0:0:
448,192,92346,1,0,0:0:0:0:
448,192,92499,1,0,0:0:0:0:
64,192,92652,1,2,0:0:0:0:
192,192,92652,1,0,0:0:0:0:
320,192,92805,1,0,0:0:0:0:
64,192,92958,1,8,0:0:0:0:
192,192,93035,1,0,0:0:0:0:
448,192,93111,1,0,0:0:0:0:
320,192,93188,1,0,0:0:0:0:
64,192,93264,1,2,0:0:0:0:
192,192,93264,1,0,0:0:0:0:
320,192,93417,1,0,0:0:0:0:
64,192,93570,1,8,0:0:0:0:
448,192,93570,1,0,0:0:0:0:
64,192,93723,128,0,93876:0:0:0:0:
320,192,93876,1,2,0:0:0:0:
448,192,93876,1,0,0:0:0:0:
320,192,94030,128,0,94183:0:0:0:0:
64,192,94183,1,8,0:0:0:0:
192,192,94183,128,0,94336:0:0:0:0:
448,192,94336,1,0,0:0:0:0:
64,192,94489,1,2,0:0:0:0:
192,192,94489,1,0,0:0:0:0:
320,192,94642,1,0,0:0:0:0:
64,192,94795,1,8,0:0:0:0:
448,192,94795,1,0,0:0:0:0:
64,192,94948,1,0,0:0:0:0:
320,192,95101,1,2,0:0:0:0:
448,192,95101,1,0,0:0:0:0:
192,192,95254,1,0,0:0:0:0:
448,192,95407,1,8,0:0:0:0:
320,192,95484,1,0,0:0:0:0:
64,192,95560,1,0,0:0:0:0:
192,192,95637,1,0,0:0:0:0:
320,192,95713,1,2,0:0:0:0:
448,192,95713,1,0,0:0:0:0:
192,192,95866,1,0,0:0:0:0:
64,192,96019,1,8,0:0:0:0:
448,192,96019,1,0,0:0:0:0:
448,192,96172,1,0,0:0:0:0:
64,192,96325,1,2,0:0:0:0:
192,192,96325,1,0,0:0:0:0:
192,192,96479,128,0,96632:0:0:0:0:
64,192,96632,1,8,0:0:0:0:
448,192,96632,1,0,0:0:0:0:
448,192,96785,128,0,96938:0:0:0:0:
64,192,96938,1,2,0:0:0:0:
192,192,96938,1,0,0:0:0:0:
320,192,97091,1,0,0:0:0:0:
64,192,97244,1,8,0:0:0:0:
448,192,97244,1,0,0:0:0:0:
64,192,97397,1,0,0:0:0:0:
320,192,97550,1,2,0:0:0:0:
448,192,97550,1,0,0:0:0:0:
192,192,97703,1,0,0:0:0:0:
448,192,97856,1,8,0:0:0:0:
320,192,97933,1,0,0:0:0:0:
64,192,98009,1,0,0:0:0:0:
192,192,98086,1,0,0:0:0:0:
320,192,98162,1,0,0:0:0:50:K.wav
448,192,98162,1,0,0:0:0:0:
192,192,98239,1,0,0:0:0:50:K.wav
448,192,98315,1,0,0:0:0:50:K.wav
192,192,98392,1,0,0:0:0:50:K.wav
448,192,98468,1,0,0:0:0:50:K.wav
64,192,98545,1,0,0:0:0:50:K.wav
320,192,98621,1,0,0:0:0:50:K.wav
192,192,98698,1,0,0:0:0:50:K.wav
64,192,98774,1,0,0:0:0:70:tom01.wav
448,192,98774,1,0,0:0:0:0:
448,192,98928,128,0,99081:0:0:0:70:tom02.wav
192,192,99081,1,0,0:0:0:70:tom03.wav
192,192,99234,128,0,99387:0:0:0:70:tom04.wav
64,192,99387,1,4,0:0:0:0:
320,192,99387,1,2,0:0:0:0:
448,192,99387,1,0,0:0:0:0:
192,192,99540,1,0,0:0:0:0:
64,192,99693,1,8,0:0:0:0:
448,192,99693,1,0,0:0:0:0:
448,192,99846,1,0,0:0:0:0:
64,192,99999,1,2,0:0:0:0:
192,192,99999,1,0,0:0:0:0:
320,192,100152,1,0,0:0:0:0:
64,192,100305,1,8,0:0:0:0:
192,192,100382,1,0,0:0:0:0:
448,192,100458,1,0,0:0:0:0:
320,192,100535,1,0,0:0:0:0:
64,192,100611,1,2,0:0:0:0:
192,192,100611,1,0,0:0:0:0:
320,192,100764,1,0,0:0:0:0:
64,192,100917,1,8,0:0:0:0:
448,192,100917,1,0,0:0:0:0:
64,192,101070,1,0,0:0:0:0:
320,192,101223,1,2,0:0:0:0:
448,192,101223,1,0,0:0:0:0:
320,192,101376,128,0,101530:0:0:0:0:
64,192,101530,1,8,0:0:0:0:
448,192,101530,1,0,0:0:0:0:
64,192,101683,128,0,101836:0:0:0:0:
320,192,101836,1,2,0:0:0:0:
448,192,101836,1,0,0:0:0:0:
192,192,101989,1,0,0:0:0:0:
64,192,102142,1,8,0:0:0:0:
448,192,102142,1,0,0:0:0:0:
448,192,102295,1,0,0:0:0:0:
64,192,102448,1,2,0:0:0:0:
192,192,102448,1,0,0:0:0:0:
320,192,102601,1,0,0:0:0:0:
64,192,102754,1,8,0:0:0:0:
192,192,102831,1,0,0:0:0:0:
448,192,102907,1,0,0:0:0:0:
320,192,102984,1,0,0:0:0:0:
64,192,103060,1,2,0:0:0:0:
192,192,103060,1,0,0:0:0:0:
320,192,103213,1,0,0:0:0:0:
64,192,103366,1,8,0:0:0:0:
448,192,103366,1,0,0:0:0:0:
64,192,103519,128,0,103672:0:0:0:0:
448,192,103672,1,0,0:0:0:0:
320,192,103672,1,2,0:0:0:0:
320,192,103825,128,0,103979:0:0:0:0:
192,192,103979,128,0,104132:0:0:0:0:
64,192,103979,1,8,0:0:0:0:
448,192,104132,1,0,0:0:0:0:
192,192,104285,1,0,0:0:0:0:
64,192,104285,1,2,0:0:0:0:
448,192,104361,1,0,0:0:0:50:S2.wav
320,192,104438,1,0,0:0:0:50:S2.wav
192,192,104514,1,0,0:0:0:50:S2.wav
64,192,104591,1,8,0:0:0:0:
448,192,104591,1,0,0:0:0:0:
64,192,104744,1,0,0:0:0:0:
320,192,104897,1,2,0:0:0:0:
448,192,104897,1,0,0:0:0:0:
192,192,105050,1,0,0:0:0:0:
448,192,105203,1,8,0:0:0:0:
320,192,105280,1,0,0:0:0:50:S2.wav
64,192,105356,1,0,0:0:0:50:S2.wav
192,192,105433,1,0,0:0:0:50:S2.wav
320,192,105509,1,2,0:0:0:0:
448,192,105509,1,0,0:0:0:0:
64,192,105586,1,0,0:0:0:50:S2.wav
192,192,105662,1,0,0:0:0:50:S2.wav
320,192,105739,1,0,0:0:0:50:S2.wav
64,192,105815,1,8,0:0:0:0:
448,192,105815,1,0,0:0:0:0:
192,192,105892,1,0,0:0:0:50:S2.wav
448,192,105968,1,0,0:0:0:50:S2.wav
320,192,106045,1,0,0:0:0:50:S2.wav
64,192,106121,1,2,0:0:0:0:
192,192,106121,1,0,0:0:0:0:
448,192,106198,1,0,0:0:0:50:S2.wav
320,192,106274,1,0,0:0:0:50:S2.wav
192,192,106351,1,0,0:0:0:50:S2.wav
64,192,106428,1,8,0:0:0:0:
448,192,106428,1,0,0:0:0:0:
320,192,106504,1,0,0:0:0:50:S2.wav
64,192,106581,1,0,0:0:0:50:S2.wav
192,192,106657,1,0,0:0:0:50:S2.wav
320,192,106734,1,2,0:0:0:0:
320,192,106810,1,2,0:0:0:0:
64,192,106963,1,8,0:0:0:0:
64,192,107040,1,8,0:0:0:0:
448,192,107193,1,2,0:0:0:0:
448,192,107269,1,2,0:0:0:0:
192,192,107422,1,8,0:0:0:0:
192,192,107499,1,8,0:0:0:0:
448,192,107652,1,2,0:0:0:0:
320,192,107652,1,0,0:0:0:0:
192,192,107805,1,8,0:0:0:0:
64,192,107805,1,0,0:0:0:0:
448,192,107958,1,2,0:0:0:0:
320,192,107958,1,0,0:0:0:0:
448,192,108111,1,2,0:0:0:0:
320,192,108111,1,0,0:0:0:0:
448,192,108264,1,2,0:0:0:0:
320,192,108264,1,0,0:0:0:0:
192,192,108417,1,8,0:0:0:0:
64,192,108417,1,0,0:0:0:0:
448,192,108494,1,2,0:0:0:0:
320,192,108494,1,0,0:0:0:0:
192,192,108876,1,0,0:0:0:50:strike.wav
64,192,108876,1,0,0:0:0:0:
448,192,108876,1,0,0:0:0:0:
64,192,109183,128,2,109489:0:0:0:0:
192,192,109183,1,4,0:0:0:0:
448,192,109183,1,0,0:0:0:0:
320,192,109336,1,0,0:0:0:0:
192,192,109489,1,8,0:0:0:0:
448,192,109489,128,0,109795:0:0:0:0:
320,192,109642,1,0,0:0:0:0:
64,192,109795,1,2,0:0:0:0:
192,192,109795,128,0,110101:0:0:0:0:
320,192,109948,1,0,0:0:0:0:
64,192,110101,1,8,0:0:0:0:
448,192,110101,1,0,0:0:0:0:
192,192,110254,1,0,0:0:0:0:
320,192,110407,1,2,0:0:0:0:
448,192,110407,128,0,110713:0:0:0:0:
192,192,110560,1,0,0:0:0:0:
64,192,110713,128,8,111019:0:0:0:0:
320,192,110713,1,0,0:0:0:0:
192,192,110866,1,0,0:0:0:0:
320,192,111019,128,2,111325:0:0:0:0:
448,192,111019,1,0,0:0:0:0:
192,192,111172,1,0,0:0:0:0:
64,192,111325,1,8,0:0:0:0:
448,192,111325,1,0,0:0:0:0:
320,192,111479,1,0,0:0:0:0:
64,192,111632,128,2,111938:0:0:0:0:
192,192,111632,1,0,0:0:0:0:
448,192,111785,1,0,0:0:0:0:
192,192,111938,1,8,0:0:0:0:
320,192,111938,128,0,112244:0:0:0:0:
64,192,112091,1,0,0:0:0:0:
192,192,112244,128,2,112550:0:0:0:0:
448,192,112244,1,0,0:0:0:0:
320,192,112397,1,0,0:0:0:0:
64,192,112550,1,8,0:0:0:0:
448,192,112550,1,0,0:0:0:0:
192,192,112703,1,0,0:0:0:0:
64,192,112856,1,2,0:0:0:0:
448,192,112856,128,0,113162:0:0:0:0:
320,192,113009,1,0,0:0:0:0:
64,192,113162,1,8,0:0:0:0:
192,192,113162,128,0,113468:0:0:0:0:
320,192,113315,1,0,0:0:0:0:
64,192,113468,1,2,0:0:0:0:
448,192,113468,128,0,113774:0:0:0:0:
64,192,113621,1,0,0:0:0:0:
192,192,113774,128,8,114081:0:0:0:0:
320,192,113928,1,0,0:0:0:0:
64,192,114081,1,2,0:0:0:0:
448,192,114081,1,0,0:0:0:0:
192,192,114234,1,0,0:0:0:0:
320,192,114387,1,8,0:0:0:0:
448,192,114387,1,0,0:0:0:0:
192,192,114540,1,0,0:0:0:0:
64,192,114693,128,2,114999:0:0:0:0:
448,192,114693,1,0,0:0:0:0:
320,192,114846,1,0,0:0:0:0:
192,192,114999,1,8,0:0:0:0:
448,192,114999,1,0,0:0:0:0:
192,192,115152,1,0,0:0:0:0:
64,192,115305,1,2,0:0:0:0:
448,192,115305,1,0,0:0:0:0:
320,192,115458,1,0,0:0:0:0:
64,192,115611,1,8,0:0:0:0:
192,192,115611,1,0,0:0:0:0:
320,192,115764,1,0,0:0:0:0:
64,192,115917,1,2,0:0:0:0:
448,192,115917,128,0,116223:0:0:0:0:
192,192,116070,1,0,0:0:0:0:
64,192,116223,1,8,0:0:0:0:
320,192,116223,1,0,0:0:0:0:
320,192,116376,1,0,0:0:0:0:
64,192,116530,1,2,0:0:0:0:
448,192,116530,1,4,0:0:0:0:
192,192,116683,1,0,0:0:0:0:
320,192,116836,1,8,0:0:0:0:
448,192,116836,1,0,0:0:0:0:
192,192,116989,1,0,0:0:0:0:
64,192,117142,1,2,0:0:0:0:
448,192,117142,1,4,0:0:0:0:
320,192,117295,1,0,0:0:0:0:
64,192,117448,1,8,0:0:0:0:
192,192,117448,1,0,0:0:0:0:
320,192,117601,1,0,0:0:0:0:
64,192,117754,128,4,118366:0:0:0:0:
448,192,117754,1,0,0:0:0:50:K.wav
192,192,117907,1,0,0:0:0:0:
448,192,118060,1,0,0:0:0:0:
192,192,118213,1,0,0:0:0:0:
448,192,118366,128,0,118519:0:0:0:0:
64,192,118519,128,0,118672:0:0:0:0:
320,192,118672,128,0,118825:0:0:0:0:
192,192,118825,128,0,118979:0:0:0:0:
64,192,118979,1,4,0:0:0:0:
320,192,118979,1,2,0:0:0:0:
448,192,118979,128,0,119285:0:0:0:0:
192,192,119132,1,0,0:0:0:0:
64,192,119285,128,8,119591:0:0:0:0:
320,192,119285,1,0,0:0:0:0:
192,192,119438,1,0,0:0:0:0:
320,192,119591,128,2,119897:0:0:0:0:
448,192,119591,1,0,0:0:0:0:
192,192,119744,1,0,0:0:0:0:
64,192,119897,1,8,0:0:0:0:
448,192,119897,1,0,0:0:0:0:
320,192,120050,1,0,0:0:0:0:
64,192,120203,128,2,120509:0:0:0:0:
192,192,120203,1,0,0:0:0:0:
320,192,120356,1,0,0:0:0:0:
192,192,120509,1,8,0:0:0:0:
448,192,120509,128,0,120815:0:0:0:0:
320,192,120662,1,0,0:0:0:0:
64,192,120815,1,2,0:0:0:0:
192,192,120815,128,0,121121:0:0:0:0:
320,192,120968,1,0,0:0:0:0:
64,192,121121,1,8,0:0:0:0:
448,192,121121,1,0,0:0:0:0:
192,192,121274,1,0,0:0:0:0:
320,192,121428,1,2,0:0:0:0:
448,192,121428,128,0,121734:0:0:0:0:
64,192,121581,1,0,0:0:0:0:
192,192,121734,128,8,122040:0:0:0:0:
320,192,121734,1,0,0:0:0:0:
448,192,121887,1,0,0:0:0:0:
64,192,122040,1,2,0:0:0:0:
320,192,122040,128,0,122346:0:0:0:0:
192,192,122193,1,0,0:0:0:0:
64,192,122346,1,8,0:0:0:0:
448,192,122346,1,0,0:0:0:0:
320,192,122499,1,0,0:0:0:0:
64,192,122652,128,2,122958:0:0:0:0:
448,192,122652,1,0,0:0:0:0:
192,192,122805,1,0,0:0:0:0:
320,192,122958,128,8,123264:0:0:0:0:
448,192,122958,1,0,0:0:0:0:
192,192,123111,1,0,0:0:0:0:
64,192,123264,128,2,123876:0:0:0:0:
448,192,123264,1,0,0:0:0:0:
192,192,123417,1,0,0:0:0:0:
448,192,123570,1,8,0:0:0:0:
192,192,123723,1,0,0:0:0:0:
320,192,123876,1,2,0:0:0:0:
448,192,123876,1,4,0:0:0:0:
192,192,123953,1,0,0:0:0:0:
448,192,124030,1,0,0:0:0:0:
320,192,124106,1,0,0:0:0:0:
64,192,124183,1,0,0:0:0:0:
192,192,124259,1,0,0:0:0:0:
448,192,124336,1,0,0:0:0:0:
320,192,124412,1,0,0:0:0:0:
64,192,124489,1,4,0:0:0:0:
192,192,124489,1,2,0:0:0:0:
320,192,124565,1,0,0:0:0:0:
64,192,124642,1,0,0:0:0:0:
192,192,124718,1,0,0:0:0:0:
448,192,124795,1,0,0:0:0:0:
320,192,124871,1,0,0:0:0:0:
64,192,124948,1,0,0:0:0:0:
192,192,125024,1,0,0:0:0:0:
320,192,125101,1,2,0:0:0:0:
448,192,125101,1,4,0:0:0:0:
192,192,125178,1,0,0:0:0:0:
448,192,125254,1,0,0:0:0:0:
320,192,125331,1,0,0:0:0:0:
64,192,125407,1,0,0:0:0:0:
192,192,125484,1,0,0:0:0:0:
448,192,125560,1,0,0:0:0:0:
320,192,125637,1,0,0:0:0:0:
64,192,125713,1,4,0:0:0:0:
192,192,125713,1,2,0:0:0:0:
448,192,125790,1,0,0:0:0:0:
64,192,125866,1,8,0:0:0:0:
320,192,125866,1,4,0:0:0:0:
64,192,126019,1,4,0:0:0:0:
448,192,126019,1,2,0:0:0:0:
64,192,126325,128,2,126632:0:0:0:0:
448,192,126325,1,4,0:0:0:0:
320,192,126479,1,0,0:0:0:50:S2.wav
192,192,126632,1,0,0:0:0:70:LR_Snare Drum 3.wav
448,192,126632,1,0,0:0:0:0:
320,192,126785,1,0,0:0:0:0:
64,192,126938,1,4,0:0:0:0:
448,192,126938,128,2,127244:0:0:0:0:
192,192,127091,1,0,0:0:0:50:S2.wav
64,192,127244,1,0,0:0:0:70:LR_Snare Drum 3.wav
320,192,127244,1,0,0:0:0:0:
192,192,127397,1,0,0:0:0:50:S2.wav
320,192,127550,1,4,0:0:0:0:
448,192,127550,1,2,0:0:0:0:
64,192,127626,1,0,0:0:0:70:LR_Snare Drum 3.wav
192,192,127703,1,0,0:0:0:70:LR_Snare Drum 3.wav
320,192,127780,1,0,0:0:0:70:tom01.wav
64,192,127856,1,0,0:0:0:70:tom02.wav
448,192,127856,1,0,0:0:0:0:
192,192,127933,1,0,0:0:0:70:tom03.wav
320,192,128009,1,0,0:0:0:70:tom04.wav
64,192,128086,1,0,0:0:0:70:LR_Snare Drum 3.wav
320,192,128162,1,0,0:0:0:50:S2.wav
448,192,128162,1,0,0:0:0:0:
192,192,128239,1,0,0:0:0:50:S2.wav
64,192,128315,1,0,0:0:0:50:S2.wav
320,192,128392,1,0,0:0:0:50:S2.wav
192,192,128468,1,0,0:0:0:50:S2.wav
448,192,128545,1,0,0:0:0:50:S2.wav
320,192,128621,1,0,0:0:0:50:S2.wav
192,192,128698,1,0,0:0:0:50:S2.wav
64,192,128774,1,2,0:0:0:0:
448,192,128774,1,4,0:0:0:0:
192,192,128928,1,0,0:0:0:0:
64,192,129081,1,0,0:0:0:70:S3.wav
448,192,129081,1,0,0:0:0:0:
320,192,129234,1,0,0:0:0:70:LR_Snare Drum 2.wav
192,192,129387,1,0,0:0:0:0:
448,192,129540,1,0,0:0:0:70:LR_Snare Drum.wav
64,192,129693,1,0,0:0:0:70:S3.wav
192,192,129693,1,0,0:0:0:0:
320,192,129846,1,0,0:0:0:0:
64,192,129999,1,0,0:0:0:70:LR_Snare Drum.wav
64,192,130152,1,0,0:0:0:70:LR_Snare Drum.wav
320,192,130305,1,0,0:0:0:70:S3.wav
448,192,130305,1,0,0:0:0:0:
192,192,130458,1,0,0:0:0:70:LR_Snare Drum 2.wav
64,192,130611,1,0,0:0:0:70:LR_Snare Drum.wav
320,192,130764,1,0,0:0:0:70:S3.wav
64,192,130917,1,0,0:0:0:70:LR_Snare Drum.wav
320,192,131070,1,0,0:0:0:70:LR_Snare Drum 2.wav
64,192,131223,1,0,0:0:0:70:LR_Snare Drum.wav
320,192,131376,1,0,0:0:0:0:
64,192,131530,1,0,0:0:0:70:S3.wav
448,192,131530,1,0,0:0:0:0:
192,192,131683,1,0,0:0:0:70:LR_Snare Drum 2.wav
320,192,131836,1,0,0:0:0:0:
64,192,131989,1,0,0:0:0:70:LR_Snare Drum.wav
320,192,132142,1,0,0:0:0:70:S3.wav
448,192,132142,1,0,0:0:0:0:
192,192,132295,1,0,0:0:0:0:
448,192,132448,1,0,0:0:0:70:LR_Snare Drum.wav
448,192,132601,1,0,0:0:0:70:LR_Snare Drum.wav
64,192,132754,1,0,0:0:0:70:S3.wav
192,192,132754,1,0,0:0:0:0:
64,192,132907,1,0,0:0:0:70:LR_Snare Drum 2.wav
448,192,133060,1,0,0:0:0:70:LR_Snare Drum.wav
192,192,133213,1,0,0:0:0:70:S3.wav
448,192,133366,1,0,0:0:0:70:LR_Snare Drum.wav
192,192,133519,1,0,0:0:0:70:LR_Snare Drum.wav
64,192,133672,1,2,0:0:0:0:
320,192,133672,1,4,0:0:0:0:
448,192,133672,1,0,0:0:0:0:
320,192,133825,1,0,0:0:0:0:
64,192,133979,1,8,0:0:0:0:
448,192,133979,1,0,0:0:0:0:
192,192,134132,1,0,0:0:0:0:
320,192,134285,1,2,0:0:0:0:
448,192,134285,1,0,0:0:0:0:
192,192,134438,1,0,0:0:0:0:
64,192,134591,1,8,0:0:0:0:
320,192,134591,1,0,0:0:0:0:
320,192,134744,1,0,0:0:0:50:S2.wav
64,192,134897,1,2,0:0:0:0:
192,192,134897,1,4,0:0:0:0:
448,192,134897,1,0,0:0:0:0:
192,192,135050,1,0,0:0:0:0:
64,192,135203,1,8,0:0:0:0:
448,192,135203,1,0,0:0:0:0:
320,192,135356,1,0,0:0:0:0:
64,192,135509,1,2,0:0:0:0:
192,192,135509,1,0,0:0:0:0:
320,192,135662,1,0,0:0:0:50:S2.wav
192,192,135739,1,0,0:0:0:50:S2.wav
64,192,135815,1,8,0:0:0:0:
448,192,135815,1,0,0:0:0:0:
448,192,135968,1,0,0:0:0:50:S2.wav
64,192,136121,128,0,136428:0:0:0:0:
192,192,136121,1,0,0:0:0:0:
448,192,136198,1,0,0:0:0:0:
320,192,136274,1,0,0:0:0:0:
192,192,136351,1,0,0:0:0:0:
320,192,136428,1,2,0:0:0:0:
448,192,136428,1,4,0:0:0:0:
320,192,136734,1,0,0:0:0:0:
448,192,136734,128,0,137040:0:0:0:0:
64,192,136810,1,0,0:0:0:0:
192,192,136887,1,0,0:0:0:0:
320,192,136963,1,0,0:0:0:0:
64,192,137040,1,4,0:0:0:0:
192,192,137040,1,2,0:0:0:0:
320,192,137346,1,2,0:0:0:0:
448,192,137346,1,4,0:0:0:0:
192,192,137422,1,0,0:0:0:50:S2.wav
64,192,137499,1,0,0:0:0:50:S2.wav
320,192,137575,1,0,0:0:0:50:S2.wav
64,192,137652,1,0,0:0:0:50:S2.wav
448,192,137652,1,0,0:0:0:0:
192,192,137729,1,0,0:0:0:50:S2.wav
448,192,137805,1,0,0:0:0:50:S2.wav
320,192,137882,1,0,0:0:0:50:S2.wav
64,192,137958,1,0,0:0:0:50:S2.wav
192,192,137958,1,0,0:0:0:0:
448,192,138111,128,0,138264:0:0:0:0:
192,192,138264,128,0,138417:0:0:0:0:
320,192,138417,128,0,138570:0:0:0:0:
64,192,138570,128,2,138876:0:0:0:0:
192,192,138570,1,4,0:0:0:0:
448,192,138570,1,0,0:0:0:0:
320,192,138723,1,0,0:0:0:0:
192,192,138876,1,8,0:0:0:0:
448,192,138876,1,0,0:0:0:0:
320,192,139030,128,0,139183:0:0:0:0:
64,192,139183,128,2,139336:0:0:0:0:
192,192,139183,1,0,0:0:0:0:
448,192,139336,128,0,139489:0:0:0:0:
64,192,139489,1,8,0:0:0:0:
192,192,139489,128,0,139642:0:0:0:0:
320,192,139642,128,0,139795:0:0:0:0:
64,192,139795,128,2,140407:0:0:0:0:
448,192,139795,1,0,0:0:0:0:
192,192,139948,1,0,0:0:0:100:D7S_s.wav
192,192,140101,1,8,0:0:0:0:
448,192,140254,1,0,0:0:0:100:A7S_s.wav
320,192,140407,1,2,0:0:0:0:
448,192,140407,1,0,0:0:0:100:D8S_s.wav
64,192,140560,128,0,140713:0:0:0:0:
320,192,140713,1,8,0:0:0:0:
448,192,140713,128,0,140866:0:0:0:0:
192,192,140866,128,0,141019:0:0:0:0:
64,192,141019,1,2,0:0:0:0:
448,192,141019,128,0,141325:0:0:0:0:
192,192,141172,1,0,0:0:0:0:
64,192,141325,1,8,0:0:0:0:
320,192,141325,1,0,0:0:0:0:
192,192,141479,128,0,141632:0:0:0:0:
320,192,141632,1,2,0:0:0:0:
448,192,141632,128,0,141785:0:0:0:0:
64,192,141785,128,0,141938:0:0:0:0:
320,192,141938,128,8,142091:0:0:0:0:
448,192,141938,1,0,0:0:0:0:
192,192,142091,128,0,142244:0:0:0:0:
64,192,142244,1,2,0:0:0:0:
448,192,142244,1,4,0:0:0:0:
320,192,142397,1,0,0:0:0:100:C#7S_Db7S_s.wav
192,192,142473,1,0,0:0:0:100:A#6S_Bb6S_s.wav
64,192,142550,1,12,0:0:0:0:
448,192,142550,1,0,0:0:0:100:A6S_s.wav
320,192,142626,1,0,0:0:0:100:A#6S_Bb6S_s.wav
192,192,142703,1,0,0:0:0:100:A6S_s.wav
320,192,142780,1,0,0:0:0:100:G6S_s.wav
64,192,142856,1,6,0:0:0:0:
448,192,142856,1,0,0:0:0:100:A6S_s.wav
192,192,143162,128,0,143468:0:0:0:0:
320,192,143315,1,0,0:0:0:0:
64,192,143468,1,2,0:0:0:0:
448,192,143468,1,4,0:0:0:0:
192,192,143621,1,0,0:0:0:0:
64,192,143774,1,8,0:0:0:0:
320,192,143774,1,0,0:0:0:0:
448,192,143928,1,0,0:0:0:0:
64,192,144081,1,2,0:0:0:0:
192,192,144081,1,0,0:0:0:0:
320,192,144234,1,2,0:0:0:0:
448,192,144234,1,0,0:0:0:0:
64,192,144310,1,2,0:0:0:0:
192,192,144310,1,0,0:0:0:0:
320,192,144387,1,8,0:0:0:0:
448,192,144387,1,0,0:0:0:0:
64,192,144540,1,2,0:0:0:0:
192,192,144540,1,0,0:0:0:0:
320,192,144846,1,2,0:0:0:0:
448,192,144846,1,4,0:0:0:0:
64,192,144999,1,8,0:0:0:0:
448,192,144999,1,4,0:0:0:0:
192,192,145152,1,0,0:0:0:0:
320,192,145305,1,2,0:0:0:0:
448,192,145305,1,4,0:0:0:0:
64,192,145458,1,2,0:0:0:0:
192,192,145458,1,0,0:0:0:0:
320,192,145535,1,2,0:0:0:0:
448,192,145535,1,0,0:0:0:0:
64,192,145611,1,8,0:0:0:0:
192,192,145611,1,4,0:0:0:0:
320,192,145764,1,2,0:0:0:0:
448,192,145764,1,0,0:0:0:0:
64,192,145917,1,2,0:0:0:0:
448,192,145917,1,4,0:0:0:0:
192,192,146070,1,0,0:0:0:0:
320,192,146147,1,0,0:0:0:0:
64,192,146223,1,8,0:0:0:0:
192,192,146223,1,0,0:0:0:0:
320,192,146376,1,0,0:0:0:0:
64,192,146530,1,2,0:0:0:0:
448,192,146530,1,4,0:0:0:0:
320,192,146683,1,0,0:0:0:0:
192,192,146759,1,0,0:0:0:0:
320,192,146836,1,8,0:0:0:0:
448,192,146836,1,0,0:0:0:0:
192,192,146989,1,0,0:0:0:0:
320,192,147142,1,2,0:0:0:0:
448,192,147142,128,4,147371:0:0:0:0:
192,192,147448,1,2,0:0:0:0:
448,192,147448,128,4,147678:0:0:0:0:
64,192,147754,1,4,0:0:0:0:
192,192,147754,1,2,0:0:0:0:
448,192,147754,1,0,0:0:0:0:
64,192,147907,128,0,148060:0:0:0:0:
320,192,148060,128,0,148213:0:0:0:0:
192,192,148213,128,0,148366:0:0:0:0:
64,192,148366,1,2,0:0:0:0:
320,192,148366,1,4,0:0:0:0:
448,192,148366,128,0,148672:0:0:0:0:
192,192,148519,1,0,0:0:0:0:
64,192,148672,1,8,0:0:0:0:
320,192,148672,1,0,0:0:0:0:
192,192,148825,128,0,148979:0:0:0:0:
320,192,148979,1,2,0:0:0:0:
448,192,148979,128,0,149132:0:0:0:0:
64,192,149132,128,0,149285:0:0:0:0:
320,192,149285,128,8,149438:0:0:0:0:
448,192,149285,1,0,0:0:0:0:
192,192,149438,128,0,149591:0:0:0:0:
64,192,149591,1,2,0:0:0:0:
448,192,149591,128,0,150203:0:0:0:0:
320,192,149744,1,0,0:0:0:100:D7S_s.wav
320,192,149897,1,8,0:0:0:0:
64,192,150050,1,0,0:0:0:100:A7S_s.wav
64,192,150203,1,2,0:0:0:0:
192,192,150203,1,0,0:0:0:100:D8S_s.wav
448,192,150356,128,0,150509:0:0:0:0:
64,192,150509,128,8,150662:0:0:0:0:
192,192,150509,1,0,0:0:0:0:
320,192,150662,128,0,150815:0:0:0:0:
64,192,150815,128,2,151121:0:0:0:0:
448,192,150815,1,0,0:0:0:0:
320,192,150968,1,0,0:0:0:0:
192,192,151121,1,8,0:0:0:0:
448,192,151121,1,0,0:0:0:0:
320,192,151274,128,0,151428:0:0:0:0:
64,192,151428,128,2,151581:0:0:0:0:
192,192,151428,1,0,0:0:0:0:
448,192,151581,128,0,151734:0:0:0:0:
64,192,151734,1,8,0:0:0:0:
192,192,151734,128,0,151887:0:0:0:0:
320,192,151887,128,0,152040:0:0:0:0:
64,192,152040,1,2,0:0:0:0:
448,192,152040,1,4,0:0:0:0:
192,192,152193,1,0,0:0:0:100:C#7S_Db7S_s.wav
320,192,152269,1,0,0:0:0:100:A#6S_Bb6S_s.wav
64,192,152346,1,12,0:0:0:0:
448,192,152346,1,0,0:0:0:100:A6S_s.wav
192,192,152422,1,0,0:0:0:100:A#6S_Bb6S_s.wav
320,192,152499,1,0,0:0:0:100:A6S_s.wav
192,192,152575,1,0,0:0:0:100:G6S_s.wav
64,192,152652,1,6,0:0:0:0:
448,192,152652,1,0,0:0:0:100:A6S_s.wav
320,192,152958,128,0,153264:0:0:0:0:
192,192,153111,1,0,0:0:0:0:
64,192,153264,1,2,0:0:0:0:
448,192,153264,1,4,0:0:0:0:
320,192,153417,1,0,0:0:0:0:
192,192,153570,1,8,0:0:0:0:
448,192,153570,1,0,0:0:0:0:
64,192,153723,1,0,0:0:0:0:
192,192,153800,1,0,0:0:0:0:
320,192,153876,1,2,0:0:0:0:
448,192,153876,1,0,0:0:0:0:
64,192,154030,1,2,0:0:0:0:
192,192,154030,1,0,0:0:0:0:
320,192,154106,1,2,0:0:0:0:
448,192,154106,1,0,0:0:0:0:
64,192,154183,1,8,0:0:0:0:
192,192,154183,1,0,0:0:0:0:
320,192,154336,1,2,0:0:0:0:
64,192,154489,1,2,0:0:0:0:
448,192,154489,1,4,0:0:0:0:
64,192,154642,1,2,0:0:0:0:
192,192,154642,1,0,0:0:0:0:
320,192,154718,1,2,0:0:0:0:
448,192,154718,1,0,0:0:0:0:
64,192,154795,1,8,0:0:0:0:
192,192,154795,1,4,0:0:0:0:
320,192,154948,1,0,0:0:0:0:
64,192,155101,1,2,0:0:0:0:
192,192,155101,1,4,0:0:0:0:
320,192,155254,1,2,0:0:0:0:
448,192,155254,1,0,0:0:0:0:
64,192,155331,1,2,0:0:0:0:
192,192,155331,1,0,0:0:0:0:
320,192,155407,1,8,0:0:0:0:
448,192,155407,1,4,0:0:0:0:
192,192,155560,1,2,0:0:0:0:
320,192,155713,1,0,0:0:0:0:
448,192,155713,128,0,156019:0:0:0:0:
64,192,155790,1,0,0:0:0:0:
192,192,155866,1,0,0:0:0:0:
320,192,155943,1,0,0:0:0:0:
64,192,156019,1,2,0:0:0:0:
192,192,156019,1,4,0:0:0:0:
64,192,156325,128,0,156632:0:0:0:0:
192,192,156325,1,0,0:0:0:0:
448,192,156402,1,0,0:0:0:0:
320,192,156479,1,0,0:0:0:0:
192,192,156555,1,0,0:0:0:0:
320,192,156632,1,4,0:0:0:0:
448,192,156632,1,2,0:0:0:0:
448,192,156938,128,0,157091:0:0:0:0:
64,192,157091,128,0,157244:0:0:0:0:
192,192,157244,1,0,0:0:0:0:
320,192,157397,1,0,0:0:0:0:
192,192,157550,1,0,0:0:0:70:S1.wav
320,192,157703,1,8,0:0:0:0:
448,192,157703,1,0,0:0:0:0:
64,192,157856,128,0,158086:0:0:0:100:SFX Hardcore Kick.wav
448,192,157856,128,0,158086:0:0:0:0:
64,192,158162,1,2,0:0:0:0:
448,192,158162,1,0,0:0:0:0:
64,192,158315,1,0,0:0:0:70:LR_Snare Drum.wav
320,192,158468,1,0,0:0:0:70:LR_Snare Drum 3.wav
192,192,158621,1,0,0:0:0:70:LR_Snare Drum 2.wav
448,192,158698,1,0,0:0:0:70:LR_Snare Drum 3.wav
320,192,158928,1,0,0:0:0:70:LR_Snare Drum.wav
320,192,159081,1,0,0:0:0:70:LR_Snare Drum 3.wav
192,192,159234,1,0,0:0:0:70:LR_Snare Drum 3.wav
64,192,159387,1,0,0:0:0:70:LR_Snare Drum.wav
448,192,159387,1,0,0:0:0:0:
448,192,159540,1,0,0:0:0:70:LR_Snare Drum.wav
192,192,159693,1,0,0:0:0:70:LR_Snare Drum 3.wav
320,192,159846,1,0,0:0:0:70:LR_Snare Drum 2.wav
64,192,159922,1,0,0:0:0:70:LR_Snare Drum 3.wav
448,192,159999,1,0,0:0:0:70:LR_Snare Drum.wav
192,192,160152,1,0,0:0:0:70:LR_Snare Drum 3.wav
192,192,160305,1,0,0:0:0:70:LR_Snare Drum.wav
448,192,160458,1,0,0:0:0:70:LR_Snare Drum 2.wav
320,192,160535,1,0,0:0:0:70:LR_Snare Drum 2.wav
64,192,160611,1,0,0:0:0:70:LR_Snare Drum.wav
192,192,160611,1,0,0:0:0:0:
64,192,160764,1,0,0:0:0:70:LR_Snare Drum.wav
320,192,160917,1,0,0:0:0:70:LR_Snare Drum 3.wav
320,192,161070,1,0,0:0:0:70:LR_Snare Drum 2.wav
192,192,161223,1,0,0:0:0:70:LR_Snare Drum 2.wav
192,192,161376,1,0,0:0:0:70:LR_Snare Drum.wav
448,192,161530,1,0,0:0:0:70:LR_Snare Drum 3.wav
448,192,161683,1,0,0:0:0:70:LR_Snare Drum 2.wav
64,192,161836,1,0,0:0:0:70:LR_Snare Drum.wav
192,192,161836,1,0,0:0:0:0:
64,192,161989,1,0,0:0:0:70:LR_Snare Drum.wav
448,192,162142,1,0,0:0:0:70:LR_Snare Drum 3.wav
448,192,162295,1,0,0:0:0:70:LR_Snare Drum.wav
320,192,162371,1,0,0:0:0:70:LR_Snare Drum 3.wav
64,192,162448,1,0,0:0:0:70:LR_Snare Drum 2.wav
192,192,162601,1,0,0:0:0:70:LR_Snare Drum.wav
192,192,162754,1,0,0:0:0:70:LR_Snare Drum.wav
320,192,162907,1,0,0:0:0:70:LR_Snare Drum 2.wav
64,192,163060,1,0,0:0:0:70:LR_Snare Drum.wav
448,192,163060,1,0,0:0:0:0:
64,192,163213,1,0,0:0:0:70:LR_Snare Drum.wav
320,192,163366,1,0,0:0:0:70:LR_Snare Drum 3.wav
192,192,163519,1,0,0:0:0:70:LR_Snare Drum 2.wav
448,192,163596,1,0,0:0:0:70:LR_Snare Drum 3.wav
320,192,163825,1,0,0:0:0:70:LR_Snare Drum.wav
320,192,163979,1,0,0:0:0:70:LR_Snare Drum 3.wav
192,192,164132,1,0,0:0:0:70:LR_Snare Drum 2.wav
64,192,164285,1,0,0:0:0:70:LR_Snare Drum.wav
448,192,164285,1,0,0:0:0:0:
448,192,164438,1,0,0:0:0:70:LR_Snare Drum.wav
192,192,164591,1,0,0:0:0:70:LR_Snare Drum 3.wav
192,192,164744,1,0,0:0:0:70:LR_Snare Drum 2.wav
320,192,164897,1,0,0:0:0:70:LR_Snare Drum.wav
448,192,164973,1,0,0:0:0:0:
64,192,165050,1,0,0:0:0:70:LR_Snare Drum 3.wav
64,192,165203,1,0,0:0:0:70:LR_Snare Drum 2.wav
320,192,165356,1,0,0:0:0:70:LR_Snare Drum 2.wav
192,192,165433,1,0,0:0:0:70:LR_Snare Drum 2.wav
64,192,165509,1,0,0:0:0:70:LR_Snare Drum.wav
448,192,165509,1,0,0:0:0:0:
448,192,165662,1,0,0:0:0:70:LR_Snare Drum.wav
64,192,165815,1,0,0:0:0:70:LR_Snare Drum 3.wav
64,192,165968,1,0,0:0:0:70:LR_Snare Drum.wav
320,192,166121,1,0,0:0:0:70:LR_Snare Drum.wav
448,192,166121,1,0,0:0:0:0:
320,192,166274,1,0,0:0:0:70:LR_Snare Drum.wav
192,192,166428,1,0,0:0:0:70:LR_Snare Drum 3.wav
192,192,166581,1,0,0:0:0:70:LR_Snare Drum.wav
64,192,166734,1,0,0:0:0:70:LR_Snare Drum.wav
448,192,166734,1,0,0:0:0:0:
448,192,166887,1,0,0:0:0:70:LR_Snare Drum 3.wav
64,192,167040,1,0,0:0:0:70:LR_Snare Drum.wav
64,192,167193,1,0,0:0:0:70:LR_Snare Drum 3.wav
320,192,167346,1,0,0:0:0:0:
64,192,167499,128,0,167652:0:0:0:0:
320,192,167652,128,0,167805:0:0:0:0:
192,192,167805,128,0,167958:0:0:0:0:
64,192,167958,1,2,0:0:0:0:
448,192,167958,1,4,0:0:0:0:
320,192,168035,1,0,0:0:0:0:
192,192,168111,1,0,0:0:0:0:
64,192,168188,1,0,0:0:0:0:
320,192,168264,1,8,0:0:0:0:
448,192,168264,1,0,0:0:0:0:
192,192,168341,1,0,0:0:0:0:
320,192,168417,1,0,0:0:0:0:
64,192,168570,1,2,0:0:0:0:
192,192,168570,1,0,0:0:0:0:
320,192,168647,1,0,0:0:0:0:
192,192,168723,1,0,0:0:0:0:
64,192,168800,1,0,0:0:0:0:
320,192,168876,1,8,0:0:0:0:
448,192,168876,1,0,0:0:0:0:
192,192,168953,1,0,0:0:0:0:
320,192,169030,1,0,0:0:0:0:
64,192,169183,1,2,0:0:0:0:
192,192,169183,1,0,0:0:0:0:
320,192,169259,1,0,0:0:0:0:
64,192,169336,1,0,0:0:0:0:
192,192,169412,1,0,0:0:0:0:
320,192,169489,1,8,0:0:0:0:
448,192,169489,1,0,0:0:0:0:
192,192,169565,1,0,0:0:0:0:
320,192,169642,1,0,0:0:0:0:
64,192,169795,1,2,0:0:0:0:
192,192,169795,1,0,0:0:0:0:
192,192,169948,1,0,0:0:0:0:
64,192,170101,1,8,0:0:0:0:
448,192,170101,1,0,0:0:0:0:
448,192,170254,1,0,0:0:0:0:
64,192,170407,1,2,0:0:0:0:
192,192,170407,1,0,0:0:0:0:
320,192,170484,1,0,0:0:0:0:
64,192,170560,1,0,0:0:0:0:
192,192,170637,1,0,0:0:0:0:
320,192,170713,1,8,0:0:0:0:
448,192,170713,1,0,0:0:0:0:
192,192,170790,1,0,0:0:0:0:
448,192,170866,1,0,0:0:0:0:
64,192,171019,1,2,0:0:0:0:
192,192,171019,1,0,0:0:0:0:
320,192,171096,1,0,0:0:0:0:
192,192,171172,1,0,0:0:0:0:
64,192,171249,1,0,0:0:0:0:
320,192,171325,1,8,0:0:0:0:
448,192,171325,1,0,0:0:0:0:
192,192,171402,1,0,0:0:0:0:
448,192,171479,1,0,0:0:0:0:
64,192,171632,1,2,0:0:0:0:
192,192,171632,1,0,0:0:0:0:
64,192,171785,1,0,0:0:0:0:
320,192,171938,1,8,0:0:0:0:
448,192,171938,1,0,0:0:0:0:
448,192,172091,1,0,0:0:0:0:
64,192,172244,1,2,0:0:0:0:
192,192,172244,1,0,0:0:0:0:
192,192,172397,1,0,0:0:0:0:
64,192,172550,1,8,0:0:0:0:
448,192,172550,1,0,0:0:0:0:
320,192,172626,1,0,0:0:0:0:
192,192,172703,1,0,0:0:0:0:
320,192,172780,1,0,0:0:0:0:
64,192,172856,1,2,0:0:0:0:
448,192,172856,1,0,0:0:0:0:
192,192,172933,1,0,0:0:0:0:
320,192,173009,1,0,0:0:0:0:
448,192,173086,1,0,0:0:0:0:
64,192,173162,1,8,0:0:0:0:
192,192,173162,1,0,0:0:0:0:
320,192,173239,1,0,0:0:0:0:
192,192,173315,1,0,0:0:0:0:
320,192,173468,1,2,0:0:0:0:
448,192,173468,1,0,0:0:0:0:
192,192,173545,1,0,0:0:0:0:
320,192,173621,1,0,0:0:0:0:
448,192,173698,1,0,0:0:0:0:
64,192,173774,1,8,0:0:0:0:
192,192,173774,1,0,0:0:0:0:
320,192,173851,1,0,0:0:0:0:
192,192,173928,1,0,0:0:0:0:
320,192,174081,1,2,0:0:0:0:
448,192,174081,1,0,0:0:0:0:
192,192,174157,1,0,0:0:0:0:
448,192,174234,1,0,0:0:0:0:
320,192,174310,1,0,0:0:0:0:
64,192,174387,1,8,0:0:0:0:
192,192,174387,1,0,0:0:0:0:
320,192,174463,1,0,0:0:0:0:
192,192,174540,1,0,0:0:0:0:
320,192,174693,1,2,0:0:0:0:
448,192,174693,1,0,0:0:0:0:
320,192,174846,1,0,0:0:0:0:
64,192,174999,1,8,0:0:0:0:
448,192,174999,1,0,0:0:0:0:
64,192,175152,1,0,0:0:0:0:
320,192,175305,1,2,0:0:0:0:
448,192,175305,1,0,0:0:0:0:
192,192,175382,1,0,0:0:0:0:
448,192,175458,1,0,0:0:0:0:
320,192,175535,1,0,0:0:0:0:
64,192,175611,1,8,0:0:0:0:
192,192,175611,1,0,0:0:0:0:
320,192,175688,1,0,0:0:0:0:
64,192,175764,1,0,0:0:0:0:
320,192,175917,1,2,0:0:0:0:
448,192,175917,1,0,0:0:0:0:
192,192,175994,1,0,0:0:0:0:
320,192,176070,1,0,0:0:0:0:
448,192,176147,1,0,0:0:0:0:
64,192,176223,1,8,0:0:0:0:
192,192,176223,1,0,0:0:0:0:
320,192,176300,1,0,0:0:0:0:
64,192,176376,1,0,0:0:0:0:
320,192,176530,1,2,0:0:0:0:
448,192,176530,1,0,0:0:0:0:
448,192,176683,1,0,0:0:0:0:
64,192,176836,1,8,0:0:0:0:
192,192,176836,1,0,0:0:0:0:
64,192,176989,1,0,0:0:0:0:
320,192,177142,1,2,0:0:0:0:
448,192,177142,1,0,0:0:0:0:
320,192,177295,1,0,0:0:0:0:
64,192,177448,1,8,0:0:0:0:
448,192,177448,1,0,0:0:0:0:
192,192,177601,1,0,0:0:0:0:
64,192,177754,1,2,0:0:0:0:
448,192,177754,1,4,0:0:0:0:
320,192,177831,1,0,0:0:0:0:
192,192,177907,1,0,0:0:0:0:
64,192,177984,1,0,0:0:0:0:
320,192,178060,1,8,0:0:0:0:
448,192,178060,1,0,0:0:0:0:
192,192,178137,1,0,0:0:0:0:
320,192,178213,1,0,0:0:0:0:
64,192,178366,1,2,0:0:0:0:
192,192,178366,1,0,0:0:0:0:
320,192,178443,1,0,0:0:0:0:
192,192,178519,1,0,0:0:0:0:
64,192,178596,1,0,0:0:0:0:
320,192,178672,1,8,0:0:0:0:
448,192,178672,1,0,0:0:0:0:
192,192,178749,1,0,0:0:0:0:
320,192,178825,1,0,0:0:0:0:
64,192,178979,1,2,0:0:0:0:
192,192,178979,1,0,0:0:0:0:
320,192,179055,1,0,0:0:0:0:
64,192,179132,1,0,0:0:0:0:
192,192,179208,1,0,0:0:0:0:
320,192,179285,1,8,0:0:0:0:
448,192,179285,1,0,0:0:0:0:
192,192,179361,1,0,0:0:0:0:
320,192,179438,1,0,0:0:0:0:
64,192,179591,1,2,0:0:0:0:
192,192,179591,1,0,0:0:0:0:
192,192,179744,1,0,0:0:0:0:
64,192,179897,1,8,0:0:0:0:
448,192,179897,1,0,0:0:0:0:
448,192,180050,1,0,0:0:0:0:
64,192,180203,1,2,0:0:0:0:
192,192,180203,1,0,0:0:0:0:
320,192,180280,1,0,0:0:0:0:
64,192,180356,1,0,0:0:0:0:
192,192,180433,1,0,0:0:0:0:
320,192,180509,1,8,0:0:0:0:
448,192,180509,1,0,0:0:0:0:
192,192,180586,1,0,0:0:0:0:
448,192,180662,1,0,0:0:0:0:
64,192,180815,1,2,0:0:0:0:
192,192,180815,1,0,0:0:0:0:
320,192,180892,1,0,0:0:0:0:
192,192,180968,1,0,0:0:0:0:
64,192,181045,1,0,0:0:0:0:
320,192,181121,1,8,0:0:0:0:
448,192,181121,1,0,0:0:0:0:
192,192,181198,1,0,0:0:0:0:
448,192,181274,1,0,0:0:0:0:
64,192,181428,1,2,0:0:0:0:
192,192,181428,1,0,0:0:0:0:
64,192,181581,1,0,0:0:0:0:
320,192,181734,1,8,0:0:0:0:
448,192,181734,1,0,0:0:0:0:
448,192,181887,1,0,0:0:0:0:
64,192,182040,1,2,0:0:0:0:
192,192,182040,1,0,0:0:0:0:
192,192,182193,1,0,0:0:0:0:
64,192,182346,1,8,0:0:0:0:
448,192,182346,1,0,0:0:0:0:
320,192,182422,1,0,0:0:0:0:
192,192,182499,1,0,0:0:0:0:
320,192,182575,1,0,0:0:0:0:
64,192,182652,1,2,0:0:0:0:
448,192,182652,1,4,0:0:0:0:
192,192,182729,1,0,0:0:0:0:
320,192,182805,1,0,0:0:0:0:
448,192,182882,1,0,0:0:0:0:
64,192,182958,1,8,0:0:0:0:
192,192,182958,1,0,0:0:0:0:
320,192,183035,1,0,0:0:0:0:
192,192,183111,1,0,0:0:0:0:
320,192,183264,1,2,0:0:0:0:
448,192,183264,1,0,0:0:0:0:
192,192,183341,1,0,0:0:0:0:
320,192,183417,1,0,0:0:0:0:
448,192,183494,1,0,0:0:0:0:
64,192,183570,1,8,0:0:0:0:
192,192,183570,1,0,0:0:0:0:
320,192,183647,1,0,0:0:0:0:
192,192,183723,1,0,0:0:0:0:
320,192,183876,1,2,0:0:0:0:
448,192,183876,1,4,0:0:0:0:
192,192,183953,1,0,0:0:0:0:
448,192,184030,1,0,0:0:0:0:
320,192,184106,1,0,0:0:0:0:
64,192,184183,1,8,0:0:0:0:
192,192,184183,1,0,0:0:0:0:
320,192,184259,1,0,0:0:0:0:
192,192,184336,1,0,0:0:0:0:
320,192,184489,1,2,0:0:0:0:
448,192,184489,1,0,0:0:0:0:
320,192,184642,1,0,0:0:0:0:
64,192,184795,1,8,0:0:0:0:
448,192,184795,1,0,0:0:0:0:
64,192,184948,1,0,0:0:0:0:
320,192,185101,1,2,0:0:0:0:
448,192,185101,1,4,0:0:0:0:
64,192,185178,1,0,0:0:0:40:S2.wav
448,192,185254,1,0,0:0:0:40:S2.wav
320,192,185331,1,0,0:0:0:40:S2.wav
64,192,185407,1,8,0:0:0:0:
192,192,185407,1,0,0:0:0:0:
448,192,185484,1,0,0:0:0:40:S2.wav
64,192,185560,1,0,0:0:0:40:S2.wav
192,192,185637,1,0,0:0:0:40:S2.wav
320,192,185713,1,2,0:0:0:0:
448,192,185713,1,4,0:0:0:0:
64,192,185790,1,0,0:0:0:60:S2.wav
448,192,185866,1,0,0:0:0:60:S2.wav
320,192,185943,1,0,0:0:0:60:S2.wav
64,192,186019,1,8,0:0:0:0:
192,192,186019,1,0,0:0:0:0:
448,192,186096,1,0,0:0:0:60:S2.wav
64,192,186172,1,0,0:0:0:60:S2.wav
192,192,186249,1,0,0:0:0:60:S2.wav
320,192,186325,1,2,0:0:0:0:
448,192,186325,1,4,0:0:0:0:
192,192,186479,1,0,0:0:0:60:S2.wav
320,192,186555,1,0,0:0:0:60:S2.wav
64,192,186632,1,8,0:0:0:0:
448,192,186632,1,0,0:0:0:0:
192,192,186708,1,0,0:0:0:70:S2.wav
448,192,186785,1,0,0:0:0:70:S2.wav
320,192,186861,1,0,0:0:0:70:S2.wav
192,192,186938,1,4,0:0:0:0:
64,192,186938,1,2,0:0:0:0:
320,192,187014,1,0,0:0:0:70:S2.wav
64,192,187091,1,0,0:0:0:70:S2.wav
192,192,187167,1,0,0:0:0:70:S2.wav
320,192,187244,1,8,0:0:0:0:
448,192,187320,1,0,0:0:0:70:S2.wav
192,192,187397,1,0,0:0:0:70:S2.wav
320,192,187473,1,0,0:0:0:70:S2.wav
64,192,187550,1,2,0:0:0:0:
448,192,187550,1,4,0:0:0:0:
192,192,187703,1,0,0:0:0:0:
448,192,187856,1,0,0:0:0:70:S3.wav
192,192,188009,1,0,0:0:0:70:LR_Snare Drum 2.wav
320,192,188162,1,0,0:0:0:0:
64,192,188315,1,0,0:0:0:70:LR_Snare Drum.wav
448,192,188468,1,0,0:0:0:70:S3.wav
192,192,188621,1,0,0:0:0:0:
448,192,188774,1,0,0:0:0:70:LR_Snare Drum.wav
448,192,188928,1,0,0:0:0:70:LR_Snare Drum.wav
64,192,189081,1,0,0:0:0:70:S3.wav
320,192,189234,1,0,0:0:0:70:LR_Snare Drum 2.wav
448,192,189387,1,0,0:0:0:70:LR_Snare Drum.wav
192,192,189540,1,0,0:0:0:70:S3.wav
448,192,189693,1,0,0:0:0:70:LR_Snare Drum.wav
192,192,189846,1,0,0:0:0:70:LR_Snare Drum 2.wav
320,192,189999,1,2,0:0:0:0:
448,192,189999,1,4,0:0:0:0:
192,192,190152,1,0,0:0:0:0:
64,192,190305,1,0,0:0:0:70:S3.wav
320,192,190458,1,0,0:0:0:70:LR_Snare Drum 2.wav
192,192,190611,1,0,0:0:0:0:
448,192,190764,1,0,0:0:0:70:LR_Snare Drum.wav
64,192,190917,1,0,0:0:0:70:S3.wav
320,192,191070,1,0,0:0:0:0:
64,192,191223,1,0,0:0:0:50:S2.wav
192,192,191223,1,0,0:0:0:0:
320,192,191300,1,0,0:0:0:50:S2.wav
64,192,191376,1,0,0:0:0:50:S2.wav
448,192,191376,1,0,0:0:0:0:
192,192,191453,1,0,0:0:0:50:S2.wav
448,192,191530,1,0,0:0:0:70:LR_Snare Drum.wav
320,192,191606,1,0,0:0:0:50:S2.wav
64,192,191683,1,0,0:0:0:70:S3.wav
192,192,191759,1,0,0:0:0:70:S3.wav
448,192,191836,1,0,0:0:0:70:LR_Snare Drum.wav
320,192,191912,1,0,0:0:0:50:S2.wav
192,192,191989,1,0,0:0:0:70:S3.wav
64,192,192065,1,0,0:0:0:70:S3.wav
320,192,192142,1,0,0:0:0:70:LR_Snare Drum.wav
448,192,192142,128,0,192448:0:0:0:0:
192,192,192218,1,0,0:0:0:70:S3.wav
64,192,192295,1,0,0:0:0:70:S3.wav
320,192,192371,1,0,0:0:0:70:S3.wav
64,192,192448,128,6,193672:0:0:0:0:
192,192,192448,1,0,0:0:0:100:B4S_s.wav
320,192,192601,1,0,0:0:0:100:A4S_s.wav
448,192,192754,1,0,0:0:0:100:B4S_s.wav
192,192,192907,1,0,0:0:0:100:D5S_s.wav
320,192,193366,1,0,0:0:0:0:
448,192,193672,128,0,194897:0:0:0:100:B4S_s.wav
192,192,193825,1,0,0:0:0:100:A4S_s.wav
320,192,193979,1,0,0:0:0:100:B4S_s.wav
64,192,194132,1,0,0:0:0:100:D5S_s.wav
192,192,194438,1,0,0:0:0:100:E5S_s.wav
320,192,194591,1,0,0:0:0:100:B4S_s.wav
64,192,194744,1,0,0:0:0:100:A4S_s.wav
192,192,194897,128,0,196121:0:0:0:100:B4S_s.wav
448,192,195050,1,0,0:0:0:100:A4S_s.wav
320,192,195203,1,0,0:0:0:100:B4S_s.wav
64,192,195356,1,0,0:0:0:100:D5S_s.wav
448,192,195815,1,0,0:0:0:0:
320,192,196121,128,0,196734:0:0:0:100:B4S_s.wav
64,192,196274,1,0,0:0:0:100:A4S_s.wav
192,192,196428,1,0,0:0:0:100:B4S_s.wav
448,192,196581,1,0,0:0:0:100:F#5S_Gb5S_s.wav
64,192,196734,1,0,0:0:0:0:
320,192,196887,1,0,0:0:0:100:F#5S_Gb5S_s.wav
320,192,197040,1,0,0:0:0:100:E5S_s.wav
64,192,197346,1,2,0:0:0:0:
192,192,197346,1,4,0:0:0:0:
448,192,197346,1,0,0:0:0:0:
192,192,197499,1,0,0:0:0:0:
64,192,197652,1,8,0:0:0:0:
448,192,197652,1,0,0:0:0:0:
320,192,197805,1,0,0:0:0:0:
64,192,197958,1,2,0:0:0:0:
192,192,197958,1,0,0:0:0:0:
320,192,198111,1,0,0:0:0:0:
192,192,198264,1,8,0:0:0:0:
448,192,198264,1,0,0:0:0:0:
192,192,198417,1,0,0:0:0:50:S2.wav
64,192,198570,1,2,0:0:0:0:
320,192,198570,1,4,0:0:0:0:
448,192,198570,1,0,0:0:0:0:
320,192,198723,1,0,0:0:0:0:
64,192,198876,1,8,0:0:0:0:
448,192,198876,1,0,0:0:0:0:
192,192,199030,1,0,0:0:0:0:
320,192,199183,1,2,0:0:0:0:
448,192,199183,1,0,0:0:0:0:
192,192,199336,1,0,0:0:0:50:S2.wav
320,192,199412,1,0,0:0:0:50:S2.wav
64,192,199489,1,8,0:0:0:0:
448,192,199489,1,0,0:0:0:0:
64,192,199642,1,0,0:0:0:50:S2.wav
320,192,199795,1,0,0:0:0:0:
448,192,199795,128,0,200101:0:0:0:0:
64,192,199871,1,0,0:0:0:0:
192,192,199948,1,0,0:0:0:0:
320,192,200024,1,0,0:0:0:0:
64,192,200101,1,2,0:0:0:0:
192,192,200101,1,4,0:0:0:0:
64,192,200407,128,0,200713:0:0:0:0:
192,192,200407,1,0,0:0:0:0:
448,192,200484,1,0,0:0:0:0:
320,192,200560,1,0,0:0:0:0:
192,192,200637,1,0,0:0:0:0:
320,192,200713,1,4,0:0:0:0:
448,192,200713,1,2,0:0:0:0:
64,192,201019,1,2,0:0:0:0:
192,192,201019,1,4,0:0:0:0:
320,192,201096,1,0,0:0:0:50:S2.wav
448,192,201172,1,0,0:0:0:50:S2.wav
192,192,201249,1,0,0:0:0:50:S2.wav
64,192,201325,1,0,0:0:0:50:S2.wav
448,192,201325,1,0,0:0:0:0:
320,192,201402,1,0,0:0:0:50:S2.wav
64,192,201479,1,0,0:0:0:50:S2.wav
192,192,201555,1,0,0:0:0:50:S2.wav
320,192,201632,1,0,0:0:0:50:S2.wav
448,192,201632,1,0,0:0:0:0:
64,192,201785,128,0,201938:0:0:0:0:
320,192,201938,128,0,202091:0:0:0:0:
192,192,202091,128,0,202244:0:0:0:0:
64,192,202244,1,2,0:0:0:0:
320,192,202244,1,4,0:0:0:0:
448,192,202244,128,0,202550:0:0:0:0:
192,192,202397,1,0,0:0:0:0:
64,192,202550,1,8,0:0:0:0:
320,192,202550,1,0,0:0:0:0:
192,192,202703,128,0,202856:0:0:0:0:
320,192,202856,1,2,0:0:0:0:
448,192,202856,128,0,203009:0:0:0:0:
64,192,203009,128,0,203162:0:0:0:0:
320,192,203162,128,8,203315:0:0:0:0:
448,192,203162,1,0,0:0:0:0:
192,192,203315,128,0,203468:0:0:0:0:
64,192,203468,1,2,0:0:0:0:
448,192,203468,128,0,204081:0:0:0:0:
320,192,203621,1,0,0:0:0:100:D7S_s.wav
320,192,203774,1,8,0:0:0:0:
64,192,203928,1,0,0:0:0:100:A7S_s.wav
64,192,204081,1,2,0:0:0:0:
192,192,204081,1,0,0:0:0:100:D8S_s.wav
448,192,204234,128,0,204387:0:0:0:0:
64,192,204387,128,8,204540:0:0:0:0:
192,192,204387,1,0,0:0:0:0:
320,192,204540,128,0,204693:0:0:0:0:
64,192,204693,128,2,204999:0:0:0:0:
448,192,204693,1,0,0:0:0:0:
320,192,204846,1,0,0:0:0:0:
192,192,204999,1,8,0:0:0:0:
448,192,204999,1,0,0:0:0:0:
320,192,205152,128,0,205305:0:0:0:0:
64,192,205305,128,2,205458:0:0:0:0:
192,192,205305,1,0,0:0:0:0:
448,192,205458,128,0,205611:0:0:0:0:
64,192,205611,1,8,0:0:0:0:
192,192,205611,128,0,205764:0:0:0:0:
320,192,205764,128,0,205917:0:0:0:0:
64,192,205917,1,2,0:0:0:0:
448,192,205917,1,4,0:0:0:0:
192,192,206070,1,0,0:0:0:100:C#7S_Db7S_s.wav
320,192,206147,1,0,0:0:0:100:A#6S_Bb6S_s.wav
64,192,206223,1,12,0:0:0:0:
448,192,206223,1,0,0:0:0:100:A6S_s.wav
192,192,206300,1,0,0:0:0:100:A#6S_Bb6S_s.wav
320,192,206376,1,0,0:0:0:100:A6S_s.wav
192,192,206453,1,0,0:0:0:100:G6S_s.wav
64,192,206530,1,6,0:0:0:0:
448,192,206530,1,0,0:0:0:100:A6S_s.wav
320,192,206836,128,0,207142:0:0:0:0:
192,192,206989,128,0,207142:0:0:0:0:
64,192,207142,1,2,0:0:0:0:
448,192,207142,1,4,0:0:0:0:
320,192,207295,1,0,0:0:0:0:
192,192,207448,1,8,0:0:0:0:
448,192,207448,1,0,0:0:0:0:
64,192,207601,1,0,0:0:0:0:
320,192,207754,1,2,0:0:0:0:
448,192,207754,1,0,0:0:0:0:
64,192,207907,1,2,0:0:0:0:
192,192,207907,1,0,0:0:0:0:
320,192,207984,1,2,0:0:0:0:
448,192,207984,1,0,0:0:0:0:
64,192,208060,1,8,0:0:0:0:
192,192,208060,1,0,0:0:0:0:
320,192,208213,1,2,0:0:0:0:
448,192,208213,1,0,0:0:0:0:
64,192,208519,1,2,0:0:0:0:
192,192,208519,1,4,0:0:0:0:
64,192,208672,1,8,0:0:0:0:
448,192,208672,1,4,0:0:0:0:
320,192,208825,1,0,0:0:0:0:
64,192,208979,1,2,0:0:0:0:
192,192,208979,1,4,0:0:0:0:
320,192,209132,1,2,0:0:0:0:
448,192,209132,1,0,0:0:0:0:
64,192,209208,1,2,0:0:0:0:
192,192,209208,1,0,0:0:0:0:
320,192,209285,1,8,0:0:0:0:
448,192,209285,1,4,0:0:0:0:
64,192,209438,1,2,0:0:0:0:
192,192,209438,1,0,0:0:0:0:
64,192,209591,1,2,0:0:0:0:
448,192,209591,1,4,0:0:0:0:
320,192,209744,1,0,0:0:0:0:
192,192,209820,1,0,0:0:0:0:
320,192,209897,1,8,0:0:0:0:
448,192,209897,1,0,0:0:0:0:
192,192,210050,1,0,0:0:0:0:
64,192,210203,1,2,0:0:0:0:
448,192,210203,1,4,0:0:0:0:
192,192,210356,1,0,0:0:0:0:
320,192,210433,1,0,0:0:0:0:
64,192,210509,1,8,0:0:0:0:
192,192,210509,1,0,0:0:0:0:
320,192,210662,1,0,0:0:0:0:
64,192,210815,128,2,211045:0:0:0:0:
192,192,210815,1,4,0:0:0:0:
64,192,211121,128,2,211351:0:0:0:0:
320,192,211121,1,4,0:0:0:0:
64,192,211428,1,4,0:0:0:0:
320,192,211428,1,2,0:0:0:0:
448,192,211428,1,0,0:0:0:0:
448,192,211581,128,0,211734:0:0:0:0:
192,192,211734,128,0,211887:0:0:0:0:
320,192,211887,128,0,212040:0:0:0:0:
64,192,212040,128,2,212346:0:0:0:0:
192,192,212040,1,4,0:0:0:0:
448,192,212040,1,0,0:0:0:0:
320,192,212193,1,0,0:0:0:0:
192,192,212346,1,8,0:0:0:0:
448,192,212346,1,0,0:0:0:0:
320,192,212499,128,0,212652:0:0:0:0:
64,192,212652,128,2,212805:0:0:0:0:
192,192,212652,1,0,0:0:0:0:
448,192,212805,128,0,212958:0:0:0:0:
64,192,212958,1,8,0:0:0:0:
192,192,212958,128,0,213111:0:0:0:0:
320,192,213111,128,0,213264:0:0:0:0:
64,192,213264,128,2,213876:0:0:0:0:
448,192,213264,1,0,0:0:0:0:
192,192,213417,1,0,0:0:0:100:D7S_s.wav
192,192,213570,1,8,0:0:0:0:
448,192,213723,1,0,0:0:0:100:A7S_s.wav
320,192,213876,1,2,0:0:0:0:
448,192,213876,1,0,0:0:0:100:D8S_s.wav
64,192,214030,128,0,214183:0:0:0:0:
320,192,214183,1,8,0:0:0:0:
448,192,214183,128,0,214336:0:0:0:0:
192,192,214336,128,0,214489:0:0:0:0:
64,192,214489,1,2,0:0:0:0:
448,192,214489,128,0,214795:0:0:0:0:
192,192,214642,1,0,0:0:0:0:
64,192,214795,1,8,0:0:0:0:
320,192,214795,1,0,0:0:0:0:
192,192,214948,128,0,215101:0:0:0:0:
320,192,215101,1,2,0:0:0:0:
448,192,215101,128,0,215254:0:0:0:0:
64,192,215254,128,0,215407:0:0:0:0:
320,192,215407,128,8,215560:0:0:0:0:
448,192,215407,1,0,0:0:0:0:
192,192,215560,128,0,215713:0:0:0:0:
64,192,215713,1,2,0:0:0:0:
448,192,215713,1,4,0:0:0:0:
320,192,215866,1,0,0:0:0:100:C#7S_Db7S_s.wav
192,192,215943,1,0,0:0:0:100:A#6S_Bb6S_s.wav
64,192,216019,1,12,0:0:0:0:
448,192,216019,1,0,0:0:0:100:A6S_s.wav
320,192,216096,1,0,0:0:0:100:A#6S_Bb6S_s.wav
192,192,216172,1,0,0:0:0:100:A6S_s.wav
320,192,216249,1,0,0:0:0:100:G6S_s.wav
64,192,216325,1,6,0:0:0:0:
448,192,216325,1,0,0:0:0:100:A6S_s.wav
192,192,216632,128,0,216938:0:0:0:0:
320,192,216785,1,0,0:0:0:0:
64,192,216938,1,2,0:0:0:0:
448,192,216938,1,4,0:0:0:0:
192,192,217091,1,0,0:0:0:0:
64,192,217244,1,8,0:0:0:0:
320,192,217244,1,0,0:0:0:0:
448,192,217397,1,0,0:0:0:0:
320,192,217473,1,0,0:0:0:0:
64,192,217550,1,2,0:0:0:0:
192,192,217550,1,0,0:0:0:0:
320,192,217703,1,2,0:0:0:0:
448,192,217703,1,0,0:0:0:0:
64,192,217780,1,2,0:0:0:0:
192,192,217780,1,0,0:0:0:0:
320,192,217856,1,8,0:0:0:0:
448,192,217856,1,0,0:0:0:0:
192,192,218009,1,2,0:0:0:0:
64,192,218162,1,2,0:0:0:0:
448,192,218162,1,4,0:0:0:0:
320,192,218315,1,2,0:0:0:0:
448,192,218315,1,0,0:0:0:0:
64,192,218392,1,2,0:0:0:0:
192,192,218392,1,0,0:0:0:0:
320,192,218468,1,8,0:0:0:0:
448,192,218468,1,4,0:0:0:0:
192,192,218621,1,0,0:0:0:0:
320,192,218774,1,2,0:0:0:0:
448,192,218774,1,4,0:0:0:0:
64,192,218928,1,2,0:0:0:0:
192,192,218928,1,0,0:0:0:0:
320,192,219004,1,2,0:0:0:0:
448,192,219004,1,0,0:0:0:0:
64,192,219081,1,8,0:0:0:0:
192,192,219081,1,4,0:0:0:0:
320,192,219234,1,2,0:0:0:0:
64,192,219387,128,0,219693:0:0:0:0:
192,192,219387,1,0,0:0:0:0:
448,192,219463,1,0,0:0:0:0:
320,192,219540,1,0,0:0:0:0:
192,192,219616,1,0,0:0:0:0:
320,192,219693,1,2,0:0:0:0:
448,192,219693,1,4,0:0:0:0:
320,192,219999,1,0,0:0:0:0:
448,192,219999,128,0,220305:0:0:0:0:
64,192,220075,1,0,0:0:0:0:
192,192,220152,1,0,0:0:0:0:
320,192,220229,1,0,0:0:0:0:
64,192,220305,1,4,0:0:0:0:
192,192,220305,1,2,0:0:0:0:
448,192,220611,128,0,220764:0:0:0:0:
192,192,220764,1,0,0:0:0:0:
320,192,220917,128,0,221070:0:0:0:0:
64,192,221070,1,0,0:0:0:0:
320,192,221223,1,0,0:0:0:70:S1.wav
448,192,221376,1,8,0:0:0:0:
320,192,221376,1,0,0:0:0:0:
64,192,221530,128,0,221759:0:0:0:100:SFX Hardcore Kick.wav
448,192,221530,128,0,221759:0:0:0:0:
448,192,221836,1,2,0:0:0:0:
192,192,221836,1,0,0:0:0:0:
64,192,221836,1,4,0:0:0:0:
192,192,221989,1,0,0:0:0:0:
64,192,222142,1,8,0:0:0:0:
448,192,222142,1,0,0:0:0:0:
448,192,222295,1,0,0:0:0:0:
64,192,222448,1,2,0:0:0:0:
192,192,222448,1,0,0:0:0:0:
320,192,222601,1,0,0:0:0:0:
64,192,222754,1,8,0:0:0:0:
192,192,222831,1,0,0:0:0:0:
448,192,222907,1,0,0:0:0:0:
320,192,222984,1,0,0:0:0:0:
64,192,223060,1,2,0:0:0:0:
192,192,223060,1,0,0:0:0:0:
320,192,223213,1,0,0:0:0:0:
64,192,223366,1,8,0:0:0:0:
448,192,223366,1,0,0:0:0:0:
64,192,223519,1,0,0:0:0:0:
320,192,223672,1,2,0:0:0:0:
448,192,223672,1,0,0:0:0:0:
320,192,223825,128,0,223979:0:0:0:0:
64,192,223979,1,8,0:0:0:0:
448,192,223979,1,0,0:0:0:0:
64,192,224132,128,0,224285:0:0:0:0:
320,192,224285,1,2,0:0:0:0:
448,192,224285,1,0,0:0:0:0:
192,192,224438,1,0,0:0:0:0:
64,192,224591,1,8,0:0:0:0:
448,192,224591,1,0,0:0:0:0:
448,192,224744,1,0,0:0:0:0:
64,192,224897,1,2,0:0:0:0:
192,192,224897,1,0,0:0:0:0:
320,192,225050,1,0,0:0:0:0:
64,192,225203,1,8,0:0:0:0:
192,192,225280,1,0,0:0:0:0:
448,192,225356,1,0,0:0:0:0:
320,192,225433,1,0,0:0:0:0:
64,192,225509,1,2,0:0:0:0:
192,192,225509,1,0,0:0:0:0:
320,192,225662,1,0,0:0:0:0:
64,192,225815,1,8,0:0:0:0:
448,192,225815,1,0,0:0:0:0:
64,192,225968,128,0,226121:0:0:0:0:
320,192,226121,1,2,0:0:0:0:
448,192,226121,1,0,0:0:0:0:
320,192,226274,128,0,226428:0:0:0:0:
64,192,226428,1,8,0:0:0:0:
192,192,226428,128,0,226581:0:0:0:0:
448,192,226581,1,0,0:0:0:0:
64,192,226734,1,2,0:0:0:0:
192,192,226734,1,0,0:0:0:0:
320,192,226887,1,0,0:0:0:0:
64,192,227040,1,8,0:0:0:0:
448,192,227040,1,0,0:0:0:0:
64,192,227193,1,0,0:0:0:0:
320,192,227346,1,2,0:0:0:0:
448,192,227346,1,0,0:0:0:0:
192,192,227499,1,0,0:0:0:0:
448,192,227652,1,8,0:0:0:0:
320,192,227729,1,0,0:0:0:0:
64,192,227805,1,0,0:0:0:0:
192,192,227882,1,0,0:0:0:0:
320,192,227958,1,2,0:0:0:0:
448,192,227958,1,0,0:0:0:0:
192,192,228111,1,0,0:0:0:0:
64,192,228264,1,8,0:0:0:0:
448,192,228264,1,0,0:0:0:0:
448,192,228417,1,0,0:0:0:0:
64,192,228570,1,2,0:0:0:0:
192,192,228570,1,0,0:0:0:0:
192,192,228723,128,0,228876:0:0:0:0:
64,192,228876,1,8,0:0:0:0:
448,192,228876,1,0,0:0:0:0:
448,192,229030,128,0,229183:0:0:0:0:
64,192,229183,1,2,0:0:0:0:
192,192,229183,1,0,0:0:0:0:
320,192,229336,1,0,0:0:0:0:
64,192,229489,1,8,0:0:0:0:
448,192,229489,1,0,0:0:0:0:
64,192,229642,1,0,0:0:0:0:
320,192,229795,1,2,0:0:0:0:
448,192,229795,1,0,0:0:0:0:
192,192,229948,1,0,0:0:0:0:
448,192,230101,1,8,0:0:0:0:
320,192,230178,1,0,0:0:0:0:
64,192,230254,1,0,0:0:0:0:
192,192,230331,1,0,0:0:0:0:
320,192,230407,1,0,0:0:0:50:K.wav
448,192,230407,1,0,0:0:0:0:
192,192,230484,1,0,0:0:0:50:K.wav
448,192,230560,1,0,0:0:0:50:K.wav
192,192,230637,1,0,0:0:0:50:K.wav
448,192,230713,1,0,0:0:0:50:K.wav
64,192,230790,1,0,0:0:0:50:K.wav
320,192,230866,1,0,0:0:0:50:K.wav
192,192,230943,1,0,0:0:0:50:K.wav
64,192,231019,1,0,0:0:0:70:tom01.wav
448,192,231019,1,0,0:0:0:0:
448,192,231172,128,0,231325:0:0:0:70:tom02.wav
192,192,231325,1,0,0:0:0:70:tom03.wav
192,192,231479,128,0,231632:0:0:0:70:tom04.wav
64,192,231632,1,4,0:0:0:0:
320,192,231632,1,2,0:0:0:0:
448,192,231632,1,0,0:0:0:0:
192,192,231785,1,0,0:0:0:0:
64,192,231938,1,8,0:0:0:0:
448,192,231938,1,0,0:0:0:0:
448,192,232091,1,0,0:0:0:0:
64,192,232244,1,2,0:0:0:0:
192,192,232244,1,0,0:0:0:0:
320,192,232397,1,0,0:0:0:0:
64,192,232550,1,8,0:0:0:0:
192,192,232626,1,0,0:0:0:0:
448,192,232703,1,0,0:0:0:0:
320,192,232780,1,0,0:0:0:0:
64,192,232856,1,2,0:0:0:0:
192,192,232856,1,0,0:0:0:0:
320,192,233009,1,0,0:0:0:0:
64,192,233162,1,8,0:0:0:0:
448,192,233162,1,0,0:0:0:0:
64,192,233315,1,0,0:0:0:0:
320,192,233468,1,2,0:0:0:0:
448,192,233468,1,0,0:0:0:0:
320,192,233621,128,0,233774:0:0:0:0:
64,192,233774,1,8,0:0:0:0:
448,192,233774,1,0,0:0:0:0:
64,192,233928,128,0,234081:0:0:0:0:
320,192,234081,1,2,0:0:0:0:
448,192,234081,1,0,0:0:0:0:
192,192,234234,1,0,0:0:0:0:
64,192,234387,1,8,0:0:0:0:
448,192,234387,1,0,0:0:0:0:
448,192,234540,1,0,0:0:0:0:
64,192,234693,1,2,0:0:0:0:
192,192,234693,1,0,0:0:0:0:
320,192,234846,1,0,0:0:0:0:
64,192,234999,1,8,0:0:0:0:
192,192,235075,1,0,0:0:0:0:
448,192,235152,1,0,0:0:0:0:
320,192,235229,1,0,0:0:0:0:
64,192,235305,1,2,0:0:0:0:
192,192,235305,1,0,0:0:0:0:
320,192,235458,1,0,0:0:0:0:
64,192,235611,1,8,0:0:0:0:
448,192,235611,1,0,0:0:0:0:
64,192,235764,128,0,235917:0:0:0:0:
448,192,235917,1,0,0:0:0:0:
320,192,235917,1,2,0:0:0:0:
320,192,236070,128,0,236223:0:0:0:0:
192,192,236223,128,0,236376:0:0:0:0:
64,192,236223,1,8,0:0:0:0:
448,192,236376,1,0,0:0:0:0:
192,192,236530,1,0,0:0:0:0:
64,192,236530,1,2,0:0:0:0:
320,192,236683,1,0,0:0:0:0:
64,192,236836,1,8,0:0:0:0:
448,192,236836,1,0,0:0:0:0:
64,192,236989,1,0,0:0:0:0:
320,192,237142,1,2,0:0:0:0:
448,192,237142,1,0,0:0:0:0:
192,192,237295,1,0,0:0:0:0:
448,192,237448,1,8,0:0:0:0:
320,192,237524,1,0,0:0:0:0:
64,192,237601,1,0,0:0:0:0:
192,192,237678,1,0,0:0:0:0:
320,192,237754,1,2,0:0:0:0:
448,192,237754,1,0,0:0:0:0:
192,192,237907,1,0,0:0:0:0:
64,192,238060,1,8,0:0:0:0:
448,192,238060,1,0,0:0:0:0:
448,192,238213,1,0,0:0:0:0:
64,192,238366,1,2,0:0:0:0:
192,192,238366,1,0,0:0:0:0:
192,192,238519,128,0,238672:0:0:0:0:
64,192,238672,1,8,0:0:0:0:
448,192,238672,1,0,0:0:0:0:
320,192,238825,128,0,238979:0:0:0:0:
192,192,238979,1,2,0:0:0:0:
192,192,239055,1,2,0:0:0:0:
448,192,239208,1,8,0:0:0:0:
448,192,239285,1,8,0:0:0:0:
64,192,239438,1,2,0:0:0:0:
64,192,239514,1,2,0:0:0:0:
320,192,239667,1,8,0:0:0:0:
320,192,239744,1,8,0:0:0:0:
64,192,239897,1,2,0:0:0:0:
192,192,239897,1,0,0:0:0:0:
320,192,240050,1,8,0:0:0:0:
448,192,240050,1,0,0:0:0:0:
64,192,240203,1,2,0:0:0:0:
192,192,240203,1,0,0:0:0:0:
64,192,240356,1,2,0:0:0:0:
192,192,240356,1,0,0:0:0:0:
64,192,240509,1,2,0:0:0:0:
192,192,240509,1,0,0:0:0:0:
320,192,240662,1,8,0:0:0:0:
448,192,240662,1,0,0:0:0:0:
64,192,240739,1,2,0:0:0:0:
192,192,240739,1,0,0:0:0:0:
64,192,241121,1,0,0:0:0:0:
448,192,241121,1,0,0:0:0:0:
320,192,241121,1,0,0:0:0:50:LR4_BassKickReverbXG.wav
