osu file format v14

[General]
AudioFilename: Cirno no Perfect Sansuu Kyoushitsu sawawa Shissou Remix.mp3
AudioLeadIn: 0
PreviewTime: 220573
Countdown: 0
SampleSet: Soft
StackLeniency: 0.7
Mode: 3
LetterboxInBreaks: 0
SpecialStyle: 0
WidescreenStoryboard: 0

[Editor]
Bookmarks: 1428,11223,21019,30815,40611,50407,60203,69999,79795,89591,99387,109183,118979,128774,138570,148366,158162,167958,177754,187550,192448,202244
DistanceSpacing: 1.5
BeatDivisor: 2
GridSize: 32
TimelineZoom: 1.2

[Metadata]
Title:Cirno no Perfect Sansuu Kyoushitsu (sawawa Shissou Remix)
TitleUnicode:チルノのパーフェクトさんすう教室 (さわわ疾走 Remix)
Artist:IOSYS
ArtistUnicode:IOSYS
Creator:FAMoss
Version:Easy
Source:東方紅魔郷 ~ the Embodiment of Scarlet Devil.
Tags:ZUN 東方Project touhou koumakyou 東方氷雪歌集 ARM hito miko quim Team Shanghai Alice おてんば恋娘 Otenba Koimusume みんなのパーフェクトチルパ天国 everyone's perfect heaven math class sprinting person cover album 夕野ヨシミ th06 Beloved Tomboyish Daughter Girl in Love Stage 2 Theme Arno @お仕事募 ちよこ Chiyoko tuhu EoSD track 7 piano vocal japanese electronic instrumental marathon IO-0326
BeatmapID:2274725
BeatmapSetID:1087685

[Difficulty]
HPDrainRate:7
CircleSize:4
OverallDifficulty:7
ApproachRate:5
SliderMultiplier:1.4
SliderTickRate:1

[Events]
//Background and Video events
0,0,"BG (74025591).jpg",0,0
//Break Periods
//Storyboard Layer 0 (Background)
//Storyboard Layer 1 (Fail)
//Storyboard Layer 2 (Pass)
//Storyboard Layer 3 (Foreground)
//Storyboard Layer 4 (Overlay)
//Storyboard Sound Samples
Sample,10764,0,"D6S_s.wav",100
Sample,10917,0,"E6S_s.wav",100
Sample,11070,0,"F6S_s.wav",100
Sample,11223,0,"push_scratch.wav",70
Sample,11683,0,"A6S_s.wav",100
Sample,11989,0,"A6S_s.wav",100
Sample,12142,0,"F6S_s.wav",100
Sample,12295,0,"E6S_s.wav",100
Sample,12601,0,"D7S_s.wav",100
Sample,12754,0,"F7S_s.wav",100
Sample,12907,0,"A7S_s.wav",100
Sample,13213,0,"D6S_s.wav",100
Sample,13519,0,"A6S_s.wav",100
Sample,14132,0,"D7S_s.wav",100
Sample,14438,0,"D7S_s.wav",100
Sample,14591,0,"C7S_s.wav",100
Sample,14744,0,"G6S_s.wav",100
Sample,15050,0,"A#6S_Bb6S_s.wav",100
Sample,15126,0,"A6S_s.wav",100
Sample,15203,0,"A#6S_Bb6S_s.wav",100
Sample,15356,0,"A#6S_Bb6S_s.wav",100
Sample,21019,0,"push_scratch.wav",70
Sample,30815,0,"push_scratch.wav",70
Sample,40611,0,"push_scratch.wav",70
Sample,50407,0,"push_scratch.wav",70
Sample,60203,0,"push_scratch.wav",70
Sample,60356,0,"A4S_s.wav",100
Sample,60509,0,"B4S_s.wav",100
Sample,60662,0,"D5S_s.wav",100
Sample,61581,0,"A4S_s.wav",100
Sample,61734,0,"B4S_s.wav",100
Sample,61887,0,"D5S_s.wav",100
Sample,62193,0,"E5S_s.wav",100
Sample,62346,0,"B4S_s.wav",100
Sample,62499,0,"A4S_s.wav",100
Sample,62805,0,"A4S_s.wav",100
Sample,62958,0,"B4S_s.wav",100
Sample,63111,0,"D5S_s.wav",100
Sample,64030,0,"A4S_s.wav",100
Sample,64183,0,"B4S_s.wav",100
Sample,64336,0,"F#5S_Gb5S_s.wav",100
Sample,64642,0,"F#5S_Gb5S_s.wav",100
Sample,64795,0,"E5S_s.wav",100
Sample,69999,0,"push_scratch.wav",70
Sample,71376,0,"D7S_s.wav",100
Sample,71530,0,"F7S_s.wav",100
Sample,71683,0,"A7S_s.wav",100
Sample,71836,0,"D8S_s.wav",100
Sample,73825,0,"C#7S_Db7S_s.wav",100
Sample,73902,0,"A#6S_Bb6S_s.wav",100
Sample,73979,0,"A6S_s.wav",100
Sample,74055,0,"A#6S_Bb6S_s.wav",100
Sample,74132,0,"A6S_s.wav",100
Sample,74208,0,"G6S_s.wav",100
Sample,74285,0,"A6S_s.wav",100
Sample,79795,0,"push_scratch.wav",70
Sample,81172,0,"D7S_s.wav",100
Sample,81325,0,"F7S_s.wav",100
Sample,81479,0,"A7S_s.wav",100
Sample,81632,0,"D8S_s.wav",100
Sample,83621,0,"C#7S_Db7S_s.wav",100
Sample,83698,0,"A#6S_Bb6S_s.wav",100
Sample,83774,0,"A6S_s.wav",100
Sample,83851,0,"A#6S_Bb6S_s.wav",100
Sample,83928,0,"A6S_s.wav",100
Sample,84004,0,"G6S_s.wav",100
Sample,84081,0,"A6S_s.wav",100
Sample,89591,0,"push_scratch.wav",70
Sample,99387,0,"push_scratch.wav",70
Sample,109183,0,"push_scratch.wav",70
Sample,118979,0,"push_scratch.wav",70
Sample,128774,0,"push_scratch.wav",70
Sample,138570,0,"push_scratch.wav",70
Sample,139948,0,"D7S_s.wav",100
Sample,140101,0,"F7S_s.wav",100
Sample,140254,0,"A7S_s.wav",100
Sample,140407,0,"D8S_s.wav",100
Sample,142397,0,"C#7S_Db7S_s.wav",100
Sample,142473,0,"A#6S_Bb6S_s.wav",100
Sample,142550,0,"A6S_s.wav",100
Sample,142626,0,"A#6S_Bb6S_s.wav",100
Sample,142703,0,"A6S_s.wav",100
Sample,142780,0,"G6S_s.wav",100
Sample,142856,0,"A6S_s.wav",100
Sample,148366,0,"push_scratch.wav",70
Sample,149744,0,"D7S_s.wav",100
Sample,149897,0,"F7S_s.wav",100
Sample,150050,0,"A7S_s.wav",100
Sample,150203,0,"D8S_s.wav",100
Sample,152193,0,"C#7S_Db7S_s.wav",100
Sample,152269,0,"A#6S_Bb6S_s.wav",100
Sample,152346,0,"A6S_s.wav",100
Sample,152422,0,"A#6S_Bb6S_s.wav",100
Sample,152499,0,"A6S_s.wav",100
Sample,152575,0,"G6S_s.wav",100
Sample,152652,0,"A6S_s.wav",100
Sample,167958,0,"push_scratch.wav",70
Sample,177754,0,"push_scratch.wav",70
Sample,187550,0,"push_scratch.wav",70
Sample,192448,0,"push_scratch.wav",70
Sample,192601,0,"A4S_s.wav",100
Sample,192754,0,"B4S_s.wav",100
Sample,192907,0,"D5S_s.wav",100
Sample,193825,0,"A4S_s.wav",100
Sample,193979,0,"B4S_s.wav",100
Sample,194132,0,"D5S_s.wav",100
Sample,194438,0,"E5S_s.wav",100
Sample,194591,0,"B4S_s.wav",100
Sample,194744,0,"A4S_s.wav",100
Sample,195050,0,"A4S_s.wav",100
Sample,195203,0,"B4S_s.wav",100
Sample,195356,0,"D5S_s.wav",100
Sample,196274,0,"A4S_s.wav",100
Sample,196428,0,"B4S_s.wav",100
Sample,196581,0,"F#5S_Gb5S_s.wav",100
Sample,202244,0,"push_scratch.wav",70
Sample,203621,0,"D7S_s.wav",100
Sample,203774,0,"F7S_s.wav",100
Sample,203928,0,"A7S_s.wav",100
Sample,204081,0,"D8S_s.wav",100
Sample,206070,0,"C#7S_Db7S_s.wav",100
Sample,206147,0,"A#6S_Bb6S_s.wav",100
Sample,206223,0,"A6S_s.wav",100
Sample,206300,0,"A#6S_Bb6S_s.wav",100
Sample,206376,0,"A6S_s.wav",100
Sample,206453,0,"G6S_s.wav",100
Sample,206530,0,"A6S_s.wav",100
Sample,212040,0,"push_scratch.wav",70
Sample,213417,0,"D7S_s.wav",100
Sample,213570,0,"F7S_s.wav",100
Sample,213723,0,"A7S_s.wav",100
Sample,213876,0,"D8S_s.wav",100
Sample,215866,0,"C#7S_Db7S_s.wav",100
Sample,215943,0,"A#6S_Bb6S_s.wav",100
Sample,216019,0,"A6S_s.wav",100
Sample,216096,0,"A#6S_Bb6S_s.wav",100
Sample,216172,0,"A6S_s.wav",100
Sample,216249,0,"G6S_s.wav",100
Sample,216325,0,"A6S_s.wav",100
Sample,221836,0,"push_scratch.wav",70
Sample,231632,0,"push_scratch.wav",70

[TimingPoints]
1428,306.122448979592,4,2,1,70,1,0
21019,-100,4,2,1,70,0,1
29591,-100,4,2,1,70,0,0
30815,-100,4,2,1,70,0,1
40611,-100,4,2,1,70,0,0
69999,-100,4,2,1,70,0,1
78570,-100,4,2,1,70,0,0
79795,-100,4,2,1,70,0,1
87142,-100,4,2,1,70,0,0
89591,-100,4,2,1,70,0,1
98162,-100,4,2,1,70,0,0
99387,-100,4,2,1,70,0,1
109183,-100,4,2,1,70,0,0
138570,-100,4,2,1,70,0,1
147142,-100,4,2,1,70,0,0
148366,-100,4,2,1,70,0,1
155713,-100,4,2,1,70,0,0
202244,-100,4,2,1,70,0,1
210815,-100,4,2,1,70,0,0
212040,-100,4,2,1,70,0,1
219387,-100,4,2,1,70,0,0
221836,-100,4,2,1,70,0,1
230407,-100,4,2,1,70,0,0
231632,-100,4,2,1,70,0,1
241428,-100,4,2,1,70,0,0

[HitObjects]
64,192,1428,128,2,1734:0:0:0:0:
192,192,1428,1,4,0:0:0:0:
320,192,1734,1,0,0:0:0:70:LR_Snare Drum 3.wav
192,192,1887,1,0,0:0:0:70:LR_Snare Drum 2.wav
320,192,2193,1,0,0:0:0:70:LR_Snare Drum.wav
192,192,2346,128,0,2652:0:0:0:70:LR_Snare Drum 3.wav
448,192,2652,128,0,2958:0:0:0:70:LR_Snare Drum.wav
192,192,2958,1,0,0:0:0:70:LR_Snare Drum 3.wav
320,192,3111,1,0,0:0:0:70:LR_Snare Drum 2.wav
192,192,3417,1,0,0:0:0:70:LR_Snare Drum 3.wav
320,192,3570,128,0,3876:0:0:0:70:LR_Snare Drum.wav
64,192,3876,128,0,4489:0:0:0:70:LR_Snare Drum.wav
320,192,4183,1,0,0:0:0:70:LR_Snare Drum 3.wav
448,192,4489,128,0,5101:0:0:0:70:LR_Snare Drum 2.wav
192,192,4795,1,0,0:0:0:70:LR_Snare Drum 3.wav
64,192,5101,1,0,0:0:0:70:LR_Snare Drum.wav
320,192,5254,128,0,5560:0:0:0:70:LR_Snare Drum.wav
192,192,5560,1,0,0:0:0:70:LR_Snare Drum.wav
320,192,5866,1,0,0:0:0:70:LR_Snare Drum.wav
192,192,6019,1,0,0:0:0:70:LR_Snare Drum.wav
64,192,6325,128,0,6632:0:0:0:70:LR_Snare Drum.wav
320,192,6632,1,0,0:0:0:70:LR_Snare Drum 3.wav
192,192,6785,1,0,0:0:0:70:LR_Snare Drum 2.wav
320,192,7091,1,0,0:0:0:70:LR_Snare Drum.wav
192,192,7244,128,0,7550:0:0:0:70:LR_Snare Drum 3.wav
448,192,7550,128,0,7856:0:0:0:70:LR_Snare Drum.wav
192,192,7856,1,0,0:0:0:70:LR_Snare Drum 3.wav
320,192,8009,1,0,0:0:0:70:LR_Snare Drum 2.wav
192,192,8315,1,0,0:0:0:70:LR_Snare Drum 3.wav
320,192,8468,128,0,8774:0:0:0:70:LR_Snare Drum 2.wav
64,192,8774,128,0,9081:0:0:0:70:LR_Snare Drum.wav
320,192,9081,1,0,0:0:0:70:LR_Snare Drum 3.wav
448,192,9387,128,0,9693:0:0:0:70:LR_Snare Drum.wav
192,192,9693,1,0,0:0:0:70:LR_Snare Drum 3.wav
320,192,9999,1,0,0:0:0:70:LR_Snare Drum.wav
192,192,10152,1,0,0:0:0:70:LR_Snare Drum 3.wav
64,192,10305,1,0,0:0:0:70:LR_Snare Drum.wav
320,192,10458,1,0,0:0:0:70:LR_Snare Drum 3.wav
320,192,11223,1,6,0:0:0:0:
448,192,11223,128,0,11836:0:0:0:100:A6S_s.wav
192,192,11836,128,0,12448:0:0:0:100:F6S_s.wav
320,192,12448,128,0,13060:0:0:0:100:D6S_s.wav
192,192,13060,1,0,0:0:0:100:D8S_s.wav
448,192,13366,1,0,0:0:0:100:F6S_s.wav
64,192,13672,128,0,14285:0:0:0:100:D7S_s.wav
320,192,14285,128,0,14897:0:0:0:100:C7S_s.wav
192,192,14897,128,0,15509:0:0:0:100:A6S.wav
320,192,15509,1,0,0:0:0:100:A6S_s.wav
64,192,15815,1,0,0:0:0:100:E6S_s.wav
320,192,16121,1,2,0:0:0:0:
448,192,16121,128,4,16734:0:0:0:0:
192,192,16428,1,0,0:0:0:50:S1.wav
64,192,16734,128,4,17346:0:0:0:0:
320,192,16734,1,2,0:0:0:0:
448,192,17040,1,0,0:0:0:50:S1.wav
192,192,17346,1,2,0:0:0:0:
320,192,17346,128,4,17958:0:0:0:0:
64,192,17652,1,0,0:0:0:50:S1.wav
192,192,17958,128,4,18264:0:0:0:0:
448,192,17958,1,2,0:0:0:0:
320,192,18264,128,0,18570:0:0:0:70:S1.wav
64,192,18570,128,0,18876:0:0:0:0:
320,192,18876,1,6,0:0:0:0:
448,192,19183,128,0,19489:0:0:0:0:
192,192,19489,1,6,0:0:0:0:
320,192,19795,128,0,20407:0:0:0:0:
192,192,20407,1,0,0:0:0:0:
320,192,20713,1,0,0:0:0:0:
64,192,21019,1,4,0:0:0:0:
448,192,21019,1,2,0:0:0:0:
192,192,21325,1,8,0:0:0:0:
320,192,21632,1,2,0:0:0:0:
448,192,21938,128,8,22244:0:0:0:0:
64,192,22244,1,2,0:0:0:0:
320,192,22550,1,8,0:0:0:0:
192,192,22856,1,2,0:0:0:0:
320,192,23162,1,8,0:0:0:0:
64,192,23468,1,2,0:0:0:0:
192,192,23774,1,8,0:0:0:0:
320,192,24081,1,2,0:0:0:0:
448,192,24387,128,8,24693:0:0:0:0:
64,192,24693,1,2,0:0:0:0:
320,192,24999,1,8,0:0:0:0:
64,192,25305,1,2,0:0:0:0:
192,192,25611,1,8,0:0:0:0:
448,192,25917,1,2,0:0:0:0:
320,192,26223,1,8,0:0:0:0:
192,192,26530,1,2,0:0:0:0:
64,192,26836,128,8,27142:0:0:0:0:
448,192,27142,1,2,0:0:0:0:
192,192,27448,1,8,0:0:0:0:
320,192,27754,1,2,0:0:0:0:
192,192,28060,1,8,0:0:0:0:
448,192,28366,1,2,0:0:0:0:
320,192,28672,1,8,0:0:0:0:
192,192,28979,1,2,0:0:0:0:
64,192,29285,128,8,29591:0:0:0:0:
448,192,29591,128,0,30203:0:0:0:50:K.wav
192,192,29897,1,0,0:0:0:50:K.wav
192,192,30203,128,0,30509:0:0:0:70:tom01.wav
320,192,30509,128,0,30815:0:0:0:70:tom03.wav
64,192,30815,1,4,0:0:0:0:
448,192,30815,1,2,0:0:0:0:
192,192,31121,1,8,0:0:0:0:
320,192,31428,1,2,0:0:0:0:
448,192,31734,128,8,32040:0:0:0:0:
64,192,32040,1,2,0:0:0:0:
320,192,32346,1,8,0:0:0:0:
192,192,32652,1,2,0:0:0:0:
320,192,32958,1,8,0:0:0:0:
64,192,33264,1,2,0:0:0:0:
192,192,33570,1,8,0:0:0:0:
320,192,33876,1,2,0:0:0:0:
448,192,34183,128,8,34489:0:0:0:0:
64,192,34489,1,2,0:0:0:0:
320,192,34795,1,8,0:0:0:0:
64,192,35101,1,2,0:0:0:0:
192,192,35407,1,8,0:0:0:0:
448,192,35713,128,2,36019:0:0:0:0:
192,192,36019,1,8,0:0:0:0:
320,192,36325,1,2,0:0:0:0:
64,192,36632,128,8,36938:0:0:0:0:
448,192,36938,128,2,37244:0:0:0:0:
192,192,37244,128,8,37550:0:0:0:0:
320,192,37550,128,2,37856:0:0:0:0:
64,192,37856,128,8,38162:0:0:0:0:
448,192,38162,1,2,0:0:0:0:
448,192,38392,1,8,0:0:0:0:
64,192,38621,1,2,0:0:0:0:
64,192,38851,1,8,0:0:0:0:
448,192,39081,1,2,0:0:0:0:
192,192,39234,1,8,0:0:0:0:
320,192,39387,1,2,0:0:0:0:
320,192,39693,1,2,0:0:0:0:
64,192,39922,1,2,0:0:0:0:
320,192,40305,1,0,0:0:0:50:strike.wav
448,192,40611,1,2,0:0:0:0:
64,192,40611,1,4,0:0:0:0:
192,192,40917,1,8,0:0:0:0:
320,192,41223,128,2,41530:0:0:0:0:
64,192,41530,1,8,0:0:0:0:
448,192,41836,1,2,0:0:0:0:
320,192,42142,1,8,0:0:0:0:
192,192,42448,128,2,42754:0:0:0:0:
448,192,42754,1,8,0:0:0:0:
64,192,43060,1,2,0:0:0:0:
320,192,43366,1,8,0:0:0:0:
64,192,43672,128,2,43979:0:0:0:0:
448,192,43979,1,8,0:0:0:0:
320,192,44285,128,2,44591:0:0:0:0:
64,192,44591,1,8,0:0:0:0:
192,192,44897,128,2,45203:0:0:0:0:
448,192,45203,1,8,0:0:0:0:
320,192,45509,1,2,0:0:0:0:
192,192,45815,1,8,0:0:0:0:
64,192,46121,128,2,46428:0:0:0:0:
448,192,46428,1,8,0:0:0:0:
192,192,46734,1,2,0:0:0:0:
320,192,47040,1,8,0:0:0:0:
448,192,47346,128,2,47652:0:0:0:0:
192,192,47652,1,8,0:0:0:0:
64,192,47958,1,2,0:0:0:0:
448,192,47958,1,4,0:0:0:0:
320,192,48264,1,8,0:0:0:0:
64,192,48570,1,2,0:0:0:0:
448,192,48570,1,4,0:0:0:0:
192,192,48876,1,8,0:0:0:0:
320,192,49183,1,4,0:0:0:0:
448,192,49183,128,0,49795:0:0:0:50:K.wav
64,192,49489,1,0,0:0:0:50:K.wav
192,192,49795,128,0,50407:0:0:0:50:K.wav
320,192,50101,1,0,0:0:0:50:K.wav
64,192,50407,1,4,0:0:0:0:
448,192,50407,1,2,0:0:0:0:
320,192,50713,1,8,0:0:0:0:
192,192,51019,128,2,51325:0:0:0:0:
448,192,51325,1,8,0:0:0:0:
64,192,51632,1,2,0:0:0:0:
192,192,51938,1,8,0:0:0:0:
320,192,52244,128,2,52550:0:0:0:0:
64,192,52550,1,8,0:0:0:0:
448,192,52856,1,2,0:0:0:0:
192,192,53162,1,8,0:0:0:0:
448,192,53468,128,2,53774:0:0:0:0:
64,192,53774,1,8,0:0:0:0:
192,192,54081,128,2,54387:0:0:0:0:
448,192,54387,1,8,0:0:0:0:
320,192,54693,128,2,54999:0:0:0:0:
64,192,54999,1,8,0:0:0:0:
320,192,55305,1,2,0:0:0:0:
448,192,55305,128,4,55917:0:0:0:0:
192,192,55611,1,0,0:0:0:0:
64,192,55917,128,4,56530:0:0:0:0:
320,192,55917,1,2,0:0:0:0:
192,192,56223,1,0,0:0:0:0:
320,192,56530,1,2,0:0:0:0:
448,192,56530,128,4,57142:0:0:0:0:
192,192,56836,1,0,0:0:0:0:
64,192,57142,1,4,0:0:0:0:
192,192,57142,1,2,0:0:0:0:
320,192,57295,1,12,0:0:0:0:
448,192,57448,1,6,0:0:0:0:
64,192,57754,128,2,58060:0:0:0:0:
192,192,57754,1,4,0:0:0:0:
320,192,58366,1,4,0:0:0:0:
448,192,58366,128,2,58672:0:0:0:0:
64,192,58979,128,4,59591:0:0:0:0:
192,192,58979,1,2,0:0:0:0:
320,192,59285,1,0,0:0:0:70:tom02.wav
448,192,59591,128,0,59897:0:0:0:50:S2.wav
192,192,59897,128,0,60203:0:0:0:50:S2.wav
64,192,60203,128,6,61428:0:0:0:0:
448,192,60203,1,0,0:0:0:100:B4S_s.wav
320,192,60815,1,0,0:0:0:0:
320,192,61428,128,0,62652:0:0:0:100:B4S_s.wav
64,192,62040,1,0,0:0:0:0:
192,192,62652,128,0,63876:0:0:0:100:B4S_s.wav
448,192,63264,1,0,0:0:0:0:
448,192,63876,128,0,64642:0:0:0:100:B4S_s.wav
192,192,64642,1,6,0:0:0:0:
320,192,64795,1,6,0:0:0:0:
64,192,65101,1,2,0:0:0:0:
448,192,65101,1,4,0:0:0:0:
192,192,65407,1,8,0:0:0:0:
448,192,65713,1,2,0:0:0:0:
320,192,66019,1,8,0:0:0:0:
192,192,66172,1,0,0:0:0:50:S2.wav
448,192,66325,1,6,0:0:0:0:
320,192,66632,1,8,0:0:0:0:
64,192,66938,1,2,0:0:0:0:
192,192,67244,1,8,0:0:0:0:
448,192,67550,128,0,67856:0:0:0:0:
192,192,67856,1,6,0:0:0:0:
64,192,68162,128,0,68468:0:0:0:0:
320,192,68468,1,6,0:0:0:0:
448,192,68774,128,4,69387:0:0:0:0:
64,192,68774,1,2,0:0:0:0:
192,192,69081,1,0,0:0:0:50:S2.wav
192,192,69387,1,0,0:0:0:50:S2.wav
320,192,69693,128,0,69999:0:0:0:0:
448,192,69999,1,2,0:0:0:0:
64,192,69999,1,4,0:0:0:0:
320,192,70305,1,8,0:0:0:0:
64,192,70611,1,2,0:0:0:0:
448,192,70917,1,8,0:0:0:0:
192,192,71223,1,2,0:0:0:0:
320,192,71530,128,8,71836:0:0:0:0:
192,192,71836,1,2,0:0:0:0:
448,192,72142,1,8,0:0:0:0:
64,192,72448,1,2,0:0:0:0:
192,192,72754,1,8,0:0:0:0:
448,192,73060,1,2,0:0:0:0:
64,192,73366,1,8,0:0:0:0:
320,192,73672,128,6,73979:0:0:0:0:
192,192,73979,128,12,74285:0:0:0:0:
448,192,74285,1,6,0:0:0:0:
320,192,74591,1,0,0:0:0:0:
64,192,74897,1,2,0:0:0:0:
448,192,74897,1,4,0:0:0:0:
192,192,75203,1,8,0:0:0:0:
448,192,75509,1,2,0:0:0:0:
320,192,75662,1,2,0:0:0:0:
64,192,75815,1,8,0:0:0:0:
448,192,75968,1,2,0:0:0:0:
192,192,76274,1,6,0:0:0:0:
320,192,76428,1,12,0:0:0:0:
64,192,76734,1,6,0:0:0:0:
192,192,76887,1,2,0:0:0:0:
448,192,77040,1,12,0:0:0:0:
64,192,77193,1,2,0:0:0:0:
320,192,77346,128,6,77652:0:0:0:0:
64,192,77652,1,8,0:0:0:0:
192,192,77958,128,6,78264:0:0:0:0:
448,192,78264,1,8,0:0:0:0:
64,192,78570,1,6,0:0:0:0:
192,192,78876,1,6,0:0:0:0:
320,192,79183,1,6,0:0:0:0:
192,192,79489,128,0,79795:0:0:0:0:
64,192,79795,1,4,0:0:0:0:
448,192,79795,1,2,0:0:0:0:
192,192,80101,1,8,0:0:0:0:
448,192,80407,1,2,0:0:0:0:
64,192,80713,1,8,0:0:0:0:
320,192,81019,1,2,0:0:0:0:
192,192,81325,128,8,81632:0:0:0:0:
320,192,81632,1,2,0:0:0:0:
64,192,81938,1,8,0:0:0:0:
448,192,82244,1,2,0:0:0:0:
320,192,82550,1,8,0:0:0:0:
64,192,82856,1,2,0:0:0:0:
448,192,83162,1,8,0:0:0:0:
192,192,83468,128,6,83774:0:0:0:0:
320,192,83774,128,12,84081:0:0:0:0:
64,192,84081,1,6,0:0:0:0:
192,192,84387,1,0,0:0:0:0:
64,192,84693,1,2,0:0:0:0:
448,192,84693,1,4,0:0:0:0:
320,192,84999,1,8,0:0:0:0:
64,192,85305,1,2,0:0:0:0:
192,192,85458,1,2,0:0:0:0:
448,192,85611,1,8,0:0:0:0:
320,192,85917,1,6,0:0:0:0:
448,192,86223,1,12,0:0:0:0:
320,192,86376,1,0,0:0:0:0:
64,192,86530,1,6,0:0:0:0:
192,192,86836,1,12,0:0:0:0:
448,192,86989,1,2,0:0:0:0:
64,192,87142,128,0,87448:0:0:0:0:
320,192,87448,1,6,0:0:0:0:
448,192,87754,128,0,88060:0:0:0:0:
192,192,88060,1,6,0:0:0:0:
64,192,88979,1,0,0:0:0:70:S1.wav
320,192,89132,1,8,0:0:0:0:
192,192,89285,1,0,0:0:0:100:SFX Hardcore Kick.wav
448,192,89591,1,2,0:0:0:0:
64,192,89591,1,4,0:0:0:0:
320,192,89897,1,8,0:0:0:0:
192,192,90203,1,2,0:0:0:0:
64,192,90509,128,8,90815:0:0:0:0:
448,192,90815,1,2,0:0:0:0:
192,192,91121,1,8,0:0:0:0:
320,192,91428,1,2,0:0:0:0:
192,192,91734,128,8,92040:0:0:0:0:
448,192,92040,1,2,0:0:0:0:
320,192,92346,1,8,0:0:0:0:
192,192,92652,1,2,0:0:0:0:
64,192,92958,128,8,93264:0:0:0:0:
448,192,93264,1,2,0:0:0:0:
192,192,93570,1,8,0:0:0:0:
448,192,93876,1,2,0:0:0:0:
320,192,94183,1,8,0:0:0:0:
64,192,94489,1,2,0:0:0:0:
192,192,94795,1,8,0:0:0:0:
320,192,95101,1,2,0:0:0:0:
448,192,95407,128,8,95713:0:0:0:0:
64,192,95713,1,2,0:0:0:0:
320,192,96019,1,8,0:0:0:0:
192,192,96325,1,2,0:0:0:0:
320,192,96632,128,8,96938:0:0:0:0:
64,192,96938,1,2,0:0:0:0:
192,192,97244,1,8,0:0:0:0:
320,192,97550,1,2,0:0:0:0:
448,192,97856,128,8,98162:0:0:0:0:
64,192,98162,128,0,98774:0:0:0:50:K.wav
320,192,98468,1,0,0:0:0:50:K.wav
320,192,98774,128,0,99081:0:0:0:70:tom01.wav
192,192,99081,128,0,99387:0:0:0:70:tom03.wav
64,192,99387,1,4,0:0:0:0:
448,192,99387,1,2,0:0:0:0:
320,192,99693,1,8,0:0:0:0:
192,192,99999,1,2,0:0:0:0:
64,192,100305,128,8,100611:0:0:0:0:
448,192,100611,1,2,0:0:0:0:
192,192,100917,1,8,0:0:0:0:
320,192,101223,1,2,0:0:0:0:
192,192,101530,128,8,101836:0:0:0:0:
448,192,101836,1,2,0:0:0:0:
320,192,102142,1,8,0:0:0:0:
192,192,102448,1,2,0:0:0:0:
64,192,102754,128,8,103060:0:0:0:0:
448,192,103060,1,2,0:0:0:0:
192,192,103366,1,8,0:0:0:0:
448,192,103672,1,2,0:0:0:0:
320,192,103979,1,8,0:0:0:0:
64,192,104285,128,2,104591:0:0:0:0:
320,192,104591,1,8,0:0:0:0:
192,192,104897,1,2,0:0:0:0:
448,192,105203,128,8,105509:0:0:0:0:
64,192,105509,128,2,105815:0:0:0:0:
320,192,105815,128,8,106121:0:0:0:0:
192,192,106121,128,2,106428:0:0:0:0:
448,192,106428,128,8,106734:0:0:0:0:
64,192,106734,1,2,0:0:0:0:
64,192,106963,1,8,0:0:0:0:
448,192,107193,1,2,0:0:0:0:
448,192,107422,1,8,0:0:0:0:
64,192,107652,1,2,0:0:0:0:
320,192,107805,1,8,0:0:0:0:
192,192,107958,1,2,0:0:0:0:
192,192,108264,1,2,0:0:0:0:
448,192,108494,1,2,0:0:0:0:
192,192,108876,1,0,0:0:0:50:strike.wav
448,192,109183,1,2,0:0:0:0:
64,192,109183,1,4,0:0:0:0:
320,192,109489,1,8,0:0:0:0:
192,192,109795,128,2,110101:0:0:0:0:
448,192,110101,1,8,0:0:0:0:
64,192,110407,1,2,0:0:0:0:
192,192,110713,1,8,0:0:0:0:
320,192,111019,128,2,111325:0:0:0:0:
64,192,111325,1,8,0:0:0:0:
448,192,111632,1,2,0:0:0:0:
192,192,111938,1,8,0:0:0:0:
448,192,112244,128,2,112550:0:0:0:0:
64,192,112550,1,8,0:0:0:0:
192,192,112856,128,2,113162:0:0:0:0:
448,192,113162,1,8,0:0:0:0:
320,192,113468,128,2,113774:0:0:0:0:
64,192,113774,128,8,114081:0:0:0:0:
320,192,114081,1,2,0:0:0:0:
320,192,114387,1,8,0:0:0:0:
448,192,114693,128,2,114999:0:0:0:0:
64,192,114999,1,8,0:0:0:0:
192,192,115305,1,2,0:0:0:0:
192,192,115611,1,8,0:0:0:0:
64,192,115917,128,2,116223:0:0:0:0:
320,192,116223,1,8,0:0:0:0:
64,192,116530,1,2,0:0:0:0:
448,192,116530,1,4,0:0:0:0:
192,192,116836,1,8,0:0:0:0:
64,192,117142,1,2,0:0:0:0:
448,192,117142,1,4,0:0:0:0:
320,192,117448,1,8,0:0:0:0:
64,192,117754,128,4,118366:0:0:0:0:
192,192,117754,1,0,0:0:0:50:K.wav
448,192,118060,1,0,0:0:0:0:
320,192,118366,128,0,118979:0:0:0:0:
192,192,118672,1,0,0:0:0:0:
64,192,118979,1,4,0:0:0:0:
448,192,118979,1,2,0:0:0:0:
192,192,119285,1,8,0:0:0:0:
320,192,119591,128,2,119897:0:0:0:0:
64,192,119897,1,8,0:0:0:0:
448,192,120203,1,2,0:0:0:0:
320,192,120509,1,8,0:0:0:0:
192,192,120815,128,2,121121:0:0:0:0:
448,192,121121,1,8,0:0:0:0:
64,192,121428,1,2,0:0:0:0:
320,192,121734,1,8,0:0:0:0:
64,192,122040,128,2,122346:0:0:0:0:
448,192,122346,1,8,0:0:0:0:
320,192,122652,128,2,122958:0:0:0:0:
64,192,122958,1,8,0:0:0:0:
192,192,123264,128,2,123570:0:0:0:0:
448,192,123570,1,8,0:0:0:0:
64,192,123876,128,2,124489:0:0:0:0:
192,192,123876,1,4,0:0:0:0:
320,192,124183,1,0,0:0:0:0:
192,192,124489,1,4,0:0:0:0:
448,192,124489,128,2,125101:0:0:0:0:
320,192,124795,1,0,0:0:0:0:
64,192,125101,128,2,125713:0:0:0:0:
192,192,125101,1,4,0:0:0:0:
320,192,125407,1,0,0:0:0:0:
320,192,125713,1,4,0:0:0:0:
448,192,125713,1,2,0:0:0:0:
192,192,125866,1,12,0:0:0:0:
64,192,126019,1,6,0:0:0:0:
320,192,126325,1,2,0:0:0:0:
448,192,126325,128,4,126632:0:0:0:0:
64,192,126938,128,4,127244:0:0:0:0:
192,192,126938,1,2,0:0:0:0:
320,192,127550,1,4,0:0:0:0:
448,192,127550,128,2,128162:0:0:0:0:
192,192,127856,1,0,0:0:0:70:tom02.wav
64,192,128162,128,0,128774:0:0:0:50:S2.wav
320,192,128468,1,0,0:0:0:50:S2.wav
320,192,128774,1,2,0:0:0:0:
448,192,128774,1,4,0:0:0:0:
192,192,129081,1,0,0:0:0:70:S3.wav
448,192,129540,1,0,0:0:0:70:LR_Snare Drum.wav
192,192,129693,1,0,0:0:0:70:S3.wav
64,192,129999,1,0,0:0:0:70:LR_Snare Drum.wav
320,192,130305,1,0,0:0:0:70:S3.wav
64,192,130611,1,0,0:0:0:70:LR_Snare Drum.wav
448,192,130917,1,0,0:0:0:70:LR_Snare Drum.wav
64,192,131223,1,0,0:0:0:70:LR_Snare Drum.wav
320,192,131530,1,0,0:0:0:70:S3.wav
64,192,131989,1,0,0:0:0:70:LR_Snare Drum.wav
320,192,132142,1,0,0:0:0:70:S3.wav
448,192,132448,1,0,0:0:0:70:LR_Snare Drum.wav
192,192,132754,1,0,0:0:0:70:S3.wav
448,192,133060,1,0,0:0:0:70:LR_Snare Drum.wav
192,192,133366,1,0,0:0:0:70:LR_Snare Drum.wav
64,192,133672,1,2,0:0:0:0:
448,192,133672,1,4,0:0:0:0:
320,192,133979,1,8,0:0:0:0:
64,192,134285,1,2,0:0:0:0:
192,192,134591,1,8,0:0:0:0:
320,192,134744,1,0,0:0:0:50:S2.wav
448,192,134897,1,6,0:0:0:0:
192,192,135203,1,8,0:0:0:0:
448,192,135509,1,2,0:0:0:0:
320,192,135815,1,8,0:0:0:0:
64,192,136121,128,0,136428:0:0:0:0:
320,192,136428,1,6,0:0:0:0:
448,192,136734,128,0,137040:0:0:0:0:
192,192,137040,1,6,0:0:0:0:
448,192,137346,1,2,0:0:0:0:
64,192,137346,128,4,137958:0:0:0:0:
320,192,137652,1,0,0:0:0:50:S2.wav
320,192,137958,1,0,0:0:0:50:S2.wav
192,192,138264,128,0,138570:0:0:0:0:
448,192,138570,1,2,0:0:0:0:
64,192,138570,1,4,0:0:0:0:
192,192,138876,1,8,0:0:0:0:
448,192,139183,1,2,0:0:0:0:
64,192,139489,1,8,0:0:0:0:
320,192,139795,1,2,0:0:0:0:
192,192,140101,128,8,140407:0:0:0:0:
320,192,140407,1,2,0:0:0:0:
64,192,140713,1,8,0:0:0:0:
448,192,141019,1,2,0:0:0:0:
320,192,141325,1,8,0:0:0:0:
64,192,141632,1,2,0:0:0:0:
448,192,141938,1,8,0:0:0:0:
192,192,142244,128,6,142550:0:0:0:0:
320,192,142550,128,12,142856:0:0:0:0:
64,192,142856,1,6,0:0:0:0:
192,192,143162,1,0,0:0:0:0:
64,192,143468,1,2,0:0:0:0:
448,192,143468,1,4,0:0:0:0:
320,192,143774,1,8,0:0:0:0:
64,192,144081,1,2,0:0:0:0:
192,192,144234,1,2,0:0:0:0:
448,192,144387,1,8,0:0:0:0:
64,192,144540,1,2,0:0:0:0:
320,192,144846,1,6,0:0:0:0:
192,192,144999,1,12,0:0:0:0:
448,192,145305,1,6,0:0:0:0:
320,192,145458,1,2,0:0:0:0:
64,192,145611,1,12,0:0:0:0:
448,192,145764,1,2,0:0:0:0:
192,192,145917,128,6,146223:0:0:0:0:
448,192,146223,1,8,0:0:0:0:
320,192,146530,128,6,146836:0:0:0:0:
64,192,146836,1,8,0:0:0:0:
448,192,147142,1,6,0:0:0:0:
320,192,147448,1,6,0:0:0:0:
192,192,147754,1,6,0:0:0:0:
320,192,148060,128,0,148366:0:0:0:0:
64,192,148366,1,4,0:0:0:0:
448,192,148366,1,2,0:0:0:0:
320,192,148672,1,8,0:0:0:0:
64,192,148979,1,2,0:0:0:0:
448,192,149285,1,8,0:0:0:0:
192,192,149591,1,2,0:0:0:0:
320,192,149897,128,8,150203:0:0:0:0:
192,192,150203,1,2,0:0:0:0:
448,192,150509,1,8,0:0:0:0:
64,192,150815,1,2,0:0:0:0:
192,192,151121,1,8,0:0:0:0:
448,192,151428,1,2,0:0:0:0:
64,192,151734,1,8,0:0:0:0:
320,192,152040,128,6,152346:0:0:0:0:
192,192,152346,128,12,152652:0:0:0:0:
448,192,152652,1,6,0:0:0:0:
320,192,152958,1,0,0:0:0:0:
64,192,153264,1,2,0:0:0:0:
448,192,153264,1,4,0:0:0:0:
192,192,153570,1,8,0:0:0:0:
448,192,153876,1,2,0:0:0:0:
320,192,154030,1,2,0:0:0:0:
64,192,154183,1,8,0:0:0:0:
192,192,154489,1,6,0:0:0:0:
64,192,154795,1,12,0:0:0:0:
192,192,154948,1,0,0:0:0:0:
448,192,155101,1,6,0:0:0:0:
320,192,155407,1,12,0:0:0:0:
64,192,155560,1,2,0:0:0:0:
448,192,155713,128,0,156019:0:0:0:0:
192,192,156019,1,6,0:0:0:0:
64,192,156325,128,0,156632:0:0:0:0:
320,192,156632,1,6,0:0:0:0:
192,192,157703,1,8,0:0:0:0:
320,192,157856,1,0,0:0:0:100:SFX Hardcore Kick.wav
448,192,158162,128,2,158621:0:0:0:0:
64,192,158621,1,0,0:0:0:70:LR_Snare Drum 2.wav
192,192,158928,1,0,0:0:0:70:LR_Snare Drum.wav
320,192,159081,128,0,159387:0:0:0:70:LR_Snare Drum 3.wav
64,192,159387,128,0,159846:0:0:0:70:LR_Snare Drum.wav
448,192,159846,1,0,0:0:0:70:LR_Snare Drum 2.wav
320,192,160152,1,0,0:0:0:70:LR_Snare Drum 3.wav
192,192,160305,128,0,160611:0:0:0:70:LR_Snare Drum.wav
448,192,160611,128,0,161223:0:0:0:70:LR_Snare Drum.wav
192,192,160917,1,0,0:0:0:70:LR_Snare Drum 3.wav
64,192,161223,128,0,161836:0:0:0:70:LR_Snare Drum 2.wav
320,192,161530,1,0,0:0:0:70:LR_Snare Drum 3.wav
448,192,161836,1,0,0:0:0:70:LR_Snare Drum.wav
192,192,161989,128,0,162295:0:0:0:70:LR_Snare Drum.wav
320,192,162295,1,0,0:0:0:70:LR_Snare Drum.wav
192,192,162601,1,0,0:0:0:70:LR_Snare Drum.wav
320,192,162754,1,0,0:0:0:70:LR_Snare Drum.wav
448,192,163060,128,0,163519:0:0:0:70:LR_Snare Drum.wav
64,192,163519,1,0,0:0:0:70:LR_Snare Drum 2.wav
192,192,163825,1,0,0:0:0:70:LR_Snare Drum.wav
320,192,163979,128,0,164285:0:0:0:70:LR_Snare Drum 3.wav
64,192,164285,128,0,164744:0:0:0:70:LR_Snare Drum.wav
448,192,164744,1,0,0:0:0:70:LR_Snare Drum 2.wav
320,192,165050,1,0,0:0:0:70:LR_Snare Drum 3.wav
192,192,165203,128,0,165509:0:0:0:70:LR_Snare Drum 2.wav
448,192,165509,128,0,165815:0:0:0:70:LR_Snare Drum.wav
192,192,165815,1,0,0:0:0:70:LR_Snare Drum 3.wav
64,192,166121,128,0,166428:0:0:0:70:LR_Snare Drum.wav
320,192,166428,1,0,0:0:0:70:LR_Snare Drum 3.wav
192,192,166734,1,0,0:0:0:70:LR_Snare Drum.wav
320,192,166887,1,0,0:0:0:70:LR_Snare Drum 3.wav
448,192,167040,1,0,0:0:0:70:LR_Snare Drum.wav
192,192,167193,1,0,0:0:0:70:LR_Snare Drum 3.wav
320,192,167499,1,0,0:0:0:0:
192,192,167652,128,0,167958:0:0:0:0:
448,192,167958,1,4,0:0:0:0:
64,192,167958,128,2,168264:0:0:0:0:
320,192,168264,1,8,0:0:0:0:
448,192,168570,128,2,168876:0:0:0:0:
192,192,168876,1,8,0:0:0:0:
64,192,169183,128,2,169489:0:0:0:0:
320,192,169489,1,8,0:0:0:0:
192,192,169795,128,2,170101:0:0:0:0:
448,192,170101,128,8,170407:0:0:0:0:
64,192,170407,128,2,170713:0:0:0:0:
320,192,170713,1,8,0:0:0:0:
448,192,171019,128,2,171325:0:0:0:0:
192,192,171325,1,8,0:0:0:0:
320,192,171632,128,2,171938:0:0:0:0:
64,192,171938,128,8,172244:0:0:0:0:
320,192,172244,1,2,0:0:0:0:
192,192,172550,128,8,172856:0:0:0:0:
448,192,172856,128,2,173162:0:0:0:0:
192,192,173162,1,8,0:0:0:0:
64,192,173468,128,2,173774:0:0:0:0:
320,192,173774,1,8,0:0:0:0:
448,192,174081,128,2,174387:0:0:0:0:
192,192,174387,1,8,0:0:0:0:
320,192,174693,128,2,174999:0:0:0:0:
64,192,174999,128,8,175305:0:0:0:0:
448,192,175305,128,2,175611:0:0:0:0:
192,192,175611,1,8,0:0:0:0:
64,192,175917,128,2,176223:0:0:0:0:
320,192,176223,1,8,0:0:0:0:
192,192,176530,128,2,176836:0:0:0:0:
448,192,176836,128,8,177142:0:0:0:0:
192,192,177142,1,2,0:0:0:0:
320,192,177448,128,8,177754:0:0:0:0:
448,192,177754,1,4,0:0:0:0:
64,192,177754,128,2,178060:0:0:0:0:
320,192,178060,1,8,0:0:0:0:
448,192,178366,128,2,178672:0:0:0:0:
192,192,178672,1,8,0:0:0:0:
64,192,178979,128,2,179285:0:0:0:0:
320,192,179285,1,8,0:0:0:0:
192,192,179591,128,2,179897:0:0:0:0:
448,192,179897,128,8,180203:0:0:0:0:
64,192,180203,128,2,180509:0:0:0:0:
320,192,180509,1,8,0:0:0:0:
448,192,180815,128,2,181121:0:0:0:0:
192,192,181121,1,8,0:0:0:0:
320,192,181428,128,2,181734:0:0:0:0:
64,192,181734,128,8,182040:0:0:0:0:
320,192,182040,1,2,0:0:0:0:
192,192,182346,128,8,182652:0:0:0:0:
64,192,182652,1,2,0:0:0:0:
448,192,182652,128,4,182958:0:0:0:0:
192,192,182958,1,8,0:0:0:0:
64,192,183264,128,2,183570:0:0:0:0:
320,192,183570,1,8,0:0:0:0:
448,192,183876,128,4,184183:0:0:0:0:
64,192,183876,1,2,0:0:0:0:
192,192,184183,1,8,0:0:0:0:
320,192,184489,128,2,184795:0:0:0:0:
192,192,184795,128,8,185101:0:0:0:0:
64,192,185101,128,2,185407:0:0:0:0:
448,192,185101,1,4,0:0:0:0:
320,192,185407,128,8,185713:0:0:0:0:
64,192,185713,128,2,186019:0:0:0:0:
448,192,185713,1,4,0:0:0:0:
320,192,186019,128,8,186325:0:0:0:0:
64,192,186325,1,2,0:0:0:0:
448,192,186325,128,4,186632:0:0:0:0:
192,192,186632,128,8,186938:0:0:0:0:
320,192,186938,128,2,187244:0:0:0:0:
448,192,186938,1,4,0:0:0:0:
192,192,187244,128,8,187550:0:0:0:0:
448,192,187550,1,2,0:0:0:0:
64,192,187550,1,4,0:0:0:0:
192,192,187856,1,0,0:0:0:70:S3.wav
448,192,188315,1,0,0:0:0:70:LR_Snare Drum.wav
192,192,188468,1,0,0:0:0:70:S3.wav
64,192,188774,1,0,0:0:0:70:LR_Snare Drum.wav
320,192,189081,1,0,0:0:0:70:S3.wav
64,192,189387,1,0,0:0:0:70:LR_Snare Drum.wav
448,192,189693,1,0,0:0:0:70:LR_Snare Drum.wav
64,192,189999,1,2,0:0:0:0:
192,192,189999,1,4,0:0:0:0:
320,192,190305,1,0,0:0:0:70:S3.wav
64,192,190764,1,0,0:0:0:70:LR_Snare Drum.wav
320,192,190917,1,0,0:0:0:70:S3.wav
448,192,191223,128,0,191530:0:0:0:50:S2.wav
64,192,191530,128,0,191836:0:0:0:70:LR_Snare Drum.wav
320,192,191836,128,0,192142:0:0:0:70:LR_Snare Drum.wav
192,192,192142,128,0,192448:0:0:0:70:LR_Snare Drum.wav
64,192,192448,128,6,193672:0:0:0:0:
448,192,192448,1,0,0:0:0:100:B4S_s.wav
320,192,193060,1,0,0:0:0:0:
320,192,193672,128,0,194897:0:0:0:100:B4S_s.wav
64,192,194285,1,0,0:0:0:0:
192,192,194897,128,0,196121:0:0:0:100:B4S_s.wav
448,192,195509,1,0,0:0:0:0:
448,192,196121,128,0,196887:0:0:0:100:B4S_s.wav
192,192,196887,1,0,0:0:0:100:F#5S_Gb5S_s.wav
320,192,197040,1,0,0:0:0:100:E5S_s.wav
64,192,197346,1,2,0:0:0:0:
448,192,197346,1,4,0:0:0:0:
192,192,197652,1,8,0:0:0:0:
448,192,197958,1,2,0:0:0:0:
320,192,198264,1,8,0:0:0:0:
192,192,198417,1,0,0:0:0:50:S2.wav
448,192,198570,1,6,0:0:0:0:
320,192,198876,1,8,0:0:0:0:
64,192,199183,1,2,0:0:0:0:
192,192,199489,1,8,0:0:0:0:
448,192,199795,128,0,200101:0:0:0:0:
192,192,200101,1,6,0:0:0:0:
64,192,200407,128,0,200713:0:0:0:0:
320,192,200713,1,6,0:0:0:0:
448,192,201019,128,4,201632:0:0:0:0:
64,192,201019,1,2,0:0:0:0:
192,192,201325,1,0,0:0:0:50:S2.wav
192,192,201632,1,0,0:0:0:50:S2.wav
320,192,201938,128,0,202244:0:0:0:0:
64,192,202244,1,4,0:0:0:0:
448,192,202244,1,2,0:0:0:0:
320,192,202550,1,8,0:0:0:0:
64,192,202856,1,2,0:0:0:0:
448,192,203162,1,8,0:0:0:0:
192,192,203468,1,2,0:0:0:0:
320,192,203774,128,8,204081:0:0:0:0:
192,192,204081,1,2,0:0:0:0:
448,192,204387,1,8,0:0:0:0:
64,192,204693,1,2,0:0:0:0:
192,192,204999,1,8,0:0:0:0:
448,192,205305,1,2,0:0:0:0:
64,192,205611,1,8,0:0:0:0:
320,192,205917,128,6,206223:0:0:0:0:
192,192,206223,128,12,206530:0:0:0:0:
448,192,206530,1,6,0:0:0:0:
320,192,206836,1,0,0:0:0:0:
64,192,207142,1,2,0:0:0:0:
448,192,207142,1,4,0:0:0:0:
192,192,207448,1,8,0:0:0:0:
448,192,207754,1,2,0:0:0:0:
320,192,207907,1,2,0:0:0:0:
64,192,208060,1,8,0:0:0:0:
448,192,208213,1,2,0:0:0:0:
192,192,208519,1,6,0:0:0:0:
320,192,208672,1,12,0:0:0:0:
64,192,208979,1,6,0:0:0:0:
192,192,209132,1,2,0:0:0:0:
448,192,209285,1,12,0:0:0:0:
64,192,209438,1,2,0:0:0:0:
320,192,209591,128,6,209897:0:0:0:0:
64,192,209897,1,8,0:0:0:0:
192,192,210203,128,6,210509:0:0:0:0:
448,192,210509,1,8,0:0:0:0:
64,192,210815,1,6,0:0:0:0:
192,192,211121,1,6,0:0:0:0:
320,192,211428,1,6,0:0:0:0:
192,192,211734,128,0,212040:0:0:0:0:
448,192,212040,1,2,0:0:0:0:
64,192,212040,1,4,0:0:0:0:
192,192,212346,1,8,0:0:0:0:
448,192,212652,1,2,0:0:0:0:
64,192,212958,1,8,0:0:0:0:
320,192,213264,1,2,0:0:0:0:
192,192,213570,128,8,213876:0:0:0:0:
320,192,213876,1,2,0:0:0:0:
64,192,214183,1,8,0:0:0:0:
448,192,214489,1,2,0:0:0:0:
320,192,214795,1,8,0:0:0:0:
64,192,215101,1,2,0:0:0:0:
448,192,215407,1,8,0:0:0:0:
192,192,215713,128,6,216019:0:0:0:0:
320,192,216019,128,12,216325:0:0:0:0:
64,192,216325,1,6,0:0:0:0:
192,192,216632,1,0,0:0:0:0:
64,192,216938,1,2,0:0:0:0:
448,192,216938,1,4,0:0:0:0:
320,192,217244,1,8,0:0:0:0:
64,192,217550,1,2,0:0:0:0:
192,192,217703,1,2,0:0:0:0:
448,192,217856,1,8,0:0:0:0:
320,192,218162,1,6,0:0:0:0:
448,192,218468,1,12,0:0:0:0:
320,192,218621,1,0,0:0:0:0:
64,192,218774,1,6,0:0:0:0:
192,192,219081,1,12,0:0:0:0:
448,192,219234,1,2,0:0:0:0:
64,192,219387,128,0,219693:0:0:0:0:
320,192,219693,1,6,0:0:0:0:
448,192,219999,128,0,220305:0:0:0:0:
192,192,220305,1,6,0:0:0:0:
64,192,221223,1,0,0:0:0:70:S1.wav
320,192,221376,1,8,0:0:0:0:
192,192,221530,1,0,0:0:0:100:SFX Hardcore Kick.wav
64,192,221836,1,4,0:0:0:0:
448,192,221836,1,2,0:0:0:0:
320,192,222142,1,8,0:0:0:0:
192,192,222448,1,2,0:0:0:0:
64,192,222754,128,8,223060:0:0:0:0:
448,192,223060,1,2,0:0:0:0:
192,192,223366,1,8,0:0:0:0:
320,192,223672,1,2,0:0:0:0:
192,192,223979,128,8,224285:0:0:0:0:
448,192,224285,1,2,0:0:0:0:
320,192,224591,1,8,0:0:0:0:
192,192,224897,1,2,0:0:0:0:
64,192,225203,128,8,225509:0:0:0:0:
448,192,225509,1,2,0:0:0:0:
192,192,225815,1,8,0:0:0:0:
448,192,226121,1,2,0:0:0:0:
320,192,226428,1,8,0:0:0:0:
64,192,226734,1,2,0:0:0:0:
192,192,227040,1,8,0:0:0:0:
320,192,227346,1,2,0:0:0:0:
448,192,227652,128,8,227958:0:0:0:0:
64,192,227958,1,2,0:0:0:0:
320,192,228264,1,8,0:0:0:0:
192,192,228570,1,2,0:0:0:0:
320,192,228876,128,8,229183:0:0:0:0:
64,192,229183,1,2,0:0:0:0:
192,192,229489,1,8,0:0:0:0:
320,192,229795,1,2,0:0:0:0:
448,192,230101,128,8,230407:0:0:0:0:
64,192,230407,128,0,231019:0:0:0:50:K.wav
320,192,230713,1,0,0:0:0:50:K.wav
320,192,231019,128,0,231325:0:0:0:70:tom01.wav
192,192,231325,128,0,231632:0:0:0:70:tom03.wav
448,192,231632,1,2,0:0:0:0:
64,192,231632,1,4,0:0:0:0:
320,192,231938,1,8,0:0:0:0:
192,192,232244,1,2,0:0:0:0:
64,192,232550,128,8,232856:0:0:0:0:
448,192,232856,1,2,0:0:0:0:
192,192,233162,1,8,0:0:0:0:
320,192,233468,1,2,0:0:0:0:
192,192,233774,128,8,234081:0:0:0:0:
448,192,234081,1,2,0:0:0:0:
320,192,234387,1,8,0:0:0:0:
192,192,234693,1,2,0:0:0:0:
64,192,234999,128,8,235305:0:0:0:0:
448,192,235305,1,2,0:0:0:0:
192,192,235611,1,8,0:0:0:0:
448,192,235917,1,2,0:0:0:0:
320,192,236223,128,8,236530:0:0:0:0:
64,192,236530,1,2,0:0:0:0:
320,192,236836,1,8,0:0:0:0:
192,192,237142,1,2,0:0:0:0:
448,192,237448,128,8,237754:0:0:0:0:
64,192,237754,1,2,0:0:0:0:
320,192,238060,1,8,0:0:0:0:
192,192,238366,1,2,0:0:0:0:
320,192,238672,128,8,238979:0:0:0:0:
64,192,238979,1,2,0:0:0:0:
64,192,239208,1,8,0:0:0:0:
448,192,239438,1,2,0:0:0:0:
448,192,239667,1,8,0:0:0:0:
64,192,239897,1,2,0:0:0:0:
320,192,240050,1,8,0:0:0:0:
192,192,240203,1,2,0:0:0:0:
192,192,240509,1,2,0:0:0:0:
448,192,240739,1,2,0:0:0:0:
64,192,241121,1,0,0:0:0:50:LR4_BassKickReverbXG.wav
192,192,241121,1,0,0:0:0:0:
