osu file format v14

[General]
AudioFilename: CS5.mp3
AudioLeadIn: 2000
PreviewTime: 97413
Countdown: 0
SampleSet: Normal
StackLeniency: 0.7
Mode: 0
LetterboxInBreaks: 0
WidescreenStoryboard: 0

[Editor]
DistanceSpacing: 1.3
BeatDivisor: 4
GridSize: 4
TimelineZoom: 1.6

[Metadata]
Title:Cirno no Perfect Sansuu Kyoushitsu
TitleUnicode:チルノのパーフェクトさんすう教室
Artist:IOSYS
ArtistUnicode:IOSYS
Creator:alacat
Version:Hard
Source:東方Project
Tags:N_a_s_y_a Nasya Muya ZUN Touhou Koumakyou 東方紅魔郷 〜 the Embodiment of Scarlet Devil. Cirno's Math Class 東方氷雪歌集 ARM miko quim 夕野ヨシミ Yuuno Yoshimi 上海アリス幻樂団 Team Shanghai Alice おてんば恋娘 Otenba Koimusume
BeatmapID:952068
BeatmapSetID:392215

[Difficulty]
HPDrainRate:5
CircleSize:3.5
OverallDifficulty:5.5
ApproachRate:7
SliderMultiplier:1.3
SliderTickRate:1

[Events]
//Background and Video events
0,0,"BG.jpg",0,0
Video,0,"video.avi"
//Break Periods
2,66070,70456
//Storyboard Layer 0 (Background)
//Storyboard Layer 1 (Fail)
//Storyboard Layer 2 (Pass)
//Storyboard Layer 3 (Foreground)
//Storyboard Sound Samples

[TimingPoints]
42,342.857142857143,4,1,1,40,1,0
10499,-100,4,2,1,60,0,0
12384,-100,4,2,1,30,0,0
12727,-100,4,2,1,40,0,0
13070,-100,4,2,1,50,0,0
13242,-100,4,2,1,60,0,0
15299,-100,4,2,1,40,0,0
15813,-100,4,2,1,50,0,0
16499,-100,4,1,1,60,0,0
18556,-100,4,1,1,40,0,0
19242,-100,4,1,1,50,0,0
19927,-100,4,1,1,60,0,0
20613,-100,4,2,1,50,0,0
21470,-100,4,1,1,60,0,0
21984,-100,4,1,1,70,0,0
31584,-100,4,1,1,50,0,0
31927,-100,4,1,1,60,0,0
32270,-100,4,1,1,70,0,0
43584,-100,4,1,1,60,0,0
43927,-100,4,1,1,50,0,0
55927,-100,4,1,1,70,0,0
56270,-100,4,1,1,50,0,0
57127,-100,4,1,1,70,0,0
57642,-100,4,1,1,50,0,0
59870,-100,4,1,1,70,0,0
60384,-100,4,1,1,50,0,0
62442,-100,4,1,1,60,0,0
62784,-100,4,1,1,70,0,0
63127,-100,4,1,1,50,0,0
63813,-100,4,1,1,60,0,0
64499,-100,4,1,1,70,0,0
65184,-100,4,1,1,60,0,0
65870,-100,4,1,1,50,0,0
71356,-100,4,1,1,60,0,0
75470,-100,4,1,1,50,0,0
75813,-100,4,1,1,60,0,0
76156,-100,4,1,1,70,0,0
76842,-100,4,1,1,80,0,1
78213,-100,4,1,1,60,0,1
78556,-100,4,1,1,70,0,1
78899,-100,4,1,1,80,0,1
81127,-100,4,1,1,50,0,1
81299,-100,4,1,1,60,0,1
81470,-100,4,1,1,70,0,1
81642,-100,4,1,1,80,0,1
89184,-100,4,1,1,60,0,1
89527,-100,4,1,1,70,0,1
89870,-100,4,1,1,80,0,1
92099,-100,4,1,1,50,0,1
92270,-100,4,1,1,60,0,1
92442,-100,4,1,1,70,0,1
92613,-100,4,1,1,80,0,1
96042,-100,4,1,1,50,0,1
96384,-100,4,1,1,60,0,1
96727,-100,4,1,1,70,0,1
97070,-100,4,1,1,80,0,1
97413,-100,4,1,1,40,0,0
98270,-100,4,1,1,50,0,0
98442,-100,4,1,1,60,0,0
98784,-100,4,1,1,70,0,0
108384,-100,4,1,1,50,0,0
108727,-100,4,1,1,60,0,0
109070,-100,4,1,1,70,0,0
120384,-100,4,1,1,80,0,0

[Colours]
Combo1 : 147,255,201
Combo2 : 176,255,255
Combo3 : 132,187,255
Combo4 : 134,134,255

[HitObjects]
452,312,42,6,0,L|456:376,2,65,0|0|8,0:0|0:0|0:0,0:0:0:0:
444,228,556,1,8,0:0:0:0:
276,220,899,2,0,L|212:224,2,65,8|0|8,0:0|0:0|0:0,0:0:0:0:
356,256,1413,6,0,P|360:220|356:192,1,65,0|0,0:0|0:0,0:0:0:0:
304,124,1756,2,0,P|300:88|304:60,1,65,8|8,0:0|0:0,0:0:0:0:
140,20,2270,2,0,L|76:28,1,65,8|0,0:0|0:0,0:0:0:0:
20,92,2613,1,8,0:0:0:0:
68,160,2784,6,0,P|132:168|192:140,1,130,0|8,0:0|0:0,0:0:0:0:
240,72,3299,1,8,0:0:0:0:
320,40,3470,2,0,P|384:32|444:60,1,130,0|8,0:0|0:0,0:0:0:0:
492,128,3984,1,8,0:0:0:0:
468,208,4156,6,0,L|480:276,1,65,0|8,0:0|0:0,0:0:0:0:
396,296,4499,2,0,L|407:360,1,65,8|8,0:0|0:0,0:0:0:0:
240,328,5013,1,8,0:0:0:0:
252,244,5184,1,8,0:0:0:0:
188,88,5527,6,0,L|124:96,1,65,0|0,0:0|0:0,0:0:0:0:
52,144,5870,1,8,0:0:0:0:
48,228,6042,1,8,0:0:0:0:
160,352,6384,1,8,0:0:0:0:
228,300,6556,2,0,L|296:312,1,65,0|8,0:0|0:0,0:0:0:0:
368,276,6899,6,0,L|436:264,2,65,0|8|8,0:0|0:0|0:0,0:0:0:0:
296,228,7413,1,8,0:0:0:0:
376,80,7756,2,0,L|384:144,2,65,8|8|4,0:0|0:0|0:3,0:0:0:0:
312,24,8270,5,0,0:0:0:0:
236,64,8442,1,8,0:0:0:0:
160,32,8613,2,0,P|120:32|92:40,1,65,8|8,0:0|0:0,0:0:0:0:
44,104,8956,1,0,0:0:0:0:
88,176,9127,1,8,0:0:0:0:
172,160,9299,2,0,P|208:164|240:176,1,65,8|8,0:0|0:0,0:0:0:0:
272,248,9642,5,0,0:0:0:0:
216,312,9813,1,8,0:0:0:0:
136,288,9984,1,8,0:0:0:0:
80,352,10156,1,8,0:0:0:0:
24,192,10499,6,0,B|36:64|36:64|88:24,1,195,2|4,0:0|0:3,0:0:0:0:
304,160,11527,2,0,L|368:164,2,65,2|0|2,0:0|0:0|0:0,0:0:0:0:
248,96,12042,1,0,0:0:0:0:
292,24,12213,1,2,0:0:0:0:
248,96,12384,6,0,P|184:112|120:96,2,130,2|2|2,0:1|0:1|0:1,0:0:0:0:
292,24,13242,1,2,0:0:0:0:
372,52,13413,2,0,L|436:40,1,65,0|2,0:0|0:0,0:0:0:0:
496,100,13756,6,0,P|508:172|492:232,1,130,0|0,0:0|0:0,0:0:0:0:
424,272,14270,1,2,0:0:0:0:
348,236,14442,2,0,L|284:248,1,65,0|2,0:0|0:0,0:0:0:0:
232,316,14784,2,0,L|168:304,1,65,0|2,0:0|0:0,0:0:0:0:
112,244,15127,5,0,0:0:0:0:
32,272,15299,1,2,0:1:0:0:
44,188,15470,2,0,P|48:156|40:124,1,65,2|2,0:1|0:1,0:0:0:0:
0,48,15813,2,0,B|52:36|52:36|192:92|192:92|248:80,1,260,8|4,0:3|0:0,0:0:0:0:
480,32,17184,5,4,0:0:0:0:
320,264,17870,2,0,P|440:296|500:192,1,260,4|8,0:0|0:0,0:0:0:0:
368,88,18899,1,8,0:0:0:0:
244,204,19242,6,0,P|180:212|116:200,1,130,2|8,0:0|0:0,0:0:0:0:
224,332,19927,2,0,P|288:324|352:336,1,130,2|8,0:0|0:0,0:0:0:0:
480,228,20613,6,0,L|492:164,1,65,2|0,0:0|0:0,0:0:0:0:
416,124,20956,2,0,L|404:60,1,65,2|2,0:0|0:0,0:0:0:0:
328,24,21299,1,2,0:0:0:0:
264,80,21470,2,0,L|200:76,1,65,2|2,0:0|0:0,0:0:0:0:
56,168,21984,6,0,P|100:216|164:224,1,130,2|8,0:0|0:0,0:0:0:0:
240,192,22499,2,0,P|303:201|345:248,1,130,2|0,0:0|0:0,0:0:0:0:
368,328,23013,1,8,0:0:0:0:
504,228,23356,6,0,L|484:100,1,130,2|8,0:0|0:0,0:0:0:0:
400,88,23870,2,0,L|420:216,1,130,2|2,0:0|0:0,0:0:0:0:
436,300,24384,1,10,0:0:0:0:
276,356,24727,6,0,P|208:344|148:352,1,130,2|8,0:0|0:0,0:0:0:0:
108,276,25242,2,0,P|152:223|175:167,1,130,2|0,0:0|0:0,0:0:0:0:
148,88,25756,1,8,0:0:0:0:
304,28,26099,6,0,L|436:40,1,130,2|10,0:0|0:0,0:0:0:0:
492,100,26613,2,0,P|508:168|492:228,1,130,2|2,0:0|0:0,0:0:0:0:
420,268,27127,2,0,P|384:264|356:268,1,65,10|2,0:0|0:0,0:0:0:0:
296,328,27470,6,0,P|228:336|168:316,1,130,6|8,0:0|0:0,0:0:0:0:
136,240,27984,2,0,L|152:108,1,130,2|0,0:0|0:0,0:0:0:0:
108,36,28499,1,8,0:0:0:0:
32,188,28842,5,2,0:0:0:0:
124,328,29184,1,8,0:0:0:0:
204,296,29356,2,0,P|268:296|336:316,1,130,2|2,0:0|0:0,0:0:0:0:
396,368,29870,1,10,0:0:0:0:
492,228,30213,6,0,L|480:96,1,130,2|8,0:0|0:0,0:0:0:0:
420,40,30727,2,0,B|356:24|356:64|288:48,1,130,2|0,0:0|0:0,0:0:0:0:
212,24,31242,1,8,0:0:0:0:
104,152,31584,6,0,L|88:288,2,130,2|2|2,0:0|0:0|0:0,0:0:0:0:
48,88,32442,1,2,0:0:0:0:
104,152,32613,2,0,L|172:148,1,65,8|10,0:0|0:0,0:0:0:0:
228,88,32956,6,0,P|296:100|344:148,1,130,2|8,0:0|0:0,0:0:0:0:
376,216,33470,2,0,L|352:348,1,130,2|0,0:0|0:0,0:0:0:0:
272,372,33984,1,8,0:0:0:0:
172,236,34327,6,0,L|44:256,1,130,2|8,0:0|0:0,0:0:0:0:
4,180,34842,2,0,P|12:112|44:60,1,130,2|2,0:0|0:0,0:0:0:0:
124,40,35356,1,10,0:0:0:0:
236,164,35699,6,0,P|304:176|364:160,1,130,2|8,0:0|0:0,0:0:0:0:
420,100,36213,2,0,L|404:232,1,130,2|0,0:0|0:0,0:0:0:0:
392,312,36727,1,8,0:0:0:0:
228,348,37070,6,0,L|96:336,1,130,2|10,0:0|0:0,0:0:0:0:
44,272,37584,2,0,P|28:204|44:144,1,130,2|2,0:0|0:0,0:0:0:0:
108,92,38099,2,0,L|100:24,1,65,10|0,0:0|0:0,0:0:0:0:
180,56,38442,6,0,P|243:64|305:45,1,130,2|8,0:0|0:0,0:0:0:0:
364,108,38956,2,0,L|348:240,1,130,2|0,0:0|0:0,0:0:0:0:
336,320,39470,1,8,0:0:0:0:
504,296,39813,5,2,0:0:0:0:
348,237,40156,1,8,0:0:0:0:
268,268,40327,2,0,P|204:268|136:248,1,130,2|2,0:0|0:0,0:0:0:0:
100,176,40842,1,10,0:0:0:0:
232,72,41184,6,0,B|296:64|296:64|360:84,1,130,2|2,0:0|0:0,0:0:0:0:
348,168,41699,2,0,B|284:176|284:176|220:156,1,130,2|2,0:0|0:0,0:0:0:0:
148,112,42213,2,0,L|84:124,1,65,8|8,0:0|0:0,0:0:0:0:
20,180,42556,6,0,B|0:312|0:312|24:372,1,195,2|2,0:0|0:0,0:0:0:0:
256,264,43584,1,4,0:0:0:0:
392,360,43927,6,0,B|420:320|420:320|404:240,1,130,4|8,0:2|0:0,0:0:0:0:
324,208,44442,1,0,0:0:0:0:
256,264,44613,2,0,P|196:272|128:252,1,130,0|8,0:0|0:0,0:0:0:0:
32,112,45299,6,0,L|8:244,1,130,0|8,0:0|0:0,0:0:0:0:
32,320,45813,1,0,0:0:0:0:
104,364,45984,2,0,P|164:372|232:352,1,130,0|8,0:0|0:0,0:0:0:0:
340,224,46670,6,0,L|320:96,1,130,0|8,0:0|0:0,0:0:0:0:
276,24,47184,1,0,0:0:0:0:
228,96,47356,2,0,P|160:104|96:88,1,130,0|8,0:0|0:0,0:0:0:0:
52,20,47870,1,0,0:0:0:0:
12,96,48042,6,0,B|-4:196|-4:196|4:228,2,130,0|8|0,0:0|0:0|0:0,0:0:0:0:
152,192,49070,1,8,0:0:0:0:
304,120,49413,6,0,L|296:52,2,65,4|0|8,0:2|0:0|0:0,0:0:0:0:
360,184,49927,1,0,0:0:0:0:
436,220,50099,2,0,L|308:240,1,130,0|8,0:0|0:0,0:0:0:0:
148,296,50784,6,0,L|84:288,2,65,0|0|8,0:0|0:0|0:0,0:0:0:0:
220,344,51299,1,0,0:0:0:0:
296,304,51470,2,0,P|308:240|288:180,1,130,0|8,0:0|0:0,0:0:0:0:
152,80,52156,6,0,L|284:96,1,130,2|8,0:0|0:0,0:0:0:0:
352,48,52670,1,0,0:0:0:0:
428,84,52842,2,0,B|452:148|452:148|444:216,1,130,2|8,0:0|0:0,0:0:0:0:
392,276,53356,1,0,0:0:0:0:
312,248,53527,6,0,L|176:264,1,130,2|8,0:0|0:0,0:0:0:0:
128,328,54042,1,0,0:0:0:0:
56,280,54213,2,0,L|36:184,1,97.5,2|2,0:0|0:0,0:0:0:0:
24,144,54556,2,0,L|31:79,1,65,8|2,0:0|0:0,0:0:0:0:
96,24,54899,6,0,P|132:24|160:28,1,65,4|0,0:2|0:0,0:0:0:0:
224,84,55242,2,0,P|260:84|288:80,1,65,8|0,0:0|0:0,0:0:0:0:
360,32,55584,2,0,P|328:92|332:156,1,130,0|10,0:0|0:0,0:0:0:0:
436,284,56270,6,0,L|500:280,2,65,0|0|8,0:0|0:0|0:0,0:0:0:0:
364,332,56784,1,0,0:0:0:0:
300,276,56956,1,0,0:0:0:0:
216,292,57127,2,0,P|188:316|176:344,1,65,10|10,0:0|0:0,0:0:0:0:
52,228,57642,6,0,L|40:164,2,65,0|0|8,0:0|0:0|0:0,0:0:0:0:
120,280,58156,1,0,0:0:0:0:
192,236,58327,2,0,P|256:236|320:264,1,130,0|8,0:0|0:0,0:0:0:0:
368,328,58842,1,0,0:0:0:0:
440,280,59013,6,0,L|416:152,2,130,0|8|0,0:0|0:0|0:0,0:0:0:0:
368,328,59870,2,0,P|328:336|304:336,1,65,10|10,0:0|0:0,0:0:0:0:
156,256,60384,6,0,P|88:256|28:232,1,130,10|8,0:0|0:0,0:0:0:0:
68,68,61070,2,0,P|136:68|196:92,1,130,10|8,0:0|0:0,0:0:0:0:
288,232,61756,2,0,L|352:224,1,65,10|0,0:0|0:0,0:0:0:0:
420,276,62099,2,0,L|484:268,1,65,10|0,0:0|0:0,0:0:0:0:
496,184,62442,1,10,0:0:0:0:
448,116,62613,1,0,0:0:0:0:
368,140,62784,1,10,0:0:0:0:
232,240,63127,6,0,L|208:108,1,130,4|8,0:2|0:0,0:0:0:0:
256,40,63642,1,8,0:0:0:0:
172,36,63813,2,0,B|104:32|104:32|44:60,1,130,4|8,0:2|0:0,0:0:0:0:
16,136,64327,1,8,0:0:0:0:
256,192,64499,12,4,65870,0:2:0:0:
56,200,71356,6,0,P|120:208|180:176,1,130,4|0,0:2|0:0,0:0:0:0:
196,96,71870,1,8,0:0:0:0:
196,96,72213,2,0,L|184:32,2,65,8|0|8,0:0|0:0|0:0,0:0:0:0:
260,152,72727,6,0,L|252:284,1,130,4|8,0:2|0:0,0:0:0:0:
400,364,73413,2,0,L|407:234,1,130,8|8,0:0|0:0,0:0:0:0:
392,64,74099,6,0,P|328:44|264:60,1,130,2|4,0:0|0:2,0:0:0:0:
208,216,74784,2,0,P|144:236|80:220,1,130,2|4,0:0|0:2,0:0:0:0:
232,136,75470,6,0,B|256:268|256:268|320:260|380:300,1,260,10|14,0:0|0:0,0:0:0:0:
375,297,76842,6,0,P|392:232|376:172,1,130,4|8,0:2|0:0,0:0:0:0:
320,108,77356,1,0,0:0:0:0:
244,68,77527,2,0,L|112:60,1,130,0|8,0:0|0:0,0:0:0:0:
40,212,78213,6,0,L|24:276,1,65,2|2,0:0|0:0,0:0:0:0:
80,340,78556,2,0,L|144:324,1,65,10|2,0:0|0:0,0:0:0:0:
216,368,78899,2,0,P|280:368|332:328,1,130,2|8,0:0|0:0,0:0:0:0:
324,160,79584,6,0,P|375:121|438:121,1,130,0|8,0:0|0:0,0:0:0:0:
508,172,80099,1,0,0:0:0:0:
432,208,80270,2,0,B|412:304|412:304|428:336,1,130,0|8,0:0|0:0,0:0:0:0:
256,336,80956,6,0,L|192:352,1,65,0|2,0:0|0:0,0:0:0:0:
136,292,81299,2,0,L|152:228,1,65,10|2,0:0|0:0,0:0:0:0:
128,148,81642,2,0,P|60:128|0:144,1,130,2|8,0:0|0:0,0:0:0:0:
152,60,82327,6,0,P|220:80|280:64,1,130,4|8,0:0|0:0,0:0:0:0:
332,132,82842,2,0,P|400:112|460:128,1,130,0|0,0:0|0:0,0:0:0:0:
496,200,83356,2,0,L|508:264,1,65,8|0,0:0|0:0,0:0:0:0:
380,372,83870,6,0,L|396:240,1,130,0|0,0:0|0:0,0:0:0:0:
328,192,84384,2,0,L|264:204,1,65,0|0,0:0|0:0,0:0:0:0:
188,240,84727,1,8,0:0:0:0:
108,212,84899,1,0,0:0:0:0:
52,148,85070,6,0,P|52:84|96:36,1,130,2|8,0:0|0:0,0:0:0:0:
172,72,85584,1,2,0:0:0:0:
252,44,85756,2,0,L|384:60,1,130,2|8,0:0|0:0,0:0:0:0:
444,116,86270,1,2,0:0:0:0:
364,148,86442,6,0,P|348:220|372:276,2,130,2|10|2,0:0|0:0|0:0,0:0:0:0:
216,232,87470,1,8,0:0:0:0:
208,64,87813,6,0,L|78:71,1,130,4|8,0:2|0:0,0:0:0:0:
20,132,88327,1,0,0:0:0:0:
20,132,88499,2,0,P|4:194|21:256,1,130,0|8,0:0|0:0,0:0:0:0:
160,356,89184,6,0,L|224:348,1,65,2|2,0:0|0:0,0:0:0:0:
284,284,89527,2,0,L|348:276,1,65,10|2,0:0|0:0,0:0:0:0:
424,236,89870,2,0,P|436:172|416:108,1,130,2|8,0:0|0:0,0:0:0:0:
256,60,90556,6,0,L|128:80,1,130,0|8,0:0|0:0,0:0:0:0:
44,80,91070,1,0,0:0:0:0:
84,152,91242,2,0,P|96:220|80:284,1,130,0|8,0:0|0:0,0:0:0:0:
224,372,91927,6,0,L|240:308,1,65,0|2,0:0|0:0,0:0:0:0:
324,308,92270,2,0,L|340:244,1,65,10|2,0:0|0:0,0:0:0:0:
308,168,92613,2,0,P|240:148|180:164,1,130,2|8,0:0|0:0,0:0:0:0:
44,260,93299,6,0,L|16:128,1,130,4|8,0:0|0:0,0:0:0:0:
64,64,93813,2,0,P|126:50|187:70,1,130,0|0,0:0|0:0,0:0:0:0:
272,48,94327,2,0,P|304:60|336:60,1,65,8|0,0:0|0:0,0:0:0:0:
412,24,94670,6,0,L|428:156,1,130,0|8,0:0|0:0,0:0:0:0:
380,224,95184,1,0,0:0:0:0:
304,192,95356,2,0,P|236:192|176:220,1,130,0|8,0:0|0:0,0:0:0:0:
296,340,96042,6,0,L|428:352,1,130,2|12,0:0|0:0,0:0:0:0:
220,300,96727,2,0,L|88:312,1,130,2|12,0:0|0:0,0:0:0:0:
16,160,97413,5,2,0:2:0:0:
16,160,98270,2,0,L|80:152,1,65,0|8,0:0|0:0,0:0:0:0:
232,80,98784,6,0,L|360:100,1,130,2|8,0:0|0:0,0:0:0:0:
428,52,99299,2,0,P|392:120|396:176,1,130,2|0,0:0|0:0,0:0:0:0:
444,240,99813,1,8,0:0:0:0:
320,356,100156,6,0,L|192:336,1,130,2|8,0:0|0:0,0:0:0:0:
112,364,100670,2,0,P|88:304|96:240,1,130,2|2,0:0|0:0,0:0:0:0:
144,172,101184,1,10,0:0:0:0:
288,260,101527,6,0,P|352:276|416:256,1,130,2|8,0:0|0:0,0:0:0:0:
464,188,102042,2,0,L|436:60,1,130,2|0,0:0|0:0,0:0:0:0:
360,20,102556,1,8,0:0:0:0:
220,112,102899,6,0,L|88:100,1,130,2|10,0:0|0:0,0:0:0:0:
24,152,103413,2,0,P|8:220|24:280,1,130,2|2,0:0|0:0,0:0:0:0:
84,336,103927,1,10,0:0:0:0:
164,308,104099,1,0,0:0:0:0:
200,232,104270,6,0,P|268:224|328:244,1,130,2|8,0:0|0:0,0:0:0:0:
368,316,104784,2,0,L|383:186,1,130,2|0,0:0|0:0,0:0:0:0:
332,120,105299,1,8,0:0:0:0:
484,192,105642,5,2,0:0:0:0:
388,56,105984,1,8,0:0:0:0:
332,120,106156,2,0,P|268:120|200:100,1,130,2|2,0:0|0:0,0:0:0:0:
156,32,106670,1,10,0:0:0:0:
20,132,107013,6,0,L|32:264,1,130,2|8,0:0|0:0,0:0:0:0:
104,304,107527,2,0,P|164:292|232:304,1,130,2|0,0:0|0:0,0:0:0:0:
292,364,108042,1,8,0:0:0:0:
380,220,108384,6,0,L|396:84,2,130,2|2|2,0:0|0:0|0:0,0:0:0:0:
448,272,109242,1,2,0:0:0:0:
368,304,109413,2,0,L|300:292,1,65,8|10,0:0|0:0,0:0:0:0:
240,236,109756,6,0,P|172:248|124:296,1,130,2|8,0:0|0:0,0:0:0:0:
92,364,110270,2,0,L|68:232,1,130,2|0,0:0|0:0,0:0:0:0:
16,172,110784,1,8,0:0:0:0:
128,44,111127,6,0,L|256:24,1,130,2|8,0:0|0:0,0:0:0:0:
336,56,111642,2,0,P|368:111|375:175,1,130,2|2,0:0|0:0,0:0:0:0:
332,248,112156,1,8,0:0:0:0:
204,140,112499,6,0,P|136:128|76:144,1,130,2|8,0:0|0:0,0:0:0:0:
40,216,113013,2,0,L|55:345,1,130,2|0,0:0|0:0,0:0:0:0:
136,368,113527,1,8,0:0:0:0:
268,260,113870,6,0,L|400:272,1,130,2|10,0:0|0:0,0:0:0:0:
468,228,114384,2,0,P|482:165|466:102,1,130,2|2,0:0|0:0,0:0:0:0:
396,56,114899,1,10,0:0:0:0:
320,96,115070,1,2,0:0:0:0:
256,40,115242,6,0,P|193:32|131:51,1,130,2|8,0:0|0:0,0:0:0:0:
92,128,115756,2,0,L|107:257,1,130,2|0,0:0|0:0,0:0:0:0:
156,328,116270,1,8,0:0:0:0:
20,228,116613,5,2,0:0:0:0:
180,180,116956,1,8,0:0:0:0:
180,180,117127,2,0,P|244:180|304:152,1,130,2|2,0:0|0:0,0:0:0:0:
340,76,117642,1,10,0:0:0:0:
476,176,117984,6,0,B|484:240|484:240|464:304,1,130,2|8,0:0|0:0,0:0:0:0:
392,344,118499,2,0,L|260:328,1,130,2|8,0:0|0:0,0:0:0:0:
200,272,119013,1,8,0:0:0:0:
132,324,119184,1,8,0:0:0:0:
64,272,119356,6,0,B|79:193|79:193|103:173|103:173|119:91,1,195,2|2,0:0|0:0,0:0:0:0:
352,192,120384,1,12,0:0:0:0:
