osu file format v14

[General]
AudioFilename: audio.mp3
AudioLeadIn: 0
PreviewTime: 37096
Countdown: 0
SampleSet: Normal
StackLeniency: 0.7
Mode: 1
LetterboxInBreaks: 0
WidescreenStoryboard: 0

[Editor]
DistanceSpacing: 0.8
BeatDivisor: 4
GridSize: 32
TimelineZoom: 2.999999

[Metadata]
Title:Choujin Hijiri no Air Muscle (Cut Ver.)
TitleUnicode:超人ひじりのエアマッソー (Cut Ver.)
Artist:IOSYS
ArtistUnicode:IOSYS
Creator:_Rise
Version:Futsuu
Source:東方星蓮船 ~ Undefined Fantastic Object.
Tags:electronic japanese 東方Project touhou th12 Seirensen ufo stage 6 boss theme 感情の摩天楼 ~ Cosmic Mind Kanjou no matenrou Emotional Skyscraper 聖白蓮 ひじりびゃくれん Hijiri Byakuren 東方プレシャス流星少女 Touhou Precious Shooting Star Girl Superhuman Hijiri's Air-Muscle ARM 七条レタス Lettuce Shichijou D.watt ビートまりお BeatMARIO COOL&CREATE comiket c80 genjuro jubeat clan ZUN 上海アリス幻樂団 Team Shanghai Alice
BeatmapID:4072118
BeatmapSetID:1961847

[Difficulty]
HPDrainRate:6.5
CircleSize:5
OverallDifficulty:4
ApproachRate:5
SliderMultiplier:1.4
SliderTickRate:1

[Events]
//Background and Video events
0,0,"bg.jpg",0,50
//Break Periods
//Storyboard Layer 0 (Background)
//Storyboard Layer 1 (Fail)
//Storyboard Layer 2 (Pass)
//Storyboard Layer 3 (Foreground)
//Storyboard Layer 4 (Overlay)
//Storyboard Sound Samples

[TimingPoints]
561,285.714285714286,4,1,0,80,1,0
9668,-100,4,1,0,90,0,0
18811,-100,4,1,0,80,0,0
37096,-100,4,1,0,90,0,0
37132,-100,4,1,0,90,0,1
46239,-100,4,1,0,80,0,1
46275,-100,4,1,0,80,0,0
64525,-100,4,1,0,90,0,0
64561,-100,4,1,0,90,0,1
85132,-100,4,1,0,90,0,0
85168,-100,4,1,0,80,0,0
96525,-100,4,1,0,90,0,0
110239,-100,4,1,0,80,0,0
114811,-100,4,1,0,90,0,0
128525,-100,4,1,0,80,0,0
142311,-100,4,1,0,70,0,0
145668,-100,4,1,0,80,0,0
146811,-100,4,1,0,90,0,0
146846,-100,4,1,0,90,0,1
162846,-100,4,1,0,90,0,0
162882,-100,4,1,0,80,0,0
165096,-100,4,1,0,90,0,0

[HitObjects]
256,192,561,5,4,0:0:0:0:
256,192,1132,1,8,0:0:0:0:
256,192,1561,1,8,0:0:0:0:
256,192,1989,1,0,0:0:0:0:
256,192,2275,1,8,0:0:0:0:
256,192,2846,1,4,0:0:0:0:
256,192,3132,1,4,0:0:0:0:
256,192,3418,1,8,0:0:0:0:
256,192,3846,1,8,0:0:0:0:
256,192,4275,1,0,0:0:0:0:
256,192,4561,1,8,0:0:0:0:
256,192,5132,1,4,0:0:0:0:
256,192,5703,1,8,0:0:0:0:
256,192,6132,1,8,0:0:0:0:
256,192,6561,1,0,0:0:0:0:
256,192,6846,1,8,0:0:0:0:
256,192,7418,1,4,0:0:0:0:
256,192,9132,5,8,0:0:0:0:
256,192,9418,1,8,0:0:0:0:
256,192,9703,1,4,0:0:0:0:
256,192,9989,1,0,0:0:0:0:
256,192,10275,1,8,0:0:0:0:
256,192,10561,1,0,0:0:0:0:
256,192,10846,1,8,0:0:0:0:
256,192,10989,1,8,0:0:0:0:
256,192,11132,1,0,0:0:0:0:
256,192,11418,1,8,0:0:0:0:
256,192,11989,1,0,0:0:0:0:
256,192,12275,1,8,0:0:0:0:
256,192,12561,1,8,0:0:0:0:
256,192,12846,1,0,0:0:0:0:
256,192,13132,1,8,0:0:0:0:
256,192,13275,1,0,0:0:0:0:
256,192,13418,1,8,0:0:0:0:
256,192,13703,1,8,0:0:0:0:
256,192,14275,1,12,0:0:0:0:
256,192,14561,1,0,0:0:0:0:
256,192,14846,1,8,0:0:0:0:
256,192,15132,1,0,0:0:0:0:
256,192,15418,1,8,0:0:0:0:
256,192,15561,1,8,0:0:0:0:
256,192,15703,1,0,0:0:0:0:
256,192,15989,1,8,0:0:0:0:
256,192,16561,1,4,0:0:0:0:
256,192,16989,1,4,0:0:0:0:
256,192,17561,1,4,0:0:0:0:
256,192,17846,1,8,0:0:0:0:
256,192,17989,1,0,0:0:0:0:
256,192,18275,1,8,0:0:0:0:
256,192,18846,1,4,0:0:0:0:
256,192,19132,1,0,0:0:0:0:
256,192,19846,1,8,0:0:0:0:
256,192,20132,1,8,0:0:0:0:
256,192,20275,1,0,0:0:0:0:
256,192,20561,1,8,0:0:0:0:
256,192,20846,1,8,0:0:0:0:
256,192,21132,1,0,0:0:0:0:
256,192,21418,1,0,0:0:0:0:
256,192,22132,1,8,0:0:0:0:
256,192,22418,1,8,0:0:0:0:
256,192,22561,1,0,0:0:0:0:
256,192,22846,1,8,0:0:0:0:
256,192,23132,1,0,0:0:0:0:
256,192,23418,1,4,0:0:0:0:
256,192,23703,1,0,0:0:0:0:
256,192,23989,1,8,0:0:0:0:
256,192,24418,1,8,0:0:0:0:
256,192,24703,1,8,0:0:0:0:
256,192,24846,1,0,0:0:0:0:
256,192,25132,1,8,0:0:0:0:
256,192,25418,1,8,0:0:0:0:
256,192,25703,1,0,0:0:0:0:
256,192,25989,1,0,0:0:0:0:
256,192,26275,1,8,0:0:0:0:
256,192,26846,1,8,0:0:0:0:
256,192,27132,1,0,0:0:0:0:
256,192,27418,1,0,0:0:0:0:
256,192,27561,1,8,0:0:0:0:
256,192,27703,1,8,0:0:0:0:
256,192,27989,1,4,0:0:0:0:
256,192,28275,1,0,0:0:0:0:
256,192,28561,1,8,0:0:0:0:
256,192,28846,1,0,0:0:0:0:
256,192,28989,1,8,0:0:0:0:
256,192,29275,1,8,0:0:0:0:
256,192,29418,1,0,0:0:0:0:
256,192,29703,1,8,0:0:0:0:
256,192,30275,1,0,0:0:0:0:
256,192,30561,1,0,0:0:0:0:
256,192,30846,1,8,0:0:0:0:
256,192,31132,1,8,0:0:0:0:
256,192,31275,1,0,0:0:0:0:
256,192,31561,1,0,0:0:0:0:
256,192,31703,1,8,0:0:0:0:
256,192,31989,1,8,0:0:0:0:
256,192,32561,1,4,0:0:0:0:
256,192,32846,1,0,0:0:0:0:
256,192,33132,1,8,0:0:0:0:
256,192,33418,1,8,0:0:0:0:
256,192,33703,1,0,0:0:0:0:
256,192,33846,1,0,0:0:0:0:
256,192,33989,1,8,0:0:0:0:
256,192,34275,1,8,0:0:0:0:
256,192,34418,1,8,0:0:0:0:
256,192,34561,1,8,0:0:0:0:
256,192,34846,1,4,0:0:0:0:
256,192,35989,5,0,0:0:0:0:
256,192,36132,1,0,0:0:0:0:
256,192,36275,1,0,0:0:0:0:
256,192,36561,1,0,0:0:0:0:
256,192,36846,1,0,0:0:0:0:
256,192,37132,1,4,0:0:0:0:
256,192,37418,1,0,0:0:0:0:
256,192,37703,1,8,0:0:0:0:
256,192,37989,1,12,0:0:0:0:
256,192,38275,1,0,0:0:0:0:
256,192,38561,1,0,0:0:0:0:
256,192,38846,1,8,0:0:0:0:
256,192,39132,1,12,0:0:0:0:
256,192,39418,1,0,0:0:0:0:
256,192,39561,1,0,0:0:0:0:
256,192,39703,1,8,0:0:0:0:
256,192,39989,1,0,0:0:0:0:
256,192,40132,1,0,0:0:0:0:
256,192,40275,1,8,0:0:0:0:
256,192,40561,1,0,0:0:0:0:
256,192,40846,1,8,0:0:0:0:
256,192,41132,1,8,0:0:0:0:
256,192,41703,1,0,0:0:0:0:
256,192,41989,1,0,0:0:0:0:
256,192,42275,1,8,0:0:0:0:
256,192,42561,1,12,0:0:0:0:
256,192,42846,1,0,0:0:0:0:
256,192,43132,1,0,0:0:0:0:
256,192,43418,1,8,0:0:0:0:
256,192,43561,1,8,0:0:0:0:
256,192,43703,1,8,0:0:0:0:
256,192,43989,1,4,0:0:0:0:
256,192,44418,1,4,0:0:0:0:
256,192,44989,1,4,0:0:0:0:
256,192,45275,1,8,0:0:0:0:
256,192,45418,1,0,0:0:0:0:
256,192,45703,1,0,0:0:0:0:
256,192,46275,1,4,0:0:0:0:
256,192,46846,1,0,0:0:0:0:
256,192,47132,1,8,0:0:0:0:
256,192,47418,1,4,0:0:0:0:
256,192,47989,1,0,0:0:0:0:
256,192,48275,1,8,0:0:0:0:
256,192,48561,1,4,0:0:0:0:
256,192,49132,1,0,0:0:0:0:
256,192,49418,1,8,0:0:0:0:
256,192,49703,1,0,0:0:0:0:
256,192,49989,1,8,0:0:0:0:
256,192,50132,1,0,0:0:0:0:
256,192,50275,1,0,0:0:0:0:
256,192,50846,1,4,0:0:0:0:
256,192,51418,1,0,0:0:0:0:
256,192,51703,1,8,0:0:0:0:
256,192,51989,1,4,0:0:0:0:
256,192,52561,1,0,0:0:0:0:
256,192,52846,1,8,0:0:0:0:
256,192,53132,1,4,0:0:0:0:
256,192,53703,1,0,0:0:0:0:
256,192,53989,1,8,0:0:0:0:
256,192,54275,1,0,0:0:0:0:
256,192,54561,1,8,0:0:0:0:
256,192,54703,1,0,0:0:0:0:
256,192,54846,1,8,0:0:0:0:
256,192,55418,1,0,0:0:0:0:
256,192,55703,1,0,0:0:0:0:
256,192,55989,1,0,0:0:0:0:
256,192,56275,1,0,0:0:0:0:
256,192,56561,1,0,0:0:0:0:
256,192,56703,1,0,0:0:0:0:
256,192,56846,1,0,0:0:0:0:
256,192,56989,1,0,0:0:0:0:
256,192,57132,1,0,0:0:0:0:
256,192,57703,1,8,0:0:0:0:
256,192,57989,1,8,0:0:0:0:
256,192,58275,1,8,0:0:0:0:
256,192,58561,1,8,0:0:0:0:
256,192,58846,1,8,0:0:0:0:
256,192,58989,1,8,0:0:0:0:
256,192,59132,1,8,0:0:0:0:
256,192,59275,1,8,0:0:0:0:
256,192,59418,1,8,0:0:0:0:
256,192,59989,1,8,0:0:0:0:
256,192,60418,1,8,0:0:0:0:
256,192,60846,1,8,0:0:0:0:
256,192,61132,1,8,0:0:0:0:
256,192,61418,1,0,0:0:0:0:
256,192,61561,1,8,0:0:0:0:
256,192,61703,1,0,0:0:0:0:
256,192,61989,1,8,0:0:0:0:
256,192,62275,1,0,0:0:0:0:
256,192,62418,1,0,0:0:0:0:
256,192,62561,1,0,0:0:0:0:
256,192,62846,1,0,0:0:0:0:
256,192,63132,1,0,0:0:0:0:
256,192,63418,1,0,0:0:0:0:
256,192,64275,1,8,0:0:0:0:
256,192,64561,5,4,0:0:0:0:
256,192,65132,1,0,0:0:0:0:
256,192,65418,1,8,0:0:0:0:
256,192,65703,1,0,0:0:0:0:
256,192,65846,1,8,0:0:0:0:
256,192,66132,1,8,0:0:0:0:
256,192,66275,1,0,0:0:0:0:
256,192,66561,1,8,0:0:0:0:
256,192,66846,1,0,0:0:0:0:
256,192,67132,1,8,0:0:0:0:
256,192,67275,1,8,0:0:0:0:
256,192,67418,1,0,0:0:0:0:
256,192,67703,1,8,0:0:0:0:
256,192,67989,1,0,0:0:0:0:
256,192,68132,1,0,0:0:0:0:
256,192,68275,1,0,0:0:0:0:
256,192,68561,1,8,0:0:0:0:
256,192,69132,1,0,0:0:0:0:
256,192,69703,1,8,0:0:0:0:
256,192,69989,1,0,0:0:0:0:
256,192,70275,1,8,0:0:0:0:
256,192,70418,1,8,0:0:0:0:
256,192,70703,1,0,0:0:0:0:
256,192,70846,1,8,0:0:0:0:
256,192,71132,1,0,0:0:0:0:
256,192,71418,1,8,0:0:0:0:
256,192,71703,1,0,0:0:0:0:
256,192,71846,1,0,0:0:0:0:
256,192,71989,1,8,0:0:0:0:
256,192,72275,1,0,0:0:0:0:
256,192,72561,1,8,0:0:0:0:
256,192,72703,1,8,0:0:0:0:
256,192,72846,1,0,0:0:0:0:
256,192,73132,1,8,0:0:0:0:
256,192,73703,1,4,0:0:0:0:
256,192,74275,1,0,0:0:0:0:
256,192,74561,1,8,0:0:0:0:
256,192,74846,1,0,0:0:0:0:
256,192,74989,1,8,0:0:0:0:
256,192,75275,1,8,0:0:0:0:
256,192,75418,1,0,0:0:0:0:
256,192,75703,1,8,0:0:0:0:
256,192,75989,1,0,0:0:0:0:
256,192,76132,1,0,0:0:0:0:
256,192,76275,1,0,0:0:0:0:
256,192,76561,1,8,0:0:0:0:
256,192,76703,1,8,0:0:0:0:
256,192,76846,1,8,0:0:0:0:
256,192,77132,1,0,0:0:0:0:
256,192,77275,1,0,0:0:0:0:
256,192,77418,1,8,0:0:0:0:
256,192,77703,1,8,0:0:0:0:
256,192,77846,1,8,0:0:0:0:
256,192,77989,1,0,0:0:0:0:
256,192,78275,1,4,0:0:0:0:
256,192,78846,1,4,0:0:0:0:
256,192,79418,1,4,0:0:0:0:
256,192,80132,1,8,0:0:0:0:
256,192,80275,1,0,0:0:0:0:
256,192,80561,1,4,0:0:0:0:
256,192,81132,1,4,0:0:0:0:
256,192,81703,1,12,0:0:0:0:
256,192,81989,1,12,0:0:0:0:
256,192,82275,1,12,0:0:0:0:
256,192,82561,1,12,0:0:0:0:
256,192,82846,1,4,0:0:0:0:
256,192,83418,1,8,0:0:0:0:
256,192,83703,1,8,0:0:0:0:
256,192,83989,1,0,0:0:0:0:
256,192,84132,1,0,0:0:0:0:
256,192,84275,1,0,0:0:0:0:
256,192,84561,1,0,0:0:0:0:
256,192,84846,1,0,0:0:0:0:
256,192,85132,1,4,0:0:0:0:
256,192,85275,12,0,86846,0:0:0:0:
256,192,87418,5,4,0:0:0:0:
256,192,87989,1,8,0:0:0:0:
256,192,88418,1,8,0:0:0:0:
256,192,88846,1,0,0:0:0:0:
256,192,89132,1,8,0:0:0:0:
256,192,89703,1,4,0:0:0:0:
256,192,89989,1,4,0:0:0:0:
256,192,90275,1,8,0:0:0:0:
256,192,90703,1,8,0:0:0:0:
256,192,91132,1,0,0:0:0:0:
256,192,91418,1,8,0:0:0:0:
256,192,91989,1,4,0:0:0:0:
256,192,92561,1,8,0:0:0:0:
256,192,92989,1,8,0:0:0:0:
256,192,93418,1,0,0:0:0:0:
256,192,93703,1,8,0:0:0:0:
256,192,94275,5,4,0:0:0:0:
256,192,94846,1,4,0:0:0:0:
256,192,95418,1,4,0:0:0:0:
256,192,95703,1,0,0:0:0:0:
256,192,95989,1,8,0:0:0:0:
256,192,96561,1,4,0:0:0:0:
256,192,96846,1,4,0:0:0:0:
256,192,97132,1,4,0:0:0:0:
256,192,97703,1,4,0:0:0:0:
256,192,97989,1,4,0:0:0:0:
256,192,98275,1,4,0:0:0:0:
256,192,98846,1,4,0:0:0:0:
256,192,99132,1,4,0:0:0:0:
256,192,99418,1,4,0:0:0:0:
256,192,99703,1,4,0:0:0:0:
256,192,99989,1,4,0:0:0:0:
256,192,100275,1,4,0:0:0:0:
256,192,100561,1,4,0:0:0:0:
256,192,101132,1,4,0:0:0:0:
256,192,101418,1,4,0:0:0:0:
256,192,101703,1,4,0:0:0:0:
256,192,102275,1,4,0:0:0:0:
256,192,102561,1,4,0:0:0:0:
256,192,102846,1,4,0:0:0:0:
256,192,103418,1,4,0:0:0:0:
256,192,103703,1,4,0:0:0:0:
256,192,103989,1,4,0:0:0:0:
256,192,104275,1,4,0:0:0:0:
256,192,104561,1,12,0:0:0:0:
256,192,104846,1,12,0:0:0:0:
256,192,105132,1,12,0:0:0:0:
256,192,105703,1,4,0:0:0:0:
256,192,105989,1,4,0:0:0:0:
256,192,106275,1,4,0:0:0:0:
256,192,106846,1,4,0:0:0:0:
256,192,107132,1,4,0:0:0:0:
256,192,107418,1,4,0:0:0:0:
256,192,107989,1,4,0:0:0:0:
256,192,108275,1,4,0:0:0:0:
256,192,108561,1,4,0:0:0:0:
256,192,108846,1,4,0:0:0:0:
256,192,109132,1,4,0:0:0:0:
256,192,109418,1,4,0:0:0:0:
256,192,109703,1,4,0:0:0:0:
256,192,110275,1,4,0:0:0:0:
256,192,110846,1,8,0:0:0:0:
256,192,111132,1,0,0:0:0:0:
256,192,111275,1,8,0:0:0:0:
256,192,111561,1,8,0:0:0:0:
256,192,111703,1,0,0:0:0:0:
256,192,111989,1,8,0:0:0:0:
256,192,112275,1,8,0:0:0:0:
256,192,112561,1,4,0:0:0:0:
256,192,113132,1,4,0:0:0:0:
256,192,113703,1,4,0:0:0:0:
256,192,113989,1,0,0:0:0:0:
256,192,114275,1,8,0:0:0:0:
256,192,114846,1,4,0:0:0:0:
256,192,115132,1,0,0:0:0:0:
256,192,115418,1,0,0:0:0:0:
256,192,115561,1,8,0:0:0:0:
256,192,115703,1,0,0:0:0:0:
256,192,115989,1,0,0:0:0:0:
256,192,116275,1,0,0:0:0:0:
256,192,116561,1,8,0:0:0:0:
256,192,117132,1,0,0:0:0:0:
256,192,117275,1,8,0:0:0:0:
256,192,117418,1,0,0:0:0:0:
256,192,117703,1,0,0:0:0:0:
256,192,117846,1,8,0:0:0:0:
256,192,117989,1,0,0:0:0:0:
256,192,118275,1,8,0:0:0:0:
256,192,118418,1,8,0:0:0:0:
256,192,118561,1,8,0:0:0:0:
256,192,118846,1,8,0:0:0:0:
256,192,119418,1,4,0:0:0:0:
256,192,119703,1,0,0:0:0:0:
256,192,119989,1,0,0:0:0:0:
256,192,120132,1,8,0:0:0:0:
256,192,120275,1,0,0:0:0:0:
256,192,120561,1,8,0:0:0:0:
256,192,120846,1,8,0:0:0:0:
256,192,121132,1,8,0:0:0:0:
256,192,121703,1,0,0:0:0:0:
256,192,121846,1,8,0:0:0:0:
256,192,121989,1,8,0:0:0:0:
256,192,122275,1,0,0:0:0:0:
256,192,122418,1,8,0:0:0:0:
256,192,122561,1,0,0:0:0:0:
256,192,122846,1,8,0:0:0:0:
256,192,122989,1,8,0:0:0:0:
256,192,123132,1,8,0:0:0:0:
256,192,123418,1,8,0:0:0:0:
256,192,123989,1,4,0:0:0:0:
256,192,124275,1,0,0:0:0:0:
256,192,124561,1,0,0:0:0:0:
256,192,124703,1,8,0:0:0:0:
256,192,124846,1,0,0:0:0:0:
256,192,125132,1,0,0:0:0:0:
256,192,125418,1,0,0:0:0:0:
256,192,125703,1,8,0:0:0:0:
256,192,126275,1,0,0:0:0:0:
256,192,126418,1,8,0:0:0:0:
256,192,126561,1,0,0:0:0:0:
256,192,126846,1,0,0:0:0:0:
256,192,126989,1,8,0:0:0:0:
256,192,127132,1,0,0:0:0:0:
256,192,127418,1,8,0:0:0:0:
256,192,127561,1,8,0:0:0:0:
256,192,127703,1,8,0:0:0:0:
256,192,127989,1,8,0:0:0:0:
256,192,128561,1,4,0:0:0:0:
256,192,129132,1,8,0:0:0:0:
256,192,129418,1,0,0:0:0:0:
256,192,129703,1,4,0:0:0:0:
256,192,129989,1,8,0:0:0:0:
256,192,130275,1,8,0:0:0:0:
256,192,130418,1,8,0:0:0:0:
256,192,130561,1,8,0:0:0:0:
256,192,130846,1,4,0:0:0:0:
256,192,131418,1,4,0:0:0:0:
256,192,131989,1,4,0:0:0:0:
256,192,132275,1,4,0:0:0:0:
256,192,132561,1,12,0:0:0:0:
256,192,133132,1,8,0:0:0:0:
256,192,133561,1,8,0:0:0:0:
256,192,133989,1,8,0:0:0:0:
256,192,134275,1,8,0:0:0:0:
256,192,134561,1,0,0:0:0:0:
256,192,134703,1,8,0:0:0:0:
256,192,134846,1,0,0:0:0:0:
256,192,135132,1,8,0:0:0:0:
256,192,135418,1,0,0:0:0:0:
256,192,135561,1,0,0:0:0:0:
256,192,135703,1,0,0:0:0:0:
256,192,135989,5,0,0:0:0:0:
256,192,136275,5,0,0:0:0:0:
256,192,136561,1,4,0:0:0:0:
256,192,137703,1,0,0:0:0:0:
256,192,139989,1,12,0:0:0:0:
256,192,140275,1,0,0:0:0:0:
256,192,140561,1,12,0:0:0:0:
256,192,140846,1,0,0:0:0:0:
256,192,141132,1,0,0:0:0:0:
256,192,141275,1,0,0:0:0:0:
256,192,141418,1,0,0:0:0:0:
256,192,141703,1,0,0:0:0:0:
256,192,141989,1,8,0:0:0:0:
256,192,142275,1,4,0:0:0:0:
256,192,142561,1,8,0:0:0:0:
256,192,143132,1,8,0:0:0:0:
256,192,143703,1,8,0:0:0:0:
256,192,144275,1,8,0:0:0:0:
256,192,144846,1,8,0:0:0:0:
256,192,145418,1,8,0:0:0:0:
256,192,145703,1,0,0:0:0:0:
256,192,145846,1,0,0:0:0:0:
256,192,145989,1,0,0:0:0:0:
256,192,146275,1,8,0:0:0:0:
256,192,146561,1,8,0:0:0:0:
256,192,146846,1,4,0:0:0:0:
256,192,147418,1,8,0:0:0:0:
256,192,147703,1,0,0:0:0:0:
256,192,147989,1,8,0:0:0:0:
256,192,148132,1,8,0:0:0:0:
256,192,148418,1,0,0:0:0:0:
256,192,148561,1,8,0:0:0:0:
256,192,148846,1,0,0:0:0:0:
256,192,149132,1,8,0:0:0:0:
256,192,149418,1,0,0:0:0:0:
256,192,149561,1,0,0:0:0:0:
256,192,149703,1,8,0:0:0:0:
256,192,149989,1,0,0:0:0:0:
256,192,150275,1,8,0:0:0:0:
256,192,150418,1,8,0:0:0:0:
256,192,150561,1,0,0:0:0:0:
256,192,150846,1,8,0:0:0:0:
256,192,151418,1,4,0:0:0:0:
256,192,151989,1,0,0:0:0:0:
256,192,152275,1,8,0:0:0:0:
256,192,152561,1,0,0:0:0:0:
256,192,152703,1,8,0:0:0:0:
256,192,152989,1,8,0:0:0:0:
256,192,153132,1,0,0:0:0:0:
256,192,153418,1,8,0:0:0:0:
256,192,153703,1,0,0:0:0:0:
256,192,153846,1,0,0:0:0:0:
256,192,153989,1,0,0:0:0:0:
256,192,154275,1,8,0:0:0:0:
256,192,154418,1,8,0:0:0:0:
256,192,154561,1,8,0:0:0:0:
256,192,154846,1,0,0:0:0:0:
256,192,154989,1,0,0:0:0:0:
256,192,155132,1,8,0:0:0:0:
256,192,155418,1,8,0:0:0:0:
256,192,155561,1,8,0:0:0:0:
256,192,155703,1,0,0:0:0:0:
256,192,155989,1,4,0:0:0:0:
256,192,156561,1,4,0:0:0:0:
256,192,157132,1,4,0:0:0:0:
256,192,157846,1,8,0:0:0:0:
256,192,157989,1,0,0:0:0:0:
256,192,158275,1,4,0:0:0:0:
256,192,158846,1,4,0:0:0:0:
256,192,159418,1,12,0:0:0:0:
256,192,159703,1,12,0:0:0:0:
256,192,159989,1,12,0:0:0:0:
256,192,160275,1,12,0:0:0:0:
256,192,160561,1,4,0:0:0:0:
256,192,161132,1,8,0:0:0:0:
256,192,161418,1,8,0:0:0:0:
256,192,161703,1,0,0:0:0:0:
256,192,161846,1,0,0:0:0:0:
256,192,161989,1,0,0:0:0:0:
256,192,162275,1,0,0:0:0:0:
256,192,162561,1,0,0:0:0:0:
256,192,162846,1,4,0:0:0:0:
256,192,162989,12,0,164561,0:0:0:0:
256,192,165132,5,4,0:0:0:0:
256,192,165418,1,0,0:0:0:0:
256,192,165703,1,8,0:0:0:0:
256,192,165989,1,0,0:0:0:0:
256,192,166275,5,8,0:0:0:0:
256,192,166418,1,8,0:0:0:0:
256,192,166561,1,0,0:0:0:0:
256,192,166846,1,8,0:0:0:0:
256,192,167418,1,0,0:0:0:0:
256,192,167703,1,8,0:0:0:0:
256,192,167989,1,8,0:0:0:0:
256,192,168275,1,0,0:0:0:0:
256,192,168561,1,8,0:0:0:0:
256,192,168703,1,0,0:0:0:0:
256,192,168846,1,8,0:0:0:0:
256,192,169132,1,8,0:0:0:0:
256,192,169703,1,12,0:0:0:0:
256,192,169989,1,0,0:0:0:0:
256,192,170275,1,8,0:0:0:0:
256,192,170561,1,0,0:0:0:0:
256,192,170846,1,8,0:0:0:0:
256,192,170989,1,8,0:0:0:0:
256,192,171132,1,0,0:0:0:0:
256,192,171418,1,8,0:0:0:0:
256,192,171989,1,4,0:0:0:0:
256,192,172418,1,4,0:0:0:0:
256,192,172989,1,4,0:0:0:0:
256,192,173275,1,8,0:0:0:0:
256,192,173418,1,0,0:0:0:0:
256,192,173703,1,8,0:0:0:0:
