osu file format v14

[General]
AudioFilename: IOSYS - Bow Down, You Ignorant Fools!.mp3
AudioLeadIn: 0
PreviewTime: 64620
Countdown: 0
SampleSet: Normal
StackLeniency: 0.7
Mode: 1
LetterboxInBreaks: 0
WidescreenStoryboard: 0

[Editor]
DistanceSpacing: 0.8
BeatDivisor: 16
GridSize: 4
TimelineZoom: 7.499995

[Metadata]
Title:Bow Down, You Ignorant Fools! -The Princess' Insane All Night Hourai Live-
TitleUnicode:Bow Down, You Ignorant Fools! -The Princess' Insane All Night Hourai Live-
Artist:IOSYS
ArtistUnicode:IOSYS
Creator:Xay
Version:Kazu's Inner Oni
Source:東方永夜抄 ~ Imperishable Night
Tags:speedcore touhou toho 東方 stepmania -anhedonia- kazukisinx kazu mew mew104
BeatmapID:1262866
BeatmapSetID:467385

[Difficulty]
HPDrainRate:5
CircleSize:2
OverallDifficulty:6
ApproachRate:5
SliderMultiplier:1.4
SliderTickRate:1

[Events]
//Background and Video events
0,0,"bow_down-bg.jpg",0,125
//Break Periods
//Storyboard Layer 0 (Background)
//Storyboard Layer 1 (Fail)
//Storyboard Layer 2 (Pass)
//Storyboard Layer 3 (Foreground)
//Storyboard Sound Samples

[TimingPoints]
620,200,4,1,0,75,1,0
96620,-100,4,1,0,75,0,1
109420,-100,4,1,0,75,0,0
194220,-100,4,1,0,75,0,1
207020,-100,4,1,0,75,0,0
219820,-83.3333333333333,4,1,0,75,0,1
220032,-133.333333333333,4,1,0,75,0,0
220220,-83.3333333333333,4,1,0,75,0,1
220432,-133.333333333333,4,1,0,75,0,0
220620,-83.3333333333333,4,1,0,75,0,1
221232,-133.333333333333,4,1,0,75,0,0
221420,-83.3333333333333,4,1,0,75,0,1
221632,-133.333333333333,4,1,0,75,0,0
221820,-83.3333333333333,4,1,0,75,0,1
222032,-133.333333333333,4,1,0,75,0,0
222220,-83.3333333333333,4,1,0,75,0,1
222832,-133.333333333333,4,1,0,75,0,0
223020,-83.3333333333333,4,1,0,75,0,1
223232,-133.333333333333,4,1,0,75,0,0
223420,-83.3333333333333,4,1,0,75,0,1
223632,-133.333333333333,4,1,0,75,0,0
223820,-83.3333333333333,4,1,0,75,0,1
224432,-133.333333333333,4,1,0,75,0,0
224620,-83.3333333333333,4,1,0,75,0,1
224832,-133.333333333333,4,1,0,75,0,0
225020,-83.3333333333333,4,1,0,75,0,1
225232,-133.333333333333,4,1,0,75,0,0
225420,-83.3333333333333,4,1,0,75,0,1
226032,-133.333333333333,4,1,0,75,0,0
226220,-83.3333333333333,4,1,0,75,0,1
226432,-133.333333333333,4,1,0,75,0,0
226620,-83.3333333333333,4,1,0,75,0,1
226832,-133.333333333333,4,1,0,75,0,0
227020,-83.3333333333333,4,1,0,75,0,1
227632,-133.333333333333,4,1,0,75,0,0
227720,-83.3333333333333,4,1,0,75,0,1
227732,-133.333333333333,4,1,0,75,0,0
227820,-83.3333333333333,4,1,0,75,0,1
228032,-133.333333333333,4,1,0,75,0,0
228220,-83.3333333333333,4,1,0,75,0,1
228432,-133.333333333333,4,1,0,75,0,0
228620,-83.3333333333333,4,1,0,75,0,1
229232,-133.333333333333,4,1,0,75,0,0
229320,-83.3333333333333,4,1,0,75,0,1
229332,-133.333333333333,4,1,0,75,0,0
229420,-83.3333333333333,4,1,0,75,0,1
229632,-133.333333333333,4,1,0,75,0,0
229820,-83.3333333333333,4,1,0,75,0,1
230032,-133.333333333333,4,1,0,75,0,0
230220,-83.3333333333333,4,1,0,75,0,1
230832,-133.333333333333,4,1,0,75,0,0
230920,-83.3333333333333,4,1,0,75,0,1
230932,-133.333333333333,4,1,0,75,0,0
231020,-83.3333333333333,4,1,0,75,0,1
231232,-133.333333333333,4,1,0,75,0,0
231420,-83.3333333333333,4,1,0,75,0,1
231632,-133.333333333333,4,1,0,75,0,0
231820,-83.3333333333333,4,1,0,75,0,1
232420,-66.6666666666667,4,1,0,75,0,0

[HitObjects]
256,192,620,12,0,1320,0:0:0:0:
256,192,1420,5,0,0:0:0:0:
256,192,1520,1,8,0:0:0:0:
256,192,1570,1,8,0:0:0:0:
256,192,1620,1,0,0:0:0:0:
256,192,1720,1,8,0:0:0:0:
256,192,1770,1,8,0:0:0:0:
256,192,1820,1,0,0:0:0:0:
256,192,1920,1,8,0:0:0:0:
256,192,1970,1,8,0:0:0:0:
256,192,2020,1,0,0:0:0:0:
256,192,2120,1,0,0:0:0:0:
256,192,2220,12,0,2920,0:0:0:0:
256,192,3020,5,0,0:0:0:0:
256,192,3120,1,8,0:0:0:0:
256,192,3170,1,8,0:0:0:0:
256,192,3220,1,8,0:0:0:0:
256,192,3270,1,8,0:0:0:0:
256,192,3320,1,0,0:0:0:0:
256,192,3420,1,0,0:0:0:0:
256,192,3620,1,0,0:0:0:0:
256,192,3720,1,0,0:0:0:0:
256,192,3820,12,0,4520,0:0:0:0:
256,192,4620,5,8,0:0:0:0:
256,192,4720,1,0,0:0:0:0:
256,192,4820,1,8,0:0:0:0:
256,192,4920,1,0,0:0:0:0:
256,192,5020,1,0,0:0:0:0:
256,192,5120,1,0,0:0:0:0:
256,192,5320,1,0,0:0:0:0:
256,192,5420,12,0,6120,0:0:0:0:
256,192,6220,5,8,0:0:0:0:
256,192,6253,1,8,0:0:0:0:
256,192,6286,1,8,0:0:0:0:
256,192,6320,1,8,0:0:0:0:
256,192,6420,1,0,0:0:0:0:
256,192,6520,1,0,0:0:0:0:
256,192,6620,1,8,0:0:0:0:
256,192,6720,1,0,0:0:0:0:
256,192,6820,1,8,0:0:0:0:
256,192,6853,1,8,0:0:0:0:
256,192,6886,1,8,0:0:0:0:
256,192,6920,1,0,0:0:0:0:
256,192,7020,12,0,7720,0:0:0:0:
256,192,7820,5,0,0:0:0:0:
256,192,7920,1,8,0:0:0:0:
256,192,7970,1,8,0:0:0:0:
256,192,8020,1,0,0:0:0:0:
256,192,8120,1,8,0:0:0:0:
256,192,8170,1,8,0:0:0:0:
256,192,8220,1,0,0:0:0:0:
256,192,8320,1,8,0:0:0:0:
256,192,8370,1,8,0:0:0:0:
256,192,8420,1,0,0:0:0:0:
256,192,8520,1,0,0:0:0:0:
256,192,8620,12,0,9320,0:0:0:0:
256,192,9420,5,0,0:0:0:0:
256,192,9520,1,8,0:0:0:0:
256,192,9570,1,8,0:0:0:0:
256,192,9620,1,8,0:0:0:0:
256,192,9670,1,8,0:0:0:0:
256,192,9720,1,0,0:0:0:0:
256,192,9820,1,0,0:0:0:0:
256,192,10020,1,0,0:0:0:0:
256,192,10120,1,0,0:0:0:0:
256,192,10220,12,0,10920,0:0:0:0:
256,192,11020,5,8,0:0:0:0:
256,192,11120,1,0,0:0:0:0:
256,192,11220,1,8,0:0:0:0:
256,192,11320,1,0,0:0:0:0:
256,192,11420,1,0,0:0:0:0:
256,192,11520,1,0,0:0:0:0:
256,192,11720,1,0,0:0:0:0:
256,192,11820,12,0,12520,0:0:0:0:
256,192,12620,5,8,0:0:0:0:
256,192,12653,1,8,0:0:0:0:
256,192,12686,1,8,0:0:0:0:
256,192,12720,1,0,0:0:0:0:
256,192,12820,1,0,0:0:0:0:
256,192,12920,1,0,0:0:0:0:
256,192,13020,1,0,0:0:0:0:
256,192,13070,1,0,0:0:0:0:
256,192,13120,1,0,0:0:0:0:
256,192,13220,1,8,0:0:0:0:
256,192,13253,1,8,0:0:0:0:
256,192,13286,1,8,0:0:0:0:
256,192,13320,1,0,0:0:0:0:
256,192,13420,1,12,0:0:0:0:
256,192,13520,1,0,0:0:0:0:
256,192,13620,1,0,0:0:0:0:
256,192,13670,1,8,0:0:0:0:
256,192,13720,1,0,0:0:0:0:
256,192,13770,1,0,0:0:0:0:
256,192,13820,1,8,0:0:0:0:
256,192,13920,1,0,0:0:0:0:
256,192,14020,1,8,0:0:0:0:
256,192,14070,1,8,0:0:0:0:
256,192,14120,1,8,0:0:0:0:
256,192,14170,1,8,0:0:0:0:
256,192,14220,1,0,0:0:0:0:
256,192,14320,1,0,0:0:0:0:
256,192,14520,1,8,0:0:0:0:
256,192,14570,1,8,0:0:0:0:
256,192,14620,1,0,0:0:0:0:
256,192,14720,1,0,0:0:0:0:
256,192,14820,1,8,0:0:0:0:
256,192,14920,1,0,0:0:0:0:
256,192,15020,1,8,0:0:0:0:
256,192,15070,1,0,0:0:0:0:
256,192,15120,1,8,0:0:0:0:
256,192,15170,1,0,0:0:0:0:
256,192,15220,1,8,0:0:0:0:
256,192,15320,1,0,0:0:0:0:
256,192,15370,1,0,0:0:0:0:
256,192,15420,1,8,0:0:0:0:
256,192,15520,1,0,0:0:0:0:
256,192,15620,1,8,0:0:0:0:
256,192,15720,1,0,0:0:0:0:
256,192,15820,1,0,0:0:0:0:
256,192,15870,1,0,0:0:0:0:
256,192,15920,1,0,0:0:0:0:
256,192,15970,1,0,0:0:0:0:
256,192,16020,1,8,0:0:0:0:
256,192,16070,1,0,0:0:0:0:
256,192,16120,1,8,0:0:0:0:
256,192,16170,1,8,0:0:0:0:
256,192,16220,1,0,0:0:0:0:
256,192,16320,1,8,0:0:0:0:
256,192,16353,1,8,0:0:0:0:
256,192,16386,1,8,0:0:0:0:
256,192,16420,1,0,0:0:0:0:
256,192,16520,1,0,0:0:0:0:
256,192,16620,1,12,0:0:0:0:
256,192,16720,1,0,0:0:0:0:
256,192,16820,1,0,0:0:0:0:
256,192,16870,1,0,0:0:0:0:
256,192,16920,1,8,0:0:0:0:
256,192,16970,1,8,0:0:0:0:
256,192,17020,1,0,0:0:0:0:
256,192,17070,1,0,0:0:0:0:
256,192,17120,1,8,0:0:0:0:
256,192,17220,1,8,0:0:0:0:
256,192,17320,1,8,0:0:0:0:
256,192,17370,1,8,0:0:0:0:
256,192,17420,1,0,0:0:0:0:
256,192,17520,1,0,0:0:0:0:
256,192,17720,1,8,0:0:0:0:
256,192,17770,1,8,0:0:0:0:
256,192,17820,1,0,0:0:0:0:
256,192,17870,1,8,0:0:0:0:
256,192,17920,1,0,0:0:0:0:
256,192,17970,1,0,0:0:0:0:
256,192,18020,1,8,0:0:0:0:
256,192,18070,1,8,0:0:0:0:
256,192,18120,1,8,0:0:0:0:
256,192,18220,1,0,0:0:0:0:
256,192,18270,1,8,0:0:0:0:
256,192,18320,1,0,0:0:0:0:
256,192,18370,1,0,0:0:0:0:
256,192,18420,1,8,0:0:0:0:
256,192,18520,1,8,0:0:0:0:
256,192,18570,1,0,0:0:0:0:
256,192,18620,1,8,0:0:0:0:
256,192,18720,1,0,0:0:0:0:
256,192,18820,1,0,0:0:0:0:
256,192,18920,1,0,0:0:0:0:
256,192,19020,1,8,0:0:0:0:
256,192,19070,1,8,0:0:0:0:
256,192,19120,1,8,0:0:0:0:
256,192,19170,1,8,0:0:0:0:
256,192,19220,1,0,0:0:0:0:
256,192,19320,1,0,0:0:0:0:
256,192,19420,1,0,0:0:0:0:
256,192,19470,1,0,0:0:0:0:
256,192,19520,1,8,0:0:0:0:
256,192,19570,1,8,0:0:0:0:
256,192,19620,1,0,0:0:0:0:
256,192,19720,1,0,0:0:0:0:
256,192,19820,1,12,0:0:0:0:
256,192,19920,1,0,0:0:0:0:
256,192,20020,1,8,0:0:0:0:
256,192,20053,1,8,0:0:0:0:
256,192,20086,1,8,0:0:0:0:
256,192,20120,1,8,0:0:0:0:
256,192,20220,1,0,0:0:0:0:
256,192,20320,1,0,0:0:0:0:
256,192,20420,1,8,0:0:0:0:
256,192,20470,1,8,0:0:0:0:
256,192,20520,1,8,0:0:0:0:
256,192,20570,1,8,0:0:0:0:
256,192,20620,1,0,0:0:0:0:
256,192,20720,1,0,0:0:0:0:
256,192,20920,1,8,0:0:0:0:
256,192,20970,1,8,0:0:0:0:
256,192,21020,1,0,0:0:0:0:
256,192,21120,1,0,0:0:0:0:
256,192,21220,1,8,0:0:0:0:
256,192,21320,1,0,0:0:0:0:
256,192,21420,1,0,0:0:0:0:
256,192,21470,1,8,0:0:0:0:
256,192,21520,1,0,0:0:0:0:
256,192,21570,1,0,0:0:0:0:
256,192,21620,1,8,0:0:0:0:
256,192,21720,1,0,0:0:0:0:
256,192,21770,1,0,0:0:0:0:
256,192,21820,1,8,0:0:0:0:
256,192,21920,1,0,0:0:0:0:
256,192,21970,1,0,0:0:0:0:
256,192,22020,1,0,0:0:0:0:
256,192,22120,1,0,0:0:0:0:
256,192,22220,1,8,0:0:0:0:
256,192,22270,1,8,0:0:0:0:
256,192,22320,1,0,0:0:0:0:
256,192,22370,1,8,0:0:0:0:
256,192,22420,1,0,0:0:0:0:
256,192,22520,1,0,0:0:0:0:
256,192,22570,1,0,0:0:0:0:
256,192,22620,1,8,0:0:0:0:
256,192,22720,1,8,0:0:0:0:
256,192,22820,1,0,0:0:0:0:
256,192,22920,1,0,0:0:0:0:
256,192,23020,1,12,0:0:0:0:
256,192,23120,1,8,0:0:0:0:
256,192,23170,1,8,0:0:0:0:
256,192,23220,1,0,0:0:0:0:
256,192,23270,1,0,0:0:0:0:
256,192,23320,1,8,0:0:0:0:
256,192,23520,1,0,0:0:0:0:
256,192,23620,1,0,0:0:0:0:
256,192,23720,1,8,0:0:0:0:
256,192,23770,1,8,0:0:0:0:
256,192,23820,1,0,0:0:0:0:
256,192,23920,1,0,0:0:0:0:
256,192,24120,1,0,0:0:0:0:
256,192,24220,1,0,0:0:0:0:
256,192,24270,1,0,0:0:0:0:
256,192,24320,1,0,0:0:0:0:
256,192,24370,1,0,0:0:0:0:
256,192,24420,1,8,0:0:0:0:
256,192,24470,1,8,0:0:0:0:
256,192,24520,1,8,0:0:0:0:
256,192,24570,1,8,0:0:0:0:
256,192,24620,1,0,0:0:0:0:
256,192,24670,1,8,0:0:0:0:
256,192,24720,1,0,0:0:0:0:
256,192,24770,1,0,0:0:0:0:
256,192,24820,1,8,0:0:0:0:
256,192,24920,1,0,0:0:0:0:
256,192,24970,1,0,0:0:0:0:
256,192,25020,1,8,0:0:0:0:
256,192,25120,1,0,0:0:0:0:
256,192,25170,1,0,0:0:0:0:
256,192,25220,1,8,0:0:0:0:
256,192,25320,1,8,0:0:0:0:
256,192,25420,1,8,0:0:0:0:
256,192,25470,1,8,0:0:0:0:
256,192,25520,1,8,0:0:0:0:
256,192,25570,1,8,0:0:0:0:
256,192,25620,1,0,0:0:0:0:
256,192,25720,1,0,0:0:0:0:
256,192,25820,1,0,0:0:0:0:
256,192,25870,1,0,0:0:0:0:
256,192,25920,1,8,0:0:0:0:
256,192,25970,1,8,0:0:0:0:
256,192,26020,1,0,0:0:0:0:
256,192,26120,1,0,0:0:0:0:
256,192,26220,1,4,0:0:0:0:
256,192,26420,1,4,0:0:0:0:
256,192,26620,1,4,0:0:0:0:
256,192,26820,1,4,0:0:0:0:
256,192,27020,1,4,0:0:0:0:
256,192,27220,1,4,0:0:0:0:
256,192,27420,1,4,0:0:0:0:
256,192,27520,1,8,0:0:0:0:
256,192,27620,1,4,0:0:0:0:
256,192,27720,1,8,0:0:0:0:
256,192,27820,1,4,0:0:0:0:
256,192,28020,1,4,0:0:0:0:
256,192,28220,1,4,0:0:0:0:
256,192,28420,1,4,0:0:0:0:
256,192,28620,1,4,0:0:0:0:
256,192,28720,1,8,0:0:0:0:
256,192,28753,1,8,0:0:0:0:
256,192,28786,1,8,0:0:0:0:
256,192,28820,1,0,0:0:0:0:
256,192,28920,1,8,0:0:0:0:
256,192,28953,1,8,0:0:0:0:
256,192,28986,1,8,0:0:0:0:
256,192,29020,1,0,0:0:0:0:
256,192,29120,1,8,0:0:0:0:
256,192,29153,1,8,0:0:0:0:
256,192,29186,1,8,0:0:0:0:
256,192,29220,1,0,0:0:0:0:
256,192,29320,1,8,0:0:0:0:
256,192,29353,1,8,0:0:0:0:
256,192,29386,1,8,0:0:0:0:
256,192,29420,1,0,0:0:0:0:
256,192,29620,1,4,0:0:0:0:
256,192,29820,1,4,0:0:0:0:
256,192,30020,1,4,0:0:0:0:
256,192,30220,1,4,0:0:0:0:
256,192,30420,1,4,0:0:0:0:
256,192,30620,1,4,0:0:0:0:
256,192,30720,1,8,0:0:0:0:
256,192,30820,1,4,0:0:0:0:
256,192,30920,1,8,0:0:0:0:
256,192,31020,1,4,0:0:0:0:
256,192,31120,1,8,0:0:0:0:
256,192,31220,1,8,0:0:0:0:
256,192,31320,1,8,0:0:0:0:
256,192,31370,1,8,0:0:0:0:
256,192,31420,1,0,0:0:0:0:
256,192,31520,1,0,0:0:0:0:
256,192,31620,1,8,0:0:0:0:
256,192,31720,1,0,0:0:0:0:
256,192,31820,1,0,0:0:0:0:
256,192,31870,1,0,0:0:0:0:
256,192,31920,1,0,0:0:0:0:
256,192,32020,1,8,0:0:0:0:
256,192,32120,1,0,0:0:0:0:
256,192,32170,1,0,0:0:0:0:
256,192,32220,1,8,0:0:0:0:
256,192,32320,1,0,0:0:0:0:
256,192,32420,1,0,0:0:0:0:
256,192,32520,1,0,0:0:0:0:
256,192,32620,1,4,0:0:0:0:
256,192,32720,1,8,0:0:0:0:
256,192,32820,1,4,0:0:0:0:
256,192,33020,1,4,0:0:0:0:
256,192,33120,1,8,0:0:0:0:
256,192,33220,1,4,0:0:0:0:
256,192,33420,1,4,0:0:0:0:
256,192,33520,1,8,0:0:0:0:
256,192,33620,1,4,0:0:0:0:
256,192,33820,1,4,0:0:0:0:
256,192,33920,1,8,0:0:0:0:
256,192,34020,1,4,0:0:0:0:
256,192,34120,1,8,0:0:0:0:
256,192,34220,1,4,0:0:0:0:
256,192,34320,1,8,0:0:0:0:
256,192,34420,1,4,0:0:0:0:
256,192,34620,1,4,0:0:0:0:
256,192,34720,1,8,0:0:0:0:
256,192,34820,1,4,0:0:0:0:
256,192,35020,1,4,0:0:0:0:
256,192,35120,1,8,0:0:0:0:
256,192,35153,1,8,0:0:0:0:
256,192,35186,1,8,0:0:0:0:
256,192,35220,1,0,0:0:0:0:
256,192,35320,1,8,0:0:0:0:
256,192,35353,1,8,0:0:0:0:
256,192,35386,1,8,0:0:0:0:
256,192,35420,1,0,0:0:0:0:
256,192,35520,1,8,0:0:0:0:
256,192,35553,1,8,0:0:0:0:
256,192,35586,1,8,0:0:0:0:
256,192,35620,1,0,0:0:0:0:
256,192,35720,1,8,0:0:0:0:
256,192,35753,1,8,0:0:0:0:
256,192,35786,1,8,0:0:0:0:
256,192,35820,1,0,0:0:0:0:
256,192,35870,1,0,0:0:0:0:
256,192,35920,1,0,0:0:0:0:
256,192,35970,1,0,0:0:0:0:
256,192,36020,1,8,0:0:0:0:
256,192,36120,1,0,0:0:0:0:
256,192,36170,1,8,0:0:0:0:
256,192,36220,1,0,0:0:0:0:
256,192,36320,1,0,0:0:0:0:
256,192,36420,1,8,0:0:0:0:
256,192,36470,1,8,0:0:0:0:
256,192,36520,1,8,0:0:0:0:
256,192,36570,1,8,0:0:0:0:
256,192,36620,1,0,0:0:0:0:
256,192,36720,1,0,0:0:0:0:
256,192,36820,1,8,0:0:0:0:
256,192,36870,1,0,0:0:0:0:
256,192,36920,1,8,0:0:0:0:
256,192,36970,1,8,0:0:0:0:
256,192,37020,1,0,0:0:0:0:
256,192,37120,1,0,0:0:0:0:
256,192,37220,1,8,0:0:0:0:
256,192,37320,1,0,0:0:0:0:
256,192,37420,1,8,0:0:0:0:
256,192,37470,1,0,0:0:0:0:
256,192,37520,1,0,0:0:0:0:
256,192,37570,1,8,0:0:0:0:
256,192,37620,1,8,0:0:0:0:
256,192,37720,1,0,0:0:0:0:
256,192,37770,1,8,0:0:0:0:
256,192,37820,1,0,0:0:0:0:
256,192,37870,1,0,0:0:0:0:
256,192,37920,1,8,0:0:0:0:
256,192,38020,1,0,0:0:0:0:
256,192,38120,1,0,0:0:0:0:
256,192,38320,1,0,0:0:0:0:
256,192,38420,1,0,0:0:0:0:
256,192,38520,1,0,0:0:0:0:
256,192,38570,1,0,0:0:0:0:
256,192,38620,1,8,0:0:0:0:
256,192,38720,1,8,0:0:0:0:
256,192,38820,1,0,0:0:0:0:
256,192,38920,1,0,0:0:0:0:
256,192,39020,1,12,0:0:0:0:
256,192,39220,1,8,0:0:0:0:
256,192,39253,1,8,0:0:0:0:
256,192,39286,1,8,0:0:0:0:
256,192,39320,1,0,0:0:0:0:
256,192,39420,1,0,0:0:0:0:
256,192,39520,1,0,0:0:0:0:
256,192,39620,1,0,0:0:0:0:
256,192,39670,1,8,0:0:0:0:
256,192,39720,1,0,0:0:0:0:
256,192,39920,1,8,0:0:0:0:
256,192,39970,1,8,0:0:0:0:
256,192,40020,1,0,0:0:0:0:
256,192,40120,1,0,0:0:0:0:
256,192,40220,1,0,0:0:0:0:
256,192,40270,1,8,0:0:0:0:
256,192,40320,1,0,0:0:0:0:
256,192,40370,1,0,0:0:0:0:
256,192,40420,1,8,0:0:0:0:
256,192,40520,1,0,0:0:0:0:
256,192,40620,1,0,0:0:0:0:
256,192,40670,1,0,0:0:0:0:
256,192,40720,1,0,0:0:0:0:
256,192,40820,1,0,0:0:0:0:
256,192,40920,1,8,0:0:0:0:
256,192,40970,1,8,0:0:0:0:
256,192,41020,1,0,0:0:0:0:
256,192,41120,1,0,0:0:0:0:
256,192,41220,1,8,0:0:0:0:
256,192,41270,1,0,0:0:0:0:
256,192,41320,1,0,0:0:0:0:
256,192,41420,1,0,0:0:0:0:
256,192,41520,1,8,0:0:0:0:
256,192,41570,1,8,0:0:0:0:
256,192,41620,1,0,0:0:0:0:
256,192,41720,1,0,0:0:0:0:
256,192,41820,1,8,0:0:0:0:
256,192,41870,1,8,0:0:0:0:
256,192,41920,1,0,0:0:0:0:
256,192,42020,1,8,0:0:0:0:
256,192,42070,1,8,0:0:0:0:
256,192,42120,1,0,0:0:0:0:
256,192,42170,1,0,0:0:0:0:
256,192,42220,1,8,0:0:0:0:
256,192,42253,1,8,0:0:0:0:
256,192,42320,1,0,0:0:0:0:
256,192,42353,1,0,0:0:0:0:
256,192,42420,1,8,0:0:0:0:
256,192,42453,1,8,0:0:0:0:
256,192,42520,1,0,0:0:0:0:
256,192,42553,1,0,0:0:0:0:
256,192,42620,1,0,0:0:0:0:
256,192,42720,1,0,0:0:0:0:
256,192,42820,1,0,0:0:0:0:
256,192,42870,1,0,0:0:0:0:
256,192,42920,1,0,0:0:0:0:
256,192,43120,1,8,0:0:0:0:
256,192,43170,1,8,0:0:0:0:
256,192,43220,1,0,0:0:0:0:
256,192,43320,1,0,0:0:0:0:
256,192,43420,1,0,0:0:0:0:
256,192,43520,1,0,0:0:0:0:
256,192,43570,1,8,0:0:0:0:
256,192,43620,1,0,0:0:0:0:
256,192,43670,1,0,0:0:0:0:
256,192,43720,1,8,0:0:0:0:
256,192,43820,1,0,0:0:0:0:
256,192,43870,1,0,0:0:0:0:
256,192,43920,1,0,0:0:0:0:
256,192,44020,1,0,0:0:0:0:
256,192,44120,1,8,0:0:0:0:
256,192,44170,1,8,0:0:0:0:
256,192,44220,1,0,0:0:0:0:
256,192,44320,1,0,0:0:0:0:
256,192,44420,1,8,0:0:0:0:
256,192,44470,1,0,0:0:0:0:
256,192,44520,1,0,0:0:0:0:
256,192,44620,1,8,0:0:0:0:
256,192,44720,1,8,0:0:0:0:
256,192,44770,1,8,0:0:0:0:
256,192,44820,1,0,0:0:0:0:
252,184,44870,1,0,0:0:0:0:
256,192,44920,1,0,0:0:0:0:
256,192,45020,1,8,0:0:0:0:
256,192,45120,1,0,0:0:0:0:
256,192,45220,1,8,0:0:0:0:
256,192,45270,1,8,0:0:0:0:
256,192,45320,1,8,0:0:0:0:
256,192,45370,1,8,0:0:0:0:
256,192,45420,1,4,0:0:0:0:
256,192,45520,1,8,0:0:0:0:
256,192,45620,1,4,0:0:0:0:
256,192,45720,1,8,0:0:0:0:
256,192,45820,1,4,0:0:0:0:
256,192,46020,1,8,0:0:0:0:
256,192,46220,1,0,0:0:0:0:
256,192,46320,1,8,0:0:0:0:
256,192,46420,1,4,0:0:0:0:
256,192,46520,1,8,0:0:0:0:
256,192,46620,1,4,0:0:0:0:
256,192,46820,1,8,0:0:0:0:
256,192,47020,1,0,0:0:0:0:
256,192,47120,1,8,0:0:0:0:
256,192,47220,1,4,0:0:0:0:
256,192,47320,1,8,0:0:0:0:
256,192,47420,1,4,0:0:0:0:
256,192,47620,1,8,0:0:0:0:
256,192,47820,1,4,0:0:0:0:
256,192,47920,1,8,0:0:0:0:
256,192,47953,1,8,0:0:0:0:
256,192,47986,1,8,0:0:0:0:
256,192,48020,1,0,0:0:0:0:
256,192,48120,1,8,0:0:0:0:
256,192,48153,1,8,0:0:0:0:
256,192,48186,1,8,0:0:0:0:
256,192,48220,1,0,0:0:0:0:
256,192,48320,1,8,0:0:0:0:
256,192,48353,1,8,0:0:0:0:
256,192,48386,1,8,0:0:0:0:
256,192,48420,1,0,0:0:0:0:
256,192,48520,1,8,0:0:0:0:
256,192,48553,1,8,0:0:0:0:
256,192,48586,1,8,0:0:0:0:
256,192,48620,1,0,0:0:0:0:
256,192,48720,1,8,0:0:0:0:
256,192,48820,1,0,0:0:0:0:
256,192,49020,1,4,0:0:0:0:
256,192,49220,1,8,0:0:0:0:
256,192,49420,1,0,0:0:0:0:
256,192,49520,1,8,0:0:0:0:
256,192,49620,1,4,0:0:0:0:
256,192,49720,1,8,0:0:0:0:
256,192,49820,1,4,0:0:0:0:
256,192,50020,1,8,0:0:0:0:
256,192,50220,1,0,0:0:0:0:
256,192,50270,1,0,0:0:0:0:
256,192,50320,1,8,0:0:0:0:
256,192,50420,1,0,0:0:0:0:
256,192,50520,1,0,0:0:0:0:
256,192,50570,1,0,0:0:0:0:
256,192,50620,1,8,0:0:0:0:
256,192,50720,1,8,0:0:0:0:
256,192,50820,1,0,0:0:0:0:
256,192,50920,1,0,0:0:0:0:
256,192,51020,1,0,0:0:0:0:
256,192,51070,1,0,0:0:0:0:
256,192,51120,1,0,0:0:0:0:
256,192,51220,1,8,0:0:0:0:
256,192,51270,1,8,0:0:0:0:
256,192,51320,1,8,0:0:0:0:
256,192,51370,1,8,0:0:0:0:
256,192,51420,1,0,0:0:0:0:
256,192,51453,1,0,0:0:0:0:
256,192,51486,1,0,0:0:0:0:
256,192,51520,1,0,0:0:0:0:
256,192,51620,1,0,0:0:0:0:
256,192,51720,1,0,0:0:0:0:
256,192,51820,1,4,0:0:0:0:
256,192,51920,1,8,0:0:0:0:
256,192,52020,1,0,0:0:0:0:
256,192,52120,1,8,0:0:0:0:
256,192,52170,1,8,0:0:0:0:
256,192,52220,1,4,0:0:0:0:
256,192,52420,1,8,0:0:0:0:
256,192,52620,1,4,0:0:0:0:
256,192,52720,1,8,0:0:0:0:
256,192,52820,1,0,0:0:0:0:
256,192,52920,1,8,0:0:0:0:
256,192,52970,1,8,0:0:0:0:
256,192,53020,1,4,0:0:0:0:
256,192,53220,1,8,0:0:0:0:
256,192,53420,1,0,0:0:0:0:
256,192,53470,1,0,0:0:0:0:
256,192,53520,1,0,0:0:0:0:
256,192,53570,1,0,0:0:0:0:
256,192,53620,1,8,0:0:0:0:
256,192,53720,1,8,0:0:0:0:
256,192,53770,1,0,0:0:0:0:
256,192,53820,1,8,0:0:0:0:
256,192,53920,1,8,0:0:0:0:
256,192,54020,1,0,0:0:0:0:
256,192,54120,1,0,0:0:0:0:
256,192,54220,1,0,0:0:0:0:
256,192,54320,1,8,0:0:0:0:
256,192,54353,1,8,0:0:0:0:
256,192,54386,1,8,0:0:0:0:
256,192,54420,1,0,0:0:0:0:
256,192,54520,1,8,0:0:0:0:
256,192,54553,1,8,0:0:0:0:
256,192,54586,1,8,0:0:0:0:
256,192,54620,1,0,0:0:0:0:
256,192,54720,1,8,0:0:0:0:
256,192,54753,1,8,0:0:0:0:
256,192,54786,1,8,0:0:0:0:
256,192,54820,1,0,0:0:0:0:
256,192,54920,1,8,0:0:0:0:
256,192,54953,1,8,0:0:0:0:
256,192,54986,1,8,0:0:0:0:
256,192,55020,1,0,0:0:0:0:
256,192,55120,1,0,0:0:0:0:
256,192,55220,1,8,0:0:0:0:
256,192,55320,1,0,0:0:0:0:
256,192,55420,1,0,0:0:0:0:
256,192,55470,1,0,0:0:0:0:
256,192,55520,1,0,0:0:0:0:
256,192,55620,1,8,0:0:0:0:
256,192,55820,1,0,0:0:0:0:
256,192,55870,1,0,0:0:0:0:
256,192,55920,1,0,0:0:0:0:
256,192,56020,1,8,0:0:0:0:
256,192,56120,1,0,0:0:0:0:
256,192,56220,1,0,0:0:0:0:
256,192,56270,1,0,0:0:0:0:
256,192,56320,1,0,0:0:0:0:
256,192,56420,1,8,0:0:0:0:
256,192,56620,1,4,0:0:0:0:
256,192,56720,1,8,0:0:0:0:
256,192,56820,1,8,0:0:0:0:
256,192,56870,1,8,0:0:0:0:
256,192,56920,1,8,0:0:0:0:
256,192,56970,1,8,0:0:0:0:
256,192,57020,1,0,0:0:0:0:
256,192,57120,1,0,0:0:0:0:
256,192,57170,1,8,0:0:0:0:
256,192,57220,1,0,0:0:0:0:
256,192,57320,1,8,0:0:0:0:
256,192,57370,1,0,0:0:0:0:
256,192,57420,1,0,0:0:0:0:
256,192,57520,1,0,0:0:0:0:
256,192,57620,1,8,0:0:0:0:
256,192,57670,1,8,0:0:0:0:
256,192,57720,1,8,0:0:0:0:
256,192,57770,1,8,0:0:0:0:
256,192,57820,1,0,0:0:0:0:
256,192,57920,1,0,0:0:0:0:
256,192,58020,1,0,0:0:0:0:
256,192,58120,1,0,0:0:0:0:
256,192,58170,1,0,0:0:0:0:
256,192,58220,1,8,0:0:0:0:
256,192,58420,1,0,0:0:0:0:
256,192,58520,1,0,0:0:0:0:
256,192,58620,1,0,0:0:0:0:
256,192,58670,1,0,0:0:0:0:
256,192,58720,1,0,0:0:0:0:
256,192,58820,1,0,0:0:0:0:
256,192,58920,1,8,0:0:0:0:
256,192,59120,1,8,0:0:0:0:
256,192,59220,1,0,0:0:0:0:
256,192,59320,1,0,0:0:0:0:
256,192,59370,1,0,0:0:0:0:
256,192,59420,1,0,0:0:0:0:
256,192,59520,1,8,0:0:0:0:
256,192,59620,1,8,0:0:0:0:
256,192,59720,1,0,0:0:0:0:
256,192,59820,1,0,0:0:0:0:
256,192,59870,1,0,0:0:0:0:
256,192,59920,1,0,0:0:0:0:
256,192,60020,1,0,0:0:0:0:
256,192,60120,1,8,0:0:0:0:
256,192,60170,1,8,0:0:0:0:
256,192,60220,1,0,0:0:0:0:
256,192,60320,1,0,0:0:0:0:
256,192,60420,1,8,0:0:0:0:
256,192,60470,1,0,0:0:0:0:
256,192,60520,1,0,0:0:0:0:
256,192,60620,1,0,0:0:0:0:
256,192,60720,1,8,0:0:0:0:
256,192,60770,1,8,0:0:0:0:
256,192,60820,1,0,0:0:0:0:
256,192,60920,1,0,0:0:0:0:
256,192,61020,1,8,0:0:0:0:
256,192,61120,1,0,0:0:0:0:
256,192,61220,1,8,0:0:0:0:
256,192,61270,1,8,0:0:0:0:
256,192,61320,1,0,0:0:0:0:
256,192,61370,1,0,0:0:0:0:
256,192,61420,1,8,0:0:0:0:
256,192,61453,1,8,0:0:0:0:
256,192,61520,1,0,0:0:0:0:
256,192,61553,1,0,0:0:0:0:
256,192,61620,1,8,0:0:0:0:
256,192,61653,1,8,0:0:0:0:
256,192,61720,1,0,0:0:0:0:
256,192,61753,1,0,0:0:0:0:
256,192,61820,1,0,0:0:0:0:
256,192,61920,1,0,0:0:0:0:
256,192,62020,1,0,0:0:0:0:
256,192,62120,1,0,0:0:0:0:
256,192,62320,1,8,0:0:0:0:
256,192,62370,1,8,0:0:0:0:
256,192,62420,1,0,0:0:0:0:
256,192,62520,1,0,0:0:0:0:
256,192,62620,1,0,0:0:0:0:
256,192,62720,1,0,0:0:0:0:
256,192,62770,1,8,0:0:0:0:
256,192,62820,1,0,0:0:0:0:
256,192,62920,1,0,0:0:0:0:
256,192,63020,1,8,0:0:0:0:
256,192,63070,1,8,0:0:0:0:
256,192,63120,1,0,0:0:0:0:
256,192,63170,1,8,0:0:0:0:
256,192,63220,1,0,0:0:0:0:
256,192,63320,1,8,0:0:0:0:
256,192,63370,1,8,0:0:0:0:
256,192,63420,1,0,0:0:0:0:
256,192,63520,1,0,0:0:0:0:
256,192,63620,1,8,0:0:0:0:
256,192,63670,1,0,0:0:0:0:
256,192,63720,1,0,0:0:0:0:
256,192,63820,1,0,0:0:0:0:
256,192,63920,1,8,0:0:0:0:
256,192,63970,1,8,0:0:0:0:
256,192,64020,1,0,0:0:0:0:
256,192,64053,1,0,0:0:0:0:
256,192,64086,1,0,0:0:0:0:
256,192,64120,1,0,0:0:0:0:
256,192,64220,1,8,0:0:0:0:
256,192,64270,1,8,0:0:0:0:
256,192,64320,1,0,0:0:0:0:
256,192,64420,1,8,0:0:0:0:
256,192,64470,1,8,0:0:0:0:
256,192,64520,1,8,0:0:0:0:
256,192,64620,1,12,0:0:0:0:
256,192,64720,1,8,0:0:0:0:
256,192,64820,1,0,0:0:0:0:
256,192,64920,1,0,0:0:0:0:
256,192,65020,1,8,0:0:0:0:
256,192,65120,1,8,0:0:0:0:
256,192,65220,1,0,0:0:0:0:
256,192,65320,1,0,0:0:0:0:
256,192,65420,1,4,0:0:0:0:
256,192,65620,1,4,0:0:0:0:
256,192,65820,1,4,0:0:0:0:
256,192,65920,1,4,0:0:0:0:
256,192,66020,1,4,0:0:0:0:
256,192,66220,1,0,0:0:0:0:
256,192,66320,1,0,0:0:0:0:
256,192,66420,1,8,0:0:0:0:
256,192,66520,1,8,0:0:0:0:
256,192,66620,1,0,0:0:0:0:
256,192,66720,1,0,0:0:0:0:
256,192,66820,1,8,0:0:0:0:
256,192,66920,1,8,0:0:0:0:
256,192,67020,1,4,0:0:0:0:
256,192,67220,1,4,0:0:0:0:
256,192,67420,1,4,0:0:0:0:
256,192,67520,1,4,0:0:0:0:
256,192,67620,1,4,0:0:0:0:
256,192,67820,1,12,0:0:0:0:
256,192,67920,1,0,0:0:0:0:
256,192,68020,1,8,0:0:0:0:
256,192,68120,1,8,0:0:0:0:
256,192,68220,1,0,0:0:0:0:
256,192,68320,1,0,0:0:0:0:
256,192,68420,1,8,0:0:0:0:
256,192,68520,1,8,0:0:0:0:
256,192,68620,1,4,0:0:0:0:
256,192,68820,1,4,0:0:0:0:
256,192,69020,1,4,0:0:0:0:
256,192,69120,1,4,0:0:0:0:
256,192,69220,1,4,0:0:0:0:
256,192,69420,1,8,0:0:0:0:
256,192,69470,1,8,0:0:0:0:
256,192,69520,1,0,0:0:0:0:
256,192,69570,1,8,0:0:0:0:
256,192,69620,1,0,0:0:0:0:
256,192,69670,1,0,0:0:0:0:
256,192,69720,1,0,0:0:0:0:
256,192,69770,1,0,0:0:0:0:
256,192,69820,1,8,0:0:0:0:
256,192,69920,1,0,0:0:0:0:
256,192,70020,1,0,0:0:0:0:
256,192,70070,1,0,0:0:0:0:
256,192,70120,1,8,0:0:0:0:
256,192,70220,1,0,0:0:0:0:
256,192,70320,1,0,0:0:0:0:
256,192,70420,1,0,0:0:0:0:
256,192,70520,1,0,0:0:0:0:
256,192,70620,1,0,0:0:0:0:
256,192,70720,1,0,0:0:0:0:
256,192,70820,1,8,0:0:0:0:
256,192,70870,1,8,0:0:0:0:
256,192,70920,1,8,0:0:0:0:
256,192,70970,1,8,0:0:0:0:
256,192,71020,1,4,0:0:0:0:
256,192,71220,1,0,0:0:0:0:
256,192,71420,1,0,0:0:0:0:
256,192,71470,1,0,0:0:0:0:
256,192,71620,1,0,0:0:0:0:
256,192,71820,1,0,0:0:0:0:
256,192,72020,1,0,0:0:0:0:
256,192,72220,1,0,0:0:0:0:
256,192,72320,1,0,0:0:0:0:
256,192,72420,1,0,0:0:0:0:
256,192,72620,1,0,0:0:0:0:
256,192,72820,1,0,0:0:0:0:
256,192,73020,1,0,0:0:0:0:
256,192,73120,1,8,0:0:0:0:
256,192,73220,1,0,0:0:0:0:
256,192,73320,1,0,0:0:0:0:
256,192,73420,1,8,0:0:0:0:
256,192,73470,1,8,0:0:0:0:
256,192,73520,1,0,0:0:0:0:
256,192,73570,1,0,0:0:0:0:
256,192,73620,1,8,0:0:0:0:
256,192,73720,1,0,0:0:0:0:
256,192,73820,1,8,0:0:0:0:
256,192,73870,1,8,0:0:0:0:
256,192,73920,1,0,0:0:0:0:
256,192,74020,1,0,0:0:0:0:
256,192,74120,1,0,0:0:0:0:
256,192,74220,1,12,0:0:0:0:
256,192,74420,1,0,0:0:0:0:
256,192,74620,1,0,0:0:0:0:
256,192,74820,1,0,0:0:0:0:
256,192,74870,1,0,0:0:0:0:
256,192,75020,1,0,0:0:0:0:
256,192,75220,1,0,0:0:0:0:
256,192,75420,1,0,0:0:0:0:
256,192,75520,1,0,0:0:0:0:
256,192,75620,1,8,0:0:0:0:
256,192,75820,1,8,0:0:0:0:
256,192,75853,1,0,0:0:0:0:
256,192,75920,1,8,0:0:0:0:
256,192,75953,1,0,0:0:0:0:
256,192,76020,1,8,0:0:0:0:
256,192,76053,1,0,0:0:0:0:
256,192,76120,1,8,0:0:0:0:
256,192,76153,1,0,0:0:0:0:
256,192,76220,1,8,0:0:0:0:
256,192,76253,1,0,0:0:0:0:
256,192,76320,1,8,0:0:0:0:
256,192,76353,1,0,0:0:0:0:
256,192,76420,1,8,0:0:0:0:
256,192,76453,1,0,0:0:0:0:
256,192,76520,1,8,0:0:0:0:
256,192,76553,1,0,0:0:0:0:
256,192,76620,1,8,0:0:0:0:
256,192,76670,1,8,0:0:0:0:
256,192,76720,1,0,0:0:0:0:
256,192,76820,1,8,0:0:0:0:
256,192,76870,1,0,0:0:0:0:
256,192,76920,1,8,0:0:0:0:
256,192,77020,1,0,0:0:0:0:
256,192,77120,1,0,0:0:0:0:
256,192,77170,1,8,0:0:0:0:
256,192,77220,1,0,0:0:0:0:
256,192,77320,1,8,0:0:0:0:
96,96,77420,2,8,L|192:96,11,70
256,192,78620,1,8,0:0:0:0:
256,192,78670,1,8,0:0:0:0:
256,192,78720,1,8,0:0:0:0:
256,192,78770,1,8,0:0:0:0:
256,192,78820,1,8,0:0:0:0:
256,192,78870,1,8,0:0:0:0:
264,192,78920,1,8,0:0:0:0:
256,192,78970,1,8,0:0:0:0:
256,192,79020,12,0,80520,0:0:0:0:
256,192,80620,5,4,0:0:0:0:
256,192,81020,1,8,0:0:0:0:
256,192,81420,1,8,0:0:0:0:
256,192,81520,1,8,0:0:0:0:
256,192,81620,1,8,0:0:0:0:
256,192,81720,1,8,0:0:0:0:
256,192,81820,1,8,0:0:0:0:
256,192,82020,1,8,0:0:0:0:
256,192,82120,1,8,0:0:0:0:
256,192,82220,1,8,0:0:0:0:
256,192,82620,1,8,0:0:0:0:
256,192,83020,1,8,0:0:0:0:
256,192,83420,1,8,0:0:0:0:
256,192,83820,1,4,0:0:0:0:
256,192,84220,1,8,0:0:0:0:
256,192,84620,1,8,0:0:0:0:
256,192,85020,1,8,0:0:0:0:
256,192,85420,1,8,0:0:0:0:
256,192,85820,1,8,0:0:0:0:
256,192,86220,1,8,0:0:0:0:
256,192,86620,1,8,0:0:0:0:
256,192,87020,1,4,0:0:0:0:
256,192,87120,1,4,0:0:0:0:
256,192,87220,1,12,0:0:0:0:
256,192,87420,1,4,0:0:0:0:
256,192,87520,1,4,0:0:0:0:
256,192,87620,1,12,0:0:0:0:
256,192,87820,1,4,0:0:0:0:
256,192,87920,1,4,0:0:0:0:
256,192,88020,1,12,0:0:0:0:
256,192,88120,1,4,0:0:0:0:
256,192,88220,1,12,0:0:0:0:
256,192,88420,1,12,0:0:0:0:
256,192,88520,1,12,0:0:0:0:
256,192,88620,1,4,0:0:0:0:
256,192,88720,1,4,0:0:0:0:
256,192,88820,1,12,0:0:0:0:
256,192,89020,1,4,0:0:0:0:
256,192,89120,1,4,0:0:0:0:
256,192,89220,1,12,0:0:0:0:
256,192,89420,1,4,0:0:0:0:
256,192,89520,1,12,0:0:0:0:
256,192,89620,1,12,0:0:0:0:
256,192,89720,1,4,0:0:0:0:
256,192,89820,1,12,0:0:0:0:
256,192,90020,1,12,0:0:0:0:
256,192,90120,1,12,0:0:0:0:
256,192,90220,1,4,0:0:0:0:
256,192,90320,1,4,0:0:0:0:
256,192,90420,1,12,0:0:0:0:
256,192,90620,1,4,0:0:0:0:
256,192,90720,1,4,0:0:0:0:
256,192,90820,1,12,0:0:0:0:
256,192,91020,1,4,0:0:0:0:
256,192,91120,1,4,0:0:0:0:
256,192,91220,1,12,0:0:0:0:
256,192,91320,1,4,0:0:0:0:
256,192,91420,1,12,0:0:0:0:
256,192,91620,1,12,0:0:0:0:
256,192,91720,1,12,0:0:0:0:
256,192,91820,1,4,0:0:0:0:
256,192,91920,1,4,0:0:0:0:
256,192,92020,1,12,0:0:0:0:
256,192,92220,1,4,0:0:0:0:
256,192,92320,1,4,0:0:0:0:
256,192,92420,1,12,0:0:0:0:
256,192,92620,1,4,0:0:0:0:
256,192,92720,1,12,0:0:0:0:
256,192,92820,1,12,0:0:0:0:
256,192,92920,1,4,0:0:0:0:
256,192,93020,1,12,0:0:0:0:
256,192,93220,1,12,0:0:0:0:
256,192,93320,1,12,0:0:0:0:
256,192,93420,12,0,95620,0:0:0:0:
256,192,95720,5,8,0:0:0:0:
256,192,95820,1,8,0:0:0:0:
256,192,95920,1,8,0:0:0:0:
256,192,96020,1,0,0:0:0:0:
256,192,96120,1,0,0:0:0:0:
256,192,96220,1,0,0:0:0:0:
256,192,96320,1,0,0:0:0:0:
256,192,96420,1,8,0:0:0:0:
256,192,96620,1,12,0:0:0:0:
256,192,96820,1,8,0:0:0:0:
256,192,96920,1,0,0:0:0:0:
256,192,96970,1,0,0:0:0:0:
256,192,97020,1,8,0:0:0:0:
256,192,97120,1,0,0:0:0:0:
256,192,97220,1,8,0:0:0:0:
256,192,97270,1,8,0:0:0:0:
256,192,97320,1,8,0:0:0:0:
256,192,97370,1,8,0:0:0:0:
256,192,97420,1,0,0:0:0:0:
256,192,97520,1,0,0:0:0:0:
256,192,97720,1,8,0:0:0:0:
256,192,97770,1,8,0:0:0:0:
256,192,97820,1,0,0:0:0:0:
256,192,97920,1,0,0:0:0:0:
256,192,98020,1,8,0:0:0:0:
256,192,98120,1,0,0:0:0:0:
256,192,98220,1,0,0:0:0:0:
256,192,98270,1,0,0:0:0:0:
256,192,98320,1,0,0:0:0:0:
256,192,98370,1,0,0:0:0:0:
256,192,98420,1,8,0:0:0:0:
256,192,98520,1,0,0:0:0:0:
256,192,98570,1,0,0:0:0:0:
256,192,98620,1,8,0:0:0:0:
256,192,98720,1,8,0:0:0:0:
256,192,98820,1,8,0:0:0:0:
256,192,98870,1,0,0:0:0:0:
256,192,98920,1,8,0:0:0:0:
256,192,99020,1,0,0:0:0:0:
256,192,99120,1,8,0:0:0:0:
256,192,99220,1,8,0:0:0:0:
256,192,99320,1,8,0:0:0:0:
256,192,99420,1,0,0:0:0:0:
256,192,99620,1,8,0:0:0:0:
256,192,99720,1,8,0:0:0:0:
256,192,99820,1,12,0:0:0:0:
256,192,100020,1,8,0:0:0:0:
256,192,100070,1,8,0:0:0:0:
256,192,100120,1,0,0:0:0:0:
256,192,100220,1,0,0:0:0:0:
256,192,100320,1,8,0:0:0:0:
256,192,100370,1,8,0:0:0:0:
256,192,100420,1,8,0:0:0:0:
256,192,100470,1,8,0:0:0:0:
256,192,100520,1,0,0:0:0:0:
256,192,100620,1,0,0:0:0:0:
256,192,100720,1,0,0:0:0:0:
256,192,100920,1,0,0:0:0:0:
256,192,101020,1,0,0:0:0:0:
256,192,101070,1,8,0:0:0:0:
256,192,101120,1,0,0:0:0:0:
256,192,101170,1,0,0:0:0:0:
256,192,101220,1,8,0:0:0:0:
256,192,101320,1,8,0:0:0:0:
256,192,101420,1,0,0:0:0:0:
256,192,101470,1,0,0:0:0:0:
256,192,101520,1,0,0:0:0:0:
256,192,101570,1,0,0:0:0:0:
256,192,101620,1,8,0:0:0:0:
256,192,101720,1,0,0:0:0:0:
256,192,101770,1,0,0:0:0:0:
256,192,101820,1,8,0:0:0:0:
256,192,101920,1,8,0:0:0:0:
256,192,102020,1,0,0:0:0:0:
256,192,102120,1,0,0:0:0:0:
256,192,102220,1,8,0:0:0:0:
256,192,102270,1,0,0:0:0:0:
256,192,102320,1,8,0:0:0:0:
256,192,102370,1,0,0:0:0:0:
256,192,102420,1,8,0:0:0:0:
256,192,102470,1,8,0:0:0:0:
256,192,102520,1,8,0:0:0:0:
256,192,102570,1,8,0:0:0:0:
256,192,102620,1,0,0:0:0:0:
256,192,102653,1,0,0:0:0:0:
256,192,102686,1,0,0:0:0:0:
256,192,102720,1,0,0:0:0:0:
256,192,102820,1,0,0:0:0:0:
256,192,102920,1,0,0:0:0:0:
256,192,103020,1,12,0:0:0:0:
256,192,103220,1,0,0:0:0:0:
256,192,103270,1,0,0:0:0:0:
256,192,103320,1,0,0:0:0:0:
256,192,103370,1,8,0:0:0:0:
256,192,103420,1,0,0:0:0:0:
256,192,103520,1,0,0:0:0:0:
256,192,103620,1,8,0:0:0:0:
256,192,103670,1,8,0:0:0:0:
256,192,103720,1,8,0:0:0:0:
256,192,103770,1,8,0:0:0:0:
256,192,103820,1,0,0:0:0:0:
256,192,103920,1,0,0:0:0:0:
256,192,104120,1,8,0:0:0:0:
256,192,104170,1,8,0:0:0:0:
256,192,104220,1,0,0:0:0:0:
256,192,104320,1,0,0:0:0:0:
256,192,104420,1,8,0:0:0:0:
256,192,104520,1,8,0:0:0:0:
256,192,104620,1,0,0:0:0:0:
256,192,104670,1,0,0:0:0:0:
256,192,104720,1,0,0:0:0:0:
256,192,104770,1,0,0:0:0:0:
256,192,104820,1,8,0:0:0:0:
256,192,104920,1,0,0:0:0:0:
256,192,104970,1,0,0:0:0:0:
256,192,105020,1,8,0:0:0:0:
256,192,105120,1,0,0:0:0:0:
256,192,105220,1,0,0:0:0:0:
256,192,105320,1,8,0:0:0:0:
256,192,105420,1,8,0:0:0:0:
256,192,105520,1,0,0:0:0:0:
256,192,105620,1,8,0:0:0:0:
256,192,105820,1,8,0:0:0:0:
256,192,106020,1,0,0:0:0:0:
256,192,106120,1,0,0:0:0:0:
256,192,106220,1,12,0:0:0:0:
256,192,106320,1,0,0:0:0:0:
256,192,106420,1,0,0:0:0:0:
256,192,106470,1,0,0:0:0:0:
256,192,106520,1,8,0:0:0:0:
256,192,106570,1,8,0:0:0:0:
256,192,106620,1,0,0:0:0:0:
256,192,106720,1,8,0:0:0:0:
256,192,106770,1,8,0:0:0:0:
256,192,106820,1,8,0:0:0:0:
256,192,106920,1,8,0:0:0:0:
256,192,107020,1,0,0:0:0:0:
256,192,107120,1,0,0:0:0:0:
256,192,107220,1,8,0:0:0:0:
256,192,107420,1,0,0:0:0:0:
256,192,107520,1,8,0:0:0:0:
256,192,107570,1,0,0:0:0:0:
256,192,107620,1,8,0:0:0:0:
256,192,107670,1,8,0:0:0:0:
256,192,107720,1,0,0:0:0:0:
256,192,107770,1,8,0:0:0:0:
256,192,107820,1,0,0:0:0:0:
256,192,107920,1,0,0:0:0:0:
256,192,107970,1,0,0:0:0:0:
256,192,108020,1,8,0:0:0:0:
256,192,108120,1,0,0:0:0:0:
256,192,108170,1,0,0:0:0:0:
256,192,108220,1,8,0:0:0:0:
256,192,108320,1,8,0:0:0:0:
256,192,108420,1,8,0:0:0:0:
256,192,108520,1,0,0:0:0:0:
256,192,108620,1,8,0:0:0:0:
256,192,108670,1,8,0:0:0:0:
256,192,108720,1,8,0:0:0:0:
256,192,108770,1,8,0:0:0:0:
256,192,108820,1,0,0:0:0:0:
256,192,108870,1,8,0:0:0:0:
256,192,108920,1,0,0:0:0:0:
256,192,108970,1,0,0:0:0:0:
256,192,109020,1,8,0:0:0:0:
256,192,109053,1,0,0:0:0:0:
256,192,109086,1,0,0:0:0:0:
256,192,109120,1,8,0:0:0:0:
256,192,109220,1,8,0:0:0:0:
256,192,109320,1,0,0:0:0:0:
256,192,109420,1,12,0:0:0:0:
256,192,109620,1,8,0:0:0:0:
256,192,109820,1,0,0:0:0:0:
256,192,110020,1,8,0:0:0:0:
256,192,110220,1,0,0:0:0:0:
256,192,110320,1,0,0:0:0:0:
256,192,110420,1,8,0:0:0:0:
256,192,110520,1,0,0:0:0:0:
256,192,110620,1,0,0:0:0:0:
256,192,110820,1,8,0:0:0:0:
256,192,111020,1,0,0:0:0:0:
256,192,111220,1,8,0:0:0:0:
256,192,111420,1,0,0:0:0:0:
256,192,111620,1,8,0:0:0:0:
256,192,111820,1,0,0:0:0:0:
256,192,111920,1,8,0:0:0:0:
256,192,111970,1,8,0:0:0:0:
256,192,112020,1,0,0:0:0:0:
256,192,112120,1,8,0:0:0:0:
256,192,112170,1,8,0:0:0:0:
256,192,112220,1,0,0:0:0:0:
256,192,112420,1,8,0:0:0:0:
256,192,112470,1,8,0:0:0:0:
256,192,112520,1,8,0:0:0:0:
256,192,112570,1,8,0:0:0:0:
256,192,112620,1,4,0:0:0:0:
256,192,112820,1,8,0:0:0:0:
256,192,113020,1,0,0:0:0:0:
256,192,113220,1,8,0:0:0:0:
256,192,113420,1,0,0:0:0:0:
256,192,113520,1,0,0:0:0:0:
256,192,113620,1,8,0:0:0:0:
256,192,113720,1,0,0:0:0:0:
256,192,113820,1,0,0:0:0:0:
256,192,114020,1,8,0:0:0:0:
256,192,114220,1,0,0:0:0:0:
256,192,114420,1,8,0:0:0:0:
256,192,114620,1,0,0:0:0:0:
256,192,114820,1,8,0:0:0:0:
256,192,115020,1,0,0:0:0:0:
256,192,115120,1,0,0:0:0:0:
256,192,115220,1,8,0:0:0:0:
256,192,115320,1,0,0:0:0:0:
256,192,115420,1,0,0:0:0:0:
256,192,115620,1,8,0:0:0:0:
256,192,115820,1,12,0:0:0:0:
256,192,116020,1,8,0:0:0:0:
256,192,116220,1,0,0:0:0:0:
256,192,116420,1,8,0:0:0:0:
256,192,116620,1,0,0:0:0:0:
256,192,116720,1,0,0:0:0:0:
256,192,116820,1,8,0:0:0:0:
256,192,116920,1,0,0:0:0:0:
256,192,117020,1,0,0:0:0:0:
256,192,117220,1,8,0:0:0:0:
256,192,117420,1,0,0:0:0:0:
256,192,117520,1,8,0:0:0:0:
256,192,117620,1,8,0:0:0:0:
256,192,117820,1,0,0:0:0:0:
256,192,117920,1,8,0:0:0:0:
256,192,118020,1,8,0:0:0:0:
256,192,118220,1,0,0:0:0:0:
256,192,118320,1,8,0:0:0:0:
256,192,118370,1,8,0:0:0:0:
256,192,118420,1,0,0:0:0:0:
256,192,118520,1,8,0:0:0:0:
256,192,118620,1,0,0:0:0:0:
256,192,118820,1,8,0:0:0:0:
256,192,118870,1,8,0:0:0:0:
256,192,118920,1,8,0:0:0:0:
256,192,118970,1,8,0:0:0:0:
256,192,119020,1,4,0:0:0:0:
256,192,119220,1,8,0:0:0:0:
256,192,119420,1,0,0:0:0:0:
256,192,119620,1,8,0:0:0:0:
256,192,119820,1,0,0:0:0:0:
256,192,119920,1,0,0:0:0:0:
256,192,120020,1,8,0:0:0:0:
256,192,120120,1,0,0:0:0:0:
256,192,120220,1,0,0:0:0:0:
256,192,120420,1,0,0:0:0:0:
256,192,120620,1,4,0:0:0:0:
256,192,121020,1,4,0:0:0:0:
256,192,121420,1,4,0:0:0:0:
256,192,121620,1,8,0:0:0:0:
256,192,121670,1,8,0:0:0:0:
256,192,121720,1,8,0:0:0:0:
256,192,121820,1,4,0:0:0:0:
256,192,122020,1,0,0:0:0:0:
256,192,122070,1,0,0:0:0:0:
256,192,122120,1,0,0:0:0:0:
256,192,122170,1,0,0:0:0:0:
256,192,122220,1,8,0:0:0:0:
256,192,122420,1,0,0:0:0:0:
256,192,122470,1,8,0:0:0:0:
256,192,122520,1,0,0:0:0:0:
256,192,122570,1,0,0:0:0:0:
256,192,122620,1,8,0:0:0:0:
256,192,122720,1,0,0:0:0:0:
256,192,122820,1,8,0:0:0:0:
256,192,122870,1,8,0:0:0:0:
256,192,122920,1,8,0:0:0:0:
256,192,122970,1,8,0:0:0:0:
256,192,123020,1,0,0:0:0:0:
256,192,123120,1,0,0:0:0:0:
256,192,123320,1,8,0:0:0:0:
256,192,123370,1,8,0:0:0:0:
256,192,123420,1,0,0:0:0:0:
256,192,123520,1,0,0:0:0:0:
256,192,123620,1,8,0:0:0:0:
256,192,123720,1,0,0:0:0:0:
256,192,123820,1,8,0:0:0:0:
256,192,123870,1,0,0:0:0:0:
256,192,123920,1,8,0:0:0:0:
256,192,123970,1,0,0:0:0:0:
256,192,124020,1,8,0:0:0:0:
256,192,124120,1,0,0:0:0:0:
256,192,124170,1,0,0:0:0:0:
256,192,124220,1,8,0:0:0:0:
256,192,124320,1,0,0:0:0:0:
256,192,124420,1,8,0:0:0:0:
256,192,124520,1,0,0:0:0:0:
256,192,124620,1,0,0:0:0:0:
256,192,124670,1,0,0:0:0:0:
256,192,124720,1,0,0:0:0:0:
256,192,124770,1,0,0:0:0:0:
256,192,124820,1,8,0:0:0:0:
256,192,124870,1,0,0:0:0:0:
256,192,124920,1,8,0:0:0:0:
256,192,124970,1,8,0:0:0:0:
256,192,125020,1,0,0:0:0:0:
256,192,125120,1,8,0:0:0:0:
256,192,125153,1,8,0:0:0:0:
256,192,125186,1,8,0:0:0:0:
256,192,125220,1,0,0:0:0:0:
256,192,125320,1,0,0:0:0:0:
256,192,125420,1,12,0:0:0:0:
256,192,125520,1,8,0:0:0:0:
256,192,125620,1,0,0:0:0:0:
256,192,125670,1,0,0:0:0:0:
256,192,125720,1,8,0:0:0:0:
256,192,125770,1,8,0:0:0:0:
256,192,125820,1,0,0:0:0:0:
256,192,125870,1,0,0:0:0:0:
256,192,125920,1,8,0:0:0:0:
256,192,126020,1,8,0:0:0:0:
256,192,126120,1,8,0:0:0:0:
256,192,126170,1,8,0:0:0:0:
256,192,126220,1,0,0:0:0:0:
256,192,126320,1,0,0:0:0:0:
256,192,126520,1,8,0:0:0:0:
256,192,126570,1,8,0:0:0:0:
256,192,126620,1,0,0:0:0:0:
256,192,126670,1,8,0:0:0:0:
256,192,126720,1,0,0:0:0:0:
256,192,126770,1,0,0:0:0:0:
256,192,126820,1,8,0:0:0:0:
256,192,126870,1,8,0:0:0:0:
256,192,126920,1,8,0:0:0:0:
256,192,127020,1,0,0:0:0:0:
256,192,127070,1,8,0:0:0:0:
256,192,127120,1,0,0:0:0:0:
256,192,127170,1,0,0:0:0:0:
256,192,127220,1,8,0:0:0:0:
256,192,127320,1,8,0:0:0:0:
256,192,127370,1,0,0:0:0:0:
256,192,127420,1,8,0:0:0:0:
256,192,127520,1,0,0:0:0:0:
256,192,127620,1,0,0:0:0:0:
256,192,127720,1,0,0:0:0:0:
256,192,127820,1,8,0:0:0:0:
256,192,127870,1,8,0:0:0:0:
256,192,127920,1,8,0:0:0:0:
256,192,127970,1,8,0:0:0:0:
256,192,128020,1,0,0:0:0:0:
256,192,128120,1,0,0:0:0:0:
256,192,128220,1,0,0:0:0:0:
256,192,128270,1,0,0:0:0:0:
256,192,128320,1,8,0:0:0:0:
256,192,128370,1,8,0:0:0:0:
256,192,128420,1,0,0:0:0:0:
256,192,128520,1,0,0:0:0:0:
256,192,128620,1,12,0:0:0:0:
256,192,128720,1,0,0:0:0:0:
256,192,128820,1,8,0:0:0:0:
256,192,128853,1,8,0:0:0:0:
256,192,128886,1,8,0:0:0:0:
256,192,128920,1,8,0:0:0:0:
256,192,129020,1,0,0:0:0:0:
256,192,129120,1,0,0:0:0:0:
256,192,129220,1,8,0:0:0:0:
256,192,129270,1,8,0:0:0:0:
256,192,129320,1,8,0:0:0:0:
256,192,129370,1,8,0:0:0:0:
256,192,129420,1,0,0:0:0:0:
256,192,129520,1,0,0:0:0:0:
256,192,129720,1,8,0:0:0:0:
256,192,129770,1,8,0:0:0:0:
256,192,129820,1,0,0:0:0:0:
256,192,129920,1,0,0:0:0:0:
256,192,130020,1,8,0:0:0:0:
256,192,130120,1,0,0:0:0:0:
256,192,130220,1,0,0:0:0:0:
256,192,130270,1,8,0:0:0:0:
256,192,130320,1,0,0:0:0:0:
256,192,130370,1,0,0:0:0:0:
256,192,130420,1,8,0:0:0:0:
256,192,130520,1,0,0:0:0:0:
256,192,130570,1,0,0:0:0:0:
256,192,130620,1,8,0:0:0:0:
256,192,130720,1,0,0:0:0:0:
256,192,130770,1,0,0:0:0:0:
256,192,130820,1,0,0:0:0:0:
256,192,130920,1,0,0:0:0:0:
256,192,131020,1,8,0:0:0:0:
256,192,131070,1,8,0:0:0:0:
256,192,131120,1,0,0:0:0:0:
256,192,131170,1,8,0:0:0:0:
256,192,131220,1,0,0:0:0:0:
256,192,131320,1,0,0:0:0:0:
256,192,131370,1,0,0:0:0:0:
256,192,131420,1,8,0:0:0:0:
256,192,131520,1,8,0:0:0:0:
264,192,131553,1,8,0:0:0:0:
264,192,131586,1,8,0:0:0:0:
256,192,131620,1,0,0:0:0:0:
256,192,131720,1,0,0:0:0:0:
256,192,131820,1,12,0:0:0:0:
256,192,131920,1,8,0:0:0:0:
256,192,131970,1,8,0:0:0:0:
256,192,132020,1,0,0:0:0:0:
256,192,132070,1,0,0:0:0:0:
256,192,132120,1,8,0:0:0:0:
256,192,132320,1,0,0:0:0:0:
256,192,132420,1,0,0:0:0:0:
256,192,132520,1,8,0:0:0:0:
256,192,132570,1,8,0:0:0:0:
256,192,132620,1,0,0:0:0:0:
256,192,132720,1,0,0:0:0:0:
256,192,132920,1,0,0:0:0:0:
256,192,133020,1,0,0:0:0:0:
256,192,133070,1,0,0:0:0:0:
256,192,133120,1,0,0:0:0:0:
256,192,133170,1,0,0:0:0:0:
256,192,133220,1,8,0:0:0:0:
256,192,133270,1,8,0:0:0:0:
256,192,133320,1,8,0:0:0:0:
256,192,133370,1,8,0:0:0:0:
256,192,133420,1,0,0:0:0:0:
256,192,133470,1,8,0:0:0:0:
256,192,133520,1,0,0:0:0:0:
256,192,133570,1,0,0:0:0:0:
256,192,133620,1,8,0:0:0:0:
256,192,133720,1,0,0:0:0:0:
256,192,133770,1,0,0:0:0:0:
256,192,133820,1,8,0:0:0:0:
256,192,133920,1,0,0:0:0:0:
256,192,133970,1,0,0:0:0:0:
256,192,134020,1,8,0:0:0:0:
256,192,134120,1,8,0:0:0:0:
256,192,134220,1,8,0:0:0:0:
256,192,134270,1,8,0:0:0:0:
256,192,134320,1,8,0:0:0:0:
256,192,134370,1,8,0:0:0:0:
256,192,134420,1,0,0:0:0:0:
256,192,134520,1,0,0:0:0:0:
256,192,134620,1,0,0:0:0:0:
256,192,134670,1,0,0:0:0:0:
256,192,134720,1,8,0:0:0:0:
256,192,134770,1,8,0:0:0:0:
256,192,134820,1,0,0:0:0:0:
256,192,134920,1,0,0:0:0:0:
256,192,135020,1,4,0:0:0:0:
256,192,135220,1,4,0:0:0:0:
256,192,135420,1,4,0:0:0:0:
256,192,135620,1,4,0:0:0:0:
256,192,135820,1,4,0:0:0:0:
256,192,136020,1,4,0:0:0:0:
256,192,136220,1,4,0:0:0:0:
256,192,136320,1,0,0:0:0:0:
256,192,136420,1,8,0:0:0:0:
256,192,136520,1,0,0:0:0:0:
256,192,136620,1,4,0:0:0:0:
256,192,136820,1,4,0:0:0:0:
256,192,137020,1,4,0:0:0:0:
256,192,137220,1,4,0:0:0:0:
256,192,137420,1,0,0:0:0:0:
256,192,137520,1,8,0:0:0:0:
256,192,137553,1,8,0:0:0:0:
256,192,137586,1,8,0:0:0:0:
256,192,137620,1,0,0:0:0:0:
256,192,137720,1,8,0:0:0:0:
256,192,137753,1,8,0:0:0:0:
256,192,137786,1,8,0:0:0:0:
256,192,137820,1,0,0:0:0:0:
256,192,137920,1,8,0:0:0:0:
256,192,137953,1,8,0:0:0:0:
256,192,137986,1,8,0:0:0:0:
256,192,138020,1,0,0:0:0:0:
256,192,138120,1,8,0:0:0:0:
256,192,138153,1,8,0:0:0:0:
256,192,138186,1,8,0:0:0:0:
256,192,138220,1,0,0:0:0:0:
256,192,138420,1,4,0:0:0:0:
256,192,138620,1,4,0:0:0:0:
256,192,138820,1,4,0:0:0:0:
256,192,139020,1,4,0:0:0:0:
256,192,139220,1,4,0:0:0:0:
256,192,139420,1,4,0:0:0:0:
256,192,139520,1,0,0:0:0:0:
256,192,139620,1,8,0:0:0:0:
256,192,139720,1,0,0:0:0:0:
256,192,139820,1,0,0:0:0:0:
256,192,139920,1,0,0:0:0:0:
256,192,140020,1,0,0:0:0:0:
256,192,140120,1,8,0:0:0:0:
256,192,140170,1,8,0:0:0:0:
256,192,140220,1,0,0:0:0:0:
256,192,140320,1,0,0:0:0:0:
256,192,140420,1,0,0:0:0:0:
256,192,140520,1,8,0:0:0:0:
256,192,140620,1,0,0:0:0:0:
256,192,140670,1,0,0:0:0:0:
256,192,140720,1,0,0:0:0:0:
256,192,140770,1,0,0:0:0:0:
256,192,140820,1,8,0:0:0:0:
256,192,140920,1,0,0:0:0:0:
256,192,140970,1,0,0:0:0:0:
256,192,141020,1,8,0:0:0:0:
256,192,141120,1,0,0:0:0:0:
256,192,141220,1,0,0:0:0:0:
256,192,141320,1,0,0:0:0:0:
256,192,141420,1,12,0:0:0:0:
256,192,141620,1,0,0:0:0:0:
256,192,141820,1,0,0:0:0:0:
256,192,142020,1,0,0:0:0:0:
256,192,142220,1,0,0:0:0:0:
256,192,142420,1,0,0:0:0:0:
256,192,142620,1,0,0:0:0:0:
256,192,142720,1,8,0:0:0:0:
256,192,142820,1,0,0:0:0:0:
256,192,142920,1,8,0:0:0:0:
256,192,143020,1,0,0:0:0:0:
256,192,143070,1,8,0:0:0:0:
256,192,143120,1,8,0:0:0:0:
256,192,143220,1,0,0:0:0:0:
256,192,143320,1,8,0:0:0:0:
256,192,143420,1,0,0:0:0:0:
256,192,143520,1,8,0:0:0:0:
256,192,143620,1,0,0:0:0:0:
256,192,143720,1,8,0:0:0:0:
256,192,143820,1,0,0:0:0:0:
256,192,143920,1,8,0:0:0:0:
256,192,143953,1,8,0:0:0:0:
256,192,143986,1,8,0:0:0:0:
256,192,144020,1,0,0:0:0:0:
256,192,144120,1,8,0:0:0:0:
256,192,144153,1,8,0:0:0:0:
256,192,144186,1,8,0:0:0:0:
256,192,144220,1,0,0:0:0:0:
256,192,144320,1,8,0:0:0:0:
256,192,144353,1,8,0:0:0:0:
256,192,144386,1,8,0:0:0:0:
256,192,144420,1,0,0:0:0:0:
256,192,144520,1,8,0:0:0:0:
256,192,144553,1,8,0:0:0:0:
256,192,144586,1,8,0:0:0:0:
256,192,144620,1,0,0:0:0:0:
256,192,144820,1,0,0:0:0:0:
256,192,144870,1,0,0:0:0:0:
256,192,144920,1,0,0:0:0:0:
256,192,144970,1,0,0:0:0:0:
256,192,145020,1,8,0:0:0:0:
256,192,145120,1,0,0:0:0:0:
256,192,145220,1,8,0:0:0:0:
256,192,145270,1,8,0:0:0:0:
256,192,145320,1,8,0:0:0:0:
256,192,145370,1,8,0:0:0:0:
256,192,145420,1,0,0:0:0:0:
256,192,145520,1,0,0:0:0:0:
256,192,145620,1,8,0:0:0:0:
256,192,145720,1,0,0:0:0:0:
256,192,145770,1,0,0:0:0:0:
256,192,145820,1,0,0:0:0:0:
256,192,145920,1,0,0:0:0:0:
256,192,146120,1,0,0:0:0:0:
256,192,146220,1,0,0:0:0:0:
256,192,146270,1,8,0:0:0:0:
256,192,146320,1,0,0:0:0:0:
256,192,146370,1,0,0:0:0:0:
256,192,146420,1,8,0:0:0:0:
256,192,146520,1,8,0:0:0:0:
256,192,146570,1,8,0:0:0:0:
256,192,146620,1,0,0:0:0:0:
256,192,146720,1,0,0:0:0:0:
256,192,146820,1,8,0:0:0:0:
256,192,146920,1,0,0:0:0:0:
256,192,147120,1,8,0:0:0:0:
256,192,147220,1,0,0:0:0:0:
256,192,147320,1,0,0:0:0:0:
256,192,147420,1,0,0:0:0:0:
256,192,147470,1,0,0:0:0:0:
256,192,147520,1,8,0:0:0:0:
256,192,147620,1,8,0:0:0:0:
256,192,147720,1,8,0:0:0:0:
256,192,147820,1,4,0:0:0:0:
256,192,148020,1,4,0:0:0:0:
256,192,148220,1,4,0:0:0:0:
256,192,148420,1,4,0:0:0:0:
256,192,148620,1,4,0:0:0:0:
256,192,148820,1,4,0:0:0:0:
256,192,149020,1,4,0:0:0:0:
256,192,149120,1,8,0:0:0:0:
256,192,149220,1,4,0:0:0:0:
256,192,149320,1,8,0:0:0:0:
256,192,149420,1,4,0:0:0:0:
256,192,149620,1,4,0:0:0:0:
256,192,149820,1,4,0:0:0:0:
256,192,150020,1,4,0:0:0:0:
256,192,150220,1,0,0:0:0:0:
256,192,150320,1,8,0:0:0:0:
256,192,150353,1,8,0:0:0:0:
256,192,150386,1,8,0:0:0:0:
256,192,150420,1,0,0:0:0:0:
256,192,150520,1,8,0:0:0:0:
256,192,150553,1,8,0:0:0:0:
256,192,150586,1,8,0:0:0:0:
256,192,150620,1,0,0:0:0:0:
256,192,150720,1,8,0:0:0:0:
256,192,150753,1,8,0:0:0:0:
256,192,150786,1,8,0:0:0:0:
256,192,150820,1,0,0:0:0:0:
256,192,150920,1,8,0:0:0:0:
256,192,150953,1,8,0:0:0:0:
256,192,150986,1,8,0:0:0:0:
256,192,151020,1,0,0:0:0:0:
256,192,151220,1,4,0:0:0:0:
256,192,151420,1,4,0:0:0:0:
256,192,151620,1,4,0:0:0:0:
256,192,151820,1,4,0:0:0:0:
256,192,152020,1,4,0:0:0:0:
256,192,152220,1,4,0:0:0:0:
256,192,152320,1,8,0:0:0:0:
256,192,152420,1,8,0:0:0:0:
256,192,152520,1,8,0:0:0:0:
256,192,152620,1,0,0:0:0:0:
256,192,152720,1,0,0:0:0:0:
256,192,152820,1,8,0:0:0:0:
256,192,152920,1,0,0:0:0:0:
256,192,152970,1,0,0:0:0:0:
256,192,153020,1,0,0:0:0:0:
256,192,153120,1,0,0:0:0:0:
256,192,153320,1,8,0:0:0:0:
256,192,153370,1,8,0:0:0:0:
256,192,153420,1,0,0:0:0:0:
256,192,153470,1,8,0:0:0:0:
256,192,153520,1,0,0:0:0:0:
256,192,153570,1,0,0:0:0:0:
256,192,153620,1,8,0:0:0:0:
256,192,153720,1,8,0:0:0:0:
256,192,153770,1,8,0:0:0:0:
256,192,153820,1,0,0:0:0:0:
256,192,153920,1,0,0:0:0:0:
256,192,154020,1,8,0:0:0:0:
256,192,154120,1,0,0:0:0:0:
256,192,154220,1,12,0:0:0:0:
256,192,154420,1,8,0:0:0:0:
256,192,154520,1,0,0:0:0:0:
256,192,154620,1,0,0:0:0:0:
256,192,154670,1,0,0:0:0:0:
256,192,154720,1,0,0:0:0:0:
256,192,154820,1,8,0:0:0:0:
256,192,154920,1,0,0:0:0:0:
256,192,155120,1,8,0:0:0:0:
256,192,155170,1,8,0:0:0:0:
256,192,155220,1,0,0:0:0:0:
256,192,155320,1,0,0:0:0:0:
256,192,155420,1,0,0:0:0:0:
256,192,155520,1,0,0:0:0:0:
256,192,155620,1,8,0:0:0:0:
256,192,155720,1,0,0:0:0:0:
256,192,155820,1,0,0:0:0:0:
256,192,155870,1,0,0:0:0:0:
256,192,155920,1,0,0:0:0:0:
256,192,156020,1,0,0:0:0:0:
256,192,156120,1,8,0:0:0:0:
256,192,156170,1,8,0:0:0:0:
256,192,156220,1,0,0:0:0:0:
256,192,156320,1,0,0:0:0:0:
256,192,156420,1,8,0:0:0:0:
256,192,156470,1,0,0:0:0:0:
256,192,156520,1,0,0:0:0:0:
256,192,156620,1,0,0:0:0:0:
256,192,156720,1,8,0:0:0:0:
256,192,156770,1,8,0:0:0:0:
256,192,156820,1,0,0:0:0:0:
256,192,156920,1,0,0:0:0:0:
256,192,157020,1,8,0:0:0:0:
256,192,157070,1,8,0:0:0:0:
256,192,157120,1,0,0:0:0:0:
256,192,157220,1,8,0:0:0:0:
256,192,157270,1,8,0:0:0:0:
256,192,157320,1,0,0:0:0:0:
256,192,157370,1,0,0:0:0:0:
256,192,157420,1,8,0:0:0:0:
256,192,157453,1,8,0:0:0:0:
256,192,157520,1,0,0:0:0:0:
256,192,157553,1,0,0:0:0:0:
256,192,157620,1,8,0:0:0:0:
256,192,157653,1,8,0:0:0:0:
256,192,157720,1,0,0:0:0:0:
256,192,157753,1,0,0:0:0:0:
256,192,157820,1,0,0:0:0:0:
256,192,157920,1,0,0:0:0:0:
256,192,158020,1,8,0:0:0:0:
256,192,158120,1,0,0:0:0:0:
256,192,158320,1,8,0:0:0:0:
256,192,158370,1,8,0:0:0:0:
256,192,158420,1,0,0:0:0:0:
256,192,158520,1,0,0:0:0:0:
256,192,158620,1,0,0:0:0:0:
256,192,158720,1,0,0:0:0:0:
256,192,158820,1,8,0:0:0:0:
256,192,158920,1,0,0:0:0:0:
256,192,159020,1,0,0:0:0:0:
256,192,159120,1,8,0:0:0:0:
256,192,159170,1,8,0:0:0:0:
256,192,159220,1,0,0:0:0:0:
256,192,159320,1,8,0:0:0:0:
256,192,159370,1,8,0:0:0:0:
256,192,159420,1,0,0:0:0:0:
256,192,159520,1,0,0:0:0:0:
256,192,159620,1,8,0:0:0:0:
256,192,159670,1,0,0:0:0:0:
256,192,159720,1,0,0:0:0:0:
256,192,159820,1,0,0:0:0:0:
256,192,159920,1,8,0:0:0:0:
256,192,159970,1,8,0:0:0:0:
256,192,160020,1,0,0:0:0:0:
256,192,160070,1,0,0:0:0:0:
256,192,160120,1,0,0:0:0:0:
256,192,160170,1,0,0:0:0:0:
256,192,160220,1,8,0:0:0:0:
256,192,160420,1,8,0:0:0:0:
256,192,160470,1,8,0:0:0:0:
256,192,160520,1,8,0:0:0:0:
256,192,160570,1,8,0:0:0:0:
256,192,160620,1,4,0:0:0:0:
256,192,160720,1,0,0:0:0:0:
256,192,160820,1,8,0:0:0:0:
256,192,160920,1,0,0:0:0:0:
256,192,161020,1,0,0:0:0:0:
256,192,161220,1,8,0:0:0:0:
256,192,161320,1,0,0:0:0:0:
256,192,161420,1,0,0:0:0:0:
256,192,161520,1,0,0:0:0:0:
256,192,161620,1,8,0:0:0:0:
256,192,161720,1,0,0:0:0:0:
256,192,161820,1,0,0:0:0:0:
256,192,162020,1,8,0:0:0:0:
256,192,162120,1,8,0:0:0:0:
256,192,162170,1,8,0:0:0:0:
256,192,162220,1,0,0:0:0:0:
256,192,162253,1,0,0:0:0:0:
256,192,162286,1,0,0:0:0:0:
256,192,162320,1,0,0:0:0:0:
256,192,162420,1,8,0:0:0:0:
256,192,162520,1,0,0:0:0:0:
256,192,162570,1,0,0:0:0:0:
256,192,162620,1,0,0:0:0:0:
256,192,162720,1,8,0:0:0:0:
256,192,162820,1,0,0:0:0:0:
256,192,162920,1,0,0:0:0:0:
256,192,163020,1,0,0:0:0:0:
256,192,163120,1,0,0:0:0:0:
256,192,163220,1,8,0:0:0:0:
256,192,163320,1,0,0:0:0:0:
256,192,163420,1,0,0:0:0:0:
256,192,163620,1,8,0:0:0:0:
256,192,163820,1,4,0:0:0:0:
256,192,163920,1,0,0:0:0:0:
256,192,164020,1,8,0:0:0:0:
256,192,164120,1,0,0:0:0:0:
256,192,164220,1,0,0:0:0:0:
256,192,164420,1,8,0:0:0:0:
256,192,164620,1,0,0:0:0:0:
256,192,164720,1,8,0:0:0:0:
256,192,164820,1,8,0:0:0:0:
256,192,164870,1,8,0:0:0:0:
256,192,164920,1,8,0:0:0:0:
256,192,164970,1,8,0:0:0:0:
256,192,165020,1,0,0:0:0:0:
256,192,165120,1,8,0:0:0:0:
256,192,165170,1,8,0:0:0:0:
256,192,165220,1,0,0:0:0:0:
256,192,165253,1,0,0:0:0:0:
256,192,165286,1,0,0:0:0:0:
256,192,165320,1,0,0:0:0:0:
256,192,165420,1,8,0:0:0:0:
256,192,165520,1,8,0:0:0:0:
256,192,165570,1,0,0:0:0:0:
256,192,165620,1,8,0:0:0:0:
256,192,165720,1,8,0:0:0:0:
256,192,165820,1,0,0:0:0:0:
256,192,166020,1,8,0:0:0:0:
256,192,166120,1,0,0:0:0:0:
256,192,166320,1,0,0:0:0:0:
256,192,166420,1,0,0:0:0:0:
256,192,166520,1,8,0:0:0:0:
256,192,166570,1,8,0:0:0:0:
256,192,166620,1,0,0:0:0:0:
256,192,166720,1,0,0:0:0:0:
256,192,166820,1,8,0:0:0:0:
256,192,166870,1,8,0:0:0:0:
256,192,166920,1,8,0:0:0:0:
256,192,166970,1,8,0:0:0:0:
256,192,167020,1,4,0:0:0:0:
256,192,167120,1,0,0:0:0:0:
256,192,167220,1,8,0:0:0:0:
256,192,167320,1,0,0:0:0:0:
256,192,167420,1,0,0:0:0:0:
256,192,167620,1,0,0:0:0:0:
256,192,167820,1,0,0:0:0:0:
256,192,167920,1,8,0:0:0:0:
256,192,168020,1,0,0:0:0:0:
256,192,168070,1,0,0:0:0:0:
256,192,168120,1,8,0:0:0:0:
256,192,168220,1,0,0:0:0:0:
256,192,168420,1,0,0:0:0:0:
256,192,168620,1,8,0:0:0:0:
256,192,168670,1,0,0:0:0:0:
256,192,168720,1,8,0:0:0:0:
256,192,168770,1,8,0:0:0:0:
256,192,168820,1,0,0:0:0:0:
256,192,168920,1,8,0:0:0:0:
256,192,168970,1,8,0:0:0:0:
256,192,169020,1,0,0:0:0:0:
256,192,169220,1,0,0:0:0:0:
256,192,169420,1,0,0:0:0:0:
256,192,169520,1,8,0:0:0:0:
256,192,169620,1,0,0:0:0:0:
256,192,169720,1,8,0:0:0:0:
256,192,169820,1,0,0:0:0:0:
256,192,170020,1,0,0:0:0:0:
256,192,170220,1,8,0:0:0:0:
256,192,170270,1,8,0:0:0:0:
256,192,170320,1,8,0:0:0:0:
256,192,170370,1,8,0:0:0:0:
256,192,170420,1,0,0:0:0:0:
256,192,170470,1,0,0:0:0:0:
256,192,170520,1,8,0:0:0:0:
256,192,170570,1,8,0:0:0:0:
256,192,170620,1,0,0:0:0:0:
256,192,170820,1,0,0:0:0:0:
256,192,171020,1,8,0:0:0:0:
256,192,171070,1,8,0:0:0:0:
256,192,171120,1,0,0:0:0:0:
256,192,171220,1,0,0:0:0:0:
256,192,171320,1,0,0:0:0:0:
256,192,171420,1,8,0:0:0:0:
256,192,171453,1,8,0:0:0:0:
256,192,171486,1,8,0:0:0:0:
256,192,171520,1,0,0:0:0:0:
256,192,171620,1,8,0:0:0:0:
256,192,171670,1,8,0:0:0:0:
256,192,171720,1,8,0:0:0:0:
256,192,171770,1,8,0:0:0:0:
256,192,171820,1,0,0:0:0:0:
256,192,171920,1,0,0:0:0:0:
256,192,172020,1,0,0:0:0:0:
256,192,172120,1,8,0:0:0:0:
256,192,172220,1,0,0:0:0:0:
256,192,172420,1,0,0:0:0:0:
256,192,172620,1,0,0:0:0:0:
256,192,172720,1,8,0:0:0:0:
256,192,172770,1,8,0:0:0:0:
256,192,172820,1,0,0:0:0:0:
256,192,172920,1,8,0:0:0:0:
256,192,173020,1,0,0:0:0:0:
256,192,173120,1,8,0:0:0:0:
256,192,173170,1,8,0:0:0:0:
256,192,173220,1,0,0:0:0:0:
256,192,173270,1,0,0:0:0:0:
256,192,173320,1,8,0:0:0:0:
256,192,173420,1,4,0:0:0:0:
256,192,173520,12,0,174920,0:0:0:0:
224,128,175020,6,0,L|128:128,11,70
256,192,176220,1,0,0:0:0:0:
256,192,176420,1,0,0:0:0:0:
256,192,176620,5,4,0:0:0:0:
256,192,177020,1,8,0:0:0:0:
256,192,177420,1,8,0:0:0:0:
256,192,177520,1,8,0:0:0:0:
256,192,177620,1,8,0:0:0:0:
256,192,177720,1,8,0:0:0:0:
256,192,177820,1,8,0:0:0:0:
256,192,178020,1,8,0:0:0:0:
256,192,178120,1,8,0:0:0:0:
256,192,178220,1,8,0:0:0:0:
256,192,178620,1,8,0:0:0:0:
256,192,179020,1,8,0:0:0:0:
256,192,179420,1,8,0:0:0:0:
256,192,179820,1,4,0:0:0:0:
256,192,180220,1,8,0:0:0:0:
256,192,180620,1,8,0:0:0:0:
256,192,181020,1,8,0:0:0:0:
256,192,181420,1,8,0:0:0:0:
256,192,181820,1,8,0:0:0:0:
256,192,182220,1,8,0:0:0:0:
256,192,182620,1,8,0:0:0:0:
256,192,183020,1,4,0:0:0:0:
256,192,183120,1,4,0:0:0:0:
256,192,183220,1,12,0:0:0:0:
256,192,183420,1,12,0:0:0:0:
256,192,183520,1,4,0:0:0:0:
256,192,183620,1,12,0:0:0:0:
256,192,183820,1,4,0:0:0:0:
256,192,183920,1,12,0:0:0:0:
256,192,184020,1,12,0:0:0:0:
256,192,184120,1,4,0:0:0:0:
256,192,184220,1,12,0:0:0:0:
256,192,184420,1,12,0:0:0:0:
256,192,184520,1,12,0:0:0:0:
256,192,184620,1,4,0:0:0:0:
256,192,184720,1,4,0:0:0:0:
256,192,184820,1,12,0:0:0:0:
256,192,185020,1,12,0:0:0:0:
256,192,185120,1,4,0:0:0:0:
256,192,185220,1,12,0:0:0:0:
256,192,185420,1,4,0:0:0:0:
256,192,185520,1,12,0:0:0:0:
256,192,185620,1,12,0:0:0:0:
256,192,185720,1,4,0:0:0:0:
256,192,185820,1,12,0:0:0:0:
256,192,186020,1,12,0:0:0:0:
256,192,186120,1,12,0:0:0:0:
256,192,186220,1,4,0:0:0:0:
256,192,186320,1,4,0:0:0:0:
256,192,186420,1,12,0:0:0:0:
256,192,186620,1,12,0:0:0:0:
256,192,186720,1,4,0:0:0:0:
256,192,186820,1,12,0:0:0:0:
256,192,187020,1,4,0:0:0:0:
256,192,187120,1,12,0:0:0:0:
256,192,187220,1,12,0:0:0:0:
256,192,187320,1,4,0:0:0:0:
256,192,187420,1,12,0:0:0:0:
256,192,187620,1,12,0:0:0:0:
256,192,187720,1,12,0:0:0:0:
256,192,187820,1,4,0:0:0:0:
256,192,187920,1,4,0:0:0:0:
256,192,188020,1,12,0:0:0:0:
256,192,188220,1,12,0:0:0:0:
256,192,188320,1,4,0:0:0:0:
256,192,188420,1,12,0:0:0:0:
256,192,188620,1,4,0:0:0:0:
256,192,188720,1,12,0:0:0:0:
256,192,188820,1,12,0:0:0:0:
256,192,188920,1,4,0:0:0:0:
256,192,189020,1,12,0:0:0:0:
256,192,189220,1,12,0:0:0:0:
256,192,189320,1,12,0:0:0:0:
256,192,189420,12,0,191620,0:0:0:0:
256,192,191820,5,8,0:0:0:0:
256,192,191920,1,8,0:0:0:0:
256,192,192020,1,8,0:0:0:0:
256,192,192120,1,8,0:0:0:0:
256,192,192220,1,0,0:0:0:0:
256,192,192320,1,0,0:0:0:0:
256,192,192420,1,0,0:0:0:0:
256,192,192520,1,0,0:0:0:0:
256,192,192620,1,4,0:0:0:0:
256,192,193020,1,8,0:0:0:0:
256,192,193220,1,8,0:0:0:0:
256,192,193420,1,4,0:0:0:0:
256,192,193820,1,0,0:0:0:0:
256,192,194020,1,8,0:0:0:0:
256,192,194220,1,12,0:0:0:0:
256,192,194420,1,0,0:0:0:0:
256,192,194470,1,0,0:0:0:0:
256,192,194520,1,0,0:0:0:0:
256,192,194570,1,0,0:0:0:0:
256,192,194620,1,8,0:0:0:0:
256,192,194720,1,0,0:0:0:0:
256,192,194820,1,8,0:0:0:0:
256,192,194870,1,8,0:0:0:0:
256,192,194920,1,8,0:0:0:0:
256,192,194970,1,8,0:0:0:0:
256,192,195020,1,0,0:0:0:0:
256,192,195120,1,0,0:0:0:0:
256,192,195320,1,8,0:0:0:0:
256,192,195370,1,8,0:0:0:0:
256,192,195420,1,0,0:0:0:0:
256,192,195520,1,0,0:0:0:0:
256,192,195620,1,8,0:0:0:0:
256,192,195720,1,0,0:0:0:0:
256,192,195820,1,8,0:0:0:0:
256,192,195870,1,0,0:0:0:0:
256,192,195920,1,0,0:0:0:0:
256,192,195970,1,0,0:0:0:0:
256,192,196020,1,8,0:0:0:0:
256,192,196120,1,0,0:0:0:0:
256,192,196170,1,0,0:0:0:0:
256,192,196220,1,8,0:0:0:0:
256,192,196320,1,8,0:0:0:0:
256,192,196420,1,0,0:0:0:0:
256,192,196520,1,0,0:0:0:0:
256,192,196620,1,0,0:0:0:0:
256,192,196670,1,0,0:0:0:0:
256,192,196720,1,8,0:0:0:0:
256,192,196820,1,8,0:0:0:0:
256,192,196920,1,8,0:0:0:0:
256,192,196970,1,8,0:0:0:0:
256,192,197020,1,0,0:0:0:0:
256,192,197220,1,0,0:0:0:0:
256,192,197320,1,0,0:0:0:0:
256,192,197420,1,12,0:0:0:0:
256,192,197520,1,8,0:0:0:0:
256,192,197620,1,0,0:0:0:0:
256,192,197670,1,0,0:0:0:0:
256,192,197720,1,8,0:0:0:0:
256,192,197770,1,8,0:0:0:0:
256,192,197820,1,0,0:0:0:0:
256,192,197920,1,8,0:0:0:0:
256,192,197970,1,8,0:0:0:0:
256,192,198020,1,8,0:0:0:0:
256,192,198070,1,8,0:0:0:0:
256,192,198120,1,0,0:0:0:0:
256,192,198170,1,8,0:0:0:0:
256,192,198220,1,0,0:0:0:0:
256,192,198320,1,0,0:0:0:0:
256,192,198420,1,8,0:0:0:0:
256,192,198520,1,0,0:0:0:0:
256,192,198620,1,0,0:0:0:0:
256,192,198720,1,0,0:0:0:0:
256,192,198920,1,0,0:0:0:0:
256,192,199020,1,0,0:0:0:0:
256,192,199070,1,0,0:0:0:0:
256,192,199120,1,0,0:0:0:0:
256,192,199170,1,0,0:0:0:0:
256,192,199220,1,8,0:0:0:0:
256,192,199320,1,0,0:0:0:0:
256,192,199370,1,0,0:0:0:0:
256,192,199420,1,8,0:0:0:0:
256,192,199520,1,8,0:0:0:0:
256,192,199620,1,0,0:0:0:0:
256,192,199720,1,0,0:0:0:0:
256,192,199820,1,8,0:0:0:0:
256,192,199870,1,8,0:0:0:0:
256,192,199920,1,8,0:0:0:0:
256,192,199970,1,8,0:0:0:0:
256,192,200020,1,0,0:0:0:0:
256,192,200120,1,0,0:0:0:0:
256,192,200220,1,8,0:0:0:0:
256,192,200270,1,8,0:0:0:0:
256,192,200320,1,0,0:0:0:0:
256,192,200420,1,0,0:0:0:0:
256,192,200520,1,0,0:0:0:0:
256,192,200620,1,12,0:0:0:0:
256,192,200820,1,8,0:0:0:0:
256,192,200870,1,8,0:0:0:0:
256,192,200920,1,8,0:0:0:0:
256,192,201020,1,0,0:0:0:0:
256,192,201120,1,0,0:0:0:0:
256,192,201220,1,8,0:0:0:0:
256,192,201270,1,8,0:0:0:0:
256,192,201320,1,8,0:0:0:0:
256,192,201370,1,8,0:0:0:0:
256,192,201420,1,0,0:0:0:0:
256,192,201520,1,0,0:0:0:0:
256,192,201720,1,8,0:0:0:0:
256,192,201770,1,8,0:0:0:0:
256,192,201820,1,0,0:0:0:0:
256,192,201920,1,0,0:0:0:0:
256,192,202020,1,8,0:0:0:0:
256,192,202120,1,0,0:0:0:0:
256,192,202220,1,0,0:0:0:0:
256,192,202270,1,8,0:0:0:0:
256,192,202320,1,8,0:0:0:0:
256,192,202370,1,0,0:0:0:0:
256,192,202420,1,8,0:0:0:0:
256,192,202520,1,8,0:0:0:0:
256,192,202570,1,0,0:0:0:0:
256,192,202620,1,8,0:0:0:0:
256,192,202720,1,0,0:0:0:0:
256,192,202820,1,0,0:0:0:0:
256,192,202920,1,8,0:0:0:0:
256,192,203020,1,8,0:0:0:0:
256,192,203070,1,0,0:0:0:0:
256,192,203120,1,0,0:0:0:0:
256,192,203220,1,8,0:0:0:0:
256,192,203320,1,8,0:0:0:0:
256,192,203420,1,0,0:0:0:0:
256,192,203620,1,0,0:0:0:0:
256,192,203720,1,0,0:0:0:0:
256,192,203820,1,12,0:0:0:0:
256,192,204020,1,0,0:0:0:0:
256,192,204070,1,0,0:0:0:0:
256,192,204120,1,8,0:0:0:0:
256,192,204170,1,8,0:0:0:0:
256,192,204220,1,0,0:0:0:0:
256,192,204320,1,8,0:0:0:0:
256,192,204420,1,8,0:0:0:0:
256,192,204520,1,8,0:0:0:0:
256,192,204570,1,8,0:0:0:0:
256,192,204620,1,0,0:0:0:0:
256,192,204720,1,0,0:0:0:0:
256,192,204920,1,0,0:0:0:0:
256,192,205020,1,0,0:0:0:0:
256,192,205120,1,0,0:0:0:0:
256,192,205170,1,8,0:0:0:0:
256,192,205220,1,0,0:0:0:0:
256,192,205320,1,0,0:0:0:0:
256,192,205420,1,8,0:0:0:0:
256,192,205470,1,0,0:0:0:0:
256,192,205520,1,0,0:0:0:0:
256,192,205570,1,0,0:0:0:0:
256,192,205620,1,8,0:0:0:0:
256,192,205720,1,0,0:0:0:0:
256,192,205770,1,0,0:0:0:0:
256,192,205820,1,8,0:0:0:0:
256,192,205920,1,0,0:0:0:0:
256,192,206020,1,0,0:0:0:0:
256,192,206120,1,8,0:0:0:0:
256,192,206220,1,8,0:0:0:0:
256,192,206270,1,8,0:0:0:0:
256,192,206320,1,0,0:0:0:0:
256,192,206370,1,0,0:0:0:0:
256,192,206420,1,8,0:0:0:0:
256,192,206470,1,8,0:0:0:0:
256,192,206520,1,8,0:0:0:0:
256,192,206570,1,0,0:0:0:0:
256,192,206620,1,8,0:0:0:0:
256,192,206653,1,0,0:0:0:0:
256,192,206686,1,0,0:0:0:0:
256,192,206720,1,0,0:0:0:0:
256,192,206820,1,8,0:0:0:0:
256,192,206920,1,8,0:0:0:0:
256,192,207020,1,12,0:0:0:0:
256,192,207220,1,8,0:0:0:0:
256,192,207420,1,0,0:0:0:0:
256,192,207620,1,8,0:0:0:0:
256,192,207820,1,0,0:0:0:0:
256,192,207920,1,0,0:0:0:0:
256,192,208020,1,8,0:0:0:0:
256,192,208120,1,0,0:0:0:0:
256,192,208220,1,0,0:0:0:0:
256,192,208420,1,8,0:0:0:0:
256,192,208620,1,0,0:0:0:0:
256,192,208820,1,8,0:0:0:0:
256,192,209020,1,0,0:0:0:0:
256,192,209220,1,8,0:0:0:0:
256,192,209420,1,0,0:0:0:0:
256,192,209520,1,8,0:0:0:0:
256,192,209570,1,8,0:0:0:0:
256,192,209620,1,0,0:0:0:0:
256,192,209720,1,0,0:0:0:0:
256,192,209820,1,0,0:0:0:0:
256,192,210020,1,0,0:0:0:0:
256,192,210070,1,0,0:0:0:0:
256,192,210120,1,0,0:0:0:0:
256,192,210170,1,0,0:0:0:0:
256,192,210220,1,8,0:0:0:0:
256,192,210320,1,8,0:0:0:0:
256,192,210353,1,0,0:0:0:0:
256,192,210386,1,0,0:0:0:0:
256,192,210420,1,8,0:0:0:0:
256,192,210520,1,8,0:0:0:0:
256,192,210620,1,0,0:0:0:0:
256,192,210720,1,0,0:0:0:0:
256,192,210820,1,0,0:0:0:0:
256,192,210920,1,0,0:0:0:0:
256,192,211020,1,0,0:0:0:0:
256,192,211120,1,0,0:0:0:0:
256,192,211220,1,8,0:0:0:0:
256,192,211320,1,8,0:0:0:0:
256,192,211420,1,0,0:0:0:0:
256,192,211620,1,0,0:0:0:0:
256,192,211820,1,0,0:0:0:0:
256,192,212020,1,0,0:0:0:0:
256,192,212120,1,8,0:0:0:0:
256,192,212220,1,0,0:0:0:0:
256,192,212420,1,8,0:0:0:0:
256,192,212470,1,8,0:0:0:0:
256,192,212520,1,8,0:0:0:0:
256,192,212570,1,8,0:0:0:0:
256,192,212620,1,0,0:0:0:0:
256,192,212670,1,0,0:0:0:0:
256,192,212720,1,0,0:0:0:0:
256,192,212770,1,0,0:0:0:0:
256,192,212820,1,8,0:0:0:0:
256,192,212920,1,0,0:0:0:0:
256,192,213020,1,8,0:0:0:0:
256,192,213220,1,8,0:0:0:0:
256,192,213320,1,8,0:0:0:0:
256,192,213420,1,12,0:0:0:0:
256,192,213620,1,8,0:0:0:0:
256,192,213820,1,0,0:0:0:0:
256,192,214020,1,8,0:0:0:0:
256,192,214220,1,0,0:0:0:0:
256,192,214320,1,0,0:0:0:0:
256,192,214420,1,8,0:0:0:0:
256,192,214520,1,0,0:0:0:0:
256,192,214620,1,0,0:0:0:0:
256,192,214720,1,8,0:0:0:0:
256,192,214820,1,8,0:0:0:0:
256,192,214920,1,8,0:0:0:0:
256,192,215020,1,0,0:0:0:0:
256,192,215120,1,8,0:0:0:0:
256,192,215220,1,8,0:0:0:0:
256,192,215420,1,0,0:0:0:0:
256,192,215520,1,8,0:0:0:0:
256,192,215620,1,8,0:0:0:0:
256,192,215820,1,0,0:0:0:0:
256,192,215920,1,8,0:0:0:0:
256,192,215970,1,8,0:0:0:0:
256,192,216020,1,0,0:0:0:0:
256,192,216120,1,8,0:0:0:0:
256,192,216170,1,8,0:0:0:0:
256,192,216220,1,0,0:0:0:0:
256,192,216420,1,8,0:0:0:0:
256,192,216470,1,8,0:0:0:0:
256,192,216520,1,8,0:0:0:0:
256,192,216570,1,8,0:0:0:0:
256,192,216620,1,4,0:0:0:0:
256,192,216820,1,8,0:0:0:0:
256,192,217020,1,0,0:0:0:0:
256,192,217220,1,8,0:0:0:0:
256,192,217420,1,0,0:0:0:0:
256,192,217520,1,0,0:0:0:0:
256,192,217620,1,8,0:0:0:0:
256,192,217720,1,0,0:0:0:0:
256,192,217820,1,0,0:0:0:0:
256,192,217870,1,0,0:0:0:0:
256,192,217920,1,0,0:0:0:0:
256,192,218020,1,8,0:0:0:0:
256,192,218053,1,8,0:0:0:0:
256,192,218086,1,8,0:0:0:0:
256,192,218120,1,0,0:0:0:0:
256,192,218220,1,4,0:0:0:0:
256,192,218620,1,4,0:0:0:0:
256,192,219020,1,4,0:0:0:0:
256,192,219220,1,4,0:0:0:0:
256,192,219420,1,4,0:0:0:0:
256,192,219520,1,4,0:0:0:0:
256,192,219620,1,12,0:0:0:0:
256,192,219720,1,12,0:0:0:0:
256,192,219820,1,12,0:0:0:0:
256,192,219920,1,4,0:0:0:0:
256,192,220020,1,12,0:0:0:0:
84,104,220032,2,0,L|256:1,1,1.1
88,44,220120,2,0,L|256:1,1,1.1
256,192,220220,1,4,0:0:0:0:
256,192,220320,1,4,0:0:0:0:
256,192,220420,1,12,0:0:0:0:
164,60,220432,2,0,L|256:1,1,1.1
208,40,220520,2,0,L|256:1,1,1.1
256,192,220620,1,4,0:0:0:0:
256,192,220720,1,4,0:0:0:0:
256,192,220820,1,4,0:0:0:0:
256,192,220920,1,4,0:0:0:0:
256,192,221020,1,4,0:0:0:0:
256,192,221220,1,12,0:0:0:0:
64,72,221232,2,0,L|256:1,1,1.1
72,72,221320,2,0,L|256:1,1,1.1
256,192,221420,1,4,0:0:0:0:
256,192,221520,1,4,0:0:0:0:
256,192,221620,1,12,0:0:0:0:
36,144,221632,2,0,L|256:1,1,1.1
52,132,221720,2,0,L|256:1,1,1.1
256,192,221820,1,4,0:0:0:0:
256,192,221920,1,4,0:0:0:0:
256,192,222020,1,12,0:0:0:0:
104,96,222032,2,0,L|256:1,1,1.1
144,64,222120,2,0,L|256:1,1,1.1
256,192,222220,1,4,0:0:0:0:
256,192,222320,1,4,0:0:0:0:
256,192,222420,1,4,0:0:0:0:
256,192,222520,1,4,0:0:0:0:
256,192,222620,1,4,0:0:0:0:
256,192,222820,1,12,0:0:0:0:
76,80,222832,2,0,L|256:1,1,1.1
124,60,222920,2,0,L|256:1,1,1.1
256,192,223020,1,12,0:0:0:0:
256,192,223120,1,4,0:0:0:0:
256,192,223220,1,4,0:0:0:0:
20,112,223232,2,0,L|256:1,1,1.1
76,128,223320,2,0,L|256:1,1,1.1
256,192,223420,1,4,0:0:0:0:
256,192,223520,1,4,0:0:0:0:
256,192,223620,1,4,0:0:0:0:
32,52,223632,2,0,L|256:1,1,1.1
39,48,223720,2,0,L|256:1,1,1.1
256,192,223820,1,4,0:0:0:0:
256,192,223920,1,4,0:0:0:0:
256,192,224020,1,4,0:0:0:0:
256,192,224120,1,4,0:0:0:0:
256,192,224220,1,4,0:0:0:0:
256,192,224420,1,12,0:0:0:0:
88,44,224432,2,0,L|256:1,1,1.1
36,76,224520,2,0,L|256:1,1,1.1
256,192,224620,1,4,0:0:0:0:
256,192,224720,1,4,0:0:0:0:
256,192,224820,1,12,0:0:0:0:
80,128,224832,2,0,L|256:1,1,1.1
116,68,224920,2,0,L|256:1,1,1.1
256,192,225020,1,4,0:0:0:0:
256,192,225120,1,4,0:0:0:0:
256,192,225220,1,12,0:0:0:0:
24,80,225232,2,0,L|256:1,1,1.1
64,68,225320,2,0,L|256:1,1,1.1
256,192,225420,1,4,0:0:0:0:
256,192,225520,1,4,0:0:0:0:
256,192,225620,1,4,0:0:0:0:
256,192,225720,1,4,0:0:0:0:
256,192,225820,1,4,0:0:0:0:
256,192,226020,1,12,0:0:0:0:
120,76,226032,2,0,L|256:1,1,1.1
48,40,226120,2,0,L|256:1,1,1.1
256,192,226220,1,12,0:0:0:0:
256,192,226320,1,4,0:0:0:0:
256,192,226420,1,12,0:0:0:0:
48,128,226432,2,0,L|256:1,1,1.1
100,136,226520,2,0,L|256:1,1,1.1
256,192,226620,1,12,0:0:0:0:
256,192,226720,1,4,0:0:0:0:
256,192,226820,1,12,0:0:0:0:
116,64,226832,2,0,L|256:1,1,1.1
64,76,226920,2,0,L|256:1,1,1.1
256,192,227020,1,12,0:0:0:0:
256,192,227120,1,12,0:0:0:0:
256,192,227220,1,12,0:0:0:0:
256,192,227320,1,4,0:0:0:0:
256,192,227420,1,12,0:0:0:0:
256,192,227620,1,4,0:0:0:0:
104,80,227632,2,0,L|256:1,1,1.1
256,192,227720,1,4,0:0:0:0:
132,60,227732,2,0,L|256:1,1,1.1
256,192,227820,1,12,0:0:0:0:
256,192,227920,1,4,0:0:0:0:
256,192,228020,1,12,0:0:0:0:
56,64,228032,2,0,L|256:1,1,1.1
56,80,228120,2,0,L|256:1,1,1.1
256,192,228220,1,12,0:0:0:0:
256,192,228320,1,4,0:0:0:0:
256,192,228420,1,12,0:0:0:0:
64,116,228432,2,0,L|256:1,1,1.1
116,96,228520,2,0,L|256:1,1,1.1
256,192,228620,1,12,0:0:0:0:
256,192,228720,1,12,0:0:0:0:
256,192,228820,1,12,0:0:0:0:
256,192,228920,1,4,0:0:0:0:
256,192,229020,1,12,0:0:0:0:
256,192,229220,1,4,0:0:0:0:
40,80,229232,2,0,L|256:1,1,1.1
256,192,229320,1,4,0:0:0:0:
28,136,229332,2,0,L|256:1,1,1.1
256,192,229420,1,12,0:0:0:0:
256,192,229520,1,4,0:0:0:0:
256,192,229620,1,12,0:0:0:0:
112,88,229632,2,0,L|256:1,1,1.1
160,76,229720,2,0,L|256:1,1,1.1
256,192,229820,1,12,0:0:0:0:
256,192,229920,1,4,0:0:0:0:
256,192,230020,1,12,0:0:0:0:
60,60,230032,2,0,L|256:1,1,1.1
84,104,230120,2,0,L|256:1,1,1.1
256,192,230220,1,12,0:0:0:0:
256,192,230320,1,12,0:0:0:0:
256,192,230420,1,12,0:0:0:0:
256,192,230520,1,4,0:0:0:0:
256,192,230620,1,12,0:0:0:0:
256,192,230820,1,4,0:0:0:0:
72,88,230832,2,0,L|256:1,1,1.1
256,192,230920,1,4,0:0:0:0:
120,140,230932,2,0,L|256:1,1,1.1
256,192,231020,1,12,0:0:0:0:
256,192,231120,1,4,0:0:0:0:
256,192,231220,1,12,0:0:0:0:
112,144,231232,2,0,L|256:1,1,1.1
144,64,231320,2,0,L|256:1,1,1.1
256,192,231420,1,12,0:0:0:0:
256,192,231520,1,4,0:0:0:0:
256,192,231620,1,12,0:0:0:0:
56,128,231632,2,0,L|256:1,1,1.1
56,188,231720,2,0,L|256:1,1,1.1
256,192,231820,1,12,0:0:0:0:
256,192,231920,1,12,0:0:0:0:
256,192,232020,1,12,0:0:0:0:
256,192,232120,1,4,0:0:0:0:
256,192,232220,1,12,0:0:0:0:
256,192,232420,1,12,0:0:0:0:
