osu file format v14

[General]
AudioFilename: IOSYS - Bow Down, You Ignorant Fools!.mp3
AudioLeadIn: 0
PreviewTime: 64620
Countdown: 1
SampleSet: None
StackLeniency: 0.7
Mode: 3
LetterboxInBreaks: 0
SpecialStyle: 0
WidescreenStoryboard: 0

[Editor]
DistanceSpacing: 0.8
BeatDivisor: 8
GridSize: 4
TimelineZoom: 2.1

[Metadata]
Title:Bow Down, You Ignorant Fools! -The Princess' Insane All Night Hourai Live-
TitleUnicode:Bow Down, You Ignorant Fools! -The Princess' Insane All Night Hourai Live-
Artist:IOSYS
ArtistUnicode:IOSYS
Creator:Xay
Version:\HIMESAMA/
Source:東方永夜抄 ~ Imperishable Night
Tags:speedcore touhou toho 東方 stepmania -anhedonia- kazukisinx kazu mew mew104
BeatmapID:1000026
BeatmapSetID:467385

[Difficulty]
HPDrainRate:8
CircleSize:4
OverallDifficulty:8
ApproachRate:5
SliderMultiplier:1.4
SliderTickRate:1

[Events]
//Background and Video events
0,0,"bow_down-bg.jpg",0,0
//Break Periods
//Storyboard Layer 0 (Background)
//Storyboard Layer 1 (Fail)
//Storyboard Layer 2 (Pass)
//Storyboard Layer 3 (Foreground)
//Storyboard Sound Samples

[TimingPoints]
620,400,4,3,0,15,1,0

[HitObjects]
192,192,620,5,0,0:0:0:0:
448,192,670,1,0,0:0:0:0:
320,192,720,1,0,0:0:0:0:
192,192,770,1,0,0:0:0:0:
448,192,820,1,0,0:0:0:0:
320,192,870,1,0,0:0:0:0:
64,192,920,1,0,0:0:0:0:
448,192,970,1,0,0:0:0:0:
320,192,1020,1,0,0:0:0:0:
192,192,1070,1,0,0:0:0:0:
64,192,1120,1,0,0:0:0:0:
448,192,1170,1,0,0:0:0:0:
320,192,1220,1,0,0:0:0:0:
192,192,1270,1,0,0:0:0:0:
448,192,1320,1,0,0:0:0:0:
320,192,1370,1,0,0:0:0:0:
64,192,1420,1,0,0:0:0:0:
448,192,1520,1,0,0:0:0:0:
320,192,1545,1,0,0:0:0:0:
192,192,1570,1,0,0:0:0:0:
64,192,1595,1,0,0:0:0:0:
448,192,1720,1,0,0:0:0:0:
320,192,1745,1,0,0:0:0:0:
64,192,1770,1,0,0:0:0:0:
192,192,1795,1,0,0:0:0:0:
448,192,1920,1,0,0:0:0:0:
320,192,1945,1,0,0:0:0:0:
192,192,1970,1,0,0:0:0:0:
64,192,1995,1,0,0:0:0:0:
320,192,2020,1,0,0:0:0:0:
448,192,2020,1,0,0:0:0:0:
320,192,2120,1,0,0:0:0:0:
448,192,2120,1,0,0:0:0:0:
192,192,2220,1,0,0:0:0:0:
64,192,2270,1,0,0:0:0:0:
192,192,2320,1,0,0:0:0:0:
320,192,2370,1,0,0:0:0:0:
448,192,2420,1,0,0:0:0:0:
192,192,2470,1,0,0:0:0:0:
64,192,2520,1,0,0:0:0:0:
320,192,2570,1,0,0:0:0:0:
448,192,2620,1,0,0:0:0:0:
64,192,2670,1,0,0:0:0:0:
192,192,2720,1,0,0:0:0:0:
320,192,2770,1,0,0:0:0:0:
448,192,2820,1,0,0:0:0:0:
192,192,2870,1,0,0:0:0:0:
320,192,2920,1,0,0:0:0:0:
448,192,2970,1,0,0:0:0:0:
64,192,3020,1,0,0:0:0:0:
192,192,3020,1,0,0:0:0:0:
448,192,3120,1,0,0:0:0:0:
320,192,3145,1,0,0:0:0:0:
192,192,3170,1,0,0:0:0:0:
64,192,3195,1,0,0:0:0:0:
448,192,3220,1,0,0:0:0:0:
320,192,3245,1,0,0:0:0:0:
192,192,3270,1,0,0:0:0:0:
64,192,3295,1,0,0:0:0:0:
320,192,3320,1,0,0:0:0:0:
448,192,3320,1,0,0:0:0:0:
320,192,3420,1,0,0:0:0:0:
448,192,3420,1,0,0:0:0:0:
320,192,3620,1,0,0:0:0:0:
448,192,3620,1,0,0:0:0:0:
320,192,3720,1,0,0:0:0:0:
448,192,3720,1,0,0:0:0:0:
64,192,3820,1,0,0:0:0:0:
448,192,3870,1,0,0:0:0:0:
320,192,3920,1,0,0:0:0:0:
192,192,3970,1,0,0:0:0:0:
448,192,4020,1,0,0:0:0:0:
192,192,4070,1,0,0:0:0:0:
64,192,4120,1,0,0:0:0:0:
448,192,4170,1,0,0:0:0:0:
320,192,4220,1,0,0:0:0:0:
192,192,4270,1,0,0:0:0:0:
64,192,4320,1,0,0:0:0:0:
448,192,4370,1,0,0:0:0:0:
320,192,4420,1,0,0:0:0:0:
192,192,4470,1,0,0:0:0:0:
320,192,4520,1,0,0:0:0:0:
192,192,4570,1,0,0:0:0:0:
64,192,4620,1,0,0:0:0:0:
320,192,4720,1,0,0:0:0:0:
448,192,4720,1,0,0:0:0:0:
192,192,4820,1,0,0:0:0:0:
320,192,4920,1,0,0:0:0:0:
448,192,4920,1,0,0:0:0:0:
320,192,5020,1,0,0:0:0:0:
448,192,5020,1,0,0:0:0:0:
320,192,5120,1,0,0:0:0:0:
448,192,5120,1,0,0:0:0:0:
320,192,5320,1,0,0:0:0:0:
448,192,5320,1,0,0:0:0:0:
192,192,5420,1,0,0:0:0:0:
64,192,5470,1,0,0:0:0:0:
192,192,5520,1,0,0:0:0:0:
320,192,5570,1,0,0:0:0:0:
448,192,5620,1,0,0:0:0:0:
64,192,5670,1,0,0:0:0:0:
192,192,5720,1,0,0:0:0:0:
320,192,5770,1,0,0:0:0:0:
448,192,5820,1,0,0:0:0:0:
320,192,5870,1,0,0:0:0:0:
64,192,5920,1,0,0:0:0:0:
192,192,5970,1,0,0:0:0:0:
320,192,6020,1,0,0:0:0:0:
192,192,6070,1,0,0:0:0:0:
320,192,6120,1,0,0:0:0:0:
448,192,6170,1,0,0:0:0:0:
64,0,6220,128,0,6420:1:0:0:0:
320,192,6420,1,0,0:0:0:0:
448,192,6420,1,0,0:0:0:0:
320,192,6520,1,0,0:0:0:0:
448,192,6520,1,0,0:0:0:0:
320,192,6620,1,0,0:0:0:0:
448,192,6620,1,0,0:0:0:0:
320,192,6720,1,0,0:0:0:0:
448,192,6720,1,0,0:0:0:0:
192,0,6820,128,0,6920:1:0:0:0:
320,192,6920,1,0,0:0:0:0:
448,192,6920,1,0,0:0:0:0:
192,192,7020,1,0,0:0:0:0:
448,192,7070,1,0,0:0:0:0:
320,192,7120,1,0,0:0:0:0:
192,192,7170,1,0,0:0:0:0:
448,192,7220,1,0,0:0:0:0:
192,192,7270,1,0,0:0:0:0:
64,192,7320,1,0,0:0:0:0:
448,192,7370,1,0,0:0:0:0:
320,192,7420,1,0,0:0:0:0:
192,192,7470,1,0,0:0:0:0:
64,192,7520,1,0,0:0:0:0:
448,192,7570,1,0,0:0:0:0:
320,192,7620,1,0,0:0:0:0:
192,192,7670,1,0,0:0:0:0:
320,192,7720,1,0,0:0:0:0:
448,192,7770,1,0,0:0:0:0:
64,192,7820,1,0,0:0:0:0:
192,192,7820,1,0,0:0:0:0:
448,192,7920,1,0,0:0:0:0:
320,192,7945,1,0,0:0:0:0:
192,192,7970,1,0,0:0:0:0:
64,192,7995,1,0,0:0:0:0:
448,192,8120,1,0,0:0:0:0:
320,192,8145,1,0,0:0:0:0:
64,192,8170,1,0,0:0:0:0:
192,192,8195,1,0,0:0:0:0:
448,192,8320,1,0,0:0:0:0:
320,192,8345,1,0,0:0:0:0:
192,192,8370,1,0,0:0:0:0:
64,192,8395,1,0,0:0:0:0:
320,192,8420,1,0,0:0:0:0:
448,192,8420,1,0,0:0:0:0:
320,192,8520,1,0,0:0:0:0:
448,192,8520,1,0,0:0:0:0:
192,192,8620,1,0,0:0:0:0:
64,0,8620,128,0,9020:1:0:0:0:
448,192,9020,1,0,0:0:0:0:
320,192,9070,1,0,0:0:0:0:
192,192,9120,1,0,0:0:0:0:
320,192,9170,1,0,0:0:0:0:
192,192,9220,1,0,0:0:0:0:
320,192,9270,1,0,0:0:0:0:
64,192,9320,1,0,0:0:0:0:
320,192,9370,1,0,0:0:0:0:
64,192,9420,1,0,0:0:0:0:
192,192,9420,1,0,0:0:0:0:
448,192,9520,1,0,0:0:0:0:
320,192,9545,1,0,0:0:0:0:
192,192,9570,1,0,0:0:0:0:
64,192,9595,1,0,0:0:0:0:
448,192,9620,1,0,0:0:0:0:
320,192,9645,1,0,0:0:0:0:
192,192,9670,1,0,0:0:0:0:
64,192,9695,1,0,0:0:0:0:
320,192,9720,1,0,0:0:0:0:
448,192,9720,1,0,0:0:0:0:
320,192,9820,1,0,0:0:0:0:
448,192,9820,1,0,0:0:0:0:
320,192,10020,1,0,0:0:0:0:
448,192,10020,1,0,0:0:0:0:
320,192,10120,1,0,0:0:0:0:
448,192,10120,1,0,0:0:0:0:
64,192,10220,1,0,0:0:0:0:
192,192,10220,1,0,0:0:0:0:
448,192,10270,1,0,0:0:0:0:
320,192,10320,1,0,0:0:0:0:
192,192,10370,1,0,0:0:0:0:
64,192,10420,1,0,0:0:0:0:
448,192,10420,1,0,0:0:0:0:
320,192,10470,1,0,0:0:0:0:
192,192,10520,1,0,0:0:0:0:
64,192,10570,1,0,0:0:0:0:
320,192,10620,1,0,0:0:0:0:
448,192,10620,1,0,0:0:0:0:
192,192,10670,1,0,0:0:0:0:
64,192,10720,1,0,0:0:0:0:
320,192,10770,1,0,0:0:0:0:
192,192,10820,1,0,0:0:0:0:
448,192,10820,1,0,0:0:0:0:
320,192,10870,1,0,0:0:0:0:
192,192,10920,1,0,0:0:0:0:
64,192,10970,1,0,0:0:0:0:
192,192,11020,1,0,0:0:0:0:
320,192,11120,1,0,0:0:0:0:
448,192,11120,1,0,0:0:0:0:
192,192,11220,1,0,0:0:0:0:
320,192,11320,1,0,0:0:0:0:
448,192,11320,1,0,0:0:0:0:
320,192,11420,1,0,0:0:0:0:
448,192,11420,1,0,0:0:0:0:
320,192,11520,1,0,0:0:0:0:
448,192,11520,1,0,0:0:0:0:
320,192,11720,1,0,0:0:0:0:
448,192,11720,1,0,0:0:0:0:
192,192,11820,1,0,0:0:0:0:
64,0,11820,128,0,12620:1:0:0:0:
320,192,12620,128,0,12720:0:0:0:0:
64,192,12720,1,0,0:0:0:0:
192,192,12720,1,0,0:0:0:0:
64,192,12820,1,0,0:0:0:0:
192,192,12820,1,0,0:0:0:0:
64,192,12920,1,0,0:0:0:0:
192,192,12920,1,0,0:0:0:0:
320,192,13020,1,0,0:0:0:0:
448,192,13020,1,0,0:0:0:0:
64,192,13070,1,0,0:0:0:0:
192,192,13070,1,0,0:0:0:0:
320,192,13120,1,0,0:0:0:0:
448,192,13120,1,0,0:0:0:0:
448,192,13220,128,0,13320:0:0:0:0:
192,192,13320,1,0,0:0:0:0:
64,192,13420,1,0,0:0:0:0:
192,192,13420,1,0,0:0:0:0:
448,192,13420,1,0,0:0:0:0:
320,192,13470,1,0,0:0:0:0:
192,192,13520,1,0,0:0:0:0:
448,192,13570,1,0,0:0:0:0:
64,192,13620,1,0,0:0:0:0:
320,192,13670,1,0,0:0:0:0:
192,192,13720,1,0,0:0:0:0:
320,192,13770,1,0,0:0:0:0:
64,192,13820,1,0,0:0:0:0:
448,192,13820,1,0,0:0:0:0:
64,192,13920,1,0,0:0:0:0:
320,192,14020,1,0,0:0:0:0:
448,192,14020,1,0,0:0:0:0:
192,192,14070,1,0,0:0:0:0:
320,192,14120,1,0,0:0:0:0:
448,192,14120,1,0,0:0:0:0:
64,192,14170,1,0,0:0:0:0:
192,192,14220,1,0,0:0:0:0:
448,192,14220,1,0,0:0:0:0:
192,192,14320,1,0,0:0:0:0:
320,192,14320,1,0,0:0:0:0:
448,192,14420,1,0,0:0:0:0:
64,192,14520,1,0,0:0:0:0:
192,192,14570,1,0,0:0:0:0:
320,192,14620,1,0,0:0:0:0:
448,192,14620,1,0,0:0:0:0:
64,192,14720,1,0,0:0:0:0:
320,192,14720,1,0,0:0:0:0:
192,192,14820,1,0,0:0:0:0:
320,192,14920,1,0,0:0:0:0:
64,192,15020,1,0,0:0:0:0:
192,192,15020,1,0,0:0:0:0:
320,192,15070,1,0,0:0:0:0:
448,192,15070,1,0,0:0:0:0:
64,192,15120,1,0,0:0:0:0:
192,192,15120,1,0,0:0:0:0:
320,192,15170,1,0,0:0:0:0:
192,192,15220,1,0,0:0:0:0:
320,192,15320,1,0,0:0:0:0:
448,192,15320,1,0,0:0:0:0:
64,192,15370,1,0,0:0:0:0:
192,192,15370,1,0,0:0:0:0:
320,192,15420,1,0,0:0:0:0:
448,192,15420,1,0,0:0:0:0:
192,192,15520,1,0,0:0:0:0:
320,192,15570,1,0,0:0:0:0:
64,192,15620,1,0,0:0:0:0:
448,192,15620,1,0,0:0:0:0:
192,192,15670,1,0,0:0:0:0:
64,192,15720,1,0,0:0:0:0:
320,192,15720,1,0,0:0:0:0:
448,192,15770,1,0,0:0:0:0:
192,192,15820,1,0,0:0:0:0:
320,192,15920,1,0,0:0:0:0:
448,192,15920,1,0,0:0:0:0:
320,192,16020,1,0,0:0:0:0:
448,192,16020,1,0,0:0:0:0:
320,192,16120,1,0,0:0:0:0:
448,192,16120,1,0,0:0:0:0:
192,192,16170,1,0,0:0:0:0:
64,192,16220,1,0,0:0:0:0:
448,192,16320,1,0,0:0:0:0:
320,192,16370,1,0,0:0:0:0:
64,192,16420,1,0,0:0:0:0:
192,192,16420,1,0,0:0:0:0:
448,192,16470,1,0,0:0:0:0:
64,192,16520,1,0,0:0:0:0:
192,192,16520,1,0,0:0:0:0:
64,192,16620,1,0,0:0:0:0:
320,192,16620,1,0,0:0:0:0:
448,192,16620,1,0,0:0:0:0:
448,192,16720,1,0,0:0:0:0:
192,192,16820,1,0,0:0:0:0:
320,0,16820,128,0,16870:1:0:0:0:
192,0,16920,128,0,16970:1:0:0:0:
64,192,17020,1,0,0:0:0:0:
448,192,17020,1,0,0:0:0:0:
64,192,17120,1,0,0:0:0:0:
448,192,17120,1,0,0:0:0:0:
320,0,17170,128,0,17220:1:0:0:0:
192,192,17220,1,0,0:0:0:0:
448,192,17320,1,0,0:0:0:0:
320,192,17370,1,0,0:0:0:0:
64,192,17420,1,0,0:0:0:0:
192,192,17420,1,0,0:0:0:0:
64,192,17520,1,0,0:0:0:0:
192,192,17520,1,0,0:0:0:0:
64,192,17820,1,0,0:0:0:0:
192,192,17820,1,0,0:0:0:0:
320,192,17870,1,0,0:0:0:0:
64,192,17920,1,0,0:0:0:0:
448,192,17920,1,0,0:0:0:0:
192,192,17970,1,0,0:0:0:0:
320,192,18020,1,0,0:0:0:0:
448,192,18070,1,0,0:0:0:0:
64,192,18120,1,0,0:0:0:0:
192,192,18170,1,0,0:0:0:0:
320,192,18220,1,0,0:0:0:0:
448,192,18220,1,0,0:0:0:0:
64,192,18270,1,0,0:0:0:0:
192,192,18270,1,0,0:0:0:0:
320,192,18320,1,0,0:0:0:0:
448,192,18320,1,0,0:0:0:0:
192,192,18370,1,0,0:0:0:0:
320,192,18420,1,0,0:0:0:0:
64,192,18520,1,0,0:0:0:0:
192,192,18520,1,0,0:0:0:0:
320,192,18570,1,0,0:0:0:0:
448,192,18570,1,0,0:0:0:0:
64,192,18620,1,0,0:0:0:0:
192,192,18620,1,0,0:0:0:0:
320,192,18720,1,0,0:0:0:0:
192,192,18770,1,0,0:0:0:0:
320,192,18820,1,0,0:0:0:0:
448,192,18820,1,0,0:0:0:0:
192,192,18870,1,0,0:0:0:0:
320,192,18920,1,0,0:0:0:0:
448,192,18920,1,0,0:0:0:0:
320,192,19020,1,0,0:0:0:0:
448,192,19020,1,0,0:0:0:0:
64,192,19070,1,0,0:0:0:0:
192,192,19120,1,0,0:0:0:0:
320,192,19170,1,0,0:0:0:0:
64,192,19220,1,0,0:0:0:0:
192,192,19220,1,0,0:0:0:0:
448,192,19270,1,0,0:0:0:0:
64,192,19320,1,0,0:0:0:0:
192,192,19320,1,0,0:0:0:0:
320,192,19370,1,0,0:0:0:0:
192,0,19420,128,0,19570:1:0:0:0:
320,192,19620,1,0,0:0:0:0:
448,192,19620,1,0,0:0:0:0:
192,192,19670,1,0,0:0:0:0:
320,192,19720,1,0,0:0:0:0:
448,192,19720,1,0,0:0:0:0:
64,192,19820,1,0,0:0:0:0:
448,192,19820,1,0,0:0:0:0:
192,0,19820,128,0,20020:1:0:0:0:
320,0,20020,128,0,20220:1:0:0:0:
320,192,20320,1,0,0:0:0:0:
448,192,20320,1,0,0:0:0:0:
64,192,20420,1,0,0:0:0:0:
192,192,20420,1,0,0:0:0:0:
448,192,20470,1,0,0:0:0:0:
320,192,20520,1,0,0:0:0:0:
192,192,20570,1,0,0:0:0:0:
64,192,20620,1,0,0:0:0:0:
448,192,20620,1,0,0:0:0:0:
192,192,20720,1,0,0:0:0:0:
320,192,20720,1,0,0:0:0:0:
192,192,20820,1,0,0:0:0:0:
320,192,20920,1,0,0:0:0:0:
192,192,20970,1,0,0:0:0:0:
64,192,21020,1,0,0:0:0:0:
448,192,21020,1,0,0:0:0:0:
192,192,21120,1,0,0:0:0:0:
448,192,21120,1,0,0:0:0:0:
192,192,21220,1,0,0:0:0:0:
320,192,21320,1,0,0:0:0:0:
448,192,21320,1,0,0:0:0:0:
64,192,21420,1,0,0:0:0:0:
192,192,21420,1,0,0:0:0:0:
320,192,21470,1,0,0:0:0:0:
448,192,21470,1,0,0:0:0:0:
64,192,21520,1,0,0:0:0:0:
192,192,21520,1,0,0:0:0:0:
320,192,21570,1,0,0:0:0:0:
192,192,21620,1,0,0:0:0:0:
320,192,21720,1,0,0:0:0:0:
448,192,21720,1,0,0:0:0:0:
64,192,21770,1,0,0:0:0:0:
192,192,21770,1,0,0:0:0:0:
320,192,21820,1,0,0:0:0:0:
448,192,21820,1,0,0:0:0:0:
64,192,21920,1,0,0:0:0:0:
192,192,21920,1,0,0:0:0:0:
320,192,21970,1,0,0:0:0:0:
64,192,22020,1,0,0:0:0:0:
192,192,22020,1,0,0:0:0:0:
320,192,22070,1,0,0:0:0:0:
64,192,22120,1,0,0:0:0:0:
192,192,22120,1,0,0:0:0:0:
320,192,22220,1,0,0:0:0:0:
192,192,22270,1,0,0:0:0:0:
320,192,22320,1,0,0:0:0:0:
448,192,22320,1,0,0:0:0:0:
192,192,22420,1,0,0:0:0:0:
320,192,22420,1,0,0:0:0:0:
64,192,22520,1,0,0:0:0:0:
320,192,22520,1,0,0:0:0:0:
192,192,22570,1,0,0:0:0:0:
448,192,22620,1,0,0:0:0:0:
320,192,22670,1,0,0:0:0:0:
192,192,22720,1,0,0:0:0:0:
64,192,22820,1,0,0:0:0:0:
192,192,22820,1,0,0:0:0:0:
320,192,22870,1,0,0:0:0:0:
64,192,22920,1,0,0:0:0:0:
192,192,22920,1,0,0:0:0:0:
64,192,23020,1,0,0:0:0:0:
320,192,23020,1,0,0:0:0:0:
448,192,23020,1,0,0:0:0:0:
192,0,23220,128,0,23270:1:0:0:0:
320,192,23270,1,0,0:0:0:0:
64,0,23320,128,0,23370:1:0:0:0:
320,192,23370,1,0,0:0:0:0:
448,192,23420,1,0,0:0:0:0:
320,0,23570,128,0,23620:1:0:0:0:
64,192,23620,1,0,0:0:0:0:
448,192,23620,1,0,0:0:0:0:
192,192,23720,1,0,0:0:0:0:
448,192,23720,1,0,0:0:0:0:
320,192,23770,1,0,0:0:0:0:
64,192,23820,1,0,0:0:0:0:
192,192,23920,1,0,0:0:0:0:
320,192,23920,1,0,0:0:0:0:
192,192,24020,1,0,0:0:0:0:
320,192,24020,1,0,0:0:0:0:
320,192,24220,1,0,0:0:0:0:
448,192,24220,1,0,0:0:0:0:
64,192,24270,1,0,0:0:0:0:
320,192,24320,1,0,0:0:0:0:
448,192,24320,1,0,0:0:0:0:
64,192,24370,1,0,0:0:0:0:
192,192,24420,1,0,0:0:0:0:
320,192,24470,1,0,0:0:0:0:
448,192,24520,1,0,0:0:0:0:
64,192,24620,1,0,0:0:0:0:
192,192,24620,1,0,0:0:0:0:
320,192,24670,1,0,0:0:0:0:
448,192,24670,1,0,0:0:0:0:
64,192,24720,1,0,0:0:0:0:
192,192,24720,1,0,0:0:0:0:
320,192,24770,1,0,0:0:0:0:
192,192,24820,1,0,0:0:0:0:
320,192,24920,1,0,0:0:0:0:
448,192,24920,1,0,0:0:0:0:
64,192,24970,1,0,0:0:0:0:
192,192,24970,1,0,0:0:0:0:
320,192,25020,1,0,0:0:0:0:
448,192,25020,1,0,0:0:0:0:
320,192,25120,1,0,0:0:0:0:
64,192,25220,1,0,0:0:0:0:
192,192,25220,1,0,0:0:0:0:
64,192,25320,1,0,0:0:0:0:
192,192,25320,1,0,0:0:0:0:
320,192,25420,1,0,0:0:0:0:
192,192,25470,1,0,0:0:0:0:
448,192,25520,1,0,0:0:0:0:
320,192,25570,1,0,0:0:0:0:
64,192,25620,1,0,0:0:0:0:
448,192,25620,1,0,0:0:0:0:
320,192,25670,1,0,0:0:0:0:
64,192,25720,1,0,0:0:0:0:
192,192,25720,1,0,0:0:0:0:
320,192,25820,1,0,0:0:0:0:
448,0,25820,128,0,26020:1:0:0:0:
320,192,26020,1,0,0:0:0:0:
192,0,26020,128,0,26120:1:0:0:0:
320,192,26120,1,0,0:0:0:0:
448,192,26120,1,0,0:0:0:0:
64,192,26220,1,0,0:0:0:0:
320,192,26220,1,0,0:0:0:0:
448,192,26220,1,0,0:0:0:0:
192,192,26420,1,0,0:0:0:0:
448,192,26420,1,0,0:0:0:0:
64,192,26620,1,0,0:0:0:0:
320,192,26620,1,0,0:0:0:0:
448,192,26620,1,0,0:0:0:0:
192,192,26820,1,0,0:0:0:0:
448,192,26820,1,0,0:0:0:0:
64,192,27020,1,0,0:0:0:0:
320,192,27020,1,0,0:0:0:0:
448,192,27020,1,0,0:0:0:0:
192,192,27220,1,0,0:0:0:0:
448,192,27220,1,0,0:0:0:0:
64,192,27420,1,0,0:0:0:0:
320,192,27420,1,0,0:0:0:0:
448,192,27420,1,0,0:0:0:0:
192,192,27520,1,0,0:0:0:0:
320,192,27620,1,0,0:0:0:0:
448,192,27620,1,0,0:0:0:0:
192,192,27720,1,0,0:0:0:0:
64,192,27820,1,0,0:0:0:0:
320,192,27820,1,0,0:0:0:0:
448,192,27820,1,0,0:0:0:0:
192,192,28020,1,0,0:0:0:0:
448,192,28020,1,0,0:0:0:0:
64,192,28220,1,0,0:0:0:0:
320,192,28220,1,0,0:0:0:0:
448,192,28220,1,0,0:0:0:0:
192,192,28420,1,0,0:0:0:0:
448,192,28420,1,0,0:0:0:0:
64,192,28620,1,0,0:0:0:0:
320,192,28620,1,0,0:0:0:0:
448,192,28620,1,0,0:0:0:0:
64,192,28720,1,0,0:0:0:0:
192,192,28770,1,0,0:0:0:0:
320,192,28820,1,0,0:0:0:0:
448,192,28820,1,0,0:0:0:0:
64,192,28920,1,0,0:0:0:0:
192,192,28970,1,0,0:0:0:0:
320,192,29020,1,0,0:0:0:0:
448,192,29020,1,0,0:0:0:0:
64,192,29120,1,0,0:0:0:0:
192,192,29170,1,0,0:0:0:0:
320,192,29220,1,0,0:0:0:0:
448,192,29220,1,0,0:0:0:0:
64,192,29320,1,0,0:0:0:0:
192,192,29370,1,0,0:0:0:0:
64,192,29420,1,0,0:0:0:0:
320,192,29420,1,0,0:0:0:0:
448,192,29420,1,0,0:0:0:0:
192,192,29620,1,0,0:0:0:0:
448,192,29620,1,0,0:0:0:0:
64,192,29820,1,0,0:0:0:0:
320,192,29820,1,0,0:0:0:0:
448,192,29820,1,0,0:0:0:0:
192,192,30020,1,0,0:0:0:0:
448,192,30020,1,0,0:0:0:0:
64,192,30220,1,0,0:0:0:0:
320,192,30220,1,0,0:0:0:0:
448,192,30220,1,0,0:0:0:0:
192,192,30420,1,0,0:0:0:0:
448,192,30420,1,0,0:0:0:0:
64,192,30620,1,0,0:0:0:0:
320,192,30620,1,0,0:0:0:0:
448,192,30620,1,0,0:0:0:0:
192,192,30720,1,0,0:0:0:0:
64,192,30820,1,0,0:0:0:0:
320,192,30820,1,0,0:0:0:0:
192,192,30920,1,0,0:0:0:0:
64,192,31020,1,0,0:0:0:0:
320,192,31020,1,0,0:0:0:0:
448,192,31020,1,0,0:0:0:0:
192,192,31120,1,0,0:0:0:0:
192,192,31220,1,0,0:0:0:0:
448,192,31220,1,0,0:0:0:0:
320,192,31320,1,0,0:0:0:0:
192,192,31370,1,0,0:0:0:0:
320,192,31420,1,0,0:0:0:0:
448,192,31420,1,0,0:0:0:0:
320,192,31520,1,0,0:0:0:0:
448,192,31520,1,0,0:0:0:0:
192,192,31620,1,0,0:0:0:0:
320,192,31720,1,0,0:0:0:0:
448,192,31720,1,0,0:0:0:0:
192,192,31820,1,0,0:0:0:0:
64,192,31870,1,0,0:0:0:0:
320,192,31920,1,0,0:0:0:0:
192,192,31970,1,0,0:0:0:0:
448,192,32120,1,0,0:0:0:0:
320,192,32170,1,0,0:0:0:0:
64,192,32220,1,0,0:0:0:0:
192,192,32220,1,0,0:0:0:0:
320,192,32320,1,0,0:0:0:0:
448,192,32320,1,0,0:0:0:0:
64,192,32420,1,0,0:0:0:0:
192,192,32420,1,0,0:0:0:0:
320,192,32520,1,0,0:0:0:0:
448,192,32520,1,0,0:0:0:0:
64,192,32620,1,0,0:0:0:0:
320,192,32620,1,0,0:0:0:0:
448,192,32620,1,0,0:0:0:0:
192,192,32820,1,0,0:0:0:0:
448,192,32820,1,0,0:0:0:0:
64,192,33020,1,0,0:0:0:0:
320,192,33020,1,0,0:0:0:0:
448,192,33020,1,0,0:0:0:0:
192,192,33220,1,0,0:0:0:0:
448,192,33220,1,0,0:0:0:0:
64,192,33420,1,0,0:0:0:0:
320,192,33420,1,0,0:0:0:0:
448,192,33420,1,0,0:0:0:0:
448,192,33620,1,0,0:0:0:0:
192,192,33620,128,0,33820:0:0:0:0:
64,192,33820,1,0,0:0:0:0:
320,192,33820,1,0,0:0:0:0:
448,192,33820,1,0,0:0:0:0:
192,192,33920,1,0,0:0:0:0:
448,192,33986,128,0,34086:0:0:0:0:
64,192,34020,1,0,0:0:0:0:
192,192,34120,1,0,0:0:0:0:
64,192,34220,1,0,0:0:0:0:
320,192,34220,1,0,0:0:0:0:
448,192,34220,1,0,0:0:0:0:
192,192,34420,1,0,0:0:0:0:
448,192,34420,1,0,0:0:0:0:
64,192,34620,1,0,0:0:0:0:
320,192,34620,1,0,0:0:0:0:
448,192,34620,1,0,0:0:0:0:
320,192,34720,1,0,0:0:0:0:
64,192,34820,1,0,0:0:0:0:
448,192,34820,1,0,0:0:0:0:
192,192,34870,1,0,0:0:0:0:
320,192,35120,1,0,0:0:0:0:
192,192,35170,1,0,0:0:0:0:
320,192,35220,1,0,0:0:0:0:
448,192,35220,1,0,0:0:0:0:
64,192,35320,1,0,0:0:0:0:
192,192,35370,1,0,0:0:0:0:
320,192,35420,1,0,0:0:0:0:
448,192,35420,1,0,0:0:0:0:
192,192,35520,1,0,0:0:0:0:
320,192,35570,1,0,0:0:0:0:
64,192,35620,1,0,0:0:0:0:
192,192,35620,1,0,0:0:0:0:
320,192,35720,1,0,0:0:0:0:
448,192,35770,1,0,0:0:0:0:
64,192,35820,1,0,0:0:0:0:
320,192,35820,1,0,0:0:0:0:
192,192,35820,1,0,0:0:0:0:
320,192,35986,1,0,0:0:0:0:
192,192,36020,1,0,0:0:0:0:
64,192,36053,1,0,0:0:0:0:
320,192,36086,1,0,0:0:0:0:
192,192,36120,1,0,0:0:0:0:
448,192,36170,1,0,0:0:0:0:
320,192,36220,1,0,0:0:0:0:
320,192,36320,1,0,0:0:0:0:
64,192,36420,1,0,0:0:0:0:
448,192,36470,1,0,0:0:0:0:
320,192,36470,1,0,0:0:0:0:
192,192,36520,1,0,0:0:0:0:
320,192,36570,1,0,0:0:0:0:
448,192,36570,1,0,0:0:0:0:
64,192,36620,1,0,0:0:0:0:
320,192,36670,1,0,0:0:0:0:
448,192,36670,1,0,0:0:0:0:
64,0,36770,128,0,37420:1:0:0:0:
320,192,36820,1,0,0:0:0:0:
320,192,37020,1,0,0:0:0:0:
448,192,37020,1,0,0:0:0:0:
320,192,37120,1,0,0:0:0:0:
192,192,37120,1,0,0:0:0:0:
448,192,37220,1,0,0:0:0:0:
320,192,37320,1,0,0:0:0:0:
192,192,37320,1,0,0:0:0:0:
320,192,37420,1,0,0:0:0:0:
448,192,37420,1,0,0:0:0:0:
192,192,37470,1,0,0:0:0:0:
320,192,37520,1,0,0:0:0:0:
64,192,37570,1,0,0:0:0:0:
64,192,37770,1,0,0:0:0:0:
448,192,37820,1,0,0:0:0:0:
64,192,37870,1,0,0:0:0:0:
448,192,37920,1,0,0:0:0:0:
64,192,37970,1,0,0:0:0:0:
448,192,38020,1,0,0:0:0:0:
64,192,38070,1,0,0:0:0:0:
448,192,38120,1,0,0:0:0:0:
64,192,38170,1,0,0:0:0:0:
192,192,38270,1,0,0:0:0:0:
448,192,38395,1,0,0:0:0:0:
320,192,38395,1,0,0:0:0:0:
320,192,38470,1,0,0:0:0:0:
448,192,38470,1,0,0:0:0:0:
64,192,38545,1,0,0:0:0:0:
192,192,38545,1,0,0:0:0:0:
64,192,38620,1,0,0:0:0:0:
192,192,38620,1,0,0:0:0:0:
320,192,38720,1,0,0:0:0:0:
64,192,38820,1,0,0:0:0:0:
448,192,38820,1,0,0:0:0:0:
192,192,38920,1,0,0:0:0:0:
448,192,38920,1,0,0:0:0:0:
320,192,39020,1,0,0:0:0:0:
192,192,39020,1,0,0:0:0:0:
64,192,39020,1,0,0:0:0:0:
320,192,39220,1,0,0:0:0:0:
64,192,39253,1,0,0:0:0:0:
192,192,39286,1,0,0:0:0:0:
448,192,39320,1,0,0:0:0:0:
320,192,39353,1,0,0:0:0:0:
64,192,39386,1,0,0:0:0:0:
192,192,39420,1,0,0:0:0:0:
448,192,39486,1,0,0:0:0:0:
448,192,39620,1,0,0:0:0:0:
448,192,39753,1,0,0:0:0:0:
192,192,39920,1,0,0:0:0:0:
320,192,40020,1,0,0:0:0:0:
192,192,40120,1,0,0:0:0:0:
64,192,40220,1,0,0:0:0:0:
192,192,40320,1,0,0:0:0:0:
320,192,40420,1,0,0:0:0:0:
192,192,40520,1,0,0:0:0:0:
448,192,40620,1,0,0:0:0:0:
320,192,40653,1,0,0:0:0:0:
192,192,40686,1,0,0:0:0:0:
64,192,40720,1,0,0:0:0:0:
192,192,40820,1,0,0:0:0:0:
320,192,40920,1,0,0:0:0:0:
64,192,40953,1,0,0:0:0:0:
448,192,40986,1,0,0:0:0:0:
192,192,41020,1,0,0:0:0:0:
320,192,41120,1,0,0:0:0:0:
64,192,41220,1,0,0:0:0:0:
192,192,41253,1,0,0:0:0:0:
320,192,41286,1,0,0:0:0:0:
448,192,41320,1,0,0:0:0:0:
320,192,41420,1,0,0:0:0:0:
192,192,41520,1,0,0:0:0:0:
64,192,41553,1,0,0:0:0:0:
320,192,41586,1,0,0:0:0:0:
448,192,41620,1,0,0:0:0:0:
192,192,41720,1,0,0:0:0:0:
448,192,41820,1,0,0:0:0:0:
320,192,41853,1,0,0:0:0:0:
192,192,41886,1,0,0:0:0:0:
64,192,41920,1,0,0:0:0:0:
320,0,42020,128,0,42220:1:0:0:0:
448,0,42220,128,0,42320:1:0:0:0:
64,0,42320,128,0,42420:1:0:0:0:
448,0,42420,128,0,42520:1:0:0:0:
320,192,42620,1,0,0:0:0:0:
192,0,42720,128,0,42920:1:0:0:0:
320,192,42820,1,0,0:0:0:0:
320,192,42953,1,0,0:0:0:0:
448,192,42953,1,0,0:0:0:0:
192,192,43053,1,0,0:0:0:0:
320,192,43220,1,0,0:0:0:0:
448,192,43220,1,0,0:0:0:0:
192,192,43320,1,0,0:0:0:0:
320,192,43486,1,0,0:0:0:0:
448,192,43486,1,0,0:0:0:0:
192,192,43586,1,0,0:0:0:0:
320,192,43753,1,0,0:0:0:0:
448,192,43753,1,0,0:0:0:0:
192,192,43820,1,0,0:0:0:0:
64,192,43886,1,0,0:0:0:0:
320,192,43886,1,0,0:0:0:0:
320,192,44020,1,0,0:0:0:0:
192,192,44120,1,0,0:0:0:0:
448,192,44153,1,0,0:0:0:0:
64,192,44186,1,0,0:0:0:0:
320,192,44220,1,0,0:0:0:0:
192,192,44320,1,0,0:0:0:0:
448,192,44420,1,0,0:0:0:0:
320,192,44453,1,0,0:0:0:0:
192,192,44486,1,0,0:0:0:0:
64,192,44520,1,0,0:0:0:0:
320,192,44620,1,0,0:0:0:0:
320,192,44720,1,0,0:0:0:0:
448,192,44753,1,0,0:0:0:0:
64,192,44786,1,0,0:0:0:0:
192,192,44820,1,0,0:0:0:0:
448,192,44920,1,0,0:0:0:0:
448,192,45020,1,0,0:0:0:0:
448,192,45120,1,0,0:0:0:0:
192,0,45220,128,0,45320:1:0:0:0:
64,192,45420,1,0,0:0:0:0:
192,192,45420,1,0,0:0:0:0:
448,192,45420,1,0,0:0:0:0:
320,192,45520,1,0,0:0:0:0:
448,192,45520,1,0,0:0:0:0:
64,192,45620,1,0,0:0:0:0:
192,192,45620,1,0,0:0:0:0:
320,192,45720,1,0,0:0:0:0:
448,192,45720,1,0,0:0:0:0:
64,192,45820,1,0,0:0:0:0:
192,192,45820,1,0,0:0:0:0:
64,192,46020,1,0,0:0:0:0:
320,192,46020,1,0,0:0:0:0:
320,192,46220,1,0,0:0:0:0:
448,192,46220,1,0,0:0:0:0:
64,192,46320,1,0,0:0:0:0:
192,192,46320,1,0,0:0:0:0:
320,192,46420,1,0,0:0:0:0:
448,192,46420,1,0,0:0:0:0:
64,192,46520,1,0,0:0:0:0:
192,192,46520,1,0,0:0:0:0:
320,192,46620,1,0,0:0:0:0:
448,192,46620,1,0,0:0:0:0:
64,192,46820,1,0,0:0:0:0:
320,192,46820,1,0,0:0:0:0:
320,192,47020,1,0,0:0:0:0:
448,192,47020,1,0,0:0:0:0:
64,192,47120,1,0,0:0:0:0:
192,192,47120,1,0,0:0:0:0:
320,192,47220,1,0,0:0:0:0:
448,192,47220,1,0,0:0:0:0:
64,192,47320,1,0,0:0:0:0:
192,192,47320,1,0,0:0:0:0:
320,192,47420,1,0,0:0:0:0:
448,192,47420,1,0,0:0:0:0:
64,192,47620,1,0,0:0:0:0:
320,192,47620,1,0,0:0:0:0:
320,192,47820,1,0,0:0:0:0:
448,192,47820,1,0,0:0:0:0:
64,192,47920,1,0,0:0:0:0:
192,192,47970,1,0,0:0:0:0:
320,192,48020,1,0,0:0:0:0:
448,192,48020,1,0,0:0:0:0:
64,192,48120,1,0,0:0:0:0:
192,192,48170,1,0,0:0:0:0:
320,192,48220,1,0,0:0:0:0:
448,192,48220,1,0,0:0:0:0:
64,192,48320,1,0,0:0:0:0:
192,192,48370,1,0,0:0:0:0:
320,192,48420,1,0,0:0:0:0:
448,192,48420,1,0,0:0:0:0:
64,192,48520,1,0,0:0:0:0:
192,192,48570,1,0,0:0:0:0:
320,192,48620,1,0,0:0:0:0:
448,192,48620,1,0,0:0:0:0:
64,192,48720,1,0,0:0:0:0:
192,192,48720,1,0,0:0:0:0:
320,192,48820,1,0,0:0:0:0:
448,192,48820,1,0,0:0:0:0:
64,192,48920,1,0,0:0:0:0:
192,192,48920,1,0,0:0:0:0:
320,192,49020,1,0,0:0:0:0:
448,192,49020,1,0,0:0:0:0:
64,192,49220,1,0,0:0:0:0:
320,192,49220,1,0,0:0:0:0:
320,192,49420,1,0,0:0:0:0:
448,192,49420,1,0,0:0:0:0:
64,192,49520,1,0,0:0:0:0:
192,192,49520,1,0,0:0:0:0:
320,192,49620,1,0,0:0:0:0:
448,192,49620,1,0,0:0:0:0:
64,192,49720,1,0,0:0:0:0:
192,192,49720,1,0,0:0:0:0:
320,192,49820,1,0,0:0:0:0:
448,192,49820,1,0,0:0:0:0:
192,192,50020,1,0,0:0:0:0:
448,192,50020,1,0,0:0:0:0:
448,192,50220,1,0,0:0:0:0:
320,192,50270,1,0,0:0:0:0:
192,192,50320,1,0,0:0:0:0:
64,192,50370,1,0,0:0:0:0:
448,192,50420,1,0,0:0:0:0:
448,192,50520,1,0,0:0:0:0:
192,192,50570,1,0,0:0:0:0:
320,192,50620,1,0,0:0:0:0:
64,192,50720,1,0,0:0:0:0:
192,192,50720,1,0,0:0:0:0:
64,192,50820,1,0,0:0:0:0:
192,192,50820,1,0,0:0:0:0:
64,192,50920,1,0,0:0:0:0:
192,192,50920,1,0,0:0:0:0:
320,192,51020,1,0,0:0:0:0:
448,192,51020,1,0,0:0:0:0:
192,192,51070,1,0,0:0:0:0:
320,192,51120,1,0,0:0:0:0:
64,192,51170,1,0,0:0:0:0:
448,192,51220,1,0,0:0:0:0:
64,192,51270,1,0,0:0:0:0:
320,192,51320,1,0,0:0:0:0:
192,192,51370,1,0,0:0:0:0:
448,0,51420,128,0,51620:1:0:0:0:
192,192,51620,1,0,0:0:0:0:
320,192,51670,1,0,0:0:0:0:
192,192,51720,1,0,0:0:0:0:
320,192,51770,1,0,0:0:0:0:
64,192,51820,1,0,0:0:0:0:
192,192,51820,1,0,0:0:0:0:
320,192,51920,1,0,0:0:0:0:
448,192,51920,1,0,0:0:0:0:
64,192,52020,1,0,0:0:0:0:
192,192,52020,1,0,0:0:0:0:
320,192,52120,1,0,0:0:0:0:
448,192,52120,1,0,0:0:0:0:
64,192,52220,1,0,0:0:0:0:
192,192,52220,1,0,0:0:0:0:
192,192,52420,1,0,0:0:0:0:
448,192,52420,1,0,0:0:0:0:
64,192,52620,1,0,0:0:0:0:
192,192,52620,1,0,0:0:0:0:
320,192,52720,1,0,0:0:0:0:
448,192,52720,1,0,0:0:0:0:
64,192,52820,1,0,0:0:0:0:
192,192,52820,1,0,0:0:0:0:
320,192,52920,1,0,0:0:0:0:
448,192,52920,1,0,0:0:0:0:
64,192,53020,1,0,0:0:0:0:
192,192,53020,1,0,0:0:0:0:
192,192,53220,1,0,0:0:0:0:
448,192,53220,1,0,0:0:0:0:
64,192,53420,1,0,0:0:0:0:
192,0,53420,128,0,53520:1:0:0:0:
448,192,53520,1,0,0:0:0:0:
320,0,53520,128,0,53620:1:0:0:0:
192,0,53620,128,0,53720:1:0:0:0:
320,0,53720,128,0,53820:1:0:0:0:
64,192,53820,1,0,0:0:0:0:
192,0,53820,128,0,53920:1:0:0:0:
448,192,53920,1,0,0:0:0:0:
320,0,53920,128,0,54020:1:0:0:0:
64,192,54020,1,0,0:0:0:0:
192,192,54020,1,0,0:0:0:0:
64,192,54120,1,0,0:0:0:0:
192,192,54120,1,0,0:0:0:0:
64,192,54220,1,0,0:0:0:0:
192,192,54220,1,0,0:0:0:0:
448,192,54320,1,0,0:0:0:0:
320,192,54370,1,0,0:0:0:0:
64,192,54420,1,0,0:0:0:0:
192,192,54420,1,0,0:0:0:0:
448,192,54520,1,0,0:0:0:0:
320,192,54570,1,0,0:0:0:0:
64,192,54620,1,0,0:0:0:0:
192,192,54620,1,0,0:0:0:0:
448,192,54720,1,0,0:0:0:0:
320,192,54770,1,0,0:0:0:0:
64,192,54820,1,0,0:0:0:0:
192,192,54820,1,0,0:0:0:0:
448,192,54920,1,0,0:0:0:0:
320,192,54970,1,0,0:0:0:0:
64,192,55020,1,0,0:0:0:0:
192,192,55020,1,0,0:0:0:0:
320,192,55120,1,0,0:0:0:0:
448,192,55120,1,0,0:0:0:0:
64,192,55220,1,0,0:0:0:0:
192,192,55220,1,0,0:0:0:0:
320,192,55320,1,0,0:0:0:0:
448,192,55320,1,0,0:0:0:0:
64,192,55420,1,0,0:0:0:0:
192,192,55420,1,0,0:0:0:0:
192,192,55620,1,0,0:0:0:0:
448,192,55620,1,0,0:0:0:0:
64,192,55820,1,0,0:0:0:0:
192,192,55820,1,0,0:0:0:0:
320,192,55920,1,0,0:0:0:0:
448,192,55920,1,0,0:0:0:0:
64,192,56020,1,0,0:0:0:0:
192,192,56020,1,0,0:0:0:0:
320,192,56120,1,0,0:0:0:0:
448,192,56120,1,0,0:0:0:0:
64,192,56220,1,0,0:0:0:0:
192,192,56220,1,0,0:0:0:0:
192,192,56420,1,0,0:0:0:0:
448,192,56420,1,0,0:0:0:0:
64,192,56620,1,0,0:0:0:0:
192,192,56620,1,0,0:0:0:0:
320,192,56670,1,0,0:0:0:0:
64,192,56720,1,0,0:0:0:0:
192,192,56720,1,0,0:0:0:0:
448,192,56820,1,0,0:0:0:0:
192,192,56853,1,0,0:0:0:0:
64,192,56886,1,0,0:0:0:0:
320,192,56920,1,0,0:0:0:0:
192,192,56953,1,0,0:0:0:0:
320,192,57020,1,0,0:0:0:0:
448,192,57020,1,0,0:0:0:0:
192,192,57070,1,0,0:0:0:0:
320,192,57120,1,0,0:0:0:0:
448,192,57120,1,0,0:0:0:0:
64,192,57220,1,0,0:0:0:0:
192,192,57220,1,0,0:0:0:0:
320,192,57320,1,0,0:0:0:0:
448,192,57320,1,0,0:0:0:0:
192,192,57370,1,0,0:0:0:0:
320,192,57420,1,0,0:0:0:0:
448,192,57420,1,0,0:0:0:0:
64,192,57520,1,0,0:0:0:0:
192,192,57520,1,0,0:0:0:0:
320,192,57620,1,0,0:0:0:0:
448,0,57620,128,0,57720:1:0:0:0:
64,192,57820,1,0,0:0:0:0:
192,192,57820,1,0,0:0:0:0:
320,192,57870,1,0,0:0:0:0:
448,192,57920,1,0,0:0:0:0:
192,192,57970,1,0,0:0:0:0:
64,192,58020,1,0,0:0:0:0:
320,192,58020,1,0,0:0:0:0:
192,192,58070,1,0,0:0:0:0:
448,192,58120,1,0,0:0:0:0:
320,192,58170,1,0,0:0:0:0:
64,192,58220,1,0,0:0:0:0:
192,192,58220,1,0,0:0:0:0:
448,192,58220,1,0,0:0:0:0:
320,192,58420,1,0,0:0:0:0:
448,192,58420,1,0,0:0:0:0:
64,192,58520,1,0,0:0:0:0:
192,192,58520,1,0,0:0:0:0:
320,192,58620,1,0,0:0:0:0:
448,192,58620,1,0,0:0:0:0:
64,192,58720,1,0,0:0:0:0:
192,192,58720,1,0,0:0:0:0:
320,192,58820,1,0,0:0:0:0:
448,192,58820,1,0,0:0:0:0:
64,192,58920,1,0,0:0:0:0:
192,192,58920,1,0,0:0:0:0:
320,192,59020,1,0,0:0:0:0:
448,192,59020,1,0,0:0:0:0:
192,192,59086,1,0,0:0:0:0:
64,192,59120,1,0,0:0:0:0:
320,192,59220,1,0,0:0:0:0:
448,192,59220,1,0,0:0:0:0:
64,192,59320,1,0,0:0:0:0:
192,192,59320,1,0,0:0:0:0:
320,192,59420,1,0,0:0:0:0:
448,192,59420,1,0,0:0:0:0:
64,192,59520,1,0,0:0:0:0:
192,192,59520,1,0,0:0:0:0:
320,192,59620,1,0,0:0:0:0:
448,192,59620,1,0,0:0:0:0:
64,192,59720,1,0,0:0:0:0:
192,192,59720,1,0,0:0:0:0:
320,192,59820,1,0,0:0:0:0:
448,192,59853,1,0,0:0:0:0:
64,192,59886,1,0,0:0:0:0:
192,192,59920,1,0,0:0:0:0:
320,192,60020,1,0,0:0:0:0:
64,192,60120,1,0,0:0:0:0:
192,192,60153,1,0,0:0:0:0:
320,192,60186,1,0,0:0:0:0:
448,192,60220,1,0,0:0:0:0:
192,192,60320,1,0,0:0:0:0:
320,192,60420,1,0,0:0:0:0:
448,192,60453,1,0,0:0:0:0:
64,192,60486,1,0,0:0:0:0:
192,192,60520,1,0,0:0:0:0:
320,192,60620,1,0,0:0:0:0:
448,192,60720,1,0,0:0:0:0:
320,192,60753,1,0,0:0:0:0:
192,192,60786,1,0,0:0:0:0:
64,192,60820,1,0,0:0:0:0:
192,192,60920,1,0,0:0:0:0:
448,192,61020,1,0,0:0:0:0:
320,192,61053,1,0,0:0:0:0:
64,192,61086,1,0,0:0:0:0:
192,192,61120,1,0,0:0:0:0:
320,0,61220,128,0,61420:1:0:0:0:
192,192,61420,1,0,0:0:0:0:
64,0,61420,128,0,61520:1:0:0:0:
448,0,61520,128,0,61620:1:0:0:0:
64,0,61620,128,0,61720:1:0:0:0:
192,192,61820,1,0,0:0:0:0:
448,192,61820,1,0,0:0:0:0:
64,192,61920,1,0,0:0:0:0:
320,192,61920,1,0,0:0:0:0:
192,192,62020,1,0,0:0:0:0:
448,192,62020,1,0,0:0:0:0:
64,192,62120,1,0,0:0:0:0:
320,192,62120,1,0,0:0:0:0:
64,192,62320,1,0,0:0:0:0:
192,192,62353,1,0,0:0:0:0:
448,192,62386,1,0,0:0:0:0:
320,192,62420,1,0,0:0:0:0:
64,192,62520,1,0,0:0:0:0:
192,192,62520,1,0,0:0:0:0:
320,192,62620,1,0,0:0:0:0:
448,192,62620,1,0,0:0:0:0:
64,192,62720,1,0,0:0:0:0:
192,192,62720,1,0,0:0:0:0:
320,192,62820,1,0,0:0:0:0:
448,192,62820,1,0,0:0:0:0:
64,192,62920,1,0,0:0:0:0:
192,192,62920,1,0,0:0:0:0:
448,192,63020,1,0,0:0:0:0:
320,192,63053,1,0,0:0:0:0:
192,192,63086,1,0,0:0:0:0:
64,192,63120,1,0,0:0:0:0:
448,192,63170,1,0,0:0:0:0:
320,192,63220,1,0,0:0:0:0:
192,192,63320,1,0,0:0:0:0:
448,192,63353,1,0,0:0:0:0:
64,192,63386,1,0,0:0:0:0:
320,192,63420,1,0,0:0:0:0:
192,192,63520,1,0,0:0:0:0:
320,192,63620,1,0,0:0:0:0:
448,192,63653,1,0,0:0:0:0:
192,192,63686,1,0,0:0:0:0:
64,192,63720,1,0,0:0:0:0:
320,192,63820,1,0,0:0:0:0:
448,192,63920,1,0,0:0:0:0:
448,192,64020,1,0,0:0:0:0:
448,192,64120,1,0,0:0:0:0:
192,0,64220,128,0,64620:1:0:0:0:
448,0,64420,128,0,64520:1:0:0:0:
64,192,64620,1,0,0:0:0:0:
320,192,64620,1,0,0:0:0:0:
448,192,64620,1,0,0:0:0:0:
448,192,64720,1,0,0:0:0:0:
192,192,64820,1,0,0:0:0:0:
320,192,64920,1,0,0:0:0:0:
64,192,65020,1,0,0:0:0:0:
448,192,65120,1,0,0:0:0:0:
192,192,65220,1,0,0:0:0:0:
320,192,65320,1,0,0:0:0:0:
64,192,65420,1,0,0:0:0:0:
192,192,65420,1,0,0:0:0:0:
192,192,65520,1,0,0:0:0:0:
320,192,65620,1,0,0:0:0:0:
448,192,65620,1,0,0:0:0:0:
320,192,65720,1,0,0:0:0:0:
64,192,65820,1,0,0:0:0:0:
192,192,65820,1,0,0:0:0:0:
64,192,65920,1,0,0:0:0:0:
192,192,65920,1,0,0:0:0:0:
320,192,66020,1,0,0:0:0:0:
448,192,66020,1,0,0:0:0:0:
320,192,66120,1,0,0:0:0:0:
64,192,66220,1,0,0:0:0:0:
192,192,66220,1,0,0:0:0:0:
448,192,66320,1,0,0:0:0:0:
192,192,66420,1,0,0:0:0:0:
320,192,66520,1,0,0:0:0:0:
64,192,66620,1,0,0:0:0:0:
448,192,66720,1,0,0:0:0:0:
192,192,66820,1,0,0:0:0:0:
320,192,66920,1,0,0:0:0:0:
64,192,67020,1,0,0:0:0:0:
192,192,67020,1,0,0:0:0:0:
192,192,67120,1,0,0:0:0:0:
320,192,67220,1,0,0:0:0:0:
448,192,67220,1,0,0:0:0:0:
320,192,67320,1,0,0:0:0:0:
64,192,67420,1,0,0:0:0:0:
192,192,67420,1,0,0:0:0:0:
64,192,67520,1,0,0:0:0:0:
192,192,67520,1,0,0:0:0:0:
320,192,67620,1,0,0:0:0:0:
448,192,67620,1,0,0:0:0:0:
320,192,67720,1,0,0:0:0:0:
64,192,67820,1,0,0:0:0:0:
192,192,67820,1,0,0:0:0:0:
448,192,67820,1,0,0:0:0:0:
448,192,67920,1,0,0:0:0:0:
192,192,68020,1,0,0:0:0:0:
320,192,68120,1,0,0:0:0:0:
64,192,68220,1,0,0:0:0:0:
448,192,68320,1,0,0:0:0:0:
192,192,68420,1,0,0:0:0:0:
320,192,68520,1,0,0:0:0:0:
64,192,68620,1,0,0:0:0:0:
192,192,68620,1,0,0:0:0:0:
192,192,68720,1,0,0:0:0:0:
320,192,68820,1,0,0:0:0:0:
448,192,68820,1,0,0:0:0:0:
320,192,68920,1,0,0:0:0:0:
64,192,69020,1,0,0:0:0:0:
192,192,69020,1,0,0:0:0:0:
64,192,69120,1,0,0:0:0:0:
192,192,69120,1,0,0:0:0:0:
320,192,69220,1,0,0:0:0:0:
448,192,69220,1,0,0:0:0:0:
320,192,69320,1,0,0:0:0:0:
64,192,69420,1,0,0:0:0:0:
192,0,69420,128,0,69520:1:0:0:0:
320,192,69520,1,0,0:0:0:0:
448,192,69620,1,0,0:0:0:0:
320,192,69670,1,0,0:0:0:0:
192,192,69720,1,0,0:0:0:0:
64,192,69770,1,0,0:0:0:0:
320,192,69820,1,0,0:0:0:0:
448,192,69820,1,0,0:0:0:0:
448,192,69920,1,0,0:0:0:0:
320,192,69920,1,0,0:0:0:0:
64,192,70020,1,0,0:0:0:0:
192,192,70070,1,0,0:0:0:0:
320,192,70120,1,0,0:0:0:0:
448,192,70170,1,0,0:0:0:0:
64,192,70220,1,0,0:0:0:0:
192,192,70220,1,0,0:0:0:0:
64,192,70320,1,0,0:0:0:0:
192,192,70320,1,0,0:0:0:0:
320,192,70420,1,0,0:0:0:0:
448,192,70420,1,0,0:0:0:0:
320,192,70520,1,0,0:0:0:0:
448,192,70520,1,0,0:0:0:0:
64,192,70620,1,0,0:0:0:0:
192,192,70620,1,0,0:0:0:0:
64,192,70720,1,0,0:0:0:0:
192,192,70720,1,0,0:0:0:0:
320,0,70820,128,0,71020:1:0:0:0:
64,192,71020,1,0,0:0:0:0:
192,192,71020,1,0,0:0:0:0:
448,192,71020,1,0,0:0:0:0:
192,192,71120,1,0,0:0:0:0:
320,192,71220,1,0,0:0:0:0:
448,192,71220,1,0,0:0:0:0:
320,192,71320,1,0,0:0:0:0:
64,192,71420,1,0,0:0:0:0:
192,192,71420,1,0,0:0:0:0:
192,192,71520,1,0,0:0:0:0:
320,192,71620,1,0,0:0:0:0:
448,192,71620,1,0,0:0:0:0:
448,192,71720,1,0,0:0:0:0:
64,192,71820,1,0,0:0:0:0:
192,192,71820,1,0,0:0:0:0:
320,192,71920,1,0,0:0:0:0:
192,192,72020,1,0,0:0:0:0:
448,192,72020,1,0,0:0:0:0:
320,192,72120,1,0,0:0:0:0:
192,192,72220,1,0,0:0:0:0:
448,192,72220,1,0,0:0:0:0:
64,192,72320,1,0,0:0:0:0:
320,192,72320,1,0,0:0:0:0:
64,192,72420,1,0,0:0:0:0:
192,192,72420,1,0,0:0:0:0:
320,192,72520,1,0,0:0:0:0:
64,192,72620,1,0,0:0:0:0:
192,192,72620,1,0,0:0:0:0:
64,192,72720,1,0,0:0:0:0:
320,192,72820,1,0,0:0:0:0:
448,192,72820,1,0,0:0:0:0:
448,192,72920,1,0,0:0:0:0:
64,192,73020,1,0,0:0:0:0:
192,192,73020,1,0,0:0:0:0:
64,192,73120,1,0,0:0:0:0:
320,192,73120,1,0,0:0:0:0:
320,192,73220,1,0,0:0:0:0:
448,192,73220,1,0,0:0:0:0:
64,192,73320,1,0,0:0:0:0:
448,192,73320,1,0,0:0:0:0:
192,192,73420,1,0,0:0:0:0:
448,0,73420,128,0,73470:1:0:0:0:
320,192,73520,1,0,0:0:0:0:
192,192,73620,1,0,0:0:0:0:
448,0,73620,128,0,73670:1:0:0:0:
320,192,73720,1,0,0:0:0:0:
448,192,73820,1,0,0:0:0:0:
192,0,73820,128,0,73870:1:0:0:0:
64,192,73920,1,0,0:0:0:0:
320,192,73920,1,0,0:0:0:0:
192,192,74020,1,0,0:0:0:0:
448,192,74020,1,0,0:0:0:0:
64,192,74120,1,0,0:0:0:0:
448,192,74120,1,0,0:0:0:0:
64,192,74220,1,0,0:0:0:0:
192,192,74220,1,0,0:0:0:0:
320,192,74220,1,0,0:0:0:0:
320,192,74320,1,0,0:0:0:0:
64,192,74420,1,0,0:0:0:0:
192,192,74420,1,0,0:0:0:0:
192,192,74520,1,0,0:0:0:0:
320,192,74620,1,0,0:0:0:0:
448,192,74620,1,0,0:0:0:0:
320,192,74720,1,0,0:0:0:0:
64,192,74820,1,0,0:0:0:0:
192,192,74820,1,0,0:0:0:0:
192,192,74920,1,0,0:0:0:0:
192,192,75020,1,0,0:0:0:0:
448,192,75020,1,0,0:0:0:0:
320,192,75120,1,0,0:0:0:0:
192,192,75220,1,0,0:0:0:0:
448,192,75220,1,0,0:0:0:0:
320,192,75320,1,0,0:0:0:0:
192,192,75420,1,0,0:0:0:0:
448,192,75420,1,0,0:0:0:0:
192,192,75520,1,0,0:0:0:0:
320,192,75520,1,0,0:0:0:0:
64,192,75620,1,0,0:0:0:0:
320,192,75620,1,0,0:0:0:0:
192,192,75720,1,0,0:0:0:0:
448,192,75820,1,0,0:0:0:0:
448,192,75920,1,0,0:0:0:0:
448,192,76020,1,0,0:0:0:0:
448,192,76120,1,0,0:0:0:0:
448,192,76220,1,0,0:0:0:0:
192,192,76320,1,0,0:0:0:0:
448,192,76320,1,0,0:0:0:0:
192,192,76420,1,0,0:0:0:0:
448,192,76420,1,0,0:0:0:0:
192,192,76520,1,0,0:0:0:0:
448,192,76520,1,0,0:0:0:0:
192,192,76620,1,0,0:0:0:0:
320,0,76620,128,0,76670:1:0:0:0:
64,192,76720,1,0,0:0:0:0:
448,192,76820,1,0,0:0:0:0:
320,0,76820,128,0,76870:1:0:0:0:
192,192,76920,1,0,0:0:0:0:
320,192,77020,1,0,0:0:0:0:
64,0,77020,128,0,77070:1:0:0:0:
192,192,77120,1,0,0:0:0:0:
448,192,77120,1,0,0:0:0:0:
64,192,77220,1,0,0:0:0:0:
448,192,77220,1,0,0:0:0:0:
320,192,77320,1,0,0:0:0:0:
64,192,77420,1,0,0:0:0:0:
192,192,77420,1,0,0:0:0:0:
320,192,77470,1,0,0:0:0:0:
448,192,77520,1,0,0:0:0:0:
64,192,77570,1,0,0:0:0:0:
192,192,77620,1,0,0:0:0:0:
448,192,77670,1,0,0:0:0:0:
320,192,77720,1,0,0:0:0:0:
192,192,77770,1,0,0:0:0:0:
64,192,77820,1,0,0:0:0:0:
320,192,77870,1,0,0:0:0:0:
448,192,77920,1,0,0:0:0:0:
64,192,77970,1,0,0:0:0:0:
192,192,78020,1,0,0:0:0:0:
448,192,78070,1,0,0:0:0:0:
320,192,78120,1,0,0:0:0:0:
192,192,78170,1,0,0:0:0:0:
64,192,78220,1,0,0:0:0:0:
320,192,78270,1,0,0:0:0:0:
448,192,78320,1,0,0:0:0:0:
64,192,78370,1,0,0:0:0:0:
192,192,78420,1,0,0:0:0:0:
448,192,78470,1,0,0:0:0:0:
320,192,78520,1,0,0:0:0:0:
192,192,78570,1,0,0:0:0:0:
64,192,78620,1,0,0:0:0:0:
320,192,78686,1,0,0:0:0:0:
192,192,78753,1,0,0:0:0:0:
320,192,78820,1,0,0:0:0:0:
192,192,78886,1,0,0:0:0:0:
320,192,78953,1,0,0:0:0:0:
192,0,79020,128,0,80220:1:0:0:0:
448,0,79920,128,0,80620:1:0:0:0:
64,192,80220,1,0,0:0:0:0:
320,192,80220,1,0,0:0:0:0:
64,192,80420,1,0,0:0:0:0:
320,192,80620,1,0,0:0:0:0:
64,0,80620,128,0,81420:1:0:0:0:
192,0,80620,128,0,81420:1:0:0:0:
320,192,81020,1,0,0:0:0:0:
448,192,81020,1,0,0:0:0:0:
320,192,81420,1,0,0:0:0:0:
448,192,81420,1,0,0:0:0:0:
192,192,81520,1,0,0:0:0:0:
192,192,81620,1,0,0:0:0:0:
192,192,81720,1,0,0:0:0:0:
320,192,81820,1,0,0:0:0:0:
448,192,81820,1,0,0:0:0:0:
192,192,82020,1,0,0:0:0:0:
320,192,82120,1,0,0:0:0:0:
64,192,82220,1,0,0:0:0:0:
448,192,82220,1,0,0:0:0:0:
192,192,82520,1,0,0:0:0:0:
64,192,82620,1,0,0:0:0:0:
448,192,82620,1,0,0:0:0:0:
192,192,82720,1,0,0:0:0:0:
320,192,82820,1,0,0:0:0:0:
64,192,82920,1,0,0:0:0:0:
320,192,83020,1,0,0:0:0:0:
448,192,83020,1,0,0:0:0:0:
192,0,83220,128,0,83420:1:0:0:0:
64,192,83420,1,0,0:0:0:0:
320,192,83420,1,0,0:0:0:0:
192,192,83620,1,0,0:0:0:0:
320,192,83720,1,0,0:0:0:0:
448,192,83820,1,0,0:0:0:0:
64,0,83820,128,0,84620:1:0:0:0:
192,0,83820,128,0,84620:1:0:0:0:
320,192,84220,1,0,0:0:0:0:
448,192,84220,1,0,0:0:0:0:
320,192,84620,1,0,0:0:0:0:
448,192,84620,1,0,0:0:0:0:
192,192,84920,1,0,0:0:0:0:
64,192,85020,1,0,0:0:0:0:
320,192,85020,1,0,0:0:0:0:
192,192,85220,1,0,0:0:0:0:
320,192,85320,1,0,0:0:0:0:
64,192,85420,1,0,0:0:0:0:
448,192,85420,1,0,0:0:0:0:
192,192,85720,1,0,0:0:0:0:
64,192,85820,1,0,0:0:0:0:
448,192,85820,1,0,0:0:0:0:
192,192,85920,1,0,0:0:0:0:
320,192,86020,1,0,0:0:0:0:
64,192,86120,1,0,0:0:0:0:
192,0,86220,128,0,87020:1:0:0:0:
320,192,86620,1,0,0:0:0:0:
448,192,86620,1,0,0:0:0:0:
320,192,87020,1,0,0:0:0:0:
448,192,87020,1,0,0:0:0:0:
64,192,87120,1,0,0:0:0:0:
192,192,87120,1,0,0:0:0:0:
320,192,87220,1,0,0:0:0:0:
448,192,87220,1,0,0:0:0:0:
64,192,87420,1,0,0:0:0:0:
192,192,87420,1,0,0:0:0:0:
320,192,87520,1,0,0:0:0:0:
448,192,87520,1,0,0:0:0:0:
64,192,87620,1,0,0:0:0:0:
192,192,87620,1,0,0:0:0:0:
320,192,87820,1,0,0:0:0:0:
448,192,87820,1,0,0:0:0:0:
64,192,87920,1,0,0:0:0:0:
192,192,87920,1,0,0:0:0:0:
320,192,88020,1,0,0:0:0:0:
448,192,88020,1,0,0:0:0:0:
64,192,88120,1,0,0:0:0:0:
192,192,88120,1,0,0:0:0:0:
320,192,88220,1,0,0:0:0:0:
448,192,88220,1,0,0:0:0:0:
64,192,88420,1,0,0:0:0:0:
192,192,88420,1,0,0:0:0:0:
320,192,88620,1,0,0:0:0:0:
448,192,88620,1,0,0:0:0:0:
64,192,88720,1,0,0:0:0:0:
192,192,88720,1,0,0:0:0:0:
320,192,88820,1,0,0:0:0:0:
448,192,88820,1,0,0:0:0:0:
64,192,89020,1,0,0:0:0:0:
192,192,89020,1,0,0:0:0:0:
320,192,89120,1,0,0:0:0:0:
448,192,89120,1,0,0:0:0:0:
64,192,89220,1,0,0:0:0:0:
192,192,89220,1,0,0:0:0:0:
320,192,89420,1,0,0:0:0:0:
448,192,89420,1,0,0:0:0:0:
64,192,89520,1,0,0:0:0:0:
192,192,89520,1,0,0:0:0:0:
320,192,89620,1,0,0:0:0:0:
448,192,89620,1,0,0:0:0:0:
64,192,89720,1,0,0:0:0:0:
192,192,89720,1,0,0:0:0:0:
320,192,89820,1,0,0:0:0:0:
448,192,89820,1,0,0:0:0:0:
64,192,90020,1,0,0:0:0:0:
192,192,90020,1,0,0:0:0:0:
320,192,90120,1,0,0:0:0:0:
448,192,90120,1,0,0:0:0:0:
64,192,90220,1,0,0:0:0:0:
192,192,90220,1,0,0:0:0:0:
320,192,90320,1,0,0:0:0:0:
448,192,90320,1,0,0:0:0:0:
64,192,90420,1,0,0:0:0:0:
192,192,90420,1,0,0:0:0:0:
320,192,90620,1,0,0:0:0:0:
448,192,90620,1,0,0:0:0:0:
64,192,90720,1,0,0:0:0:0:
192,192,90720,1,0,0:0:0:0:
320,192,90820,1,0,0:0:0:0:
448,192,90820,1,0,0:0:0:0:
64,192,91020,1,0,0:0:0:0:
192,192,91020,1,0,0:0:0:0:
320,192,91120,1,0,0:0:0:0:
448,192,91120,1,0,0:0:0:0:
64,192,91220,1,0,0:0:0:0:
192,192,91220,1,0,0:0:0:0:
320,192,91320,1,0,0:0:0:0:
448,192,91320,1,0,0:0:0:0:
64,192,91420,1,0,0:0:0:0:
192,192,91420,1,0,0:0:0:0:
64,192,91620,1,0,0:0:0:0:
192,192,91620,1,0,0:0:0:0:
64,192,91720,1,0,0:0:0:0:
320,192,91720,1,0,0:0:0:0:
192,192,91820,1,0,0:0:0:0:
320,192,91820,1,0,0:0:0:0:
448,192,91920,1,0,0:0:0:0:
64,192,92020,1,0,0:0:0:0:
192,192,92120,1,0,0:0:0:0:
320,192,92120,1,0,0:0:0:0:
192,192,92220,1,0,0:0:0:0:
448,192,92220,1,0,0:0:0:0:
320,192,92320,1,0,0:0:0:0:
448,192,92320,1,0,0:0:0:0:
64,192,92420,1,0,0:0:0:0:
320,192,92420,1,0,0:0:0:0:
64,192,92520,1,0,0:0:0:0:
192,192,92520,1,0,0:0:0:0:
192,192,92620,1,0,0:0:0:0:
320,192,92620,1,0,0:0:0:0:
448,192,92720,1,0,0:0:0:0:
320,192,92820,1,0,0:0:0:0:
192,192,92920,1,0,0:0:0:0:
320,192,93020,1,0,0:0:0:0:
448,0,93020,128,0,93120:1:0:0:0:
320,192,93220,1,0,0:0:0:0:
64,0,93220,128,0,93320:1:0:0:0:
192,192,93320,1,0,0:0:0:0:
448,192,93320,1,0,0:0:0:0:
448,0,93420,128,0,95720:1:0:0:0:
320,0,93420,128,0,94920:1:0:0:0:
448,192,95820,1,0,0:0:0:0:
448,192,95920,1,0,0:0:0:0:
320,192,96020,1,0,0:0:0:0:
320,192,96120,1,0,0:0:0:0:
192,192,96220,1,0,0:0:0:0:
448,0,96220,128,0,96320:1:0:0:0:
192,192,96320,1,0,0:0:0:0:
64,192,96420,1,0,0:0:0:0:
320,0,96420,128,0,96520:1:0:0:0:
64,192,96520,1,0,0:0:0:0:
64,192,96620,1,0,0:0:0:0:
192,192,96620,1,0,0:0:0:0:
448,192,96620,1,0,0:0:0:0:
320,192,96670,1,0,0:0:0:0:
192,192,96720,1,0,0:0:0:0:
320,192,96770,1,0,0:0:0:0:
64,192,96820,1,0,0:0:0:0:
448,192,96870,1,0,0:0:0:0:
320,192,96920,1,0,0:0:0:0:
320,192,97020,1,0,0:0:0:0:
448,192,97020,1,0,0:0:0:0:
64,192,97120,1,0,0:0:0:0:
192,192,97170,1,0,0:0:0:0:
320,192,97220,1,0,0:0:0:0:
448,192,97253,1,0,0:0:0:0:
64,192,97286,1,0,0:0:0:0:
192,192,97320,1,0,0:0:0:0:
320,192,97353,1,0,0:0:0:0:
448,192,97386,1,0,0:0:0:0:
64,192,97420,1,0,0:0:0:0:
192,192,97420,1,0,0:0:0:0:
64,192,97520,1,0,0:0:0:0:
192,192,97520,1,0,0:0:0:0:
192,192,97620,1,0,0:0:0:0:
320,192,97720,1,0,0:0:0:0:
448,192,97770,1,0,0:0:0:0:
64,192,97820,1,0,0:0:0:0:
192,192,97820,1,0,0:0:0:0:
64,192,97920,1,0,0:0:0:0:
192,192,97920,1,0,0:0:0:0:
448,192,98020,1,0,0:0:0:0:
192,192,98120,1,0,0:0:0:0:
64,192,98220,1,0,0:0:0:0:
192,192,98220,1,0,0:0:0:0:
320,192,98270,1,0,0:0:0:0:
448,192,98270,1,0,0:0:0:0:
64,192,98320,1,0,0:0:0:0:
192,192,98320,1,0,0:0:0:0:
320,192,98420,1,0,0:0:0:0:
320,192,98520,1,0,0:0:0:0:
448,192,98520,1,0,0:0:0:0:
64,192,98570,1,0,0:0:0:0:
192,192,98570,1,0,0:0:0:0:
320,192,98620,1,0,0:0:0:0:
448,192,98620,1,0,0:0:0:0:
192,192,98720,1,0,0:0:0:0:
320,192,98720,1,0,0:0:0:0:
64,192,98820,1,0,0:0:0:0:
192,192,98820,1,0,0:0:0:0:
320,192,98920,1,0,0:0:0:0:
448,192,98920,1,0,0:0:0:0:
64,192,99020,1,0,0:0:0:0:
320,192,99020,1,0,0:0:0:0:
192,192,99120,1,0,0:0:0:0:
320,192,99220,1,0,0:0:0:0:
448,192,99220,1,0,0:0:0:0:
192,192,99270,1,0,0:0:0:0:
64,192,99320,1,0,0:0:0:0:
320,192,99370,1,0,0:0:0:0:
192,192,99420,1,0,0:0:0:0:
448,192,99420,1,0,0:0:0:0:
192,192,99620,1,0,0:0:0:0:
320,192,99620,1,0,0:0:0:0:
192,192,99720,1,0,0:0:0:0:
448,192,99720,1,0,0:0:0:0:
64,192,99820,1,0,0:0:0:0:
320,192,99820,1,0,0:0:0:0:
448,192,99820,1,0,0:0:0:0:
192,192,99920,1,0,0:0:0:0:
448,192,100020,1,0,0:0:0:0:
320,192,100070,1,0,0:0:0:0:
64,192,100120,1,0,0:0:0:0:
192,192,100153,1,0,0:0:0:0:
320,192,100186,1,0,0:0:0:0:
64,192,100220,1,0,0:0:0:0:
448,192,100220,1,0,0:0:0:0:
320,192,100320,1,0,0:0:0:0:
448,192,100320,1,0,0:0:0:0:
320,192,100420,1,0,0:0:0:0:
448,192,100420,1,0,0:0:0:0:
192,192,100520,1,0,0:0:0:0:
320,192,100570,1,0,0:0:0:0:
64,192,100620,1,0,0:0:0:0:
192,192,100620,1,0,0:0:0:0:
64,192,100720,1,0,0:0:0:0:
192,192,100720,1,0,0:0:0:0:
320,192,100820,1,0,0:0:0:0:
320,192,100920,1,0,0:0:0:0:
192,192,101020,1,0,0:0:0:0:
448,192,101020,1,0,0:0:0:0:
320,192,101070,1,0,0:0:0:0:
64,192,101120,1,0,0:0:0:0:
192,192,101120,1,0,0:0:0:0:
448,192,101170,1,0,0:0:0:0:
320,192,101220,1,0,0:0:0:0:
64,192,101270,1,0,0:0:0:0:
192,192,101320,1,0,0:0:0:0:
320,192,101370,1,0,0:0:0:0:
64,192,101420,1,0,0:0:0:0:
192,192,101420,1,0,0:0:0:0:
320,192,101470,1,0,0:0:0:0:
448,192,101470,1,0,0:0:0:0:
64,192,101520,1,0,0:0:0:0:
192,192,101520,1,0,0:0:0:0:
320,192,101620,1,0,0:0:0:0:
320,192,101720,1,0,0:0:0:0:
448,192,101720,1,0,0:0:0:0:
64,192,101770,1,0,0:0:0:0:
192,192,101770,1,0,0:0:0:0:
320,192,101820,1,0,0:0:0:0:
448,192,101820,1,0,0:0:0:0:
64,192,101920,1,0,0:0:0:0:
192,192,101920,1,0,0:0:0:0:
192,192,102020,1,0,0:0:0:0:
320,192,102020,1,0,0:0:0:0:
320,192,102120,1,0,0:0:0:0:
448,192,102120,1,0,0:0:0:0:
64,192,102220,1,0,0:0:0:0:
192,192,102220,1,0,0:0:0:0:
320,192,102270,1,0,0:0:0:0:
192,192,102320,1,0,0:0:0:0:
320,192,102370,1,0,0:0:0:0:
64,192,102420,1,0,0:0:0:0:
448,192,102470,1,0,0:0:0:0:
64,192,102520,1,0,0:0:0:0:
320,192,102570,1,0,0:0:0:0:
192,0,102620,128,0,102820:1:0:0:0:
320,0,102820,128,0,102920:1:0:0:0:
448,192,102920,1,0,0:0:0:0:
192,192,103020,1,0,0:0:0:0:
448,192,103020,1,0,0:0:0:0:
64,0,103020,128,0,103170:1:0:0:0:
64,0,103220,128,0,103420:1:0:0:0:
448,192,103420,1,0,0:0:0:0:
320,192,103520,1,0,0:0:0:0:
448,192,103520,1,0,0:0:0:0:
320,192,103620,1,0,0:0:0:0:
448,192,103620,1,0,0:0:0:0:
64,192,103653,1,0,0:0:0:0:
192,192,103686,1,0,0:0:0:0:
320,192,103720,1,0,0:0:0:0:
448,192,103753,1,0,0:0:0:0:
64,192,103786,1,0,0:0:0:0:
192,192,103820,1,0,0:0:0:0:
320,192,103820,1,0,0:0:0:0:
192,192,103920,1,0,0:0:0:0:
320,192,103920,1,0,0:0:0:0:
448,192,104020,1,0,0:0:0:0:
448,192,104120,1,0,0:0:0:0:
320,192,104170,1,0,0:0:0:0:
64,192,104220,1,0,0:0:0:0:
192,192,104220,1,0,0:0:0:0:
64,192,104320,1,0,0:0:0:0:
192,192,104320,1,0,0:0:0:0:
448,192,104420,1,0,0:0:0:0:
320,192,104520,1,0,0:0:0:0:
64,192,104620,1,0,0:0:0:0:
192,192,104620,1,0,0:0:0:0:
320,192,104670,1,0,0:0:0:0:
448,192,104670,1,0,0:0:0:0:
64,192,104720,1,0,0:0:0:0:
192,192,104720,1,0,0:0:0:0:
192,192,104820,1,0,0:0:0:0:
320,192,104920,1,0,0:0:0:0:
448,192,104920,1,0,0:0:0:0:
64,192,104970,1,0,0:0:0:0:
192,192,104970,1,0,0:0:0:0:
320,192,105020,1,0,0:0:0:0:
448,192,105020,1,0,0:0:0:0:
192,192,105120,1,0,0:0:0:0:
448,192,105120,1,0,0:0:0:0:
192,192,105220,1,0,0:0:0:0:
320,192,105220,1,0,0:0:0:0:
64,192,105320,1,0,0:0:0:0:
320,192,105320,1,0,0:0:0:0:
64,192,105420,1,0,0:0:0:0:
448,192,105420,1,0,0:0:0:0:
320,192,105520,1,0,0:0:0:0:
320,192,105620,1,0,0:0:0:0:
448,192,105620,1,0,0:0:0:0:
192,192,105670,1,0,0:0:0:0:
64,192,105720,1,0,0:0:0:0:
320,192,105770,1,0,0:0:0:0:
192,192,105820,1,0,0:0:0:0:
448,192,105820,1,0,0:0:0:0:
320,192,106020,1,0,0:0:0:0:
448,192,106020,1,0,0:0:0:0:
320,192,106120,1,0,0:0:0:0:
448,192,106120,1,0,0:0:0:0:
64,192,106220,1,0,0:0:0:0:
192,192,106220,1,0,0:0:0:0:
448,192,106220,1,0,0:0:0:0:
320,192,106320,1,0,0:0:0:0:
192,192,106420,1,0,0:0:0:0:
448,192,106453,1,0,0:0:0:0:
320,192,106486,1,0,0:0:0:0:
192,192,106520,1,0,0:0:0:0:
64,192,106553,1,0,0:0:0:0:
448,192,106586,1,0,0:0:0:0:
320,192,106620,1,0,0:0:0:0:
192,192,106670,1,0,0:0:0:0:
64,192,106720,1,0,0:0:0:0:
448,192,106720,1,0,0:0:0:0:
64,192,106820,1,0,0:0:0:0:
448,192,106820,1,0,0:0:0:0:
320,192,106920,1,0,0:0:0:0:
448,192,106970,1,0,0:0:0:0:
64,192,107020,1,0,0:0:0:0:
192,192,107020,1,0,0:0:0:0:
64,192,107120,1,0,0:0:0:0:
192,192,107120,1,0,0:0:0:0:
320,192,107220,1,0,0:0:0:0:
192,192,107320,1,0,0:0:0:0:
320,192,107420,1,0,0:0:0:0:
448,192,107420,1,0,0:0:0:0:
64,192,107470,1,0,0:0:0:0:
320,192,107520,1,0,0:0:0:0:
448,192,107520,1,0,0:0:0:0:
64,192,107570,1,0,0:0:0:0:
320,192,107620,1,0,0:0:0:0:
192,192,107670,1,0,0:0:0:0:
448,192,107720,1,0,0:0:0:0:
320,192,107770,1,0,0:0:0:0:
64,192,107820,1,0,0:0:0:0:
192,192,107820,1,0,0:0:0:0:
320,192,107870,1,0,0:0:0:0:
448,192,107870,1,0,0:0:0:0:
64,192,107920,1,0,0:0:0:0:
192,192,107920,1,0,0:0:0:0:
192,192,108020,1,0,0:0:0:0:
320,192,108120,1,0,0:0:0:0:
448,192,108120,1,0,0:0:0:0:
64,192,108170,1,0,0:0:0:0:
192,192,108170,1,0,0:0:0:0:
320,192,108220,1,0,0:0:0:0:
448,192,108220,1,0,0:0:0:0:
64,192,108320,1,0,0:0:0:0:
192,192,108320,1,0,0:0:0:0:
64,192,108420,1,0,0:0:0:0:
448,192,108420,1,0,0:0:0:0:
192,192,108520,1,0,0:0:0:0:
448,192,108520,1,0,0:0:0:0:
64,192,108620,1,0,0:0:0:0:
448,192,108670,1,0,0:0:0:0:
64,192,108720,1,0,0:0:0:0:
320,192,108770,1,0,0:0:0:0:
192,192,108820,1,0,0:0:0:0:
320,192,108870,1,0,0:0:0:0:
448,192,108920,1,0,0:0:0:0:
64,192,108970,1,0,0:0:0:0:
192,0,109020,128,0,109220:1:0:0:0:
320,0,109220,128,0,109320:1:0:0:0:
448,192,109320,1,0,0:0:0:0:
64,192,109420,1,0,0:0:0:0:
192,192,109420,1,0,0:0:0:0:
448,192,109420,1,0,0:0:0:0:
192,192,109620,1,0,0:0:0:0:
448,192,109620,1,0,0:0:0:0:
64,192,109820,1,0,0:0:0:0:
192,192,109820,1,0,0:0:0:0:
192,192,110020,1,0,0:0:0:0:
448,192,110020,1,0,0:0:0:0:
64,192,110220,1,0,0:0:0:0:
192,192,110220,1,0,0:0:0:0:
320,192,110320,1,0,0:0:0:0:
192,192,110420,1,0,0:0:0:0:
448,192,110420,1,0,0:0:0:0:
320,192,110520,1,0,0:0:0:0:
192,192,110620,1,0,0:0:0:0:
64,0,110620,128,0,110720:1:0:0:0:
448,192,110820,1,0,0:0:0:0:
192,0,110820,128,0,110920:1:0:0:0:
448,192,111020,1,0,0:0:0:0:
320,0,111020,128,0,111120:1:0:0:0:
192,192,111220,1,0,0:0:0:0:
448,192,111220,1,0,0:0:0:0:
448,192,111420,1,0,0:0:0:0:
320,0,111420,128,0,111520:1:0:0:0:
192,192,111620,1,0,0:0:0:0:
448,192,111620,1,0,0:0:0:0:
448,192,111820,1,0,0:0:0:0:
64,0,111820,128,0,111920:1:0:0:0:
320,0,111920,128,0,111970:1:0:0:0:
448,192,112020,1,0,0:0:0:0:
64,192,112120,1,0,0:0:0:0:
320,192,112120,1,0,0:0:0:0:
64,192,112220,1,0,0:0:0:0:
192,192,112220,1,0,0:0:0:0:
320,192,112420,1,0,0:0:0:0:
448,192,112470,1,0,0:0:0:0:
192,192,112520,1,0,0:0:0:0:
320,192,112570,1,0,0:0:0:0:
64,192,112620,1,0,0:0:0:0:
192,192,112620,1,0,0:0:0:0:
448,192,112620,1,0,0:0:0:0:
192,192,112820,1,0,0:0:0:0:
448,192,112820,1,0,0:0:0:0:
64,192,113020,1,0,0:0:0:0:
192,192,113020,1,0,0:0:0:0:
192,192,113220,1,0,0:0:0:0:
448,192,113220,1,0,0:0:0:0:
64,192,113420,1,0,0:0:0:0:
192,192,113420,1,0,0:0:0:0:
320,192,113520,1,0,0:0:0:0:
192,192,113620,1,0,0:0:0:0:
448,192,113620,1,0,0:0:0:0:
320,192,113720,1,0,0:0:0:0:
192,192,113820,1,0,0:0:0:0:
64,0,113820,128,0,113920:1:0:0:0:
320,192,114020,1,0,0:0:0:0:
192,0,114020,128,0,114120:1:0:0:0:
448,192,114220,1,0,0:0:0:0:
320,0,114220,128,0,114320:1:0:0:0:
192,192,114420,1,0,0:0:0:0:
448,192,114420,1,0,0:0:0:0:
448,192,114620,1,0,0:0:0:0:
320,0,114620,128,0,114720:1:0:0:0:
192,192,114820,1,0,0:0:0:0:
448,192,114820,1,0,0:0:0:0:
192,192,115020,1,0,0:0:0:0:
64,0,115020,128,0,115120:1:0:0:0:
320,192,115120,1,0,0:0:0:0:
192,192,115220,1,0,0:0:0:0:
448,192,115220,1,0,0:0:0:0:
320,192,115320,1,0,0:0:0:0:
64,192,115420,1,0,0:0:0:0:
448,0,115420,128,0,115520:1:0:0:0:
64,192,115620,1,0,0:0:0:0:
320,0,115620,128,0,115720:1:0:0:0:
64,192,115820,1,0,0:0:0:0:
192,192,115820,1,0,0:0:0:0:
448,0,115820,128,0,115920:1:0:0:0:
192,192,116020,1,0,0:0:0:0:
448,192,116020,1,0,0:0:0:0:
64,192,116220,1,0,0:0:0:0:
192,192,116220,1,0,0:0:0:0:
192,192,116420,1,0,0:0:0:0:
448,192,116420,1,0,0:0:0:0:
64,192,116620,1,0,0:0:0:0:
192,192,116620,1,0,0:0:0:0:
320,192,116720,1,0,0:0:0:0:
192,192,116820,1,0,0:0:0:0:
448,192,116820,1,0,0:0:0:0:
320,192,116920,1,0,0:0:0:0:
192,192,117020,1,0,0:0:0:0:
64,0,117020,128,0,117120:1:0:0:0:
448,192,117220,1,0,0:0:0:0:
192,0,117220,128,0,117320:1:0:0:0:
192,192,117420,1,0,0:0:0:0:
64,0,117420,128,0,117520:1:0:0:0:
448,192,117520,1,0,0:0:0:0:
192,192,117620,1,0,0:0:0:0:
448,192,117620,1,0,0:0:0:0:
192,192,117820,1,0,0:0:0:0:
64,0,117820,128,0,117920:1:0:0:0:
448,192,117920,1,0,0:0:0:0:
192,192,118020,1,0,0:0:0:0:
448,192,118020,1,0,0:0:0:0:
64,192,118220,1,0,0:0:0:0:
192,192,118220,1,0,0:0:0:0:
320,0,118320,128,0,118370:1:0:0:0:
448,192,118420,1,0,0:0:0:0:
64,192,118520,1,0,0:0:0:0:
320,192,118520,1,0,0:0:0:0:
64,192,118620,1,0,0:0:0:0:
192,0,118620,128,0,118720:1:0:0:0:
320,192,118820,1,0,0:0:0:0:
448,192,118870,1,0,0:0:0:0:
192,192,118920,1,0,0:0:0:0:
320,192,118970,1,0,0:0:0:0:
192,192,119020,1,0,0:0:0:0:
448,192,119020,1,0,0:0:0:0:
64,0,119020,128,0,119120:1:0:0:0:
192,192,119220,1,0,0:0:0:0:
448,192,119220,1,0,0:0:0:0:
64,192,119420,1,0,0:0:0:0:
192,192,119420,1,0,0:0:0:0:
192,192,119620,1,0,0:0:0:0:
448,192,119620,1,0,0:0:0:0:
64,192,119820,1,0,0:0:0:0:
192,192,119820,1,0,0:0:0:0:
320,192,119920,1,0,0:0:0:0:
192,192,120020,1,0,0:0:0:0:
448,192,120020,1,0,0:0:0:0:
320,192,120120,1,0,0:0:0:0:
192,192,120220,1,0,0:0:0:0:
64,0,120220,128,0,120320:1:0:0:0:
192,192,120420,1,0,0:0:0:0:
448,0,120420,128,0,120520:1:0:0:0:
448,192,120620,1,0,0:0:0:0:
192,0,120620,128,0,120720:1:0:0:0:
64,0,120620,128,0,121020:1:0:0:0:
448,192,121020,1,0,0:0:0:0:
320,0,121020,128,0,121120:1:0:0:0:
192,0,121020,128,0,121420:1:0:0:0:
64,192,121420,1,0,0:0:0:0:
448,0,121420,128,0,121520:1:0:0:0:
320,0,121420,128,0,121820:1:0:0:0:
192,0,121620,128,0,121820:1:0:0:0:
64,192,121820,1,0,0:0:0:0:
448,192,121820,1,0,0:0:0:0:
320,192,122020,1,0,0:0:0:0:
448,192,122070,1,0,0:0:0:0:
192,192,122120,1,0,0:0:0:0:
320,192,122170,1,0,0:0:0:0:
64,192,122220,1,0,0:0:0:0:
192,192,122220,1,0,0:0:0:0:
448,192,122220,1,0,0:0:0:0:
320,192,122270,1,0,0:0:0:0:
192,192,122320,1,0,0:0:0:0:
64,192,122370,1,0,0:0:0:0:
448,192,122420,1,0,0:0:0:0:
192,192,122470,1,0,0:0:0:0:
320,192,122520,1,0,0:0:0:0:
448,192,122570,1,0,0:0:0:0:
64,192,122620,1,0,0:0:0:0:
192,192,122620,1,0,0:0:0:0:
448,192,122720,1,0,0:0:0:0:
64,192,122820,1,0,0:0:0:0:
192,192,122820,1,0,0:0:0:0:
320,192,122870,1,0,0:0:0:0:
64,192,122920,1,0,0:0:0:0:
192,192,122920,1,0,0:0:0:0:
448,192,122970,1,0,0:0:0:0:
64,192,123020,1,0,0:0:0:0:
320,192,123020,1,0,0:0:0:0:
192,192,123120,1,0,0:0:0:0:
320,192,123120,1,0,0:0:0:0:
64,192,123220,1,0,0:0:0:0:
448,192,123320,1,0,0:0:0:0:
320,192,123370,1,0,0:0:0:0:
64,192,123420,1,0,0:0:0:0:
192,192,123420,1,0,0:0:0:0:
192,192,123520,1,0,0:0:0:0:
448,192,123520,1,0,0:0:0:0:
320,192,123620,1,0,0:0:0:0:
192,192,123720,1,0,0:0:0:0:
320,192,123820,1,0,0:0:0:0:
448,192,123820,1,0,0:0:0:0:
64,192,123870,1,0,0:0:0:0:
192,192,123870,1,0,0:0:0:0:
320,192,123920,1,0,0:0:0:0:
448,192,123920,1,0,0:0:0:0:
192,192,123970,1,0,0:0:0:0:
320,192,124020,1,0,0:0:0:0:
64,192,124120,1,0,0:0:0:0:
192,192,124120,1,0,0:0:0:0:
320,192,124170,1,0,0:0:0:0:
448,192,124170,1,0,0:0:0:0:
64,192,124220,1,0,0:0:0:0:
192,192,124220,1,0,0:0:0:0:
320,192,124320,1,0,0:0:0:0:
192,192,124370,1,0,0:0:0:0:
64,192,124420,1,0,0:0:0:0:
448,192,124420,1,0,0:0:0:0:
320,192,124470,1,0,0:0:0:0:
192,192,124520,1,0,0:0:0:0:
448,192,124520,1,0,0:0:0:0:
320,192,124570,1,0,0:0:0:0:
192,192,124620,1,0,0:0:0:0:
320,192,124720,1,0,0:0:0:0:
448,192,124720,1,0,0:0:0:0:
192,192,124820,1,0,0:0:0:0:
320,192,124820,1,0,0:0:0:0:
64,192,124920,1,0,0:0:0:0:
448,192,124920,1,0,0:0:0:0:
192,192,124970,1,0,0:0:0:0:
320,192,125020,1,0,0:0:0:0:
64,192,125120,1,0,0:0:0:0:
192,192,125170,1,0,0:0:0:0:
320,192,125220,1,0,0:0:0:0:
448,192,125220,1,0,0:0:0:0:
192,192,125270,1,0,0:0:0:0:
320,192,125320,1,0,0:0:0:0:
448,192,125320,1,0,0:0:0:0:
64,192,125420,1,0,0:0:0:0:
320,192,125420,1,0,0:0:0:0:
448,192,125420,1,0,0:0:0:0:
192,192,125520,1,0,0:0:0:0:
448,192,125620,1,0,0:0:0:0:
64,0,125620,128,0,125670:1:0:0:0:
320,0,125720,128,0,125770:1:0:0:0:
192,192,125820,1,0,0:0:0:0:
448,192,125820,1,0,0:0:0:0:
64,192,125920,1,0,0:0:0:0:
448,192,125920,1,0,0:0:0:0:
320,0,125970,128,0,126020:1:0:0:0:
192,192,126020,1,0,0:0:0:0:
64,192,126120,1,0,0:0:0:0:
192,192,126170,1,0,0:0:0:0:
320,192,126220,1,0,0:0:0:0:
448,192,126220,1,0,0:0:0:0:
320,192,126320,1,0,0:0:0:0:
448,192,126320,1,0,0:0:0:0:
64,192,126620,1,0,0:0:0:0:
320,192,126620,1,0,0:0:0:0:
448,192,126670,1,0,0:0:0:0:
192,192,126720,1,0,0:0:0:0:
320,192,126720,1,0,0:0:0:0:
64,192,126770,1,0,0:0:0:0:
448,192,126820,1,0,0:0:0:0:
320,192,126870,1,0,0:0:0:0:
64,192,126920,1,0,0:0:0:0:
192,192,126970,1,0,0:0:0:0:
320,192,127020,1,0,0:0:0:0:
448,192,127020,1,0,0:0:0:0:
64,192,127070,1,0,0:0:0:0:
192,192,127070,1,0,0:0:0:0:
320,192,127120,1,0,0:0:0:0:
448,192,127120,1,0,0:0:0:0:
192,192,127170,1,0,0:0:0:0:
320,192,127220,1,0,0:0:0:0:
64,192,127320,1,0,0:0:0:0:
192,192,127320,1,0,0:0:0:0:
320,192,127370,1,0,0:0:0:0:
448,192,127370,1,0,0:0:0:0:
64,192,127420,1,0,0:0:0:0:
192,192,127420,1,0,0:0:0:0:
320,192,127520,1,0,0:0:0:0:
192,192,127570,1,0,0:0:0:0:
320,192,127620,1,0,0:0:0:0:
448,192,127620,1,0,0:0:0:0:
192,192,127670,1,0,0:0:0:0:
320,192,127720,1,0,0:0:0:0:
448,192,127720,1,0,0:0:0:0:
64,192,127820,1,0,0:0:0:0:
192,192,127820,1,0,0:0:0:0:
448,192,127870,1,0,0:0:0:0:
320,192,127920,1,0,0:0:0:0:
192,192,127970,1,0,0:0:0:0:
64,192,128020,1,0,0:0:0:0:
448,192,128020,1,0,0:0:0:0:
320,192,128070,1,0,0:0:0:0:
192,192,128120,1,0,0:0:0:0:
448,192,128120,1,0,0:0:0:0:
64,192,128170,1,0,0:0:0:0:
320,0,128220,128,0,128420:1:0:0:0:
64,192,128420,1,0,0:0:0:0:
192,192,128420,1,0,0:0:0:0:
448,192,128470,1,0,0:0:0:0:
192,192,128520,1,0,0:0:0:0:
320,192,128520,1,0,0:0:0:0:
320,192,128620,1,0,0:0:0:0:
448,192,128620,1,0,0:0:0:0:
64,0,128620,128,0,128770:1:0:0:0:
448,0,128820,128,0,129020:1:0:0:0:
64,192,129120,1,0,0:0:0:0:
320,192,129120,1,0,0:0:0:0:
320,192,129220,1,0,0:0:0:0:
448,192,129220,1,0,0:0:0:0:
192,192,129270,1,0,0:0:0:0:
320,192,129320,1,0,0:0:0:0:
192,192,129370,1,0,0:0:0:0:
64,192,129420,1,0,0:0:0:0:
448,192,129420,1,0,0:0:0:0:
192,192,129520,1,0,0:0:0:0:
320,192,129520,1,0,0:0:0:0:
320,192,129620,1,0,0:0:0:0:
192,192,129720,1,0,0:0:0:0:
320,192,129770,1,0,0:0:0:0:
64,192,129820,1,0,0:0:0:0:
448,192,129820,1,0,0:0:0:0:
192,192,129920,1,0,0:0:0:0:
448,192,129920,1,0,0:0:0:0:
320,192,130020,1,0,0:0:0:0:
64,192,130120,1,0,0:0:0:0:
192,192,130120,1,0,0:0:0:0:
320,192,130220,1,0,0:0:0:0:
448,192,130220,1,0,0:0:0:0:
64,192,130270,1,0,0:0:0:0:
192,192,130270,1,0,0:0:0:0:
320,192,130320,1,0,0:0:0:0:
448,192,130320,1,0,0:0:0:0:
192,192,130370,1,0,0:0:0:0:
320,192,130420,1,0,0:0:0:0:
64,192,130520,1,0,0:0:0:0:
192,192,130520,1,0,0:0:0:0:
320,192,130570,1,0,0:0:0:0:
448,192,130570,1,0,0:0:0:0:
64,192,130620,1,0,0:0:0:0:
192,192,130620,1,0,0:0:0:0:
320,192,130720,1,0,0:0:0:0:
448,192,130720,1,0,0:0:0:0:
192,192,130770,1,0,0:0:0:0:
320,192,130820,1,0,0:0:0:0:
448,192,130820,1,0,0:0:0:0:
192,192,130870,1,0,0:0:0:0:
320,192,130920,1,0,0:0:0:0:
448,192,130920,1,0,0:0:0:0:
64,192,131020,1,0,0:0:0:0:
320,192,131070,1,0,0:0:0:0:
64,192,131120,1,0,0:0:0:0:
448,192,131120,1,0,0:0:0:0:
64,192,131220,1,0,0:0:0:0:
320,192,131220,1,0,0:0:0:0:
192,192,131320,1,0,0:0:0:0:
448,192,131320,1,0,0:0:0:0:
320,192,131370,1,0,0:0:0:0:
64,192,131420,1,0,0:0:0:0:
192,192,131470,1,0,0:0:0:0:
320,192,131520,1,0,0:0:0:0:
192,192,131620,1,0,0:0:0:0:
448,192,131620,1,0,0:0:0:0:
64,192,131670,1,0,0:0:0:0:
320,192,131720,1,0,0:0:0:0:
448,192,131720,1,0,0:0:0:0:
64,192,131820,1,0,0:0:0:0:
192,192,131820,1,0,0:0:0:0:
320,192,131820,1,0,0:0:0:0:
448,0,132020,128,0,132070:1:0:0:0:
320,192,132070,1,0,0:0:0:0:
64,0,132120,128,0,132170:1:0:0:0:
192,192,132170,1,0,0:0:0:0:
320,192,132220,1,0,0:0:0:0:
192,0,132370,128,0,132420:1:0:0:0:
320,192,132420,1,0,0:0:0:0:
448,192,132420,1,0,0:0:0:0:
320,192,132520,1,0,0:0:0:0:
448,192,132520,1,0,0:0:0:0:
192,192,132570,1,0,0:0:0:0:
64,192,132620,1,0,0:0:0:0:
192,192,132720,1,0,0:0:0:0:
320,192,132720,1,0,0:0:0:0:
192,192,132820,1,0,0:0:0:0:
320,192,132820,1,0,0:0:0:0:
64,192,133020,1,0,0:0:0:0:
192,192,133020,1,0,0:0:0:0:
448,192,133070,1,0,0:0:0:0:
64,192,133120,1,0,0:0:0:0:
192,192,133120,1,0,0:0:0:0:
448,192,133170,1,0,0:0:0:0:
320,192,133220,1,0,0:0:0:0:
64,192,133270,1,0,0:0:0:0:
192,192,133320,1,0,0:0:0:0:
320,192,133420,1,0,0:0:0:0:
448,192,133420,1,0,0:0:0:0:
64,192,133470,1,0,0:0:0:0:
192,192,133470,1,0,0:0:0:0:
320,192,133520,1,0,0:0:0:0:
448,192,133520,1,0,0:0:0:0:
192,192,133570,1,0,0:0:0:0:
320,192,133620,1,0,0:0:0:0:
64,192,133720,1,0,0:0:0:0:
192,192,133720,1,0,0:0:0:0:
320,192,133770,1,0,0:0:0:0:
448,192,133770,1,0,0:0:0:0:
64,192,133820,1,0,0:0:0:0:
192,192,133820,1,0,0:0:0:0:
192,192,133920,1,0,0:0:0:0:
320,192,134020,1,0,0:0:0:0:
448,192,134020,1,0,0:0:0:0:
320,192,134120,1,0,0:0:0:0:
448,192,134120,1,0,0:0:0:0:
192,192,134220,1,0,0:0:0:0:
64,192,134270,1,0,0:0:0:0:
448,192,134320,1,0,0:0:0:0:
320,192,134370,1,0,0:0:0:0:
64,192,134420,1,0,0:0:0:0:
192,192,134420,1,0,0:0:0:0:
320,192,134470,1,0,0:0:0:0:
192,192,134520,1,0,0:0:0:0:
448,192,134520,1,0,0:0:0:0:
448,192,134620,1,0,0:0:0:0:
64,0,134620,128,0,134820:1:0:0:0:
448,192,134820,1,0,0:0:0:0:
320,0,134820,128,0,135020:1:0:0:0:
64,192,134920,1,0,0:0:0:0:
192,192,134920,1,0,0:0:0:0:
64,192,135020,1,0,0:0:0:0:
192,192,135020,1,0,0:0:0:0:
448,192,135020,1,0,0:0:0:0:
64,192,135220,1,0,0:0:0:0:
320,192,135220,1,0,0:0:0:0:
64,192,135420,1,0,0:0:0:0:
192,192,135420,1,0,0:0:0:0:
448,192,135420,1,0,0:0:0:0:
64,192,135620,1,0,0:0:0:0:
320,192,135620,1,0,0:0:0:0:
64,192,135820,1,0,0:0:0:0:
192,192,135820,1,0,0:0:0:0:
448,192,135820,1,0,0:0:0:0:
64,192,136020,1,0,0:0:0:0:
320,192,136020,1,0,0:0:0:0:
64,192,136220,1,0,0:0:0:0:
192,192,136220,1,0,0:0:0:0:
448,192,136220,1,0,0:0:0:0:
320,192,136320,1,0,0:0:0:0:
64,192,136420,1,0,0:0:0:0:
192,192,136420,1,0,0:0:0:0:
320,192,136520,1,0,0:0:0:0:
64,192,136620,1,0,0:0:0:0:
192,192,136620,1,0,0:0:0:0:
448,192,136620,1,0,0:0:0:0:
64,192,136820,1,0,0:0:0:0:
320,192,136820,1,0,0:0:0:0:
64,192,137020,1,0,0:0:0:0:
192,192,137020,1,0,0:0:0:0:
448,192,137020,1,0,0:0:0:0:
64,192,137220,1,0,0:0:0:0:
320,192,137220,1,0,0:0:0:0:
64,192,137420,1,0,0:0:0:0:
192,192,137420,1,0,0:0:0:0:
448,192,137420,1,0,0:0:0:0:
448,192,137520,1,0,0:0:0:0:
320,192,137570,1,0,0:0:0:0:
64,192,137620,1,0,0:0:0:0:
192,192,137620,1,0,0:0:0:0:
448,192,137720,1,0,0:0:0:0:
320,192,137770,1,0,0:0:0:0:
64,192,137820,1,0,0:0:0:0:
192,192,137820,1,0,0:0:0:0:
448,192,137920,1,0,0:0:0:0:
320,192,137970,1,0,0:0:0:0:
64,192,138020,1,0,0:0:0:0:
192,192,138020,1,0,0:0:0:0:
448,192,138120,1,0,0:0:0:0:
320,192,138170,1,0,0:0:0:0:
64,192,138220,1,0,0:0:0:0:
192,192,138220,1,0,0:0:0:0:
448,192,138220,1,0,0:0:0:0:
64,192,138420,1,0,0:0:0:0:
320,192,138420,1,0,0:0:0:0:
64,192,138620,1,0,0:0:0:0:
192,192,138620,1,0,0:0:0:0:
448,192,138620,1,0,0:0:0:0:
64,192,138820,1,0,0:0:0:0:
320,192,138820,1,0,0:0:0:0:
64,192,139020,1,0,0:0:0:0:
192,192,139020,1,0,0:0:0:0:
448,192,139020,1,0,0:0:0:0:
64,192,139220,1,0,0:0:0:0:
320,192,139220,1,0,0:0:0:0:
64,192,139420,1,0,0:0:0:0:
192,192,139420,1,0,0:0:0:0:
448,192,139420,1,0,0:0:0:0:
320,192,139520,1,0,0:0:0:0:
64,192,139620,1,0,0:0:0:0:
192,192,139620,1,0,0:0:0:0:
448,192,139720,1,0,0:0:0:0:
320,192,139820,1,0,0:0:0:0:
320,192,139920,1,0,0:0:0:0:
320,192,140020,1,0,0:0:0:0:
320,192,140120,1,0,0:0:0:0:
448,192,140153,1,0,0:0:0:0:
64,192,140186,1,0,0:0:0:0:
192,192,140220,1,0,0:0:0:0:
192,192,140320,1,0,0:0:0:0:
192,192,140420,1,0,0:0:0:0:
192,192,140520,1,0,0:0:0:0:
192,192,140620,1,0,0:0:0:0:
320,192,140670,1,0,0:0:0:0:
448,192,140720,1,0,0:0:0:0:
192,192,140770,1,0,0:0:0:0:
320,192,140920,1,0,0:0:0:0:
192,192,140970,1,0,0:0:0:0:
64,192,141020,128,0,141170:0:0:0:0:
448,192,141045,1,0,0:0:0:0:
320,192,141070,1,0,0:0:0:0:
320,192,141220,1,0,0:0:0:0:
448,192,141220,1,0,0:0:0:0:
320,192,141320,1,0,0:0:0:0:
448,192,141320,1,0,0:0:0:0:
320,192,141420,1,0,0:0:0:0:
64,192,141420,1,0,0:0:0:0:
448,192,141420,1,0,0:0:0:0:
192,192,141486,1,0,0:0:0:0:
320,192,141553,1,0,0:0:0:0:
192,192,141620,1,0,0:0:0:0:
64,192,141620,1,0,0:0:0:0:
320,192,141686,1,0,0:0:0:0:
192,192,141753,1,0,0:0:0:0:
448,192,141820,1,0,0:0:0:0:
320,192,141820,1,0,0:0:0:0:
64,192,142020,1,0,0:0:0:0:
448,192,142020,1,0,0:0:0:0:
192,192,142220,1,0,0:0:0:0:
320,192,142220,1,0,0:0:0:0:
192,192,142353,1,0,0:0:0:0:
320,192,142420,1,0,0:0:0:0:
192,192,142486,1,0,0:0:0:0:
64,192,142620,1,0,0:0:0:0:
192,192,142620,1,0,0:0:0:0:
320,192,142720,1,0,0:0:0:0:
448,192,142720,1,0,0:0:0:0:
64,192,142770,1,0,0:0:0:0:
192,192,142820,1,0,0:0:0:0:
320,192,142870,1,0,0:0:0:0:
448,192,142920,1,0,0:0:0:0:
64,192,142953,1,0,0:0:0:0:
192,192,142986,1,0,0:0:0:0:
320,192,143020,1,0,0:0:0:0:
448,192,143053,1,0,0:0:0:0:
64,192,143086,1,0,0:0:0:0:
192,192,143120,1,0,0:0:0:0:
448,192,143320,1,0,0:0:0:0:
320,192,143320,1,0,0:0:0:0:
192,192,143420,1,0,0:0:0:0:
320,192,143520,1,0,0:0:0:0:
448,192,143520,1,0,0:0:0:0:
192,192,143620,1,0,0:0:0:0:
320,192,143720,1,0,0:0:0:0:
448,192,143720,1,0,0:0:0:0:
192,192,143820,1,0,0:0:0:0:
320,192,143920,1,0,0:0:0:0:
448,192,143920,1,0,0:0:0:0:
64,192,143970,1,0,0:0:0:0:
192,192,144020,1,0,0:0:0:0:
320,192,144120,1,0,0:0:0:0:
448,192,144120,1,0,0:0:0:0:
64,192,144170,1,0,0:0:0:0:
448,192,144220,1,0,0:0:0:0:
192,192,144220,1,0,0:0:0:0:
320,192,144320,1,0,0:0:0:0:
192,192,144370,1,0,0:0:0:0:
64,192,144420,1,0,0:0:0:0:
320,192,144420,1,0,0:0:0:0:
448,192,144520,1,0,0:0:0:0:
320,192,144570,1,0,0:0:0:0:
64,192,144620,1,0,0:0:0:0:
192,192,144620,1,0,0:0:0:0:
448,192,144620,1,0,0:0:0:0:
320,192,144670,1,0,0:0:0:0:
64,192,144720,1,0,0:0:0:0:
192,192,144770,1,0,0:0:0:0:
320,192,144820,1,0,0:0:0:0:
64,192,144870,1,0,0:0:0:0:
192,192,144920,1,0,0:0:0:0:
64,192,144970,1,0,0:0:0:0:
320,192,145020,1,0,0:0:0:0:
448,192,145020,1,0,0:0:0:0:
320,192,145120,1,0,0:0:0:0:
64,192,145220,1,0,0:0:0:0:
192,192,145220,1,0,0:0:0:0:
448,192,145270,1,0,0:0:0:0:
192,192,145320,1,0,0:0:0:0:
320,192,145320,1,0,0:0:0:0:
64,192,145370,1,0,0:0:0:0:
320,192,145420,1,0,0:0:0:0:
448,192,145420,1,0,0:0:0:0:
320,192,145520,1,0,0:0:0:0:
448,192,145520,1,0,0:0:0:0:
192,192,145620,1,0,0:0:0:0:
448,192,145720,1,0,0:0:0:0:
320,192,145770,1,0,0:0:0:0:
64,192,145820,1,0,0:0:0:0:
192,192,145820,1,0,0:0:0:0:
192,192,145920,1,0,0:0:0:0:
448,192,145920,1,0,0:0:0:0:
320,192,146020,1,0,0:0:0:0:
192,192,146120,1,0,0:0:0:0:
320,192,146220,1,0,0:0:0:0:
448,192,146220,1,0,0:0:0:0:
64,192,146270,1,0,0:0:0:0:
192,192,146270,1,0,0:0:0:0:
320,192,146320,1,0,0:0:0:0:
448,192,146320,1,0,0:0:0:0:
192,192,146370,1,0,0:0:0:0:
448,192,146520,1,0,0:0:0:0:
320,192,146553,1,0,0:0:0:0:
64,192,146586,1,0,0:0:0:0:
192,192,146620,1,0,0:0:0:0:
320,192,146653,1,0,0:0:0:0:
448,192,146686,1,0,0:0:0:0:
64,192,146720,1,0,0:0:0:0:
192,192,146753,1,0,0:0:0:0:
320,192,146820,1,0,0:0:0:0:
320,192,146920,1,0,0:0:0:0:
320,192,147020,1,0,0:0:0:0:
320,192,147120,1,0,0:0:0:0:
320,192,147220,1,0,0:0:0:0:
192,192,147320,1,0,0:0:0:0:
448,192,147420,1,0,0:0:0:0:
448,192,147570,128,0,147670:0:0:0:0:
192,192,147620,1,0,0:0:0:0:
64,192,147670,1,0,0:0:0:0:
192,192,147720,1,0,0:0:0:0:
320,192,147770,1,0,0:0:0:0:
64,192,147820,1,0,0:0:0:0:
192,192,147820,1,0,0:0:0:0:
448,192,147820,1,0,0:0:0:0:
320,192,147886,1,0,0:0:0:0:
192,192,147953,1,0,0:0:0:0:
320,192,148020,1,0,0:0:0:0:
448,192,148020,1,0,0:0:0:0:
64,192,148220,1,0,0:0:0:0:
192,192,148220,1,0,0:0:0:0:
320,192,148286,1,0,0:0:0:0:
192,192,148353,1,0,0:0:0:0:
320,192,148420,1,0,0:0:0:0:
448,192,148420,1,0,0:0:0:0:
64,192,148620,1,0,0:0:0:0:
192,192,148620,1,0,0:0:0:0:
320,192,148686,1,0,0:0:0:0:
192,192,148753,1,0,0:0:0:0:
320,192,148820,1,0,0:0:0:0:
448,192,148820,1,0,0:0:0:0:
64,192,149020,1,0,0:0:0:0:
192,192,149020,1,0,0:0:0:0:
192,192,149120,1,0,0:0:0:0:
320,192,149220,1,0,0:0:0:0:
448,192,149220,1,0,0:0:0:0:
320,192,149320,1,0,0:0:0:0:
64,192,149420,1,0,0:0:0:0:
192,192,149420,1,0,0:0:0:0:
320,192,149486,1,0,0:0:0:0:
192,192,149553,1,0,0:0:0:0:
320,192,149620,1,0,0:0:0:0:
448,192,149620,1,0,0:0:0:0:
64,192,149820,1,0,0:0:0:0:
192,192,149820,1,0,0:0:0:0:
320,192,149886,1,0,0:0:0:0:
192,192,149953,1,0,0:0:0:0:
320,192,150020,1,0,0:0:0:0:
448,192,150020,1,0,0:0:0:0:
64,192,150220,1,0,0:0:0:0:
192,192,150220,1,0,0:0:0:0:
448,192,150320,1,0,0:0:0:0:
320,192,150370,1,0,0:0:0:0:
64,192,150420,1,0,0:0:0:0:
192,192,150420,1,0,0:0:0:0:
448,192,150520,1,0,0:0:0:0:
320,192,150570,1,0,0:0:0:0:
64,192,150620,1,0,0:0:0:0:
192,192,150620,1,0,0:0:0:0:
448,192,150720,1,0,0:0:0:0:
320,192,150770,1,0,0:0:0:0:
64,192,150820,1,0,0:0:0:0:
192,192,150820,1,0,0:0:0:0:
448,192,150920,1,0,0:0:0:0:
320,192,150970,1,0,0:0:0:0:
64,192,151020,1,0,0:0:0:0:
192,192,151020,1,0,0:0:0:0:
448,192,151020,1,0,0:0:0:0:
320,192,151086,1,0,0:0:0:0:
192,192,151153,1,0,0:0:0:0:
320,192,151220,1,0,0:0:0:0:
448,192,151220,1,0,0:0:0:0:
64,192,151420,1,0,0:0:0:0:
192,192,151420,1,0,0:0:0:0:
320,192,151486,1,0,0:0:0:0:
192,192,151553,1,0,0:0:0:0:
320,192,151620,1,0,0:0:0:0:
448,192,151620,1,0,0:0:0:0:
64,192,151820,1,0,0:0:0:0:
192,192,151820,1,0,0:0:0:0:
320,192,151886,1,0,0:0:0:0:
192,192,151953,1,0,0:0:0:0:
320,192,152020,1,0,0:0:0:0:
448,192,152020,1,0,0:0:0:0:
64,192,152220,1,0,0:0:0:0:
192,192,152220,1,0,0:0:0:0:
192,192,152320,1,0,0:0:0:0:
320,192,152420,1,0,0:0:0:0:
448,192,152420,1,0,0:0:0:0:
320,192,152520,1,0,0:0:0:0:
64,192,152620,1,0,0:0:0:0:
192,192,152620,1,0,0:0:0:0:
64,192,152720,1,0,0:0:0:0:
192,192,152720,1,0,0:0:0:0:
448,192,152820,1,0,0:0:0:0:
320,192,152920,1,0,0:0:0:0:
192,192,152953,1,0,0:0:0:0:
64,192,152986,1,0,0:0:0:0:
320,192,153020,1,0,0:0:0:0:
448,192,153020,1,0,0:0:0:0:
320,192,153120,1,0,0:0:0:0:
448,192,153120,1,0,0:0:0:0:
64,192,153220,1,0,0:0:0:0:
192,192,153320,1,0,0:0:0:0:
320,192,153420,1,0,0:0:0:0:
448,192,153420,1,0,0:0:0:0:
64,192,153470,1,0,0:0:0:0:
192,192,153470,1,0,0:0:0:0:
320,192,153520,1,0,0:0:0:0:
448,192,153520,1,0,0:0:0:0:
192,192,153570,1,0,0:0:0:0:
64,192,153720,1,0,0:0:0:0:
192,192,153720,1,0,0:0:0:0:
320,192,153770,1,0,0:0:0:0:
448,192,153770,1,0,0:0:0:0:
64,192,153820,1,0,0:0:0:0:
192,192,153820,1,0,0:0:0:0:
320,192,153920,1,0,0:0:0:0:
448,192,153920,1,0,0:0:0:0:
320,192,154020,1,0,0:0:0:0:
448,192,154020,1,0,0:0:0:0:
320,192,154120,1,0,0:0:0:0:
448,192,154120,1,0,0:0:0:0:
64,192,154220,1,0,0:0:0:0:
192,192,154220,1,0,0:0:0:0:
448,192,154220,1,0,0:0:0:0:
64,192,154420,1,0,0:0:0:0:
192,192,154420,1,0,0:0:0:0:
320,192,154520,1,0,0:0:0:0:
448,192,154520,1,0,0:0:0:0:
64,192,154620,1,0,0:0:0:0:
192,192,154620,1,0,0:0:0:0:
320,192,154720,1,0,0:0:0:0:
448,192,154720,1,0,0:0:0:0:
64,192,154820,1,0,0:0:0:0:
192,192,154820,1,0,0:0:0:0:
320,192,154920,1,0,0:0:0:0:
448,192,154920,1,0,0:0:0:0:
64,192,155020,1,0,0:0:0:0:
192,192,155020,1,0,0:0:0:0:
448,192,155086,1,0,0:0:0:0:
320,192,155120,1,0,0:0:0:0:
64,192,155220,1,0,0:0:0:0:
192,192,155220,1,0,0:0:0:0:
320,192,155320,1,0,0:0:0:0:
448,192,155320,1,0,0:0:0:0:
64,192,155420,1,0,0:0:0:0:
192,192,155420,1,0,0:0:0:0:
320,192,155520,1,0,0:0:0:0:
448,192,155520,1,0,0:0:0:0:
64,192,155620,1,0,0:0:0:0:
192,192,155620,1,0,0:0:0:0:
320,192,155720,1,0,0:0:0:0:
448,192,155720,1,0,0:0:0:0:
64,192,155820,1,0,0:0:0:0:
192,192,155853,1,0,0:0:0:0:
320,192,155886,1,0,0:0:0:0:
448,192,155920,1,0,0:0:0:0:
192,192,156020,1,0,0:0:0:0:
448,192,156120,1,0,0:0:0:0:
320,192,156153,1,0,0:0:0:0:
192,192,156186,1,0,0:0:0:0:
64,192,156220,1,0,0:0:0:0:
320,192,156320,1,0,0:0:0:0:
192,192,156420,1,0,0:0:0:0:
64,192,156453,1,0,0:0:0:0:
448,192,156486,1,0,0:0:0:0:
320,192,156520,1,0,0:0:0:0:
192,192,156620,1,0,0:0:0:0:
320,192,156720,1,0,0:0:0:0:
448,192,156753,1,0,0:0:0:0:
64,192,156786,1,0,0:0:0:0:
192,192,156820,1,0,0:0:0:0:
320,192,156920,1,0,0:0:0:0:
192,192,157020,1,0,0:0:0:0:
64,192,157053,1,0,0:0:0:0:
448,192,157086,1,0,0:0:0:0:
320,192,157120,1,0,0:0:0:0:
192,0,157220,128,0,157420:1:0:0:0:
448,0,157420,128,0,157520:1:0:0:0:
64,0,157520,128,0,157620:1:0:0:0:
448,0,157620,128,0,157720:1:0:0:0:
64,192,157820,1,0,0:0:0:0:
320,192,157820,1,0,0:0:0:0:
192,192,157920,1,0,0:0:0:0:
448,192,157920,1,0,0:0:0:0:
64,192,158020,1,0,0:0:0:0:
320,192,158020,1,0,0:0:0:0:
192,192,158120,1,0,0:0:0:0:
448,192,158120,1,0,0:0:0:0:
448,192,158320,1,0,0:0:0:0:
320,192,158370,1,0,0:0:0:0:
64,192,158420,1,0,0:0:0:0:
192,192,158420,1,0,0:0:0:0:
320,192,158520,1,0,0:0:0:0:
448,192,158520,1,0,0:0:0:0:
64,192,158620,1,0,0:0:0:0:
192,192,158620,1,0,0:0:0:0:
320,192,158720,1,0,0:0:0:0:
448,192,158720,1,0,0:0:0:0:
64,192,158820,1,0,0:0:0:0:
192,192,158820,1,0,0:0:0:0:
320,192,158920,1,0,0:0:0:0:
448,192,158920,1,0,0:0:0:0:
192,192,159020,1,0,0:0:0:0:
64,192,159053,1,0,0:0:0:0:
320,192,159086,1,0,0:0:0:0:
448,192,159120,1,0,0:0:0:0:
192,192,159153,1,0,0:0:0:0:
320,192,159186,1,0,0:0:0:0:
64,192,159220,1,0,0:0:0:0:
448,192,159320,1,0,0:0:0:0:
320,192,159353,1,0,0:0:0:0:
192,192,159386,1,0,0:0:0:0:
64,192,159420,1,0,0:0:0:0:
192,192,159520,1,0,0:0:0:0:
320,192,159620,1,0,0:0:0:0:
448,192,159653,1,0,0:0:0:0:
64,192,159686,1,0,0:0:0:0:
192,192,159720,1,0,0:0:0:0:
448,192,159820,1,0,0:0:0:0:
320,192,159853,1,0,0:0:0:0:
192,192,159886,1,0,0:0:0:0:
64,192,159920,1,0,0:0:0:0:
320,192,159970,1,0,0:0:0:0:
192,192,160020,1,0,0:0:0:0:
320,192,160070,1,0,0:0:0:0:
448,192,160120,1,0,0:0:0:0:
192,192,160170,1,0,0:0:0:0:
64,0,160220,128,0,160320:1:0:0:0:
192,0,160420,128,0,160620:1:0:0:0:
64,192,160620,1,0,0:0:0:0:
320,192,160620,1,0,0:0:0:0:
448,192,160620,1,0,0:0:0:0:
320,192,160720,1,0,0:0:0:0:
448,192,160720,1,0,0:0:0:0:
64,192,160820,1,0,0:0:0:0:
192,192,160820,1,0,0:0:0:0:
320,192,160920,1,0,0:0:0:0:
448,192,160920,1,0,0:0:0:0:
64,192,161020,1,0,0:0:0:0:
192,192,161020,1,0,0:0:0:0:
192,192,161220,1,0,0:0:0:0:
448,192,161220,1,0,0:0:0:0:
64,192,161420,1,0,0:0:0:0:
192,192,161420,1,0,0:0:0:0:
320,192,161520,1,0,0:0:0:0:
448,192,161520,1,0,0:0:0:0:
64,192,161620,1,0,0:0:0:0:
192,192,161620,1,0,0:0:0:0:
320,192,161720,1,0,0:0:0:0:
448,192,161720,1,0,0:0:0:0:
64,192,161820,1,0,0:0:0:0:
192,192,161820,1,0,0:0:0:0:
320,192,161870,1,0,0:0:0:0:
448,192,161920,1,0,0:0:0:0:
192,192,161970,1,0,0:0:0:0:
64,192,162020,1,0,0:0:0:0:
192,192,162070,1,0,0:0:0:0:
448,0,162120,128,0,162220:1:0:0:0:
320,0,162220,128,0,162420:1:0:0:0:
192,192,162420,1,0,0:0:0:0:
64,192,162470,1,0,0:0:0:0:
448,192,162520,1,0,0:0:0:0:
320,192,162570,1,0,0:0:0:0:
192,0,162620,128,0,162720:1:0:0:0:
320,0,162720,128,0,162820:1:0:0:0:
64,192,162820,1,0,0:0:0:0:
192,192,162820,1,0,0:0:0:0:
320,192,162920,1,0,0:0:0:0:
448,192,162920,1,0,0:0:0:0:
64,192,163020,1,0,0:0:0:0:
192,192,163020,1,0,0:0:0:0:
320,192,163120,1,0,0:0:0:0:
448,192,163120,1,0,0:0:0:0:
64,192,163220,1,0,0:0:0:0:
192,192,163220,1,0,0:0:0:0:
320,192,163320,1,0,0:0:0:0:
448,192,163320,1,0,0:0:0:0:
64,192,163420,1,0,0:0:0:0:
192,192,163420,1,0,0:0:0:0:
192,192,163620,1,0,0:0:0:0:
448,192,163620,1,0,0:0:0:0:
64,192,163820,1,0,0:0:0:0:
320,192,163820,1,0,0:0:0:0:
448,192,163820,1,0,0:0:0:0:
320,192,163920,1,0,0:0:0:0:
448,192,163920,1,0,0:0:0:0:
64,192,164020,1,0,0:0:0:0:
192,192,164020,1,0,0:0:0:0:
320,192,164120,1,0,0:0:0:0:
448,192,164120,1,0,0:0:0:0:
64,192,164220,1,0,0:0:0:0:
192,192,164220,1,0,0:0:0:0:
192,192,164420,1,0,0:0:0:0:
448,192,164420,1,0,0:0:0:0:
64,192,164620,1,0,0:0:0:0:
192,192,164620,1,0,0:0:0:0:
320,192,164720,1,0,0:0:0:0:
448,192,164720,1,0,0:0:0:0:
64,192,164820,1,0,0:0:0:0:
192,192,164820,1,0,0:0:0:0:
320,192,164870,1,0,0:0:0:0:
448,192,164920,1,0,0:0:0:0:
64,192,164970,1,0,0:0:0:0:
192,192,165020,1,0,0:0:0:0:
320,192,165070,1,0,0:0:0:0:
448,192,165120,1,0,0:0:0:0:
64,192,165170,1,0,0:0:0:0:
192,0,165220,128,0,165370:1:0:0:0:
320,192,165420,1,0,0:0:0:0:
448,192,165420,1,0,0:0:0:0:
64,192,165520,1,0,0:0:0:0:
192,192,165520,1,0,0:0:0:0:
320,192,165620,1,0,0:0:0:0:
448,192,165620,1,0,0:0:0:0:
64,192,165720,1,0,0:0:0:0:
192,192,165720,1,0,0:0:0:0:
320,192,165820,1,0,0:0:0:0:
448,192,165820,1,0,0:0:0:0:
64,192,166020,1,0,0:0:0:0:
320,192,166020,1,0,0:0:0:0:
192,192,166120,1,0,0:0:0:0:
320,192,166320,1,0,0:0:0:0:
448,192,166320,1,0,0:0:0:0:
64,192,166420,1,0,0:0:0:0:
192,192,166420,1,0,0:0:0:0:
448,192,166520,1,0,0:0:0:0:
320,192,166570,1,0,0:0:0:0:
64,192,166620,1,0,0:0:0:0:
192,192,166620,1,0,0:0:0:0:
64,192,166720,1,0,0:0:0:0:
192,192,166720,1,0,0:0:0:0:
320,192,166820,1,0,0:0:0:0:
448,192,166870,1,0,0:0:0:0:
192,192,166920,1,0,0:0:0:0:
320,192,166920,1,0,0:0:0:0:
192,192,167020,1,0,0:0:0:0:
320,192,167020,1,0,0:0:0:0:
448,192,167020,1,0,0:0:0:0:
64,192,167120,1,0,0:0:0:0:
192,192,167120,1,0,0:0:0:0:
320,192,167220,1,0,0:0:0:0:
448,192,167220,1,0,0:0:0:0:
64,192,167320,1,0,0:0:0:0:
192,192,167320,1,0,0:0:0:0:
320,192,167420,1,0,0:0:0:0:
448,192,167420,1,0,0:0:0:0:
64,192,167620,1,0,0:0:0:0:
320,192,167620,1,0,0:0:0:0:
320,192,167820,1,0,0:0:0:0:
448,192,167820,1,0,0:0:0:0:
64,192,167920,1,0,0:0:0:0:
192,192,167920,1,0,0:0:0:0:
320,192,168020,1,0,0:0:0:0:
448,192,168020,1,0,0:0:0:0:
64,192,168120,1,0,0:0:0:0:
192,192,168120,1,0,0:0:0:0:
320,192,168220,1,0,0:0:0:0:
448,192,168220,1,0,0:0:0:0:
64,192,168420,1,0,0:0:0:0:
320,192,168420,1,0,0:0:0:0:
448,192,168620,1,0,0:0:0:0:
320,192,168653,1,0,0:0:0:0:
192,192,168686,1,0,0:0:0:0:
64,192,168720,1,0,0:0:0:0:
448,192,168753,1,0,0:0:0:0:
320,192,168786,1,0,0:0:0:0:
192,192,168820,1,0,0:0:0:0:
64,192,168853,1,0,0:0:0:0:
448,192,168886,1,0,0:0:0:0:
320,192,168920,1,0,0:0:0:0:
192,192,168953,1,0,0:0:0:0:
64,192,168986,1,0,0:0:0:0:
448,192,169020,1,0,0:0:0:0:
448,192,169220,1,0,0:0:0:0:
64,192,169420,1,0,0:0:0:0:
192,192,169420,1,0,0:0:0:0:
320,192,169520,1,0,0:0:0:0:
448,192,169520,1,0,0:0:0:0:
64,192,169620,1,0,0:0:0:0:
192,192,169620,1,0,0:0:0:0:
320,192,169720,1,0,0:0:0:0:
448,192,169720,1,0,0:0:0:0:
64,192,169820,1,0,0:0:0:0:
192,192,169820,1,0,0:0:0:0:
448,192,169870,1,0,0:0:0:0:
192,192,169920,1,0,0:0:0:0:
320,192,169970,1,0,0:0:0:0:
448,192,170020,1,0,0:0:0:0:
64,192,170070,1,0,0:0:0:0:
320,192,170120,1,0,0:0:0:0:
448,192,170170,1,0,0:0:0:0:
64,192,170220,1,0,0:0:0:0:
192,192,170220,1,0,0:0:0:0:
320,192,170220,1,0,0:0:0:0:
64,192,170320,1,0,0:0:0:0:
192,192,170320,1,0,0:0:0:0:
64,192,170420,1,0,0:0:0:0:
320,192,170420,1,0,0:0:0:0:
448,192,170470,1,0,0:0:0:0:
192,192,170520,1,0,0:0:0:0:
320,192,170520,1,0,0:0:0:0:
64,192,170570,1,0,0:0:0:0:
320,192,170620,1,0,0:0:0:0:
448,192,170620,1,0,0:0:0:0:
320,192,170820,1,0,0:0:0:0:
192,192,170820,1,0,0:0:0:0:
448,0,171020,128,0,171120:1:0:0:0:
64,192,171120,1,0,0:0:0:0:
192,192,171120,1,0,0:0:0:0:
64,192,171220,1,0,0:0:0:0:
192,192,171220,1,0,0:0:0:0:
64,192,171320,1,0,0:0:0:0:
192,192,171320,1,0,0:0:0:0:
448,0,171420,128,0,171520:1:0:0:0:
320,192,171520,1,0,0:0:0:0:
192,192,171570,1,0,0:0:0:0:
64,0,171620,128,0,171720:1:0:0:0:
320,192,171720,1,0,0:0:0:0:
448,192,171770,1,0,0:0:0:0:
64,192,171820,1,0,0:0:0:0:
192,192,171820,1,0,0:0:0:0:
64,192,171920,1,0,0:0:0:0:
192,192,171920,1,0,0:0:0:0:
64,192,172020,1,0,0:0:0:0:
192,192,172020,1,0,0:0:0:0:
64,192,172120,1,0,0:0:0:0:
192,192,172120,1,0,0:0:0:0:
64,192,172220,1,0,0:0:0:0:
192,192,172220,1,0,0:0:0:0:
64,192,172420,1,0,0:0:0:0:
192,192,172420,1,0,0:0:0:0:
64,192,172620,1,0,0:0:0:0:
192,192,172620,1,0,0:0:0:0:
320,192,172670,1,0,0:0:0:0:
448,192,172720,1,0,0:0:0:0:
320,192,172770,1,0,0:0:0:0:
64,192,172820,1,0,0:0:0:0:
192,192,172820,1,0,0:0:0:0:
64,192,172920,1,0,0:0:0:0:
192,192,172920,1,0,0:0:0:0:
320,192,173020,1,0,0:0:0:0:
448,192,173020,1,0,0:0:0:0:
192,192,173070,1,0,0:0:0:0:
64,192,173120,1,0,0:0:0:0:
192,192,173170,1,0,0:0:0:0:
320,192,173220,1,0,0:0:0:0:
448,192,173220,1,0,0:0:0:0:
320,192,173320,1,0,0:0:0:0:
448,192,173320,1,0,0:0:0:0:
320,192,173420,1,0,0:0:0:0:
448,192,173420,1,0,0:0:0:0:
64,192,173470,1,0,0:0:0:0:
192,192,173520,1,0,0:0:0:0:
448,192,173570,1,0,0:0:0:0:
320,192,173620,1,0,0:0:0:0:
192,192,173670,1,0,0:0:0:0:
64,192,173720,1,0,0:0:0:0:
320,192,173770,1,0,0:0:0:0:
448,192,173820,1,0,0:0:0:0:
64,192,173870,1,0,0:0:0:0:
192,192,173920,1,0,0:0:0:0:
448,192,173970,1,0,0:0:0:0:
320,192,174020,1,0,0:0:0:0:
192,192,174070,1,0,0:0:0:0:
64,192,174120,1,0,0:0:0:0:
320,192,174170,1,0,0:0:0:0:
448,192,174220,1,0,0:0:0:0:
64,192,174270,1,0,0:0:0:0:
192,192,174320,1,0,0:0:0:0:
448,192,174370,1,0,0:0:0:0:
320,192,174420,1,0,0:0:0:0:
192,192,174470,1,0,0:0:0:0:
64,192,174520,1,0,0:0:0:0:
448,192,174570,1,0,0:0:0:0:
320,192,174620,1,0,0:0:0:0:
192,192,174686,1,0,0:0:0:0:
320,192,174753,1,0,0:0:0:0:
192,192,174820,1,0,0:0:0:0:
320,192,174886,1,0,0:0:0:0:
192,192,174953,1,0,0:0:0:0:
320,0,175020,128,0,176220:1:0:0:0:
448,0,175920,128,0,176620:1:0:0:0:
64,192,176220,1,0,0:0:0:0:
192,192,176220,1,0,0:0:0:0:
192,192,176420,1,0,0:0:0:0:
320,192,176620,1,0,0:0:0:0:
64,0,176620,128,0,177420:1:0:0:0:
192,0,176620,128,0,177420:1:0:0:0:
320,192,177020,1,0,0:0:0:0:
448,192,177020,1,0,0:0:0:0:
320,192,177420,1,0,0:0:0:0:
448,192,177420,1,0,0:0:0:0:
192,192,177720,1,0,0:0:0:0:
64,192,177820,1,0,0:0:0:0:
320,192,177820,1,0,0:0:0:0:
192,192,178020,1,0,0:0:0:0:
320,192,178120,1,0,0:0:0:0:
64,192,178220,1,0,0:0:0:0:
448,192,178220,1,0,0:0:0:0:
192,192,178520,1,0,0:0:0:0:
64,192,178620,1,0,0:0:0:0:
448,192,178620,1,0,0:0:0:0:
192,192,178720,1,0,0:0:0:0:
320,192,178820,1,0,0:0:0:0:
64,192,178920,1,0,0:0:0:0:
320,192,179020,1,0,0:0:0:0:
448,192,179020,1,0,0:0:0:0:
192,0,179220,128,0,179420:1:0:0:0:
64,192,179420,1,0,0:0:0:0:
320,192,179420,1,0,0:0:0:0:
192,192,179620,1,0,0:0:0:0:
320,192,179720,1,0,0:0:0:0:
448,192,179820,1,0,0:0:0:0:
64,0,179820,128,0,180620:1:0:0:0:
192,0,179820,128,0,180620:1:0:0:0:
320,192,180220,1,0,0:0:0:0:
448,192,180220,1,0,0:0:0:0:
320,192,180620,1,0,0:0:0:0:
448,192,180620,1,0,0:0:0:0:
192,192,180920,1,0,0:0:0:0:
64,192,181020,1,0,0:0:0:0:
320,192,181020,1,0,0:0:0:0:
192,192,181220,1,0,0:0:0:0:
320,192,181320,1,0,0:0:0:0:
64,192,181420,1,0,0:0:0:0:
448,192,181420,1,0,0:0:0:0:
192,192,181720,1,0,0:0:0:0:
64,192,181820,1,0,0:0:0:0:
448,192,181820,1,0,0:0:0:0:
192,192,181920,1,0,0:0:0:0:
320,192,182020,1,0,0:0:0:0:
64,192,182120,1,0,0:0:0:0:
448,0,182220,128,0,182370:1:0:0:0:
320,0,182220,128,0,183020:1:0:0:0:
64,192,182620,1,0,0:0:0:0:
192,192,182620,1,0,0:0:0:0:
448,192,182820,1,0,0:0:0:0:
64,192,183020,1,0,0:0:0:0:
192,192,183020,1,0,0:0:0:0:
320,192,183120,1,0,0:0:0:0:
448,192,183120,1,0,0:0:0:0:
64,192,183220,1,0,0:0:0:0:
192,192,183220,1,0,0:0:0:0:
320,192,183420,1,0,0:0:0:0:
448,192,183420,1,0,0:0:0:0:
64,192,183520,1,0,0:0:0:0:
192,192,183520,1,0,0:0:0:0:
320,192,183620,1,0,0:0:0:0:
448,192,183620,1,0,0:0:0:0:
64,192,183820,1,0,0:0:0:0:
192,192,183820,1,0,0:0:0:0:
320,192,183920,1,0,0:0:0:0:
448,192,183920,1,0,0:0:0:0:
64,192,184020,1,0,0:0:0:0:
192,192,184020,1,0,0:0:0:0:
320,192,184120,1,0,0:0:0:0:
448,192,184120,1,0,0:0:0:0:
64,192,184220,1,0,0:0:0:0:
192,192,184220,1,0,0:0:0:0:
320,192,184420,1,0,0:0:0:0:
448,192,184420,1,0,0:0:0:0:
64,192,184620,1,0,0:0:0:0:
192,192,184620,1,0,0:0:0:0:
320,192,184720,1,0,0:0:0:0:
448,192,184720,1,0,0:0:0:0:
64,192,184820,1,0,0:0:0:0:
192,192,184820,1,0,0:0:0:0:
320,192,185020,1,0,0:0:0:0:
448,192,185020,1,0,0:0:0:0:
64,192,185120,1,0,0:0:0:0:
192,192,185120,1,0,0:0:0:0:
320,192,185220,1,0,0:0:0:0:
448,192,185220,1,0,0:0:0:0:
64,192,185420,1,0,0:0:0:0:
192,192,185420,1,0,0:0:0:0:
320,192,185520,1,0,0:0:0:0:
448,192,185520,1,0,0:0:0:0:
64,192,185620,1,0,0:0:0:0:
192,192,185620,1,0,0:0:0:0:
320,192,185720,1,0,0:0:0:0:
448,192,185720,1,0,0:0:0:0:
64,192,185820,1,0,0:0:0:0:
192,192,185820,1,0,0:0:0:0:
320,192,186020,1,0,0:0:0:0:
448,192,186020,1,0,0:0:0:0:
64,192,186120,1,0,0:0:0:0:
192,192,186120,1,0,0:0:0:0:
320,192,186220,1,0,0:0:0:0:
448,192,186220,1,0,0:0:0:0:
64,192,186320,1,0,0:0:0:0:
192,192,186320,1,0,0:0:0:0:
320,192,186420,1,0,0:0:0:0:
448,192,186420,1,0,0:0:0:0:
64,192,186620,1,0,0:0:0:0:
192,192,186620,1,0,0:0:0:0:
320,192,186720,1,0,0:0:0:0:
448,192,186720,1,0,0:0:0:0:
64,192,186820,1,0,0:0:0:0:
192,192,186820,1,0,0:0:0:0:
320,192,187020,1,0,0:0:0:0:
448,192,187020,1,0,0:0:0:0:
64,192,187120,1,0,0:0:0:0:
192,192,187120,1,0,0:0:0:0:
320,192,187220,1,0,0:0:0:0:
448,192,187220,1,0,0:0:0:0:
64,192,187320,1,0,0:0:0:0:
192,192,187320,1,0,0:0:0:0:
320,192,187420,1,0,0:0:0:0:
448,192,187420,1,0,0:0:0:0:
64,192,187620,1,0,0:0:0:0:
192,192,187620,1,0,0:0:0:0:
320,192,187720,1,0,0:0:0:0:
320,192,187820,1,0,0:0:0:0:
192,192,187820,1,0,0:0:0:0:
448,192,187920,1,0,0:0:0:0:
64,192,187920,1,0,0:0:0:0:
320,192,187970,1,0,0:0:0:0:
64,192,188020,1,0,0:0:0:0:
192,192,188020,1,0,0:0:0:0:
448,192,188120,1,0,0:0:0:0:
192,192,188220,1,0,0:0:0:0:
320,192,188220,1,0,0:0:0:0:
192,192,188320,1,0,0:0:0:0:
448,192,188320,1,0,0:0:0:0:
192,192,188420,1,0,0:0:0:0:
64,192,188420,1,0,0:0:0:0:
448,192,188520,1,0,0:0:0:0:
448,192,188620,1,0,0:0:0:0:
320,192,188620,1,0,0:0:0:0:
64,192,188720,1,0,0:0:0:0:
192,192,188720,1,0,0:0:0:0:
448,192,188820,1,0,0:0:0:0:
64,192,188820,1,0,0:0:0:0:
192,192,188920,1,0,0:0:0:0:
320,192,188920,1,0,0:0:0:0:
320,0,189020,128,0,189220:1:0:0:0:
192,192,189020,1,0,0:0:0:0:
64,192,189220,1,0,0:0:0:0:
192,0,189220,128,0,189420:1:0:0:0:
448,192,189320,1,0,0:0:0:0:
320,192,189320,1,0,0:0:0:0:
448,0,189420,128,0,191720:1:0:0:0:
320,192,189420,128,0,190920:0:0:0:0:
448,192,191820,1,0,0:0:0:0:
448,192,191920,1,0,0:0:0:0:
320,192,192020,1,0,0:0:0:0:
320,192,192120,1,0,0:0:0:0:
192,192,192220,1,0,0:0:0:0:
448,192,192220,1,0,0:0:0:0:
192,192,192320,1,0,0:0:0:0:
64,192,192420,1,0,0:0:0:0:
320,192,192420,1,0,0:0:0:0:
64,192,192620,1,0,0:0:0:0:
320,0,192620,128,0,193020:1:0:0:0:
448,0,192620,128,0,193020:1:0:0:0:
64,192,193020,1,0,0:0:0:0:
192,192,193020,1,0,0:0:0:0:
64,192,193220,1,0,0:0:0:0:
320,192,193220,1,0,0:0:0:0:
192,192,193420,1,0,0:0:0:0:
64,0,193420,128,0,193820:1:0:0:0:
448,0,193420,128,0,193820:1:0:0:0:
192,192,193820,1,0,0:0:0:0:
320,192,193820,1,0,0:0:0:0:
320,192,194020,1,0,0:0:0:0:
448,192,194020,1,0,0:0:0:0:
64,192,194220,1,0,0:0:0:0:
320,192,194220,1,0,0:0:0:0:
448,192,194220,1,0,0:0:0:0:
192,192,194270,1,0,0:0:0:0:
320,192,194320,1,0,0:0:0:0:
64,192,194370,1,0,0:0:0:0:
192,192,194420,1,0,0:0:0:0:
448,192,194470,1,0,0:0:0:0:
320,192,194520,1,0,0:0:0:0:
320,192,194620,1,0,0:0:0:0:
448,192,194620,1,0,0:0:0:0:
64,192,194720,1,0,0:0:0:0:
192,192,194770,1,0,0:0:0:0:
320,192,194820,1,0,0:0:0:0:
448,192,194853,1,0,0:0:0:0:
64,192,194886,1,0,0:0:0:0:
192,192,194920,1,0,0:0:0:0:
320,192,194953,1,0,0:0:0:0:
448,192,194986,1,0,0:0:0:0:
64,192,195020,1,0,0:0:0:0:
192,192,195020,1,0,0:0:0:0:
64,192,195120,1,0,0:0:0:0:
192,192,195120,1,0,0:0:0:0:
192,192,195220,1,0,0:0:0:0:
320,192,195320,1,0,0:0:0:0:
448,192,195370,1,0,0:0:0:0:
64,192,195420,1,0,0:0:0:0:
192,192,195420,1,0,0:0:0:0:
64,192,195520,1,0,0:0:0:0:
192,192,195520,1,0,0:0:0:0:
448,192,195620,1,0,0:0:0:0:
192,192,195720,1,0,0:0:0:0:
64,192,195820,1,0,0:0:0:0:
192,192,195820,1,0,0:0:0:0:
320,192,195870,1,0,0:0:0:0:
448,192,195870,1,0,0:0:0:0:
64,192,195920,1,0,0:0:0:0:
192,192,195920,1,0,0:0:0:0:
320,192,196020,1,0,0:0:0:0:
320,192,196120,1,0,0:0:0:0:
448,192,196120,1,0,0:0:0:0:
64,192,196170,1,0,0:0:0:0:
192,192,196170,1,0,0:0:0:0:
320,192,196220,1,0,0:0:0:0:
448,192,196220,1,0,0:0:0:0:
192,192,196320,1,0,0:0:0:0:
320,192,196320,1,0,0:0:0:0:
64,192,196420,1,0,0:0:0:0:
192,192,196420,1,0,0:0:0:0:
320,192,196520,1,0,0:0:0:0:
448,192,196520,1,0,0:0:0:0:
64,192,196620,1,0,0:0:0:0:
320,192,196620,1,0,0:0:0:0:
192,192,196720,1,0,0:0:0:0:
320,192,196820,1,0,0:0:0:0:
448,192,196820,1,0,0:0:0:0:
192,192,196870,1,0,0:0:0:0:
64,192,196920,1,0,0:0:0:0:
320,192,196970,1,0,0:0:0:0:
192,192,197020,1,0,0:0:0:0:
448,192,197020,1,0,0:0:0:0:
64,192,197220,1,0,0:0:0:0:
192,192,197220,1,0,0:0:0:0:
192,192,197320,1,0,0:0:0:0:
448,192,197320,1,0,0:0:0:0:
64,192,197420,1,0,0:0:0:0:
320,192,197420,1,0,0:0:0:0:
448,192,197420,1,0,0:0:0:0:
192,192,197520,1,0,0:0:0:0:
448,192,197620,1,0,0:0:0:0:
320,192,197670,1,0,0:0:0:0:
64,192,197720,1,0,0:0:0:0:
192,192,197753,1,0,0:0:0:0:
320,192,197786,1,0,0:0:0:0:
64,192,197820,1,0,0:0:0:0:
448,192,197820,1,0,0:0:0:0:
192,192,197920,1,0,0:0:0:0:
320,192,197920,1,0,0:0:0:0:
192,192,198020,1,0,0:0:0:0:
320,192,198020,1,0,0:0:0:0:
448,192,198120,1,0,0:0:0:0:
192,192,198170,1,0,0:0:0:0:
320,192,198220,1,0,0:0:0:0:
448,192,198220,1,0,0:0:0:0:
320,192,198320,1,0,0:0:0:0:
448,192,198320,1,0,0:0:0:0:
192,192,198420,1,0,0:0:0:0:
320,192,198520,1,0,0:0:0:0:
64,192,198620,1,0,0:0:0:0:
448,192,198620,1,0,0:0:0:0:
320,192,198670,1,0,0:0:0:0:
64,192,198720,1,0,0:0:0:0:
192,192,198720,1,0,0:0:0:0:
448,192,198770,1,0,0:0:0:0:
320,192,198820,1,0,0:0:0:0:
192,192,198870,1,0,0:0:0:0:
64,192,198920,1,0,0:0:0:0:
320,192,198970,1,0,0:0:0:0:
64,192,199020,1,0,0:0:0:0:
192,192,199020,1,0,0:0:0:0:
320,192,199070,1,0,0:0:0:0:
448,192,199070,1,0,0:0:0:0:
64,192,199120,1,0,0:0:0:0:
192,192,199120,1,0,0:0:0:0:
192,192,199220,1,0,0:0:0:0:
320,192,199320,1,0,0:0:0:0:
448,192,199320,1,0,0:0:0:0:
64,192,199370,1,0,0:0:0:0:
192,192,199370,1,0,0:0:0:0:
320,192,199420,1,0,0:0:0:0:
448,192,199420,1,0,0:0:0:0:
192,192,199520,1,0,0:0:0:0:
320,192,199520,1,0,0:0:0:0:
64,192,199620,1,0,0:0:0:0:
192,192,199620,1,0,0:0:0:0:
320,192,199720,1,0,0:0:0:0:
448,192,199720,1,0,0:0:0:0:
64,192,199820,1,0,0:0:0:0:
192,192,199820,1,0,0:0:0:0:
448,192,199870,1,0,0:0:0:0:
320,192,199920,1,0,0:0:0:0:
192,192,199970,1,0,0:0:0:0:
64,192,200020,1,0,0:0:0:0:
448,192,200070,1,0,0:0:0:0:
64,192,200120,1,0,0:0:0:0:
320,192,200170,1,0,0:0:0:0:
192,0,200220,128,0,200420:1:0:0:0:
320,0,200420,128,0,200520:1:0:0:0:
448,192,200520,1,0,0:0:0:0:
192,192,200620,1,0,0:0:0:0:
448,192,200620,1,0,0:0:0:0:
64,0,200620,128,0,200770:1:0:0:0:
448,0,200820,128,0,201020:1:0:0:0:
192,192,201020,1,0,0:0:0:0:
320,192,201120,1,0,0:0:0:0:
448,192,201120,1,0,0:0:0:0:
320,192,201220,1,0,0:0:0:0:
448,192,201220,1,0,0:0:0:0:
192,192,201253,1,0,0:0:0:0:
64,192,201286,1,0,0:0:0:0:
448,192,201320,1,0,0:0:0:0:
320,192,201353,1,0,0:0:0:0:
192,192,201386,1,0,0:0:0:0:
64,192,201420,1,0,0:0:0:0:
448,192,201420,1,0,0:0:0:0:
192,192,201520,1,0,0:0:0:0:
320,192,201520,1,0,0:0:0:0:
64,192,201620,1,0,0:0:0:0:
64,192,201720,1,0,0:0:0:0:
448,192,201770,1,0,0:0:0:0:
192,192,201820,1,0,0:0:0:0:
320,192,201820,1,0,0:0:0:0:
192,192,201920,1,0,0:0:0:0:
320,192,201920,1,0,0:0:0:0:
320,192,202020,1,0,0:0:0:0:
448,192,202120,1,0,0:0:0:0:
64,192,202220,1,0,0:0:0:0:
192,192,202220,1,0,0:0:0:0:
320,192,202270,1,0,0:0:0:0:
448,192,202270,1,0,0:0:0:0:
64,192,202320,1,0,0:0:0:0:
192,192,202320,1,0,0:0:0:0:
192,192,202420,1,0,0:0:0:0:
320,192,202520,1,0,0:0:0:0:
448,192,202520,1,0,0:0:0:0:
64,192,202570,1,0,0:0:0:0:
192,192,202570,1,0,0:0:0:0:
320,192,202620,1,0,0:0:0:0:
448,192,202620,1,0,0:0:0:0:
192,192,202720,1,0,0:0:0:0:
448,192,202720,1,0,0:0:0:0:
192,192,202820,1,0,0:0:0:0:
320,192,202820,1,0,0:0:0:0:
64,192,202920,1,0,0:0:0:0:
320,192,202920,1,0,0:0:0:0:
64,192,203020,1,0,0:0:0:0:
448,192,203020,1,0,0:0:0:0:
320,192,203120,1,0,0:0:0:0:
64,192,203220,1,0,0:0:0:0:
320,192,203220,1,0,0:0:0:0:
192,192,203270,1,0,0:0:0:0:
448,192,203320,1,0,0:0:0:0:
320,192,203370,1,0,0:0:0:0:
192,192,203420,1,0,0:0:0:0:
448,192,203420,1,0,0:0:0:0:
320,192,203620,1,0,0:0:0:0:
448,192,203620,1,0,0:0:0:0:
320,192,203720,1,0,0:0:0:0:
448,192,203720,1,0,0:0:0:0:
64,192,203820,1,0,0:0:0:0:
192,192,203820,1,0,0:0:0:0:
448,192,203820,1,0,0:0:0:0:
320,192,203920,1,0,0:0:0:0:
192,192,204020,1,0,0:0:0:0:
448,192,204053,1,0,0:0:0:0:
320,192,204086,1,0,0:0:0:0:
192,192,204120,1,0,0:0:0:0:
64,192,204153,1,0,0:0:0:0:
448,192,204186,1,0,0:0:0:0:
320,192,204220,1,0,0:0:0:0:
192,192,204270,1,0,0:0:0:0:
64,192,204320,1,0,0:0:0:0:
448,192,204320,1,0,0:0:0:0:
64,192,204420,1,0,0:0:0:0:
448,192,204420,1,0,0:0:0:0:
320,192,204520,1,0,0:0:0:0:
448,192,204570,1,0,0:0:0:0:
64,192,204620,1,0,0:0:0:0:
192,192,204620,1,0,0:0:0:0:
64,192,204720,1,0,0:0:0:0:
192,192,204720,1,0,0:0:0:0:
320,192,204820,1,0,0:0:0:0:
192,192,204920,1,0,0:0:0:0:
320,192,205020,1,0,0:0:0:0:
448,192,205020,1,0,0:0:0:0:
64,192,205070,1,0,0:0:0:0:
320,192,205120,1,0,0:0:0:0:
448,192,205120,1,0,0:0:0:0:
64,192,205170,1,0,0:0:0:0:
320,192,205220,1,0,0:0:0:0:
192,192,205270,1,0,0:0:0:0:
448,192,205320,1,0,0:0:0:0:
320,192,205370,1,0,0:0:0:0:
64,192,205420,1,0,0:0:0:0:
192,192,205420,1,0,0:0:0:0:
320,192,205470,1,0,0:0:0:0:
448,192,205470,1,0,0:0:0:0:
64,192,205520,1,0,0:0:0:0:
192,192,205520,1,0,0:0:0:0:
192,192,205620,1,0,0:0:0:0:
320,192,205720,1,0,0:0:0:0:
448,192,205720,1,0,0:0:0:0:
64,192,205770,1,0,0:0:0:0:
192,192,205770,1,0,0:0:0:0:
320,192,205820,1,0,0:0:0:0:
448,192,205820,1,0,0:0:0:0:
64,192,205920,1,0,0:0:0:0:
192,192,205920,1,0,0:0:0:0:
64,192,206020,1,0,0:0:0:0:
448,192,206020,1,0,0:0:0:0:
192,192,206120,1,0,0:0:0:0:
448,192,206120,1,0,0:0:0:0:
64,192,206220,1,0,0:0:0:0:
320,192,206220,1,0,0:0:0:0:
448,192,206270,1,0,0:0:0:0:
64,192,206320,1,0,0:0:0:0:
320,192,206370,1,0,0:0:0:0:
192,192,206420,1,0,0:0:0:0:
320,192,206470,1,0,0:0:0:0:
448,192,206520,1,0,0:0:0:0:
64,192,206570,1,0,0:0:0:0:
192,0,206620,128,0,206820:1:0:0:0:
320,0,206820,128,0,206920:1:0:0:0:
448,192,206920,1,0,0:0:0:0:
64,192,207020,1,0,0:0:0:0:
192,192,207020,1,0,0:0:0:0:
448,192,207020,1,0,0:0:0:0:
64,192,207220,1,0,0:0:0:0:
192,192,207220,1,0,0:0:0:0:
64,192,207420,1,0,0:0:0:0:
192,192,207420,1,0,0:0:0:0:
320,192,207470,1,0,0:0:0:0:
448,192,207520,1,0,0:0:0:0:
320,192,207570,1,0,0:0:0:0:
64,192,207620,1,0,0:0:0:0:
192,192,207620,1,0,0:0:0:0:
64,192,207820,1,0,0:0:0:0:
192,192,207820,1,0,0:0:0:0:
320,192,207920,1,0,0:0:0:0:
448,192,207920,1,0,0:0:0:0:
64,192,208020,1,0,0:0:0:0:
192,192,208020,1,0,0:0:0:0:
320,192,208120,1,0,0:0:0:0:
448,192,208120,1,0,0:0:0:0:
64,192,208220,1,0,0:0:0:0:
192,192,208220,1,0,0:0:0:0:
64,192,208420,1,0,0:0:0:0:
192,192,208420,1,0,0:0:0:0:
64,192,208620,1,0,0:0:0:0:
192,192,208620,1,0,0:0:0:0:
64,192,208820,1,0,0:0:0:0:
192,192,208820,1,0,0:0:0:0:
64,192,209020,1,0,0:0:0:0:
192,192,209020,1,0,0:0:0:0:
64,192,209220,1,0,0:0:0:0:
192,192,209220,1,0,0:0:0:0:
64,192,209420,1,0,0:0:0:0:
192,192,209420,1,0,0:0:0:0:
320,0,209520,128,0,209620:1:0:0:0:
448,192,209620,1,0,0:0:0:0:
64,192,209720,1,0,0:0:0:0:
192,192,209720,1,0,0:0:0:0:
64,192,209820,1,0,0:0:0:0:
192,192,209820,1,0,0:0:0:0:
64,192,210020,1,0,0:0:0:0:
192,192,210020,1,0,0:0:0:0:
448,192,210070,1,0,0:0:0:0:
320,192,210120,1,0,0:0:0:0:
192,192,210170,1,0,0:0:0:0:
320,0,210220,128,0,210320:1:0:0:0:
448,0,210320,128,0,210420:1:0:0:0:
192,192,210420,1,0,0:0:0:0:
320,192,210470,1,0,0:0:0:0:
192,192,210520,1,0,0:0:0:0:
64,192,210570,1,0,0:0:0:0:
320,192,210620,1,0,0:0:0:0:
448,192,210620,1,0,0:0:0:0:
64,192,210720,1,0,0:0:0:0:
192,192,210720,1,0,0:0:0:0:
320,192,210820,1,0,0:0:0:0:
448,192,210820,1,0,0:0:0:0:
64,192,210920,1,0,0:0:0:0:
192,192,210920,1,0,0:0:0:0:
320,192,211020,1,0,0:0:0:0:
448,192,211020,1,0,0:0:0:0:
64,192,211120,1,0,0:0:0:0:
192,192,211120,1,0,0:0:0:0:
320,192,211220,1,0,0:0:0:0:
448,192,211220,1,0,0:0:0:0:
64,192,211320,1,0,0:0:0:0:
192,192,211320,1,0,0:0:0:0:
320,192,211420,1,0,0:0:0:0:
448,192,211420,1,0,0:0:0:0:
320,192,211620,1,0,0:0:0:0:
448,192,211620,1,0,0:0:0:0:
320,192,211820,1,0,0:0:0:0:
448,192,211820,1,0,0:0:0:0:
320,192,212020,1,0,0:0:0:0:
448,192,212020,1,0,0:0:0:0:
64,192,212120,1,0,0:0:0:0:
320,192,212220,1,0,0:0:0:0:
448,192,212220,1,0,0:0:0:0:
320,192,212420,1,0,0:0:0:0:
448,192,212420,1,0,0:0:0:0:
192,192,212470,1,0,0:0:0:0:
320,192,212520,1,0,0:0:0:0:
192,192,212570,1,0,0:0:0:0:
448,192,212620,1,0,0:0:0:0:
64,192,212670,1,0,0:0:0:0:
448,192,212720,1,0,0:0:0:0:
320,192,212770,1,0,0:0:0:0:
64,192,212820,1,0,0:0:0:0:
192,192,212820,1,0,0:0:0:0:
320,192,212920,1,0,0:0:0:0:
448,192,212920,1,0,0:0:0:0:
64,192,213020,1,0,0:0:0:0:
192,192,213020,1,0,0:0:0:0:
64,192,213220,1,0,0:0:0:0:
192,192,213220,1,0,0:0:0:0:
64,192,213320,1,0,0:0:0:0:
192,192,213320,1,0,0:0:0:0:
64,192,213420,1,0,0:0:0:0:
192,192,213420,1,0,0:0:0:0:
448,192,213420,1,0,0:0:0:0:
192,192,213620,1,0,0:0:0:0:
320,192,213620,1,0,0:0:0:0:
64,192,213820,1,0,0:0:0:0:
320,192,213820,1,0,0:0:0:0:
192,192,214020,1,0,0:0:0:0:
448,192,214020,1,0,0:0:0:0:
320,192,214220,1,0,0:0:0:0:
448,192,214220,1,0,0:0:0:0:
192,192,214320,1,0,0:0:0:0:
64,192,214420,1,0,0:0:0:0:
320,192,214420,1,0,0:0:0:0:
448,192,214520,1,0,0:0:0:0:
192,192,214620,1,0,0:0:0:0:
320,192,214620,1,0,0:0:0:0:
64,192,214820,1,0,0:0:0:0:
448,192,214820,1,0,0:0:0:0:
192,192,215020,1,0,0:0:0:0:
320,192,215020,1,0,0:0:0:0:
448,192,215120,1,0,0:0:0:0:
64,192,215220,1,0,0:0:0:0:
192,192,215220,1,0,0:0:0:0:
192,192,215420,1,0,0:0:0:0:
320,192,215420,1,0,0:0:0:0:
448,192,215520,1,0,0:0:0:0:
64,192,215620,1,0,0:0:0:0:
192,192,215620,1,0,0:0:0:0:
192,192,215820,1,0,0:0:0:0:
320,192,215820,1,0,0:0:0:0:
448,0,215920,128,0,216020:1:0:0:0:
64,192,216020,1,0,0:0:0:0:
192,192,216120,1,0,0:0:0:0:
320,192,216120,1,0,0:0:0:0:
192,192,216220,1,0,0:0:0:0:
320,192,216220,1,0,0:0:0:0:
64,192,216420,1,0,0:0:0:0:
448,192,216420,1,0,0:0:0:0:
320,192,216470,1,0,0:0:0:0:
192,192,216520,1,0,0:0:0:0:
64,192,216570,1,0,0:0:0:0:
192,192,216620,1,0,0:0:0:0:
320,192,216620,1,0,0:0:0:0:
448,192,216620,1,0,0:0:0:0:
64,192,216820,1,0,0:0:0:0:
320,192,216820,1,0,0:0:0:0:
64,192,217020,1,0,0:0:0:0:
448,192,217020,1,0,0:0:0:0:
192,192,217220,1,0,0:0:0:0:
320,192,217220,1,0,0:0:0:0:
64,192,217420,1,0,0:0:0:0:
448,192,217420,1,0,0:0:0:0:
192,192,217520,1,0,0:0:0:0:
320,192,217520,1,0,0:0:0:0:
64,192,217620,1,0,0:0:0:0:
448,192,217620,1,0,0:0:0:0:
192,192,217720,1,0,0:0:0:0:
320,192,217720,1,0,0:0:0:0:
64,192,217820,1,0,0:0:0:0:
448,192,217820,1,0,0:0:0:0:
320,192,217870,1,0,0:0:0:0:
192,192,217920,1,0,0:0:0:0:
64,192,217970,1,0,0:0:0:0:
320,192,218020,1,0,0:0:0:0:
448,192,218020,1,0,0:0:0:0:
64,0,218120,128,0,218170:1:0:0:0:
320,192,218220,1,0,0:0:0:0:
448,192,218220,1,0,0:0:0:0:
192,0,218220,128,0,218620:1:0:0:0:
320,192,218420,1,0,0:0:0:0:
64,192,218620,1,0,0:0:0:0:
448,192,218620,1,0,0:0:0:0:
320,0,218620,128,0,219020:1:0:0:0:
192,192,218820,1,0,0:0:0:0:
64,192,219020,1,0,0:0:0:0:
192,192,219020,1,0,0:0:0:0:
448,0,219020,128,0,219420:1:0:0:0:
192,192,219220,1,0,0:0:0:0:
320,192,219220,1,0,0:0:0:0:
192,192,219420,1,0,0:0:0:0:
320,192,219420,1,0,0:0:0:0:
64,192,219520,1,0,0:0:0:0:
448,192,219520,1,0,0:0:0:0:
192,192,219620,1,0,0:0:0:0:
320,192,219620,1,0,0:0:0:0:
448,192,219720,1,0,0:0:0:0:
64,192,219820,1,0,0:0:0:0:
192,192,219820,1,0,0:0:0:0:
64,192,219920,1,0,0:0:0:0:
192,192,219920,1,0,0:0:0:0:
64,192,220020,1,0,0:0:0:0:
192,192,220020,1,0,0:0:0:0:
320,192,220120,1,0,0:0:0:0:
192,192,220220,1,0,0:0:0:0:
448,192,220220,1,0,0:0:0:0:
192,192,220320,1,0,0:0:0:0:
448,192,220320,1,0,0:0:0:0:
192,192,220420,1,0,0:0:0:0:
448,192,220420,1,0,0:0:0:0:
320,192,220520,1,0,0:0:0:0:
64,192,220620,1,0,0:0:0:0:
192,192,220620,1,0,0:0:0:0:
64,192,220720,1,0,0:0:0:0:
192,192,220720,1,0,0:0:0:0:
64,192,220820,1,0,0:0:0:0:
192,192,220820,1,0,0:0:0:0:
64,192,220920,1,0,0:0:0:0:
192,192,220920,1,0,0:0:0:0:
64,192,221020,1,0,0:0:0:0:
192,192,221020,1,0,0:0:0:0:
320,192,221120,1,0,0:0:0:0:
64,192,221220,1,0,0:0:0:0:
448,192,221220,1,0,0:0:0:0:
192,192,221320,1,0,0:0:0:0:
320,192,221420,1,0,0:0:0:0:
448,192,221420,1,0,0:0:0:0:
320,192,221520,1,0,0:0:0:0:
448,192,221520,1,0,0:0:0:0:
320,192,221620,1,0,0:0:0:0:
448,192,221620,1,0,0:0:0:0:
192,192,221720,1,0,0:0:0:0:
64,192,221820,1,0,0:0:0:0:
320,192,221820,1,0,0:0:0:0:
64,192,221920,1,0,0:0:0:0:
320,192,221920,1,0,0:0:0:0:
64,192,222020,1,0,0:0:0:0:
320,192,222020,1,0,0:0:0:0:
192,192,222120,1,0,0:0:0:0:
320,192,222220,1,0,0:0:0:0:
448,192,222220,1,0,0:0:0:0:
320,192,222320,1,0,0:0:0:0:
448,192,222320,1,0,0:0:0:0:
320,192,222420,1,0,0:0:0:0:
448,192,222420,1,0,0:0:0:0:
320,192,222520,1,0,0:0:0:0:
448,192,222520,1,0,0:0:0:0:
320,192,222620,1,0,0:0:0:0:
448,192,222620,1,0,0:0:0:0:
192,192,222720,1,0,0:0:0:0:
64,192,222820,1,0,0:0:0:0:
448,192,222820,1,0,0:0:0:0:
320,192,222920,1,0,0:0:0:0:
64,192,223020,1,0,0:0:0:0:
192,192,223020,1,0,0:0:0:0:
448,192,223020,1,0,0:0:0:0:
64,192,223120,1,0,0:0:0:0:
192,192,223120,1,0,0:0:0:0:
64,192,223220,1,0,0:0:0:0:
192,192,223220,1,0,0:0:0:0:
320,192,223320,1,0,0:0:0:0:
192,192,223420,1,0,0:0:0:0:
448,192,223420,1,0,0:0:0:0:
192,192,223520,1,0,0:0:0:0:
448,192,223520,1,0,0:0:0:0:
192,192,223620,1,0,0:0:0:0:
448,192,223620,1,0,0:0:0:0:
320,192,223720,1,0,0:0:0:0:
64,192,223820,1,0,0:0:0:0:
192,192,223820,1,0,0:0:0:0:
64,192,223920,1,0,0:0:0:0:
192,192,223920,1,0,0:0:0:0:
64,192,224020,1,0,0:0:0:0:
192,192,224020,1,0,0:0:0:0:
64,192,224120,1,0,0:0:0:0:
192,192,224120,1,0,0:0:0:0:
64,192,224220,1,0,0:0:0:0:
192,192,224220,1,0,0:0:0:0:
320,192,224320,1,0,0:0:0:0:
64,192,224420,1,0,0:0:0:0:
448,192,224420,1,0,0:0:0:0:
192,192,224520,1,0,0:0:0:0:
320,192,224620,1,0,0:0:0:0:
448,192,224620,1,0,0:0:0:0:
320,192,224720,1,0,0:0:0:0:
448,192,224720,1,0,0:0:0:0:
320,192,224820,1,0,0:0:0:0:
448,192,224820,1,0,0:0:0:0:
192,192,224920,1,0,0:0:0:0:
64,192,225020,1,0,0:0:0:0:
320,192,225020,1,0,0:0:0:0:
64,192,225120,1,0,0:0:0:0:
320,192,225120,1,0,0:0:0:0:
64,192,225220,1,0,0:0:0:0:
320,192,225220,1,0,0:0:0:0:
192,192,225320,1,0,0:0:0:0:
320,192,225420,1,0,0:0:0:0:
448,192,225420,1,0,0:0:0:0:
320,192,225520,1,0,0:0:0:0:
448,192,225520,1,0,0:0:0:0:
320,192,225620,1,0,0:0:0:0:
448,192,225620,1,0,0:0:0:0:
320,192,225720,1,0,0:0:0:0:
448,192,225720,1,0,0:0:0:0:
320,192,225820,1,0,0:0:0:0:
448,192,225820,1,0,0:0:0:0:
192,192,225920,1,0,0:0:0:0:
64,192,226020,1,0,0:0:0:0:
320,192,226020,1,0,0:0:0:0:
64,192,226120,1,0,0:0:0:0:
320,192,226120,1,0,0:0:0:0:
64,192,226220,1,0,0:0:0:0:
320,192,226220,1,0,0:0:0:0:
448,192,226220,1,0,0:0:0:0:
192,192,226320,1,0,0:0:0:0:
320,192,226320,1,0,0:0:0:0:
320,192,226420,1,0,0:0:0:0:
448,192,226420,1,0,0:0:0:0:
192,192,226520,1,0,0:0:0:0:
320,192,226620,1,0,0:0:0:0:
448,192,226620,1,0,0:0:0:0:
192,192,226720,1,0,0:0:0:0:
320,192,226720,1,0,0:0:0:0:
64,192,226820,1,0,0:0:0:0:
192,192,226820,1,0,0:0:0:0:
320,192,226920,1,0,0:0:0:0:
64,192,227020,1,0,0:0:0:0:
192,192,227020,1,0,0:0:0:0:
64,192,227120,1,0,0:0:0:0:
192,192,227120,1,0,0:0:0:0:
64,192,227220,1,0,0:0:0:0:
192,192,227220,1,0,0:0:0:0:
192,192,227320,1,0,0:0:0:0:
320,192,227320,1,0,0:0:0:0:
320,192,227420,1,0,0:0:0:0:
448,192,227420,1,0,0:0:0:0:
192,192,227520,1,0,0:0:0:0:
320,192,227620,1,0,0:0:0:0:
448,192,227620,1,0,0:0:0:0:
320,192,227720,1,0,0:0:0:0:
448,192,227720,1,0,0:0:0:0:
320,192,227820,1,0,0:0:0:0:
448,192,227820,1,0,0:0:0:0:
192,192,227920,1,0,0:0:0:0:
320,192,227920,1,0,0:0:0:0:
64,192,228020,1,0,0:0:0:0:
192,192,228020,1,0,0:0:0:0:
320,192,228120,1,0,0:0:0:0:
64,192,228220,1,0,0:0:0:0:
192,192,228220,1,0,0:0:0:0:
192,192,228320,1,0,0:0:0:0:
320,192,228320,1,0,0:0:0:0:
320,192,228420,1,0,0:0:0:0:
448,192,228420,1,0,0:0:0:0:
192,192,228520,1,0,0:0:0:0:
320,192,228620,1,0,0:0:0:0:
448,192,228620,1,0,0:0:0:0:
320,192,228720,1,0,0:0:0:0:
448,192,228720,1,0,0:0:0:0:
320,192,228820,1,0,0:0:0:0:
448,192,228820,1,0,0:0:0:0:
192,192,228920,1,0,0:0:0:0:
320,192,228920,1,0,0:0:0:0:
64,192,229020,1,0,0:0:0:0:
192,192,229020,1,0,0:0:0:0:
320,192,229120,1,0,0:0:0:0:
64,192,229220,1,0,0:0:0:0:
192,192,229220,1,0,0:0:0:0:
64,192,229320,1,0,0:0:0:0:
192,192,229320,1,0,0:0:0:0:
64,192,229420,1,0,0:0:0:0:
192,192,229420,1,0,0:0:0:0:
448,192,229420,1,0,0:0:0:0:
192,192,229520,1,0,0:0:0:0:
320,192,229520,1,0,0:0:0:0:
320,192,229620,1,0,0:0:0:0:
448,192,229620,1,0,0:0:0:0:
192,192,229720,1,0,0:0:0:0:
320,192,229820,1,0,0:0:0:0:
448,192,229820,1,0,0:0:0:0:
192,192,229920,1,0,0:0:0:0:
320,192,229920,1,0,0:0:0:0:
64,192,230020,1,0,0:0:0:0:
192,192,230020,1,0,0:0:0:0:
320,192,230120,1,0,0:0:0:0:
64,192,230220,1,0,0:0:0:0:
192,192,230220,1,0,0:0:0:0:
64,192,230320,1,0,0:0:0:0:
192,192,230320,1,0,0:0:0:0:
64,192,230420,1,0,0:0:0:0:
192,192,230420,1,0,0:0:0:0:
192,192,230520,1,0,0:0:0:0:
320,192,230520,1,0,0:0:0:0:
320,192,230620,1,0,0:0:0:0:
448,192,230620,1,0,0:0:0:0:
192,192,230720,1,0,0:0:0:0:
320,192,230820,1,0,0:0:0:0:
448,192,230820,1,0,0:0:0:0:
320,192,230920,1,0,0:0:0:0:
448,192,230920,1,0,0:0:0:0:
320,192,231020,1,0,0:0:0:0:
448,192,231020,1,0,0:0:0:0:
192,192,231120,1,0,0:0:0:0:
320,192,231120,1,0,0:0:0:0:
64,192,231220,1,0,0:0:0:0:
192,192,231220,1,0,0:0:0:0:
320,192,231320,1,0,0:0:0:0:
64,192,231420,1,0,0:0:0:0:
192,192,231420,1,0,0:0:0:0:
192,192,231520,1,0,0:0:0:0:
320,192,231520,1,0,0:0:0:0:
320,192,231620,1,0,0:0:0:0:
448,192,231620,1,0,0:0:0:0:
448,192,231820,1,0,0:0:0:0:
448,192,231920,1,0,0:0:0:0:
448,192,232020,1,0,0:0:0:0:
320,192,232120,1,0,0:0:0:0:
192,192,232220,1,0,0:0:0:0:
320,192,232420,1,0,0:0:0:0:
448,0,232420,128,0,235920:1:0:0:0:
192,192,232420,128,0,233020:0:0:0:0:
64,192,232420,128,0,233020:0:0:0:0:
64,192,234053,1,0,0:0:0:0:
192,192,234053,1,0,0:0:0:0:
