osu file format v14

[General]
AudioFilename: IOSYS - Bow Down, You Ignorant Fools!.mp3
AudioLeadIn: 0
PreviewTime: 64620
Countdown: 0
SampleSet: Normal
StackLeniency: 0.7
Mode: 1
LetterboxInBreaks: 0
WidescreenStoryboard: 1

[Editor]
DistanceSpacing: 0.8
BeatDivisor: 4
GridSize: 4
TimelineZoom: 2.3

[Metadata]
Title:Bow Down, You Ignorant Fools! -The Princess' Insane All Night Hourai Live-
TitleUnicode:Bow Down, You Ignorant Fools! -The Princess' Insane All Night Hourai Live-
Artist:IOSYS
ArtistUnicode:IOSYS
Creator:Xay
Version:Mew's Ignorant Oni
Source:東方永夜抄 ~ Imperishable Night
Tags:speedcore touhou toho 東方 stepmania -anhedonia- kazukisinx kazu mew mew104
BeatmapID:1277333
BeatmapSetID:467385

[Difficulty]
HPDrainRate:4
CircleSize:3.5
OverallDifficulty:7
ApproachRate:10
SliderMultiplier:1.4
SliderTickRate:1

[Events]
//Background and Video events
0,0,"bow_down-bg.jpg",0,125
//Break Periods
//Storyboard Layer 0 (Background)
//Storyboard Layer 1 (Fail)
//Storyboard Layer 2 (Pass)
//Storyboard Layer 3 (Foreground)
//Storyboard Sound Samples

[TimingPoints]
620,200,4,1,0,75,1,0
7021,-25,4,1,0,75,0,0
7820,-100,4,1,0,75,0,0
8621,-25,4,1,0,75,0,0
9420,-100,4,1,0,75,0,0
10221,-25,4,1,0,75,0,0
10420,-12.5,4,1,0,75,0,0
10620,-6.25,4,1,0,75,0,0
10820,-3.125,4,1,0,75,0,0
11020,-100,4,1,0,75,0,0
11821,-25,4,1,0,75,0,0
11832,187.5,4,1,0,75,1,0
11845,176.470588235294,4,1,0,75,1,0
11857,166.666666666667,4,1,0,75,1,0
11870,157.894736842105,4,1,0,75,1,0
11882,150,4,1,0,75,1,0
11895,142.857142857143,4,1,0,75,1,0
11907,136.363636363636,4,1,0,75,1,0
11920,130.434782608696,4,1,0,75,1,0
11932,125,4,1,0,75,1,0
11945,120,4,1,0,75,1,0
11957,115.384615384615,4,1,0,75,1,0
11970,111.111111111111,4,1,0,75,1,0
11982,107.142857142857,4,1,0,75,1,0
11995,103.448275862069,4,1,0,75,1,0
12007,100,4,1,0,75,1,0
12020,96.7741935483871,4,1,0,75,1,0
12032,93.75,4,1,0,75,1,0
12045,90.9090909090909,4,1,0,75,1,0
12057,88.2352941176471,4,1,0,75,1,0
12070,85.7142857142857,4,1,0,75,1,0
12082,83.3333333333333,4,1,0,75,1,0
12095,81.0810810810811,4,1,0,75,1,0
12107,78.9473684210526,4,1,0,75,1,0
12120,76.9230769230769,4,1,0,75,1,0
12132,75,4,1,0,75,1,0
12145,73.1707317073171,4,1,0,75,1,0
12157,71.4285714285714,4,1,0,75,1,0
12170,69.7674418604651,4,1,0,75,1,0
12182,68.1818181818182,4,1,0,75,1,0
12195,66.6666666666667,4,1,0,75,1,0
12207,65.2173913043478,4,1,0,75,1,0
12220,63.8297872340426,4,1,0,75,1,0
12232,66.6666666666667,4,1,0,75,1,0
12245,69.7674418604651,4,1,0,75,1,0
12257,73.1707317073171,4,1,0,75,1,0
12270,76.9230769230769,4,1,0,75,1,0
12282,81.0810810810811,4,1,0,75,1,0
12295,85.7142857142857,4,1,0,75,1,0
12307,90.9090909090909,4,1,0,75,1,0
12320,96.7741935483871,4,1,0,75,1,0
12332,103.448275862069,4,1,0,75,1,0
12345,111.111111111111,4,1,0,75,1,0
12357,120,4,1,0,75,1,0
12370,130.434782608696,4,1,0,75,1,0
12382,142.857142857143,4,1,0,75,1,0
12395,157.894736842105,4,1,0,75,1,0
12407,176.470588235294,4,1,0,75,1,0
12420,200,4,1,0,75,1,0
12620,200,4,1,0,75,1,0
12620,-100,4,1,0,75,0,0
71020,-100,4,1,0,75,0,1
71820,-100,4,1,0,75,0,0
72620,-100,4,1,0,75,0,1
73420,-100,4,1,0,75,0,0
74220,-100,4,1,0,75,0,1
75020,-100,4,1,0,75,0,0
75820,-100,4,1,0,75,0,1
75845,-100,4,1,0,75,0,0
75920,-90.9090909090909,4,1,0,75,0,1
75945,-90.9090909090909,4,1,0,75,0,0
76020,-83.3333333333333,4,1,0,75,0,1
76045,-83.3333333333333,4,1,0,75,0,0
76120,-76.9230769230769,4,1,0,75,0,1
76145,-76.9230769230769,4,1,0,75,0,0
76220,-71.4285714285714,4,1,0,75,0,1
76245,-71.4285714285714,4,1,0,75,0,0
76320,-66.6666666666667,4,1,0,75,0,1
76345,-66.6666666666667,4,1,0,75,0,0
76420,-62.5,4,1,0,75,0,1
76445,-62.5,4,1,0,75,0,0
76520,-58.8235294117647,4,1,0,75,0,1
76545,-58.8235294117647,4,1,0,75,0,0
76620,-55.5555555555556,4,1,0,75,0,1
77320,-25,4,1,0,75,0,0
79170,-100,4,1,0,75,0,0
87020,-90.9090909090909,4,1,0,75,0,0
90220,-83.3333333333333,4,1,0,75,0,0
91820,-76.9230769230769,4,1,0,75,0,0
93420,-66.6666666666667,4,1,0,75,0,0
93470,-100,4,1,0,75,0,0
96620,-100,4,1,0,75,0,1
109420,-100,4,1,0,75,0,0
173420,-1E-06,4,1,0,75,0,0
175220,-100,4,1,0,75,0,0
183020,-90.9090909090909,4,1,0,75,0,0
186170,-83.3333333333333,4,1,0,75,0,0
187820,-76.9230769230769,4,1,0,75,0,0
189420,-66.6666666666667,4,1,0,75,0,0
189470,-100,4,1,0,75,0,0
191820,96.7741935483871,4,1,0,75,1,0
191832,98.3606557377049,4,1,0,75,1,0
191845,100,4,1,0,75,1,0
191857,101.694915254237,4,1,0,75,1,0
191870,103.448275862069,4,1,0,75,1,0
191882,105.263157894737,4,1,0,75,1,0
191895,107.142857142857,4,1,0,75,1,0
191907,109.090909090909,4,1,0,75,1,0
191920,111.111111111111,4,1,0,75,1,0
191932,113.207547169811,4,1,0,75,1,0
191945,115.384615384615,4,1,0,75,1,0
191957,117.647058823529,4,1,0,75,1,0
191970,120,4,1,0,75,1,0
191982,122.448979591837,4,1,0,75,1,0
191995,125,4,1,0,75,1,0
192007,127.659574468085,4,1,0,75,1,0
192020,130.434782608696,4,1,0,75,1,0
192032,133.333333333333,4,1,0,75,1,0
192045,136.363636363636,4,1,0,75,1,0
192057,139.53488372093,4,1,0,75,1,0
192070,142.857142857143,4,1,0,75,1,0
192082,146.341463414634,4,1,0,75,1,0
192095,150,4,1,0,75,1,0
192107,153.846153846154,4,1,0,75,1,0
192120,157.894736842105,4,1,0,75,1,0
192132,162.162162162162,4,1,0,75,1,0
192145,166.666666666667,4,1,0,75,1,0
192157,171.428571428571,4,1,0,75,1,0
192170,176.470588235294,4,1,0,75,1,0
192182,181.818181818182,4,1,0,75,1,0
192195,187.5,4,1,0,75,1,0
192207,193.548387096774,4,1,0,75,1,0
192220,200,4,1,0,75,1,0
192620,200,4,1,0,75,1,0
192620,-66.6666666666667,4,1,0,75,0,1
192670,-100,4,1,0,75,0,0
193420,-50,4,1,0,75,0,1
193470,-100,4,1,0,75,0,0
194220,-100,4,1,0,75,0,1
207020,-100,4,1,0,75,0,0
218420,-40,4,1,0,75,0,1
218470,-100,4,1,0,75,0,0
218820,-40,4,1,0,75,0,1
218870,-100,4,1,0,75,0,0
219220,-40,4,1,0,75,0,1
219270,-100,4,1,0,75,0,0
219820,-100,4,1,0,75,0,1
232420,-50,4,1,0,75,0,0

[HitObjects]
256,192,620,12,0,1320,0:0:0:0:
256,192,1420,5,0,0:0:0:0:
256,192,1520,1,8,0:0:0:0:
256,192,1570,1,8,0:0:0:0:
256,192,1620,1,0,0:0:0:0:
256,192,1720,1,8,0:0:0:0:
256,192,1770,1,8,0:0:0:0:
256,192,1820,1,0,0:0:0:0:
256,192,1920,1,8,0:0:0:0:
256,192,1970,1,8,0:0:0:0:
256,192,2020,1,0,0:0:0:0:
256,192,2120,1,0,0:0:0:0:
256,192,2220,12,0,2920,0:0:0:0:
256,192,3020,5,0,0:0:0:0:
256,192,3120,1,8,0:0:0:0:
256,192,3170,1,8,0:0:0:0:
256,192,3220,1,8,0:0:0:0:
256,192,3270,1,8,0:0:0:0:
256,192,3320,1,0,0:0:0:0:
256,192,3420,1,0,0:0:0:0:
256,192,3620,1,0,0:0:0:0:
256,192,3720,1,0,0:0:0:0:
256,192,3820,12,0,4520,0:0:0:0:
256,192,4620,5,8,0:0:0:0:
256,192,4720,1,0,0:0:0:0:
256,192,4820,1,8,0:0:0:0:
256,192,4920,1,0,0:0:0:0:
256,192,5020,1,0,0:0:0:0:
256,192,5120,1,0,0:0:0:0:
256,192,5320,1,0,0:0:0:0:
256,192,5420,12,0,6120,0:0:0:0:
256,192,6220,5,8,0:0:0:0:
256,192,6253,1,8,0:0:0:0:
256,192,6286,1,8,0:0:0:0:
256,192,6320,1,8,0:0:0:0:
256,192,6420,1,0,0:0:0:0:
256,192,6520,1,0,0:0:0:0:
256,192,6620,1,0,0:0:0:0:
256,192,6720,1,0,0:0:0:0:
256,192,6820,1,8,0:0:0:0:
256,192,6853,1,8,0:0:0:0:
256,192,6886,1,8,0:0:0:0:
256,192,6920,1,0,0:0:0:0:
256,192,7020,12,0,7720,0:0:0:0:
256,192,7021,6,4,L|480:192,12,140
256,192,7820,5,0,0:0:0:0:
256,192,7920,1,8,0:0:0:0:
256,192,7970,1,8,0:0:0:0:
256,192,8020,1,0,0:0:0:0:
256,192,8120,1,8,0:0:0:0:
256,192,8170,1,8,0:0:0:0:
256,192,8220,1,0,0:0:0:0:
256,192,8320,1,8,0:0:0:0:
256,192,8370,1,8,0:0:0:0:
256,192,8420,1,0,0:0:0:0:
256,192,8520,1,0,0:0:0:0:
256,192,8620,12,0,9321,0:0:0:0:
116,40,8621,6,4,B|548:32|592:112|604:200|592:292|552:336|392:324|280:308|64:308,1,1050
256,192,9021,2,4,L|332:192,1,70
256,192,9071,2,4,L|332:192,1,70
256,192,9121,2,4,L|332:192,1,70
256,192,9171,2,4,L|332:192,1,70
256,192,9221,2,4,L|332:192,1,70
256,192,9271,2,4,L|332:192,1,70
256,192,9420,5,0,0:0:0:0:
256,192,9520,1,8,0:0:0:0:
256,192,9570,1,8,0:0:0:0:
256,192,9620,1,8,0:0:0:0:
256,192,9670,1,8,0:0:0:0:
256,192,9720,1,0,0:0:0:0:
256,192,9820,1,0,0:0:0:0:
256,192,10020,1,0,0:0:0:0:
256,192,10120,1,0,0:0:0:0:
256,192,10220,12,0,10920,0:0:0:0:
8,156,10221,6,4,P|336:144|476:264,1,525
148,28,10420,2,4,B|200:176|244:320|312:324|384:320|480:320|580:288|584:192|532:112|460:72|308:44|224:48|156:64|56:92,1,1050
4,48,10620,2,4,B|164:48|408:48|528:64|564:88|592:212|552:288|464:312|384:336|240:352|156:348|80:340|24:328|-12:312|-48:256|-60:188|-48:88,1,1312.5
400,44,10820,2,4,B|88:188|8:248|176:328|388:368|528:320|460:188|348:144|392:136,1,700
256,192,11020,1,8,0:0:0:0:
256,192,11120,1,0,0:0:0:0:
256,192,11220,1,8,0:0:0:0:
256,192,11320,1,0,0:0:0:0:
256,192,11420,1,0,0:0:0:0:
256,192,11520,1,0,0:0:0:0:
256,192,11720,1,0,0:0:0:0:
256,192,11820,12,0,12520,0:0:0:0:
20,40,11821,6,4,P|544:48|512:204,3,560
256,192,12620,5,8,0:0:0:0:
256,192,12653,1,8,0:0:0:0:
256,192,12686,1,8,0:0:0:0:
256,192,12720,1,8,0:0:0:0:
256,192,12820,1,0,0:0:0:0:
256,192,12920,1,0,0:0:0:0:
256,192,13020,1,0,0:0:0:0:
256,192,13070,1,0,0:0:0:0:
256,192,13120,1,0,0:0:0:0:
256,192,13220,1,8,0:0:0:0:
256,192,13253,1,8,0:0:0:0:
256,192,13286,1,8,0:0:0:0:
256,192,13320,1,0,0:0:0:0:
256,192,13420,1,12,0:0:0:0:
256,192,13520,1,0,0:0:0:0:
256,192,13620,1,8,0:0:0:0:
256,192,13670,1,0,0:0:0:0:
256,192,13720,1,0,0:0:0:0:
256,192,13770,1,0,0:0:0:0:
256,192,13820,1,8,0:0:0:0:
256,192,13920,1,0,0:0:0:0:
256,192,13970,1,0,0:0:0:0:
256,192,14020,1,8,0:0:0:0:
256,192,14120,1,8,0:0:0:0:
256,192,14220,1,8,0:0:0:0:
256,192,14270,1,8,0:0:0:0:
256,192,14320,1,0,0:0:0:0:
256,192,14420,1,0,0:0:0:0:
256,192,14520,1,0,0:0:0:0:
256,192,14553,1,0,0:0:0:0:
256,192,14586,1,0,0:0:0:0:
256,192,14620,1,8,0:0:0:0:
256,192,14720,1,8,0:0:0:0:
256,192,14820,1,8,0:0:0:0:
256,192,14920,1,8,0:0:0:0:
256,192,15020,1,0,0:0:0:0:
256,192,15070,1,8,0:0:0:0:
256,192,15120,1,0,0:0:0:0:
256,192,15170,1,0,0:0:0:0:
256,192,15220,1,8,0:0:0:0:
256,192,15320,1,0,0:0:0:0:
256,192,15420,1,8,0:0:0:0:
256,192,15520,1,0,0:0:0:0:
256,192,15570,1,8,0:0:0:0:
256,192,15620,1,8,0:0:0:0:
256,192,15670,1,8,0:0:0:0:
256,192,15720,1,0,0:0:0:0:
256,192,15820,1,8,0:0:0:0:
256,192,15870,1,8,0:0:0:0:
256,192,15920,1,0,0:0:0:0:
256,192,16020,1,8,0:0:0:0:
256,192,16120,1,0,0:0:0:0:
256,192,16170,1,0,0:0:0:0:
256,192,16220,1,0,0:0:0:0:
256,192,16270,1,0,0:0:0:0:
256,192,16320,1,8,0:0:0:0:
256,192,16370,1,8,0:0:0:0:
256,192,16420,1,8,0:0:0:0:
256,192,16470,1,8,0:0:0:0:
256,192,16520,1,0,0:0:0:0:
256,192,16620,1,12,0:0:0:0:
256,192,16720,1,0,0:0:0:0:
256,192,16770,1,0,0:0:0:0:
256,192,16820,1,8,0:0:0:0:
256,192,16920,1,0,0:0:0:0:
256,192,17020,1,8,0:0:0:0:
256,192,17070,1,8,0:0:0:0:
256,192,17120,1,8,0:0:0:0:
256,192,17170,1,8,0:0:0:0:
256,192,17220,1,0,0:0:0:0:
256,192,17320,1,8,0:0:0:0:
256,192,17420,1,0,0:0:0:0:
256,192,17520,1,0,0:0:0:0:
256,192,17620,1,8,0:0:0:0:
256,192,17720,1,0,0:0:0:0:
256,192,17820,1,8,0:0:0:0:
256,192,17870,1,8,0:0:0:0:
256,192,17920,1,8,0:0:0:0:
256,192,18020,1,8,0:0:0:0:
256,192,18120,1,8,0:0:0:0:
256,192,18220,1,0,0:0:0:0:
256,192,18270,1,0,0:0:0:0:
256,192,18320,1,0,0:0:0:0:
256,192,18370,1,0,0:0:0:0:
256,192,18420,1,8,0:0:0:0:
256,192,18520,1,0,0:0:0:0:
256,192,18620,1,8,0:0:0:0:
256,192,18720,1,0,0:0:0:0:
256,192,18770,1,0,0:0:0:0:
256,192,18820,1,8,0:0:0:0:
256,192,18870,1,8,0:0:0:0:
256,192,18920,1,0,0:0:0:0:
256,192,18970,1,0,0:0:0:0:
256,192,19020,1,8,0:0:0:0:
256,192,19120,1,8,0:0:0:0:
256,192,19220,1,0,0:0:0:0:
256,192,19320,1,0,0:0:0:0:
256,192,19370,1,0,0:0:0:0:
256,192,19420,1,8,0:0:0:0:
256,192,19470,1,8,0:0:0:0:
256,192,19520,1,0,0:0:0:0:
256,192,19620,1,8,0:0:0:0:
256,192,19670,1,8,0:0:0:0:
256,192,19720,1,0,0:0:0:0:
256,192,19820,1,12,0:0:0:0:
256,192,20220,1,8,0:0:0:0:
256,192,20320,1,0,0:0:0:0:
256,192,20420,1,8,0:0:0:0:
256,192,20470,1,8,0:0:0:0:
256,192,20520,1,0,0:0:0:0:
256,192,20570,1,0,0:0:0:0:
256,192,20620,1,8,0:0:0:0:
256,192,20720,1,8,0:0:0:0:
256,192,20820,1,8,0:0:0:0:
256,192,20920,1,0,0:0:0:0:
256,192,20953,1,0,0:0:0:0:
256,192,20986,1,0,0:0:0:0:
256,192,21020,1,8,0:0:0:0:
256,192,21120,1,8,0:0:0:0:
256,192,21220,1,8,0:0:0:0:
256,192,21320,1,8,0:0:0:0:
256,192,21420,1,0,0:0:0:0:
256,192,21470,1,8,0:0:0:0:
256,192,21520,1,0,0:0:0:0:
256,192,21570,1,0,0:0:0:0:
256,192,21620,1,8,0:0:0:0:
256,192,21720,1,0,0:0:0:0:
256,192,21820,1,8,0:0:0:0:
256,192,21920,1,0,0:0:0:0:
256,192,21970,1,8,0:0:0:0:
256,192,22020,1,8,0:0:0:0:
256,192,22070,1,8,0:0:0:0:
256,192,22120,1,0,0:0:0:0:
256,192,22220,1,8,0:0:0:0:
256,192,22270,1,8,0:0:0:0:
256,192,22320,1,0,0:0:0:0:
256,192,22370,1,0,0:0:0:0:
256,192,22420,1,8,0:0:0:0:
256,192,22520,1,0,0:0:0:0:
256,192,22570,1,0,0:0:0:0:
256,192,22620,1,0,0:0:0:0:
256,192,22670,1,0,0:0:0:0:
256,192,22720,1,8,0:0:0:0:
256,192,22770,1,8,0:0:0:0:
256,192,22820,1,8,0:0:0:0:
256,192,22870,1,8,0:0:0:0:
256,192,22920,1,0,0:0:0:0:
256,192,23020,1,12,0:0:0:0:
256,192,23120,1,0,0:0:0:0:
256,192,23170,1,0,0:0:0:0:
256,192,23220,1,8,0:0:0:0:
256,192,23320,1,0,0:0:0:0:
256,192,23420,1,8,0:0:0:0:
256,192,23470,1,8,0:0:0:0:
256,192,23520,1,8,0:0:0:0:
256,192,23570,1,8,0:0:0:0:
256,192,23620,1,0,0:0:0:0:
256,192,23720,1,8,0:0:0:0:
256,192,23820,1,0,0:0:0:0:
256,192,23920,1,0,0:0:0:0:
256,192,24020,1,8,0:0:0:0:
256,192,24120,1,0,0:0:0:0:
256,192,24220,1,8,0:0:0:0:
256,192,24270,1,0,0:0:0:0:
256,192,24320,1,8,0:0:0:0:
256,192,24370,1,0,0:0:0:0:
256,192,24420,1,8,0:0:0:0:
256,192,24520,1,8,0:0:0:0:
256,192,24620,1,0,0:0:0:0:
256,192,24670,1,0,0:0:0:0:
256,192,24720,1,0,0:0:0:0:
256,192,24770,1,0,0:0:0:0:
256,192,24820,1,8,0:0:0:0:
256,192,24920,1,0,0:0:0:0:
256,192,25020,1,8,0:0:0:0:
256,192,25120,1,0,0:0:0:0:
256,192,25170,1,0,0:0:0:0:
256,192,25220,1,8,0:0:0:0:
256,192,25270,1,8,0:0:0:0:
256,192,25320,1,0,0:0:0:0:
256,192,25370,1,0,0:0:0:0:
256,192,25420,1,8,0:0:0:0:
256,192,25520,1,8,0:0:0:0:
256,192,25620,1,0,0:0:0:0:
256,192,25720,1,0,0:0:0:0:
256,192,25770,1,0,0:0:0:0:
256,192,25820,1,8,0:0:0:0:
256,192,25870,1,8,0:0:0:0:
256,192,25920,1,0,0:0:0:0:
256,192,26020,1,8,0:0:0:0:
256,192,26070,1,8,0:0:0:0:
256,192,26120,1,0,0:0:0:0:
256,192,26220,1,12,0:0:0:0:
256,192,26320,1,0,0:0:0:0:
256,192,26420,1,8,0:0:0:0:
256,192,26620,1,8,0:0:0:0:
256,192,26720,1,0,0:0:0:0:
256,192,26820,1,8,0:0:0:0:
256,192,27020,1,8,0:0:0:0:
256,192,27120,1,0,0:0:0:0:
256,192,27220,1,8,0:0:0:0:
256,192,27420,1,8,0:0:0:0:
256,192,27520,1,8,0:0:0:0:
256,192,27620,1,8,0:0:0:0:
256,192,27720,1,8,0:0:0:0:
256,192,27820,1,8,0:0:0:0:
256,192,27920,1,0,0:0:0:0:
256,192,28020,1,8,0:0:0:0:
256,192,28220,1,8,0:0:0:0:
256,192,28320,1,0,0:0:0:0:
256,192,28420,1,8,0:0:0:0:
256,192,28620,1,0,0:0:0:0:
256,192,28720,1,8,0:0:0:0:
256,192,28770,1,8,0:0:0:0:
256,192,28820,1,0,0:0:0:0:
256,192,28920,1,8,0:0:0:0:
256,192,28970,1,8,0:0:0:0:
256,192,29020,1,0,0:0:0:0:
256,192,29120,1,8,0:0:0:0:
256,192,29170,1,8,0:0:0:0:
256,192,29220,1,0,0:0:0:0:
256,192,29320,1,8,0:0:0:0:
256,192,29370,1,8,0:0:0:0:
256,192,29420,1,0,0:0:0:0:
256,192,29520,1,0,0:0:0:0:
256,192,29620,1,8,0:0:0:0:
256,192,29820,1,8,0:0:0:0:
256,192,29920,1,0,0:0:0:0:
256,192,30020,1,8,0:0:0:0:
256,192,30220,1,8,0:0:0:0:
256,192,30320,1,0,0:0:0:0:
256,192,30420,1,8,0:0:0:0:
256,192,30620,1,8,0:0:0:0:
256,192,30720,1,8,0:0:0:0:
256,192,30820,1,8,0:0:0:0:
256,192,30920,1,8,0:0:0:0:
256,192,31020,1,8,0:0:0:0:
256,192,31120,1,0,0:0:0:0:
256,192,31220,1,8,0:0:0:0:
256,192,31320,1,0,0:0:0:0:
256,192,31353,1,0,0:0:0:0:
256,192,31386,1,0,0:0:0:0:
256,192,31420,1,0,0:0:0:0:
256,192,31520,1,0,0:0:0:0:
256,192,31620,1,8,0:0:0:0:
256,192,31720,1,8,0:0:0:0:
256,192,31820,1,0,0:0:0:0:
256,192,31870,1,0,0:0:0:0:
256,192,31920,1,0,0:0:0:0:
256,192,32020,1,8,0:0:0:0:
256,192,32120,1,0,0:0:0:0:
256,192,32170,1,0,0:0:0:0:
256,192,32220,1,8,0:0:0:0:
256,192,32320,1,8,0:0:0:0:
256,192,32420,1,8,0:0:0:0:
256,192,32520,1,8,0:0:0:0:
256,192,32620,1,12,0:0:0:0:
256,192,32720,1,0,0:0:0:0:
256,192,32820,1,8,0:0:0:0:
256,192,33020,1,8,0:0:0:0:
256,192,33120,1,0,0:0:0:0:
256,192,33220,1,8,0:0:0:0:
256,192,33420,1,8,0:0:0:0:
256,192,33520,1,0,0:0:0:0:
256,192,33620,1,8,0:0:0:0:
256,192,33820,1,8,0:0:0:0:
256,192,33920,1,8,0:0:0:0:
256,192,34020,1,8,0:0:0:0:
256,192,34120,1,8,0:0:0:0:
256,192,34220,1,8,0:0:0:0:
256,192,34320,1,0,0:0:0:0:
256,192,34420,1,8,0:0:0:0:
256,192,34620,1,8,0:0:0:0:
256,192,34720,1,0,0:0:0:0:
256,192,34820,1,8,0:0:0:0:
256,192,35020,1,0,0:0:0:0:
256,192,35120,1,8,0:0:0:0:
256,192,35170,1,8,0:0:0:0:
256,192,35220,1,0,0:0:0:0:
256,192,35320,1,8,0:0:0:0:
256,192,35370,1,8,0:0:0:0:
256,192,35420,1,0,0:0:0:0:
256,192,35520,1,8,0:0:0:0:
256,192,35570,1,8,0:0:0:0:
256,192,35620,1,0,0:0:0:0:
256,192,35720,1,8,0:0:0:0:
256,192,35770,1,8,0:0:0:0:
256,192,35820,1,0,0:0:0:0:
256,192,35920,1,0,0:0:0:0:
256,192,36020,1,8,0:0:0:0:
256,192,36070,1,0,0:0:0:0:
256,192,36120,1,0,0:0:0:0:
256,192,36170,1,0,0:0:0:0:
256,192,36220,1,8,0:0:0:0:
256,192,36320,1,0,0:0:0:0:
256,192,36420,1,8,0:0:0:0:
256,192,36520,1,8,0:0:0:0:
256,192,36570,1,8,0:0:0:0:
256,192,36620,1,0,0:0:0:0:
256,192,36720,1,8,0:0:0:0:
256,192,36820,1,8,0:0:0:0:
256,192,36920,1,0,0:0:0:0:
256,192,36953,1,0,0:0:0:0:
256,192,36986,1,0,0:0:0:0:
256,192,37020,1,0,0:0:0:0:
256,192,37120,1,0,0:0:0:0:
256,192,37220,1,8,0:0:0:0:
256,192,37320,1,8,0:0:0:0:
256,192,37420,1,0,0:0:0:0:
256,192,37470,1,0,0:0:0:0:
256,192,37520,1,0,0:0:0:0:
256,192,37570,1,0,0:0:0:0:
256,192,37620,1,8,0:0:0:0:
256,192,37720,1,0,0:0:0:0:
256,192,37820,1,8,0:0:0:0:
256,192,37870,1,8,0:0:0:0:
256,192,37920,1,8,0:0:0:0:
256,192,37970,1,8,0:0:0:0:
256,192,38020,1,8,0:0:0:0:
256,192,38070,1,8,0:0:0:0:
256,192,38120,1,8,0:0:0:0:
256,192,38170,1,8,0:0:0:0:
256,192,38220,1,0,0:0:0:0:
256,192,38320,1,8,0:0:0:0:
256,192,38420,1,8,0:0:0:0:
256,192,38520,1,8,0:0:0:0:
256,192,38620,1,0,0:0:0:0:
256,192,38820,1,0,0:0:0:0:
256,192,38920,1,0,0:0:0:0:
256,192,39020,1,12,0:0:0:0:
256,192,39220,1,8,0:0:0:0:
256,192,39270,1,8,0:0:0:0:
256,192,39320,1,0,0:0:0:0:
256,192,39370,1,0,0:0:0:0:
256,192,39420,1,8,0:0:0:0:
256,192,39520,1,8,0:0:0:0:
256,192,39620,1,0,0:0:0:0:
256,192,39720,1,8,0:0:0:0:
256,192,40020,1,0,0:0:0:0:
256,192,40120,1,0,0:0:0:0:
256,192,40220,1,8,0:0:0:0:
256,192,40320,1,8,0:0:0:0:
256,192,40420,1,0,0:0:0:0:
256,192,40520,1,8,0:0:0:0:
256,192,40620,1,0,0:0:0:0:
256,192,40670,1,0,0:0:0:0:
256,192,40720,1,0,0:0:0:0:
256,192,40820,1,0,0:0:0:0:
256,192,40920,1,8,0:0:0:0:
256,192,40970,1,8,0:0:0:0:
256,192,41020,1,8,0:0:0:0:
256,192,41120,1,0,0:0:0:0:
256,192,41220,1,0,0:0:0:0:
256,192,41270,1,0,0:0:0:0:
256,192,41320,1,0,0:0:0:0:
256,192,41420,1,0,0:0:0:0:
256,192,41520,1,8,0:0:0:0:
256,192,41570,1,8,0:0:0:0:
256,192,41620,1,8,0:0:0:0:
256,192,41720,1,0,0:0:0:0:
256,192,41820,1,8,0:0:0:0:
256,192,41920,1,0,0:0:0:0:
256,192,42020,1,8,0:0:0:0:
256,192,42120,1,0,0:0:0:0:
256,192,42220,1,8,0:0:0:0:
256,192,42270,1,8,0:0:0:0:
256,192,42320,1,0,0:0:0:0:
256,192,42370,1,0,0:0:0:0:
256,192,42420,1,8,0:0:0:0:
256,192,42470,1,8,0:0:0:0:
256,192,42520,1,0,0:0:0:0:
256,192,42620,1,0,0:0:0:0:
256,192,42720,1,0,0:0:0:0:
256,192,42820,1,0,0:0:0:0:
256,192,42920,1,0,0:0:0:0:
256,192,43120,1,8,0:0:0:0:
256,192,43170,1,8,0:0:0:0:
256,192,43220,1,0,0:0:0:0:
256,192,43320,1,0,0:0:0:0:
256,192,43420,1,8,0:0:0:0:
256,192,43520,1,8,0:0:0:0:
256,192,43620,1,0,0:0:0:0:
256,192,43720,1,8,0:0:0:0:
256,192,43820,1,0,0:0:0:0:
256,192,43870,1,0,0:0:0:0:
256,192,43920,1,0,0:0:0:0:
256,192,44020,1,0,0:0:0:0:
256,192,44120,1,8,0:0:0:0:
256,192,44170,1,8,0:0:0:0:
256,192,44220,1,8,0:0:0:0:
256,192,44320,1,0,0:0:0:0:
256,192,44420,1,0,0:0:0:0:
256,192,44470,1,0,0:0:0:0:
256,192,44520,1,0,0:0:0:0:
256,192,44620,1,0,0:0:0:0:
256,192,44720,1,8,0:0:0:0:
256,192,44770,1,8,0:0:0:0:
256,192,44820,1,8,0:0:0:0:
256,192,44870,1,0,0:0:0:0:
256,192,44920,1,0,0:0:0:0:
256,192,44970,1,0,0:0:0:0:
256,192,45020,1,8,0:0:0:0:
256,192,45120,1,0,0:0:0:0:
256,192,45220,1,8,0:0:0:0:
256,192,45420,1,12,0:0:0:0:
256,192,45520,1,0,0:0:0:0:
256,192,45620,1,8,0:0:0:0:
256,192,45720,1,0,0:0:0:0:
256,192,45820,1,8,0:0:0:0:
256,192,46020,1,8,0:0:0:0:
256,192,46220,1,8,0:0:0:0:
256,192,46320,1,0,0:0:0:0:
256,192,46420,1,8,0:0:0:0:
256,192,46520,1,0,0:0:0:0:
256,192,46620,1,8,0:0:0:0:
256,192,46820,1,8,0:0:0:0:
256,192,47020,1,8,0:0:0:0:
256,192,47120,1,0,0:0:0:0:
256,192,47220,1,8,0:0:0:0:
256,192,47320,1,0,0:0:0:0:
256,192,47420,1,8,0:0:0:0:
256,192,47620,1,8,0:0:0:0:
256,192,47820,1,0,0:0:0:0:
256,192,47920,1,8,0:0:0:0:
256,192,47970,1,8,0:0:0:0:
256,192,48020,1,0,0:0:0:0:
256,192,48120,1,8,0:0:0:0:
256,192,48153,1,8,0:0:0:0:
256,192,48186,1,8,0:0:0:0:
256,192,48220,1,0,0:0:0:0:
256,192,48320,1,8,0:0:0:0:
256,192,48370,1,8,0:0:0:0:
256,192,48420,1,0,0:0:0:0:
256,192,48520,1,8,0:0:0:0:
256,192,48553,1,8,0:0:0:0:
256,192,48586,1,8,0:0:0:0:
256,192,48620,1,0,0:0:0:0:
256,192,48720,1,0,0:0:0:0:
256,192,48820,1,8,0:0:0:0:
256,192,48920,1,0,0:0:0:0:
256,192,49020,1,8,0:0:0:0:
256,192,49220,1,8,0:0:0:0:
256,192,49420,1,8,0:0:0:0:
256,192,49520,1,8,0:0:0:0:
256,192,49620,1,8,0:0:0:0:
256,192,49720,1,0,0:0:0:0:
256,192,49820,1,8,0:0:0:0:
256,192,50020,1,8,0:0:0:0:
256,192,50220,1,8,0:0:0:0:
256,192,50270,1,8,0:0:0:0:
256,192,50320,1,8,0:0:0:0:
256,192,50420,1,0,0:0:0:0:
256,192,50520,1,8,0:0:0:0:
256,192,50570,1,8,0:0:0:0:
256,192,50620,1,8,0:0:0:0:
256,192,50720,1,0,0:0:0:0:
256,192,50820,1,0,0:0:0:0:
256,192,50920,1,0,0:0:0:0:
256,192,51020,1,8,0:0:0:0:
256,192,51070,1,8,0:0:0:0:
256,192,51120,1,8,0:0:0:0:
256,192,51170,1,8,0:0:0:0:
256,192,51220,1,0,0:0:0:0:
256,192,51270,1,0,0:0:0:0:
256,192,51320,1,0,0:0:0:0:
256,192,51370,1,0,0:0:0:0:
256,192,51420,1,8,0:0:0:0:
256,192,51470,1,8,0:0:0:0:
256,192,51520,1,8,0:0:0:0:
256,192,51570,1,8,0:0:0:0:
256,192,51620,1,0,0:0:0:0:
256,192,51670,1,0,0:0:0:0:
256,192,51720,1,0,0:0:0:0:
256,192,51770,1,0,0:0:0:0:
256,192,51820,1,8,0:0:0:0:
256,192,51920,1,0,0:0:0:0:
256,192,52020,1,8,0:0:0:0:
256,192,52120,1,0,0:0:0:0:
256,192,52220,1,8,0:0:0:0:
256,192,52420,1,8,0:0:0:0:
256,192,52620,1,8,0:0:0:0:
256,192,52720,1,0,0:0:0:0:
256,192,52820,1,8,0:0:0:0:
256,192,52920,1,0,0:0:0:0:
256,192,53020,1,8,0:0:0:0:
256,192,53220,1,8,0:0:0:0:
256,192,53420,1,8,0:0:0:0:
256,192,53470,1,8,0:0:0:0:
256,192,53520,1,0,0:0:0:0:
256,192,53570,1,0,0:0:0:0:
256,192,53620,1,8,0:0:0:0:
256,192,53670,1,0,0:0:0:0:
256,192,53720,1,0,0:0:0:0:
256,192,53770,1,0,0:0:0:0:
256,192,53820,1,8,0:0:0:0:
256,192,53870,1,0,0:0:0:0:
256,192,53920,1,0,0:0:0:0:
256,192,53970,1,0,0:0:0:0:
256,192,54020,1,8,0:0:0:0:
256,192,54120,1,0,0:0:0:0:
256,192,54220,1,0,0:0:0:0:
256,192,54320,1,8,0:0:0:0:
256,192,54370,1,8,0:0:0:0:
256,192,54420,1,0,0:0:0:0:
256,192,54520,1,8,0:0:0:0:
256,192,54553,1,8,0:0:0:0:
256,192,54586,1,8,0:0:0:0:
256,192,54620,1,0,0:0:0:0:
256,192,54720,1,8,0:0:0:0:
256,192,54770,1,8,0:0:0:0:
256,192,54820,1,0,0:0:0:0:
256,192,54920,1,8,0:0:0:0:
256,192,54953,1,8,0:0:0:0:
256,192,54986,1,8,0:0:0:0:
256,192,55020,1,0,0:0:0:0:
256,192,55120,1,0,0:0:0:0:
256,192,55220,1,8,0:0:0:0:
256,192,55320,1,0,0:0:0:0:
256,192,55420,1,8,0:0:0:0:
256,192,55620,1,8,0:0:0:0:
256,192,55820,1,8,0:0:0:0:
256,192,55920,1,0,0:0:0:0:
256,192,56020,1,8,0:0:0:0:
256,192,56120,1,8,0:0:0:0:
256,192,56220,1,8,0:0:0:0:
256,192,56420,1,8,0:0:0:0:
256,192,56620,1,8,0:0:0:0:
256,192,56670,1,0,0:0:0:0:
256,192,56720,1,0,0:0:0:0:
256,192,56820,1,8,0:0:0:0:
256,192,56870,1,8,0:0:0:0:
256,192,56920,1,8,0:0:0:0:
256,192,56970,1,8,0:0:0:0:
256,192,57020,1,0,0:0:0:0:
256,192,57120,1,0,0:0:0:0:
256,192,57220,1,8,0:0:0:0:
256,192,57320,1,0,0:0:0:0:
256,192,57370,1,0,0:0:0:0:
256,192,57420,1,8,0:0:0:0:
256,192,57520,1,0,0:0:0:0:
256,192,57620,1,8,0:0:0:0:
256,192,57653,1,8,0:0:0:0:
256,192,57686,1,8,0:0:0:0:
256,192,57720,1,8,0:0:0:0:
256,192,57820,1,0,0:0:0:0:
256,192,57920,1,0,0:0:0:0:
256,192,58020,1,8,0:0:0:0:
256,192,58120,1,8,0:0:0:0:
256,192,58220,1,4,0:0:0:0:
256,192,58420,1,8,0:0:0:0:
256,192,58470,1,8,0:0:0:0:
256,192,58520,1,8,0:0:0:0:
256,192,58620,1,0,0:0:0:0:
256,192,58720,1,0,0:0:0:0:
256,192,58820,1,8,0:0:0:0:
256,192,58920,1,0,0:0:0:0:
256,192,59220,1,0,0:0:0:0:
256,192,59320,1,0,0:0:0:0:
256,192,59420,1,8,0:0:0:0:
256,192,59520,1,8,0:0:0:0:
256,192,59620,1,0,0:0:0:0:
256,192,59720,1,8,0:0:0:0:
256,192,59820,1,0,0:0:0:0:
256,192,59853,1,0,0:0:0:0:
256,192,59886,1,0,0:0:0:0:
256,192,59920,1,0,0:0:0:0:
256,192,60020,1,0,0:0:0:0:
256,192,60120,1,8,0:0:0:0:
256,192,60170,1,8,0:0:0:0:
256,192,60220,1,8,0:0:0:0:
256,192,60320,1,0,0:0:0:0:
256,192,60420,1,0,0:0:0:0:
256,192,60453,1,0,0:0:0:0:
256,192,60486,1,0,0:0:0:0:
256,192,60520,1,0,0:0:0:0:
256,192,60620,1,0,0:0:0:0:
256,192,60720,1,8,0:0:0:0:
256,192,60770,1,8,0:0:0:0:
256,192,60820,1,8,0:0:0:0:
256,192,60920,1,0,0:0:0:0:
256,192,61020,1,8,0:0:0:0:
256,192,61120,1,0,0:0:0:0:
256,192,61220,1,8,0:0:0:0:
256,192,61320,1,0,0:0:0:0:
256,192,61420,1,8,0:0:0:0:
256,192,61470,1,8,0:0:0:0:
256,192,61520,1,0,0:0:0:0:
256,192,61570,1,0,0:0:0:0:
256,192,61620,1,8,0:0:0:0:
256,192,61670,1,8,0:0:0:0:
256,192,61720,1,0,0:0:0:0:
256,192,61820,1,0,0:0:0:0:
256,192,61920,1,0,0:0:0:0:
256,192,62020,1,0,0:0:0:0:
256,192,62120,1,0,0:0:0:0:
256,192,62320,1,8,0:0:0:0:
256,192,62370,1,8,0:0:0:0:
256,192,62420,1,0,0:0:0:0:
256,192,62520,1,0,0:0:0:0:
256,192,62620,1,8,0:0:0:0:
256,192,62720,1,8,0:0:0:0:
256,192,62820,1,0,0:0:0:0:
256,192,62920,1,8,0:0:0:0:
256,192,63020,1,0,0:0:0:0:
256,192,63053,1,0,0:0:0:0:
256,192,63086,1,0,0:0:0:0:
256,192,63120,1,0,0:0:0:0:
256,192,63220,1,0,0:0:0:0:
256,192,63320,1,8,0:0:0:0:
256,192,63370,1,8,0:0:0:0:
256,192,63420,1,8,0:0:0:0:
256,192,63520,1,0,0:0:0:0:
256,192,63620,1,0,0:0:0:0:
256,192,63653,1,0,0:0:0:0:
256,192,63686,1,0,0:0:0:0:
256,192,63720,1,0,0:0:0:0:
256,192,63820,1,0,0:0:0:0:
256,192,63920,1,8,0:0:0:0:
256,192,63970,1,8,0:0:0:0:
256,192,64020,1,0,0:0:0:0:
256,192,64070,1,0,0:0:0:0:
256,192,64120,1,0,0:0:0:0:
256,192,64170,1,0,0:0:0:0:
256,192,64220,1,8,0:0:0:0:
256,192,64320,1,0,0:0:0:0:
256,192,64420,1,8,0:0:0:0:
256,192,64520,1,0,0:0:0:0:
256,192,64620,1,4,0:0:0:0:
256,192,65420,1,4,0:0:0:0:
256,192,65620,1,4,0:0:0:0:
256,192,65820,1,4,0:0:0:0:
256,192,65920,1,4,0:0:0:0:
256,192,66020,1,4,0:0:0:0:
256,192,66220,1,4,0:0:0:0:
256,192,67020,1,4,0:0:0:0:
256,192,67120,1,8,0:0:0:0:
256,192,67220,1,4,0:0:0:0:
256,192,67320,1,8,0:0:0:0:
256,192,67420,1,4,0:0:0:0:
256,192,67520,1,8,0:0:0:0:
256,192,67570,1,8,0:0:0:0:
256,192,67620,1,0,0:0:0:0:
256,192,67720,1,8,0:0:0:0:
256,192,67820,1,4,0:0:0:0:
256,192,68620,1,4,0:0:0:0:
256,192,68820,1,4,0:0:0:0:
256,192,69020,1,4,0:0:0:0:
256,192,69120,1,4,0:0:0:0:
256,192,69220,1,4,0:0:0:0:
256,192,69420,1,8,0:0:0:0:
256,192,69453,1,8,0:0:0:0:
256,192,69486,1,8,0:0:0:0:
256,192,69520,1,0,0:0:0:0:
256,192,69620,1,0,0:0:0:0:
256,192,69670,1,0,0:0:0:0:
256,192,69720,1,0,0:0:0:0:
256,192,69770,1,0,0:0:0:0:
256,192,69820,1,0,0:0:0:0:
256,192,69920,1,0,0:0:0:0:
256,192,70020,1,8,0:0:0:0:
256,192,70070,1,8,0:0:0:0:
256,192,70120,1,0,0:0:0:0:
256,192,70220,1,8,0:0:0:0:
256,192,70320,1,8,0:0:0:0:
256,192,70420,1,0,0:0:0:0:
256,192,70470,1,0,0:0:0:0:
256,192,70520,1,0,0:0:0:0:
256,192,70620,1,8,0:0:0:0:
256,192,70720,1,8,0:0:0:0:
256,192,70820,1,4,0:0:0:0:
256,192,71020,1,12,0:0:0:0:
256,192,71120,1,0,0:0:0:0:
256,192,71220,1,8,0:0:0:0:
256,192,71320,1,0,0:0:0:0:
256,192,71420,1,8,0:0:0:0:
256,192,71470,1,8,0:0:0:0:
256,192,71520,1,0,0:0:0:0:
256,192,71620,1,8,0:0:0:0:
256,192,71720,1,8,0:0:0:0:
256,192,71820,1,4,0:0:0:0:
256,192,71920,1,8,0:0:0:0:
256,192,72020,1,0,0:0:0:0:
256,192,72120,1,8,0:0:0:0:
256,192,72220,1,0,0:0:0:0:
256,192,72270,1,0,0:0:0:0:
256,192,72320,1,8,0:0:0:0:
256,192,72420,1,0,0:0:0:0:
256,192,72520,1,0,0:0:0:0:
256,192,72620,1,12,0:0:0:0:
256,192,72720,1,0,0:0:0:0:
256,192,72820,1,8,0:0:0:0:
256,192,72920,1,0,0:0:0:0:
256,192,73020,1,8,0:0:0:0:
256,192,73070,1,8,0:0:0:0:
256,192,73120,1,0,0:0:0:0:
256,192,73220,1,8,0:0:0:0:
256,192,73270,1,8,0:0:0:0:
256,192,73320,1,8,0:0:0:0:
256,192,73420,1,4,0:0:0:0:
256,192,73520,1,8,0:0:0:0:
256,192,73620,1,0,0:0:0:0:
256,192,73720,1,8,0:0:0:0:
256,192,73820,1,0,0:0:0:0:
256,192,73870,1,0,0:0:0:0:
256,192,73920,1,8,0:0:0:0:
256,192,74020,1,0,0:0:0:0:
256,192,74070,1,0,0:0:0:0:
256,192,74120,1,0,0:0:0:0:
256,192,74220,1,12,0:0:0:0:
256,192,74320,1,0,0:0:0:0:
256,192,74370,1,0,0:0:0:0:
256,192,74420,1,8,0:0:0:0:
256,192,74520,1,0,0:0:0:0:
256,192,74570,1,0,0:0:0:0:
256,192,74620,1,8,0:0:0:0:
256,192,74720,1,8,0:0:0:0:
256,192,74820,1,8,0:0:0:0:
256,192,74870,1,8,0:0:0:0:
256,192,74920,1,8,0:0:0:0:
256,192,75020,1,4,0:0:0:0:
256,192,75120,1,8,0:0:0:0:
256,192,75170,1,8,0:0:0:0:
256,192,75220,1,0,0:0:0:0:
256,192,75320,1,8,0:0:0:0:
256,192,75370,1,8,0:0:0:0:
256,192,75420,1,0,0:0:0:0:
256,192,75520,1,0,0:0:0:0:
256,192,75620,1,0,0:0:0:0:
256,192,75670,1,0,0:0:0:0:
256,192,75720,1,0,0:0:0:0:
256,192,75820,5,8,0:0:0:0:
256,192,75920,1,8,0:0:0:0:
256,192,76020,1,8,0:0:0:0:
256,192,76120,1,8,0:0:0:0:
256,192,76220,1,8,0:0:0:0:
256,192,76320,1,8,0:0:0:0:
256,192,76420,1,8,0:0:0:0:
256,192,76520,1,8,0:0:0:0:
256,192,76620,1,8,0:0:0:0:
256,192,76670,1,8,0:0:0:0:
256,192,76720,1,0,0:0:0:0:
256,192,76820,1,8,0:0:0:0:
256,192,76870,1,8,0:0:0:0:
256,192,76920,1,0,0:0:0:0:
256,192,77020,1,8,0:0:0:0:
256,192,77120,1,8,0:0:0:0:
256,192,77220,1,0,0:0:0:0:
8,12,77320,2,4,B|608:16|612:16|616:44|608:68|616:108|612:136|608:164|612:204|608:236|616:288|612:308|616:328|568:344|536:352|488:348|440:344|400:340|368:336|328:336|284:336|256:336|224:336|192:336|160:336|128:340|100:344|76:348|40:344|16:344|-4:348|-28:352|-52:348|-72:344|-88:336|-92:312|-92:292|-88:268|-96:244|-92:216|-84:172|-80:152|-76:132|-72:112|-64:84|-52:72|-32:68|4:72|40:76|80:80|116:84|160:80|200:84|224:84|256:84|296:84|328:88|356:88|396:88|452:88|468:92|500:100|528:104|544:112|560:120|556:144|556:192|548:216|536:240|524:248|496:264|480:268|440:280|400:276|372:276|328:272|292:268|264:268|236:264|208:256|184:260|164:260|144:264|96:272|72:268|32:268|12:260|0:248|-24:204|0:164|24:132|32:124|64:112|96:112|120:112|192:116|204:120|228:124|268:124|288:124|332:124|352:128|388:144|424:148|500:152|508:164|504:204|500:208|392:248|380:256|276:252|252:256|156:256|132:252|104:256|76:248|-40:248|40:88|40:88|56:88,1,3605
256,192,78620,2,4,L|372:192,1,105
256,192,78670,2,4,L|372:192,1,105
256,192,78720,2,4,L|372:192,1,105
256,192,78770,2,4,L|372:192,1,105
256,192,78820,2,4,L|372:192,1,105
256,192,78870,2,4,L|372:192,1,105
256,192,78920,2,4,L|372:192,1,105
256,192,78970,2,4,L|372:192,1,105
256,192,79020,12,0,80170,0:0:0:0:
256,192,80220,5,8,0:0:0:0:
256,192,80420,1,8,0:0:0:0:
256,192,80620,1,4,0:0:0:0:
256,192,81020,1,8,0:0:0:0:
256,192,81420,1,0,0:0:0:0:
256,192,81720,1,8,0:0:0:0:
256,192,81820,1,8,0:0:0:0:
256,192,82020,1,0,0:0:0:0:
256,192,82120,1,8,0:0:0:0:
256,192,82220,1,8,0:0:0:0:
256,192,82520,1,0,0:0:0:0:
256,192,82620,1,8,0:0:0:0:
256,192,82720,1,8,0:0:0:0:
256,192,82820,1,0,0:0:0:0:
256,192,82920,1,8,0:0:0:0:
256,192,83020,1,0,0:0:0:0:
256,192,83220,1,8,0:0:0:0:
256,192,83420,1,0,0:0:0:0:
256,192,83620,1,8,0:0:0:0:
256,192,83720,1,8,0:0:0:0:
256,192,83820,1,4,0:0:0:0:
256,192,84220,1,8,0:0:0:0:
256,192,84620,1,0,0:0:0:0:
256,192,84920,1,8,0:0:0:0:
256,192,85020,1,8,0:0:0:0:
256,192,85220,1,8,0:0:0:0:
256,192,85320,1,0,0:0:0:0:
256,192,85420,1,8,0:0:0:0:
256,192,85720,1,0,0:0:0:0:
256,192,85820,1,8,0:0:0:0:
256,192,85920,1,8,0:0:0:0:
256,192,86020,1,0,0:0:0:0:
256,192,86120,1,8,0:0:0:0:
256,192,86220,2,0,L|476:192,1,218.75
256,192,86620,1,0,0:0:0:0:
256,192,86820,1,8,0:0:0:0:
256,192,87020,1,0,0:0:0:0:
256,192,87120,1,0,0:0:0:0:
256,192,87220,1,8,0:0:0:0:
256,192,87420,1,0,0:0:0:0:
256,192,87520,1,0,0:0:0:0:
256,192,87620,1,8,0:0:0:0:
256,192,87820,1,0,0:0:0:0:
256,192,87920,1,0,0:0:0:0:
256,192,88020,1,8,0:0:0:0:
256,192,88120,1,8,0:0:0:0:
256,192,88220,1,0,0:0:0:0:
256,192,88420,1,8,0:0:0:0:
256,192,88620,1,0,0:0:0:0:
256,192,88720,1,8,0:0:0:0:
256,192,88820,1,8,0:0:0:0:
256,192,89020,1,8,0:0:0:0:
256,192,89120,1,8,0:0:0:0:
256,192,89220,1,8,0:0:0:0:
256,192,89420,1,8,0:0:0:0:
256,192,89520,1,0,0:0:0:0:
256,192,89620,1,8,0:0:0:0:
256,192,89720,1,8,0:0:0:0:
256,192,89820,1,0,0:0:0:0:
256,192,90020,1,8,0:0:0:0:
256,192,90120,1,8,0:0:0:0:
256,192,90220,1,0,0:0:0:0:
256,192,90320,1,0,0:0:0:0:
256,192,90420,1,8,0:0:0:0:
256,192,90620,1,8,0:0:0:0:
256,192,90720,1,0,0:0:0:0:
256,192,90820,1,8,0:0:0:0:
256,192,91020,1,0,0:0:0:0:
256,192,91120,1,8,0:0:0:0:
256,192,91220,1,8,0:0:0:0:
256,192,91320,1,8,0:0:0:0:
256,192,91420,1,0,0:0:0:0:
256,192,91620,1,8,0:0:0:0:
256,192,91820,1,0,0:0:0:0:
256,192,91920,1,0,0:0:0:0:
256,192,92020,1,8,0:0:0:0:
256,192,92220,1,8,0:0:0:0:
256,192,92320,1,8,0:0:0:0:
260,192,92420,1,0,0:0:0:0:
256,192,92620,1,8,0:0:0:0:
256,192,92720,1,8,0:0:0:0:
256,192,92820,1,8,0:0:0:0:
256,192,92920,1,8,0:0:0:0:
256,192,93020,1,8,0:0:0:0:
256,192,93220,1,8,0:0:0:0:
256,192,93320,1,8,0:0:0:0:
256,192,93420,12,8,94920,0:0:0:0:
256,192,96220,5,8,0:0:0:0:
256,192,96420,1,8,0:0:0:0:
256,192,96620,1,8,0:0:0:0:
256,192,96670,1,8,0:0:0:0:
256,192,96720,1,8,0:0:0:0:
256,192,96770,1,8,0:0:0:0:
256,192,96820,1,0,0:0:0:0:
256,192,96920,1,0,0:0:0:0:
256,192,97020,1,8,0:0:0:0:
256,192,97070,1,8,0:0:0:0:
256,192,97120,1,0,0:0:0:0:
256,192,97220,1,8,0:0:0:0:
256,192,97320,1,0,0:0:0:0:
256,192,97370,1,0,0:0:0:0:
256,192,97420,1,8,0:0:0:0:
256,192,97470,1,8,0:0:0:0:
256,192,97520,1,0,0:0:0:0:
256,192,97620,1,8,0:0:0:0:
256,192,97720,1,0,0:0:0:0:
256,192,97820,1,8,0:0:0:0:
256,192,97870,1,8,0:0:0:0:
256,192,97920,1,0,0:0:0:0:
256,192,98020,1,8,0:0:0:0:
256,192,98120,1,8,0:0:0:0:
256,192,98220,1,8,0:0:0:0:
256,192,98270,1,0,0:0:0:0:
256,192,98320,1,0,0:0:0:0:
256,192,98370,1,0,0:0:0:0:
256,192,98420,1,8,0:0:0:0:
256,192,98520,1,0,0:0:0:0:
256,192,98620,1,8,0:0:0:0:
256,192,98670,1,8,0:0:0:0:
256,192,98720,1,0,0:0:0:0:
256,192,98820,1,8,0:0:0:0:
256,192,98870,1,8,0:0:0:0:
256,192,98920,1,8,0:0:0:0:
256,192,99020,1,0,0:0:0:0:
256,192,99120,1,8,0:0:0:0:
256,192,99220,1,8,0:0:0:0:
256,192,99320,1,8,0:0:0:0:
256,192,99420,1,0,0:0:0:0:
256,192,99620,1,8,0:0:0:0:
256,192,99720,1,8,0:0:0:0:
256,192,99820,1,0,0:0:0:0:
256,192,99870,1,0,0:0:0:0:
256,192,99920,1,0,0:0:0:0:
256,192,100020,1,8,0:0:0:0:
256,192,100120,1,0,0:0:0:0:
256,192,100170,1,0,0:0:0:0:
256,192,100220,1,8,0:0:0:0:
256,192,100270,1,8,0:0:0:0:
256,192,100320,1,0,0:0:0:0:
256,192,100420,1,8,0:0:0:0:
256,192,100520,1,8,0:0:0:0:
256,192,100620,1,8,0:0:0:0:
256,192,100670,1,8,0:0:0:0:
256,192,100720,1,8,0:0:0:0:
256,192,100820,1,0,0:0:0:0:
256,192,100920,1,8,0:0:0:0:
256,192,101020,1,8,0:0:0:0:
256,192,101120,1,0,0:0:0:0:
256,192,101170,1,0,0:0:0:0:
256,192,101220,1,8,0:0:0:0:
256,192,101270,1,8,0:0:0:0:
256,192,101320,1,0,0:0:0:0:
256,192,101370,1,0,0:0:0:0:
256,192,101420,1,8,0:0:0:0:
256,192,101520,1,8,0:0:0:0:
256,192,101620,1,0,0:0:0:0:
256,192,101720,1,8,0:0:0:0:
256,192,101770,1,0,0:0:0:0:
256,192,101820,1,8,0:0:0:0:
256,192,101920,1,8,0:0:0:0:
256,192,102020,1,0,0:0:0:0:
256,192,102070,1,0,0:0:0:0:
256,192,102120,1,8,0:0:0:0:
256,192,102220,1,8,0:0:0:0:
256,192,102270,1,0,0:0:0:0:
256,192,102320,1,0,0:0:0:0:
256,192,102370,1,0,0:0:0:0:
256,192,102420,1,8,0:0:0:0:
256,192,102520,1,0,0:0:0:0:
256,192,102620,1,8,0:0:0:0:
256,192,102670,1,8,0:0:0:0:
256,192,102720,1,0,0:0:0:0:
256,192,102770,1,0,0:0:0:0:
256,192,102820,1,8,0:0:0:0:
256,192,103020,1,8,0:0:0:0:
256,192,103070,1,8,0:0:0:0:
256,192,103120,1,8,0:0:0:0:
256,192,103220,1,0,0:0:0:0:
256,192,103320,1,8,0:0:0:0:
256,192,103420,1,8,0:0:0:0:
256,192,103470,1,8,0:0:0:0:
256,192,103520,1,0,0:0:0:0:
256,192,103570,1,0,0:0:0:0:
256,192,103620,1,8,0:0:0:0:
256,192,103670,1,8,0:0:0:0:
256,192,103720,1,0,0:0:0:0:
256,192,103820,1,8,0:0:0:0:
256,192,103920,1,0,0:0:0:0:
256,192,103970,1,0,0:0:0:0:
256,192,104020,1,0,0:0:0:0:
256,192,104120,1,8,0:0:0:0:
256,192,104220,1,8,0:0:0:0:
256,192,104320,1,0,0:0:0:0:
256,192,104370,1,0,0:0:0:0:
256,192,104420,1,8,0:0:0:0:
256,192,104520,1,8,0:0:0:0:
256,192,104620,1,8,0:0:0:0:
256,192,104670,1,8,0:0:0:0:
256,192,104720,1,8,0:0:0:0:
256,192,104820,1,0,0:0:0:0:
256,192,104920,1,8,0:0:0:0:
256,192,105020,1,8,0:0:0:0:
256,192,105070,1,0,0:0:0:0:
256,192,105120,1,8,0:0:0:0:
256,192,105220,1,8,0:0:0:0:
256,192,105270,1,8,0:0:0:0:
256,192,105320,1,0,0:0:0:0:
256,192,105420,1,8,0:0:0:0:
256,192,105520,1,0,0:0:0:0:
256,192,105620,1,8,0:0:0:0:
256,192,105670,1,8,0:0:0:0:
256,192,105720,1,8,0:0:0:0:
256,192,105770,1,0,0:0:0:0:
256,192,105820,1,8,0:0:0:0:
256,192,106020,1,8,0:0:0:0:
256,192,106120,1,0,0:0:0:0:
256,192,106220,1,8,0:0:0:0:
256,192,106270,1,8,0:0:0:0:
256,192,106320,1,0,0:0:0:0:
256,192,106370,1,0,0:0:0:0:
256,192,106420,1,8,0:0:0:0:
256,192,106520,1,0,0:0:0:0:
256,192,106570,1,0,0:0:0:0:
256,192,106620,1,8,0:0:0:0:
256,192,106720,1,0,0:0:0:0:
256,192,106820,1,8,0:0:0:0:
256,192,106870,1,8,0:0:0:0:
256,192,106920,1,0,0:0:0:0:
256,192,106970,1,0,0:0:0:0:
256,192,107020,1,8,0:0:0:0:
256,192,107070,1,8,0:0:0:0:
256,192,107120,1,8,0:0:0:0:
256,192,107170,1,8,0:0:0:0:
256,192,107220,1,0,0:0:0:0:
256,192,107320,1,8,0:0:0:0:
256,192,107420,1,8,0:0:0:0:
256,192,107520,1,0,0:0:0:0:
256,192,107620,1,8,0:0:0:0:
256,192,107670,1,0,0:0:0:0:
256,192,107720,1,8,0:0:0:0:
256,192,107770,1,0,0:0:0:0:
256,192,107820,1,8,0:0:0:0:
256,192,107920,1,8,0:0:0:0:
256,192,108020,1,0,0:0:0:0:
256,192,108120,1,8,0:0:0:0:
256,192,108170,1,0,0:0:0:0:
256,192,108220,1,8,0:0:0:0:
256,192,108270,1,8,0:0:0:0:
256,192,108320,1,0,0:0:0:0:
256,192,108370,1,0,0:0:0:0:
256,192,108420,1,8,0:0:0:0:
256,192,108470,1,8,0:0:0:0:
256,192,108520,1,8,0:0:0:0:
256,192,108570,1,8,0:0:0:0:
256,192,108620,1,0,0:0:0:0:
256,192,108670,1,0,0:0:0:0:
256,192,108720,1,0,0:0:0:0:
256,192,108770,1,0,0:0:0:0:
256,192,108820,1,8,0:0:0:0:
256,192,108920,1,0,0:0:0:0:
256,192,109020,1,8,0:0:0:0:
256,192,109070,1,8,0:0:0:0:
256,192,109120,1,8,0:0:0:0:
256,192,109170,1,8,0:0:0:0:
256,192,109220,1,0,0:0:0:0:
256,192,109320,1,0,0:0:0:0:
256,192,109420,1,12,0:0:0:0:
256,192,109620,1,8,0:0:0:0:
256,192,109820,1,0,0:0:0:0:
256,192,110020,1,8,0:0:0:0:
256,192,110220,1,0,0:0:0:0:
256,192,110320,1,8,0:0:0:0:
256,192,110420,1,8,0:0:0:0:
256,192,110520,1,8,0:0:0:0:
256,192,110620,1,0,0:0:0:0:
256,192,110820,1,8,0:0:0:0:
256,192,111020,1,0,0:0:0:0:
256,192,111220,1,8,0:0:0:0:
256,192,111420,1,0,0:0:0:0:
256,192,111620,1,8,0:0:0:0:
256,192,111820,1,0,0:0:0:0:
256,192,111920,1,8,0:0:0:0:
256,192,111970,1,8,0:0:0:0:
256,192,112020,1,0,0:0:0:0:
256,192,112120,1,8,0:0:0:0:
256,192,112220,1,0,0:0:0:0:
256,192,112420,1,8,0:0:0:0:
256,192,112470,1,8,0:0:0:0:
256,192,112520,1,8,0:0:0:0:
256,192,112570,1,8,0:0:0:0:
256,192,112620,1,4,0:0:0:0:
256,192,112820,1,8,0:0:0:0:
256,192,113020,1,0,0:0:0:0:
256,192,113220,1,8,0:0:0:0:
256,192,113420,1,0,0:0:0:0:
256,192,113520,1,0,0:0:0:0:
256,192,113620,1,8,0:0:0:0:
256,192,113720,1,8,0:0:0:0:
256,192,113820,1,0,0:0:0:0:
256,192,114020,1,8,0:0:0:0:
256,192,114220,1,0,0:0:0:0:
256,192,114420,1,8,0:0:0:0:
256,192,114620,1,0,0:0:0:0:
256,192,114820,1,8,0:0:0:0:
256,192,115020,1,8,0:0:0:0:
256,192,115120,1,8,0:0:0:0:
256,192,115220,1,0,0:0:0:0:
256,192,115320,1,8,0:0:0:0:
256,192,115420,1,8,0:0:0:0:
256,192,115620,1,8,0:0:0:0:
256,192,115820,1,4,0:0:0:0:
256,192,116020,1,8,0:0:0:0:
256,192,116220,1,0,0:0:0:0:
256,192,116420,1,8,0:0:0:0:
256,192,116620,1,0,0:0:0:0:
256,192,116720,1,8,0:0:0:0:
256,192,116820,1,8,0:0:0:0:
256,192,116920,1,8,0:0:0:0:
256,192,117020,1,0,0:0:0:0:
256,192,117220,1,8,0:0:0:0:
256,192,117420,1,0,0:0:0:0:
256,192,117520,1,8,0:0:0:0:
256,192,117620,1,8,0:0:0:0:
256,192,117820,1,0,0:0:0:0:
256,192,117920,1,8,0:0:0:0:
256,192,118020,1,8,0:0:0:0:
256,192,118220,1,0,0:0:0:0:
256,192,118320,1,8,0:0:0:0:
256,192,118370,1,8,0:0:0:0:
256,192,118420,1,8,0:0:0:0:
256,192,118520,1,8,0:0:0:0:
256,192,118620,1,0,0:0:0:0:
256,192,118820,1,8,0:0:0:0:
256,192,118870,1,8,0:0:0:0:
256,192,118920,1,8,0:0:0:0:
256,192,118970,1,8,0:0:0:0:
256,192,119020,1,4,0:0:0:0:
256,192,119220,1,8,0:0:0:0:
256,192,119420,1,0,0:0:0:0:
256,192,119620,1,8,0:0:0:0:
256,192,119820,1,0,0:0:0:0:
256,192,119920,1,0,0:0:0:0:
256,192,120020,1,8,0:0:0:0:
256,192,120120,1,8,0:0:0:0:
256,192,120220,1,0,0:0:0:0:
256,192,120420,1,8,0:0:0:0:
256,192,120620,1,4,0:0:0:0:
256,192,121020,1,4,0:0:0:0:
256,192,121420,1,4,0:0:0:0:
256,192,121620,1,8,0:0:0:0:
256,192,121670,1,8,0:0:0:0:
256,192,121720,1,8,0:0:0:0:
256,192,121770,1,8,0:0:0:0:
256,192,121820,1,0,0:0:0:0:
256,192,122020,1,0,0:0:0:0:
256,192,122070,1,0,0:0:0:0:
256,192,122120,1,0,0:0:0:0:
256,192,122220,1,12,0:0:0:0:
256,192,122320,1,0,0:0:0:0:
256,192,122420,1,8,0:0:0:0:
256,192,122470,1,0,0:0:0:0:
256,192,122520,1,0,0:0:0:0:
256,192,122570,1,0,0:0:0:0:
256,192,122620,1,8,0:0:0:0:
256,192,122720,1,0,0:0:0:0:
256,192,122770,1,0,0:0:0:0:
256,192,122820,1,8,0:0:0:0:
256,192,122920,1,8,0:0:0:0:
256,192,123020,1,8,0:0:0:0:
256,192,123070,1,8,0:0:0:0:
256,192,123120,1,0,0:0:0:0:
256,192,123220,1,0,0:0:0:0:
256,192,123320,1,0,0:0:0:0:
256,192,123353,1,0,0:0:0:0:
256,192,123386,1,0,0:0:0:0:
256,192,123420,1,8,0:0:0:0:
256,192,123520,1,8,0:0:0:0:
256,192,123620,1,8,0:0:0:0:
256,192,123720,1,8,0:0:0:0:
256,192,123820,1,0,0:0:0:0:
256,192,123870,1,8,0:0:0:0:
256,192,123920,1,0,0:0:0:0:
256,192,123970,1,0,0:0:0:0:
256,192,124020,1,8,0:0:0:0:
256,192,124120,1,0,0:0:0:0:
256,192,124220,1,8,0:0:0:0:
256,192,124320,1,0,0:0:0:0:
256,192,124370,1,8,0:0:0:0:
256,192,124420,1,8,0:0:0:0:
256,192,124470,1,8,0:0:0:0:
256,192,124520,1,0,0:0:0:0:
256,192,124620,1,8,0:0:0:0:
256,192,124670,1,8,0:0:0:0:
256,192,124720,1,0,0:0:0:0:
256,192,124820,1,8,0:0:0:0:
256,192,124920,1,0,0:0:0:0:
256,192,124970,1,0,0:0:0:0:
256,192,125020,1,0,0:0:0:0:
256,192,125070,1,0,0:0:0:0:
256,192,125120,1,8,0:0:0:0:
256,192,125170,1,8,0:0:0:0:
256,192,125220,1,8,0:0:0:0:
256,192,125270,1,8,0:0:0:0:
256,192,125320,1,0,0:0:0:0:
256,192,125420,1,12,0:0:0:0:
256,192,125520,1,0,0:0:0:0:
256,192,125570,1,0,0:0:0:0:
256,192,125620,1,8,0:0:0:0:
256,192,125720,1,0,0:0:0:0:
256,192,125820,1,8,0:0:0:0:
256,192,125870,1,8,0:0:0:0:
256,192,125920,1,8,0:0:0:0:
256,192,125970,1,8,0:0:0:0:
256,192,126020,1,0,0:0:0:0:
256,192,126120,1,8,0:0:0:0:
256,192,126220,1,0,0:0:0:0:
256,192,126320,1,0,0:0:0:0:
256,192,126420,1,8,0:0:0:0:
256,192,126520,1,0,0:0:0:0:
256,192,126620,1,8,0:0:0:0:
256,192,126670,1,8,0:0:0:0:
256,192,126720,1,8,0:0:0:0:
256,192,126820,1,8,0:0:0:0:
256,192,126920,1,8,0:0:0:0:
256,192,127020,1,0,0:0:0:0:
256,192,127070,1,0,0:0:0:0:
256,192,127120,1,0,0:0:0:0:
256,192,127170,1,0,0:0:0:0:
256,192,127220,1,8,0:0:0:0:
256,192,127320,1,0,0:0:0:0:
256,192,127420,1,8,0:0:0:0:
256,192,127520,1,0,0:0:0:0:
256,192,127570,1,0,0:0:0:0:
256,192,127620,1,8,0:0:0:0:
256,192,127670,1,8,0:0:0:0:
256,192,127720,1,0,0:0:0:0:
256,192,127770,1,0,0:0:0:0:
256,192,127820,1,8,0:0:0:0:
256,192,127920,1,8,0:0:0:0:
256,192,128020,1,0,0:0:0:0:
256,192,128120,1,0,0:0:0:0:
256,192,128170,1,0,0:0:0:0:
256,192,128220,1,8,0:0:0:0:
256,192,128270,1,8,0:0:0:0:
256,192,128320,1,0,0:0:0:0:
256,192,128420,1,8,0:0:0:0:
256,192,128470,1,8,0:0:0:0:
256,192,128520,1,0,0:0:0:0:
256,192,128620,1,12,0:0:0:0:
256,192,129020,1,8,0:0:0:0:
256,192,129120,1,0,0:0:0:0:
256,192,129220,1,8,0:0:0:0:
256,192,129270,1,8,0:0:0:0:
256,192,129320,1,0,0:0:0:0:
256,192,129370,1,0,0:0:0:0:
256,192,129420,1,8,0:0:0:0:
256,192,129520,1,8,0:0:0:0:
256,192,129620,1,8,0:0:0:0:
256,192,129720,1,0,0:0:0:0:
256,192,129753,1,0,0:0:0:0:
256,192,129786,1,0,0:0:0:0:
256,192,129820,1,8,0:0:0:0:
256,192,129920,1,8,0:0:0:0:
256,192,130020,1,8,0:0:0:0:
256,192,130120,1,8,0:0:0:0:
256,192,130220,1,0,0:0:0:0:
256,192,130270,1,8,0:0:0:0:
256,192,130320,1,0,0:0:0:0:
256,192,130370,1,0,0:0:0:0:
256,192,130420,1,8,0:0:0:0:
256,192,130520,1,0,0:0:0:0:
256,192,130620,1,8,0:0:0:0:
256,192,130720,1,0,0:0:0:0:
256,192,130770,1,8,0:0:0:0:
256,192,130820,1,8,0:0:0:0:
256,192,130870,1,8,0:0:0:0:
256,192,130920,1,0,0:0:0:0:
256,192,131020,1,8,0:0:0:0:
256,192,131070,1,8,0:0:0:0:
256,192,131120,1,0,0:0:0:0:
256,192,131170,1,0,0:0:0:0:
256,192,131220,1,8,0:0:0:0:
256,192,131320,1,0,0:0:0:0:
256,192,131370,1,0,0:0:0:0:
256,192,131420,1,0,0:0:0:0:
256,192,131470,1,0,0:0:0:0:
256,192,131520,1,8,0:0:0:0:
256,192,131570,1,8,0:0:0:0:
256,192,131620,1,8,0:0:0:0:
256,192,131670,1,8,0:0:0:0:
256,192,131720,1,0,0:0:0:0:
256,192,131820,1,12,0:0:0:0:
256,192,131920,1,0,0:0:0:0:
256,192,131970,1,0,0:0:0:0:
256,192,132020,1,8,0:0:0:0:
256,192,132120,1,0,0:0:0:0:
256,192,132220,1,8,0:0:0:0:
256,192,132270,1,8,0:0:0:0:
256,192,132320,1,8,0:0:0:0:
256,192,132370,1,8,0:0:0:0:
256,192,132420,1,0,0:0:0:0:
256,192,132520,1,8,0:0:0:0:
256,192,132620,1,0,0:0:0:0:
256,192,132720,1,0,0:0:0:0:
256,192,132820,1,8,0:0:0:0:
256,192,132920,1,0,0:0:0:0:
256,192,133020,1,8,0:0:0:0:
256,192,133070,1,0,0:0:0:0:
256,192,133120,1,8,0:0:0:0:
256,192,133170,1,0,0:0:0:0:
256,192,133220,1,8,0:0:0:0:
256,192,133320,1,8,0:0:0:0:
256,192,133420,1,0,0:0:0:0:
256,192,133470,1,0,0:0:0:0:
256,192,133520,1,0,0:0:0:0:
256,192,133570,1,0,0:0:0:0:
256,192,133620,1,8,0:0:0:0:
256,192,133720,1,0,0:0:0:0:
256,192,133820,1,8,0:0:0:0:
256,192,133920,1,0,0:0:0:0:
256,192,133970,1,0,0:0:0:0:
256,192,134020,1,8,0:0:0:0:
256,192,134070,1,8,0:0:0:0:
256,192,134120,1,0,0:0:0:0:
256,192,134170,1,0,0:0:0:0:
256,192,134220,1,8,0:0:0:0:
256,192,134320,1,8,0:0:0:0:
256,192,134420,1,0,0:0:0:0:
256,192,134520,1,0,0:0:0:0:
256,192,134570,1,0,0:0:0:0:
256,192,134620,1,8,0:0:0:0:
256,192,134670,1,8,0:0:0:0:
256,192,134720,1,0,0:0:0:0:
256,192,134820,1,8,0:0:0:0:
256,192,134870,1,8,0:0:0:0:
256,192,134920,1,0,0:0:0:0:
256,192,135020,1,12,0:0:0:0:
256,192,135120,1,0,0:0:0:0:
256,192,135220,1,8,0:0:0:0:
256,192,135420,1,8,0:0:0:0:
256,192,135520,1,0,0:0:0:0:
256,192,135620,1,8,0:0:0:0:
256,192,135820,1,8,0:0:0:0:
256,192,135920,1,0,0:0:0:0:
256,192,136020,1,8,0:0:0:0:
256,192,136220,1,8,0:0:0:0:
256,192,136320,1,8,0:0:0:0:
256,192,136420,1,8,0:0:0:0:
256,192,136520,1,8,0:0:0:0:
256,192,136620,1,8,0:0:0:0:
256,192,136720,1,0,0:0:0:0:
256,192,136820,1,8,0:0:0:0:
256,192,137020,1,8,0:0:0:0:
256,192,137120,1,0,0:0:0:0:
256,192,137220,1,8,0:0:0:0:
256,192,137420,1,0,0:0:0:0:
256,192,137520,1,8,0:0:0:0:
256,192,137570,1,8,0:0:0:0:
256,192,137620,1,0,0:0:0:0:
256,192,137720,1,8,0:0:0:0:
256,192,137770,1,8,0:0:0:0:
256,192,137820,1,0,0:0:0:0:
256,192,137920,1,8,0:0:0:0:
256,192,137970,1,8,0:0:0:0:
256,192,138020,1,0,0:0:0:0:
256,192,138120,1,8,0:0:0:0:
256,192,138170,1,8,0:0:0:0:
256,192,138220,1,0,0:0:0:0:
256,192,138320,1,0,0:0:0:0:
256,192,138420,1,8,0:0:0:0:
256,192,138620,1,8,0:0:0:0:
256,192,138720,1,0,0:0:0:0:
256,192,138820,1,8,0:0:0:0:
256,192,139020,1,8,0:0:0:0:
256,192,139120,1,0,0:0:0:0:
256,192,139220,1,8,0:0:0:0:
256,192,139420,1,8,0:0:0:0:
256,192,139520,1,8,0:0:0:0:
256,192,139620,1,8,0:0:0:0:
256,192,139720,1,0,0:0:0:0:
256,192,139820,1,8,0:0:0:0:
256,192,139920,1,8,0:0:0:0:
256,192,140020,1,8,0:0:0:0:
256,192,140120,1,8,0:0:0:0:
256,192,140170,1,0,0:0:0:0:
256,192,140220,1,8,0:0:0:0:
256,192,140320,1,8,0:0:0:0:
256,192,140420,1,8,0:0:0:0:
256,192,140520,1,8,0:0:0:0:
256,192,140620,1,0,0:0:0:0:
256,192,140670,1,0,0:0:0:0:
256,192,140720,1,0,0:0:0:0:
256,192,140820,1,8,0:0:0:0:
256,192,140920,1,0,0:0:0:0:
256,192,140970,1,0,0:0:0:0:
256,192,141020,1,8,0:0:0:0:
256,192,141070,1,8,0:0:0:0:
256,192,141120,1,8,0:0:0:0:
256,192,141170,1,8,0:0:0:0:
256,192,141220,1,8,0:0:0:0:
256,192,141320,1,0,0:0:0:0:
256,192,141420,1,12,0:0:0:0:
256,192,141520,1,0,0:0:0:0:
256,192,141620,1,8,0:0:0:0:
256,192,141820,1,8,0:0:0:0:
256,192,141920,1,0,0:0:0:0:
256,192,142020,1,8,0:0:0:0:
256,192,142220,1,8,0:0:0:0:
256,192,142320,1,0,0:0:0:0:
256,192,142420,1,8,0:0:0:0:
256,192,142620,1,8,0:0:0:0:
256,192,142720,1,8,0:0:0:0:
256,192,142820,1,8,0:0:0:0:
256,192,142920,1,8,0:0:0:0:
256,192,143020,1,8,0:0:0:0:
256,192,143120,1,0,0:0:0:0:
256,192,143220,1,8,0:0:0:0:
256,192,143420,1,8,0:0:0:0:
256,192,143520,1,0,0:0:0:0:
256,192,143620,1,8,0:0:0:0:
256,192,143820,1,0,0:0:0:0:
256,192,143920,1,8,0:0:0:0:
256,192,143970,1,8,0:0:0:0:
256,192,144020,1,0,0:0:0:0:
256,192,144120,1,8,0:0:0:0:
256,192,144170,1,8,0:0:0:0:
256,192,144220,1,0,0:0:0:0:
256,192,144320,1,8,0:0:0:0:
256,192,144370,1,8,0:0:0:0:
256,192,144420,1,0,0:0:0:0:
256,192,144520,1,8,0:0:0:0:
256,192,144570,1,8,0:0:0:0:
256,192,144620,1,0,0:0:0:0:
256,192,144720,1,0,0:0:0:0:
256,192,144820,1,8,0:0:0:0:
256,192,144870,1,0,0:0:0:0:
256,192,144920,1,0,0:0:0:0:
256,192,144970,1,0,0:0:0:0:
256,192,145020,1,8,0:0:0:0:
256,192,145120,1,0,0:0:0:0:
256,192,145220,1,8,0:0:0:0:
256,192,145320,1,8,0:0:0:0:
256,192,145370,1,8,0:0:0:0:
256,192,145420,1,0,0:0:0:0:
256,192,145520,1,8,0:0:0:0:
256,192,145620,1,8,0:0:0:0:
256,192,145720,1,0,0:0:0:0:
256,192,145753,1,0,0:0:0:0:
256,192,145786,1,0,0:0:0:0:
256,192,145820,1,0,0:0:0:0:
256,192,145920,1,0,0:0:0:0:
256,192,146020,1,8,0:0:0:0:
256,192,146120,1,8,0:0:0:0:
256,192,146220,1,0,0:0:0:0:
256,192,146270,1,0,0:0:0:0:
256,192,146320,1,0,0:0:0:0:
256,192,146370,1,0,0:0:0:0:
256,192,146420,1,8,0:0:0:0:
256,192,146520,1,0,0:0:0:0:
256,192,146570,1,8,0:0:0:0:
256,192,146620,1,8,0:0:0:0:
256,192,146670,1,8,0:0:0:0:
256,192,146720,1,8,0:0:0:0:
256,192,146770,1,8,0:0:0:0:
256,192,146820,1,0,0:0:0:0:
256,192,146920,1,8,0:0:0:0:
256,192,147020,1,8,0:0:0:0:
256,192,147120,1,8,0:0:0:0:
256,192,147220,1,8,0:0:0:0:
256,192,147320,1,8,0:0:0:0:
256,192,147420,1,0,0:0:0:0:
256,192,147620,1,0,0:0:0:0:
256,192,147670,1,0,0:0:0:0:
256,192,147720,1,0,0:0:0:0:
256,192,147770,1,0,0:0:0:0:
256,192,147820,1,12,0:0:0:0:
256,192,148020,1,0,0:0:0:0:
256,192,148220,1,8,0:0:0:0:
256,192,148420,1,0,0:0:0:0:
256,192,148620,1,8,0:0:0:0:
256,192,148820,1,0,0:0:0:0:
256,192,149020,1,8,0:0:0:0:
256,192,149120,1,8,0:0:0:0:
256,192,149220,1,8,0:0:0:0:
256,192,149320,1,0,0:0:0:0:
256,192,149420,1,8,0:0:0:0:
256,192,149620,1,0,0:0:0:0:
256,192,149820,1,8,0:0:0:0:
256,192,150020,1,0,0:0:0:0:
256,192,150220,1,0,0:0:0:0:
256,192,150320,1,8,0:0:0:0:
256,192,150370,1,8,0:0:0:0:
256,192,150420,1,0,0:0:0:0:
256,192,150520,1,8,0:0:0:0:
256,192,150553,1,8,0:0:0:0:
256,192,150586,1,8,0:0:0:0:
256,192,150620,1,0,0:0:0:0:
256,192,150720,1,8,0:0:0:0:
256,192,150770,1,8,0:0:0:0:
256,192,150820,1,0,0:0:0:0:
256,192,150920,1,8,0:0:0:0:
256,192,150953,1,8,0:0:0:0:
256,192,150986,1,8,0:0:0:0:
256,192,151020,1,0,0:0:0:0:
256,192,151220,1,8,0:0:0:0:
256,192,151420,1,0,0:0:0:0:
256,192,151620,1,8,0:0:0:0:
256,192,151820,1,0,0:0:0:0:
256,192,152020,1,8,0:0:0:0:
256,192,152220,1,0,0:0:0:0:
256,192,152320,1,8,0:0:0:0:
256,192,152420,1,8,0:0:0:0:
256,192,152520,1,8,0:0:0:0:
256,192,152620,1,0,0:0:0:0:
256,192,152720,1,8,0:0:0:0:
256,192,152820,1,0,0:0:0:0:
256,192,152920,1,8,0:0:0:0:
256,192,152953,1,0,0:0:0:0:
256,192,152986,1,0,0:0:0:0:
256,192,153020,1,0,0:0:0:0:
256,192,153120,1,0,0:0:0:0:
256,192,153220,1,8,0:0:0:0:
256,192,153320,1,8,0:0:0:0:
256,192,153420,1,0,0:0:0:0:
256,192,153470,1,0,0:0:0:0:
256,192,153520,1,0,0:0:0:0:
256,192,153620,1,0,0:0:0:0:
256,192,153720,1,0,0:0:0:0:
256,192,153770,1,0,0:0:0:0:
256,192,153820,1,8,0:0:0:0:
256,192,153920,1,0,0:0:0:0:
256,192,154020,1,8,0:0:0:0:
256,192,154120,1,0,0:0:0:0:
256,192,154220,1,12,0:0:0:0:
256,192,154420,1,8,0:0:0:0:
256,192,154470,1,8,0:0:0:0:
256,192,154520,1,0,0:0:0:0:
256,192,154620,1,8,0:0:0:0:
256,192,154720,1,8,0:0:0:0:
256,192,154820,1,0,0:0:0:0:
256,192,154920,1,8,0:0:0:0:
256,192,155220,1,0,0:0:0:0:
256,192,155320,1,0,0:0:0:0:
256,192,155420,1,8,0:0:0:0:
256,192,155520,1,8,0:0:0:0:
256,192,155620,1,0,0:0:0:0:
256,192,155720,1,8,0:0:0:0:
256,192,155820,1,0,0:0:0:0:
256,192,155870,1,0,0:0:0:0:
256,192,155920,1,0,0:0:0:0:
256,192,156020,1,0,0:0:0:0:
256,192,156120,1,8,0:0:0:0:
256,192,156170,1,8,0:0:0:0:
256,192,156220,1,8,0:0:0:0:
256,192,156320,1,0,0:0:0:0:
256,192,156420,1,0,0:0:0:0:
256,192,156470,1,0,0:0:0:0:
256,192,156520,1,0,0:0:0:0:
256,192,156620,1,0,0:0:0:0:
256,192,156720,1,8,0:0:0:0:
256,192,156770,1,8,0:0:0:0:
256,192,156820,1,8,0:0:0:0:
256,192,156920,1,0,0:0:0:0:
256,192,157020,1,8,0:0:0:0:
256,192,157120,1,0,0:0:0:0:
256,192,157220,1,8,0:0:0:0:
256,192,157320,1,0,0:0:0:0:
256,192,157420,1,8,0:0:0:0:
256,192,157470,1,8,0:0:0:0:
256,192,157520,1,0,0:0:0:0:
256,192,157570,1,0,0:0:0:0:
256,192,157620,1,8,0:0:0:0:
256,192,157670,1,8,0:0:0:0:
256,192,157720,1,0,0:0:0:0:
256,192,157820,1,0,0:0:0:0:
256,192,157920,1,0,0:0:0:0:
256,192,158020,1,0,0:0:0:0:
256,192,158120,1,0,0:0:0:0:
256,192,158320,1,8,0:0:0:0:
256,192,158370,1,8,0:0:0:0:
256,192,158420,1,0,0:0:0:0:
256,192,158520,1,0,0:0:0:0:
256,192,158620,1,8,0:0:0:0:
256,192,158720,1,8,0:0:0:0:
256,192,158820,1,0,0:0:0:0:
256,192,158920,1,8,0:0:0:0:
256,192,159020,1,0,0:0:0:0:
256,192,159070,1,0,0:0:0:0:
256,192,159120,1,0,0:0:0:0:
256,192,159220,1,0,0:0:0:0:
256,192,159320,1,8,0:0:0:0:
256,192,159370,1,8,0:0:0:0:
256,192,159420,1,8,0:0:0:0:
256,192,159520,1,0,0:0:0:0:
256,192,159620,1,0,0:0:0:0:
256,192,159670,1,0,0:0:0:0:
256,192,159720,1,0,0:0:0:0:
256,192,159820,1,0,0:0:0:0:
256,192,159920,1,8,0:0:0:0:
256,192,159970,1,8,0:0:0:0:
256,192,160020,1,8,0:0:0:0:
256,192,160070,1,0,0:0:0:0:
256,192,160120,1,0,0:0:0:0:
256,192,160170,1,0,0:0:0:0:
256,192,160220,1,8,0:0:0:0:
256,192,160320,1,0,0:0:0:0:
256,192,160420,1,8,0:0:0:0:
256,192,160470,1,8,0:0:0:0:
256,192,160520,1,8,0:0:0:0:
256,192,160620,1,4,0:0:0:0:
256,192,160720,1,0,0:0:0:0:
256,192,160820,1,8,0:0:0:0:
256,192,160920,1,0,0:0:0:0:
256,192,161020,1,8,0:0:0:0:
256,192,161120,1,0,0:0:0:0:
256,192,161170,1,0,0:0:0:0:
256,192,161220,1,8,0:0:0:0:
256,192,161320,1,8,0:0:0:0:
256,192,161420,1,0,0:0:0:0:
256,192,161520,1,8,0:0:0:0:
256,192,161620,1,8,0:0:0:0:
256,192,161720,1,8,0:0:0:0:
256,192,161820,1,0,0:0:0:0:
256,192,161920,1,8,0:0:0:0:
256,192,161970,1,8,0:0:0:0:
256,192,162020,1,0,0:0:0:0:
256,192,162120,1,0,0:0:0:0:
256,192,162170,1,0,0:0:0:0:
256,192,162220,1,8,0:0:0:0:
256,192,162270,1,8,0:0:0:0:
256,192,162320,1,8,0:0:0:0:
256,192,162370,1,8,0:0:0:0:
256,192,162420,1,0,0:0:0:0:
256,192,162470,1,0,0:0:0:0:
256,192,162520,1,0,0:0:0:0:
256,192,162570,1,0,0:0:0:0:
256,192,162620,1,8,0:0:0:0:
256,192,162820,1,0,0:0:0:0:
256,192,162920,1,0,0:0:0:0:
256,192,163120,1,0,0:0:0:0:
256,192,163220,1,0,0:0:0:0:
256,192,163270,1,0,0:0:0:0:
256,192,163320,1,0,0:0:0:0:
256,192,163420,1,8,0:0:0:0:
256,192,163520,1,0,0:0:0:0:
256,192,163620,1,8,0:0:0:0:
256,192,163720,1,8,0:0:0:0:
256,192,163820,1,4,0:0:0:0:
256,192,163920,1,8,0:0:0:0:
256,192,164020,1,8,0:0:0:0:
256,192,164120,1,8,0:0:0:0:
256,192,164220,1,0,0:0:0:0:
256,192,164420,1,8,0:0:0:0:
256,192,164620,1,0,0:0:0:0:
256,192,164720,1,8,0:0:0:0:
256,192,164820,1,8,0:0:0:0:
256,192,164870,1,8,0:0:0:0:
256,192,164920,1,8,0:0:0:0:
256,192,164970,1,8,0:0:0:0:
256,192,165020,1,0,0:0:0:0:
256,192,165070,1,0,0:0:0:0:
256,192,165120,1,0,0:0:0:0:
256,192,165170,1,0,0:0:0:0:
256,192,165220,1,8,0:0:0:0:
256,192,165420,1,0,0:0:0:0:
256,192,165520,1,8,0:0:0:0:
256,192,165620,1,8,0:0:0:0:
256,192,165720,1,8,0:0:0:0:
256,192,165820,1,0,0:0:0:0:
256,192,166020,1,8,0:0:0:0:
256,192,166220,1,8,0:0:0:0:
256,192,166320,1,8,0:0:0:0:
256,192,166420,1,0,0:0:0:0:
256,192,166520,1,8,0:0:0:0:
256,192,166570,1,8,0:0:0:0:
256,192,166620,1,0,0:0:0:0:
256,192,166720,1,0,0:0:0:0:
256,192,166820,1,8,0:0:0:0:
256,192,166870,1,8,0:0:0:0:
256,192,166920,1,8,0:0:0:0:
256,192,167020,1,4,0:0:0:0:
256,192,167120,1,0,0:0:0:0:
256,192,167220,1,8,0:0:0:0:
256,192,167320,1,0,0:0:0:0:
256,192,167420,1,8,0:0:0:0:
256,192,167620,1,8,0:0:0:0:
256,192,167820,1,8,0:0:0:0:
256,192,167870,1,8,0:0:0:0:
256,192,167920,1,8,0:0:0:0:
256,192,168020,1,0,0:0:0:0:
256,192,168120,1,0,0:0:0:0:
256,192,168220,1,8,0:0:0:0:
256,192,168420,1,8,0:0:0:0:
256,192,168620,1,8,0:0:0:0:
256,192,168670,1,8,0:0:0:0:
256,192,168720,1,0,0:0:0:0:
256,192,168770,1,0,0:0:0:0:
256,192,168820,1,8,0:0:0:0:
256,192,168870,1,0,0:0:0:0:
256,192,168920,1,8,0:0:0:0:
256,192,168970,1,0,0:0:0:0:
256,192,169020,1,8,0:0:0:0:
256,192,169220,1,8,0:0:0:0:
256,192,169420,1,8,0:0:0:0:
256,192,169520,1,8,0:0:0:0:
256,192,169620,1,0,0:0:0:0:
256,192,169720,1,0,0:0:0:0:
256,192,169820,1,8,0:0:0:0:
256,192,169870,1,8,0:0:0:0:
256,192,169920,1,8,0:0:0:0:
256,192,169970,1,8,0:0:0:0:
256,192,170020,1,8,0:0:0:0:
256,192,170070,1,8,0:0:0:0:
256,192,170120,1,8,0:0:0:0:
256,192,170220,1,4,0:0:0:0:
256,192,170320,1,0,0:0:0:0:
256,192,170370,1,0,0:0:0:0:
256,192,170420,1,0,0:0:0:0:
256,192,170520,1,0,0:0:0:0:
256,192,170620,1,8,0:0:0:0:
256,192,170820,1,8,0:0:0:0:
256,192,171020,1,8,0:0:0:0:
256,192,171070,1,8,0:0:0:0:
256,192,171120,1,0,0:0:0:0:
256,192,171220,1,0,0:0:0:0:
256,192,171320,1,0,0:0:0:0:
256,192,171420,1,8,0:0:0:0:
256,192,171470,1,8,0:0:0:0:
256,192,171520,1,0,0:0:0:0:
256,192,171620,1,8,0:0:0:0:
256,192,171670,1,8,0:0:0:0:
256,192,171720,1,0,0:0:0:0:
256,192,171820,1,0,0:0:0:0:
256,192,171920,1,0,0:0:0:0:
256,192,172020,1,0,0:0:0:0:
256,192,172120,1,0,0:0:0:0:
256,192,172220,1,8,0:0:0:0:
256,192,172420,1,8,0:0:0:0:
256,192,172620,1,0,0:0:0:0:
256,192,172720,1,8,0:0:0:0:
256,192,172770,1,8,0:0:0:0:
256,192,172820,1,0,0:0:0:0:
256,192,172920,1,8,0:0:0:0:
256,192,173020,1,0,0:0:0:0:
256,192,173070,1,0,0:0:0:0:
256,192,173120,1,0,0:0:0:0:
256,192,173220,1,8,0:0:0:0:
256,192,173270,1,8,0:0:0:0:
256,192,173320,1,8,0:0:0:0:
0,12,173420,6,4,B|100:8|104:8|136:16|152:16|160:16|176:12|192:12|216:8|220:12|240:16|256:16|272:16|288:20|304:20|328:16|344:16|368:16|384:12|420:8|440:8|464:8|488:8|516:8|548:8|564:12|592:20|612:20|624:20|632:28|640:44|632:68|632:72|636:84|636:96|636:108|632:124|628:160|636:180|636:192|632:216|632:236|628:264|632:284|632:300|628:316|628:340|636:352|632:356|616:364|608:368|584:360|548:352|532:352|500:360|480:356|452:360|416:364|396:364|372:360|332:360|304:364|268:364|240:364|216:368|188:364|168:360|140:360|108:364|80:364|56:360|32:364|0:368|-12:360|-48:372|-72:368|-96:360|-112:356|-120:348|-128:320|-116:272|-124:236|-124:216|-120:200|-112:176|-104:164|-104:140|-96:132|-100:112|-104:88|-100:72|-96:52|-88:28|-84:20|-84:16|-60:12|-24:12|-12:12|-4:8|12:8|32:12|48:16|60:12|72:12|92:16|116:16|116:16|156:20|180:20|200:20|224:28|240:32|280:32|332:32|356:36|380:40|408:40|432:40|456:36|472:32|496:32|516:32|536:32|556:32|576:36|584:44|608:64|612:92|608:124|612:152|620:204|624:244|612:280|608:292|600:312|588:328|564:336|540:344|520:344|508:344|492:344|464:340|432:340|408:344|376:352|336:352|320:352|304:352|284:348|256:344|228:348|208:352|180:352|144:352|120:348|104:348|80:352|64:352|52:352|24:352|8:352|-16:352|-28:352|-44:352|-64:344|-80:344|-108:332|-108:328|-112:296|-120:264|-112:244|-104:224|-88:164|-88:144|-80:120|-72:104|-68:88|-56:72|-48:64|-40:48|-28:36|-16:28|-12:24|8:20|32:24|48:28|76:32|80:32|92:40|116:48|128:48|152:48|196:56|212:56|220:52|240:52|256:52|272:52|300:56|316:56|328:60|348:64|376:72|384:72|416:68|448:64|488:72|500:68|520:64|540:56|560:72|564:76|576:88|580:100|588:120|600:156|608:184|604:204|608:228|608:240|604:252|596:280|588:296|580:316|572:332|528:332|500:332|472:324|456:324|428:324|408:324|376:324|344:328|320:332|296:328|272:332|256:328|224:320|212:320|192:328|176:324|152:324|144:328|136:328|116:328|104:328|80:328|68:324|40:316|24:308|0:296|-24:288|-36:280|-44:268|-56:248|-56:240|-56:220|-52:204|-52:188|-52:168|-52:152|-44:136|-36:120|-16:104|-4:100|8:88|24:80|36:76|64:72|76:76|92:80|104:80|120:80|140:84|156:84|176:84|212:92|232:92|240:92|256:88|276:88|292:88|304:88|320:84|332:84|356:80|372:88|400:100|416:104|428:104|440:108|464:112|476:112|492:116|500:120|512:128|552:160|564:180|568:204|568:236|572:252|552:264|528:272|508:276|496:288|484:292|464:292|444:292|404:284|392:284|356:280|328:280|308:284|284:280|264:280|236:272|204:268|184:272|160:268|140:264|128:264|112:264|96:260|80:256|64:256|40:248|20:244|4:236|-8:224|-16:212|-32:192|-40:172|-40:160|-32:140|-16:120|-4:104|8:96|24:88|44:80|88:88|104:88|120:88|132:92|160:92|172:92|184:96|216:104|236:104|252:96|288:96|320:96|348:104|376:108|408:112|416:116|444:124|464:132|480:136|504:144|520:152|532:172|548:208|548:224|548:240|544:248|520:264|504:272|492:276|472:280|448:284|424:284|384:284|384:284|320:272|276:260|256:260|232:264|216:264|200:256|196:256|176:252|148:244|128:232|112:228|88:220|76:212|56:200|48:196|32:184|40:172|52:160|64:152|96:140|112:136|128:136|136:136|152:136|164:136|180:136|200:136|224:136|236:136|260:136|284:132|296:132|316:128|328:128|344:136|356:140|368:140|384:144|400:148|416:160|432:168|444:176|460:200|464:212|452:224|432:236|384:244|376:248|368:248|332:256|296:244|272:236|244:232|236:228|216:220|208:220|184:216|164:208|152:208|136:200|124:192|112:180|120:168|152:160|180:160|216:168|236:168|260:176|272:176|284:172|304:172|328:180|340:184|356:184|368:188|380:192|400:200|412:208|424:208|436:212|452:232|460:256|452:268|436:280|416:288|388:304|324:304|264:288|240:292|212:288|184:280|156:252|144:240|128:216|124:208|128:192|132:184|132:176|132:164|136:152|136:144|128:120,1,8312.5
256,192,174620,2,4,L|536:192,1,262.5
256,192,174670,2,4,L|536:192,1,262.5
256,192,174720,2,4,L|536:192,1,262.5
256,192,174770,2,4,L|536:192,1,262.5
256,192,174820,2,4,L|536:192,1,262.5
256,192,174870,2,4,L|536:192,1,262.5
256,192,174920,2,4,L|536:192,1,262.5
256,192,174970,2,4,L|536:192,1,262.5
256,192,175020,12,0,176170,0:0:0:0:
256,192,176220,5,8,0:0:0:0:
256,192,176420,1,8,0:0:0:0:
256,192,176620,1,4,0:0:0:0:
256,192,177020,1,8,0:0:0:0:
256,192,177420,1,0,0:0:0:0:
256,192,177720,1,8,0:0:0:0:
256,192,177820,1,8,0:0:0:0:
256,192,178020,1,0,0:0:0:0:
256,192,178120,1,8,0:0:0:0:
256,192,178220,1,8,0:0:0:0:
256,192,178520,1,0,0:0:0:0:
256,192,178620,1,8,0:0:0:0:
256,192,178720,1,8,0:0:0:0:
256,192,178820,1,0,0:0:0:0:
256,192,178920,1,8,0:0:0:0:
256,192,179020,1,0,0:0:0:0:
256,192,179220,1,8,0:0:0:0:
256,192,179420,1,0,0:0:0:0:
256,192,179620,1,8,0:0:0:0:
256,192,179720,1,8,0:0:0:0:
256,192,179820,1,4,0:0:0:0:
256,192,180220,1,8,0:0:0:0:
256,192,180620,1,0,0:0:0:0:
256,192,180920,1,8,0:0:0:0:
256,192,181020,1,8,0:0:0:0:
256,192,181220,1,8,0:0:0:0:
256,192,181320,1,0,0:0:0:0:
256,192,181420,1,8,0:0:0:0:
256,192,181720,1,0,0:0:0:0:
256,192,181820,1,8,0:0:0:0:
256,192,181920,1,8,0:0:0:0:
256,192,182020,1,0,0:0:0:0:
256,192,182120,1,8,0:0:0:0:
256,192,182220,2,0,L|476:192,1,218.75
256,192,182620,1,0,0:0:0:0:
256,192,182820,1,8,0:0:0:0:
256,192,183020,1,0,0:0:0:0:
256,192,183120,1,0,0:0:0:0:
256,192,183220,1,8,0:0:0:0:
256,192,183420,1,0,0:0:0:0:
256,192,183520,1,0,0:0:0:0:
256,192,183620,1,8,0:0:0:0:
256,192,183820,1,0,0:0:0:0:
256,192,183920,1,8,0:0:0:0:
256,192,184020,1,8,0:0:0:0:
256,192,184120,1,8,0:0:0:0:
256,192,184220,1,0,0:0:0:0:
256,192,184420,1,8,0:0:0:0:
256,192,184620,1,0,0:0:0:0:
256,192,184720,1,8,0:0:0:0:
256,192,184820,1,8,0:0:0:0:
256,192,185020,1,8,0:0:0:0:
256,192,185120,1,8,0:0:0:0:
256,192,185220,1,8,0:0:0:0:
256,192,185420,1,8,0:0:0:0:
256,192,185520,1,0,0:0:0:0:
256,192,185620,1,8,0:0:0:0:
256,192,185720,1,8,0:0:0:0:
256,192,185820,1,0,0:0:0:0:
256,192,186020,1,8,0:0:0:0:
256,192,186120,1,8,0:0:0:0:
256,192,186220,1,0,0:0:0:0:
256,192,186320,1,0,0:0:0:0:
256,192,186420,1,8,0:0:0:0:
256,192,186620,1,0,0:0:0:0:
256,192,186720,1,8,0:0:0:0:
256,192,186820,1,8,0:0:0:0:
256,192,187020,1,8,0:0:0:0:
256,192,187120,1,8,0:0:0:0:
256,192,187220,1,8,0:0:0:0:
256,192,187320,1,8,0:0:0:0:
256,192,187420,1,0,0:0:0:0:
256,192,187620,1,8,0:0:0:0:
256,192,187820,1,0,0:0:0:0:
256,192,187920,1,0,0:0:0:0:
256,192,188020,1,8,0:0:0:0:
256,192,188220,1,8,0:0:0:0:
256,192,188320,1,8,0:0:0:0:
256,192,188420,1,0,0:0:0:0:
256,192,188620,1,8,0:0:0:0:
256,192,188720,1,8,0:0:0:0:
256,192,188820,1,8,0:0:0:0:
256,192,188920,1,8,0:0:0:0:
256,192,189020,1,8,0:0:0:0:
256,192,189220,1,8,0:0:0:0:
256,192,189320,1,8,0:0:0:0:
256,192,189420,12,0,190920,0:0:0:0:
256,192,191820,6,0,L|528:120,1,280
256,192,192220,1,0,0:0:0:0:
256,192,192420,1,8,0:0:0:0:
256,192,192620,1,4,0:0:0:0:
256,192,193020,1,0,0:0:0:0:
256,192,193220,1,8,0:0:0:0:
256,192,193420,1,4,0:0:0:0:
256,192,193820,1,8,0:0:0:0:
256,192,194020,1,8,0:0:0:0:
256,192,194220,1,8,0:0:0:0:
256,192,194270,1,8,0:0:0:0:
256,192,194320,1,8,0:0:0:0:
256,192,194370,1,8,0:0:0:0:
256,192,194420,1,0,0:0:0:0:
256,192,194520,1,0,0:0:0:0:
256,192,194620,1,8,0:0:0:0:
256,192,194670,1,8,0:0:0:0:
256,192,194720,1,0,0:0:0:0:
256,192,194820,1,8,0:0:0:0:
256,192,194920,1,0,0:0:0:0:
256,192,194970,1,0,0:0:0:0:
256,192,195020,1,8,0:0:0:0:
256,192,195070,1,8,0:0:0:0:
256,192,195120,1,0,0:0:0:0:
256,192,195220,1,8,0:0:0:0:
256,192,195320,1,0,0:0:0:0:
256,192,195420,1,8,0:0:0:0:
256,192,195470,1,8,0:0:0:0:
256,192,195520,1,0,0:0:0:0:
256,192,195620,1,8,0:0:0:0:
256,192,195720,1,8,0:0:0:0:
256,192,195820,1,8,0:0:0:0:
256,192,195870,1,0,0:0:0:0:
256,192,195920,1,0,0:0:0:0:
256,192,195970,1,0,0:0:0:0:
256,192,196020,1,8,0:0:0:0:
256,192,196120,1,0,0:0:0:0:
256,192,196220,1,8,0:0:0:0:
256,192,196270,1,8,0:0:0:0:
256,192,196320,1,0,0:0:0:0:
256,192,196370,1,0,0:0:0:0:
256,192,196420,1,8,0:0:0:0:
256,192,196470,1,8,0:0:0:0:
256,192,196520,1,8,0:0:0:0:
256,192,196570,1,8,0:0:0:0:
256,192,196620,1,0,0:0:0:0:
256,192,196720,1,8,0:0:0:0:
256,192,196820,1,8,0:0:0:0:
256,192,196920,1,8,0:0:0:0:
256,192,197020,1,0,0:0:0:0:
256,192,197220,1,8,0:0:0:0:
256,192,197320,1,8,0:0:0:0:
256,192,197420,1,0,0:0:0:0:
256,192,197470,1,0,0:0:0:0:
256,192,197520,1,0,0:0:0:0:
256,192,197620,1,8,0:0:0:0:
256,192,197720,1,0,0:0:0:0:
256,192,197770,1,0,0:0:0:0:
256,192,197820,1,8,0:0:0:0:
256,192,197870,1,8,0:0:0:0:
256,192,197920,1,0,0:0:0:0:
256,192,198020,1,8,0:0:0:0:
256,192,198120,1,8,0:0:0:0:
256,192,198220,1,8,0:0:0:0:
256,192,198270,1,8,0:0:0:0:
256,192,198320,1,8,0:0:0:0:
256,192,198370,1,0,0:0:0:0:
256,192,198420,1,0,0:0:0:0:
256,192,198470,1,0,0:0:0:0:
256,192,198520,1,8,0:0:0:0:
256,192,198620,1,8,0:0:0:0:
256,192,198720,1,0,0:0:0:0:
256,192,198820,1,8,0:0:0:0:
256,192,198870,1,8,0:0:0:0:
256,192,198920,1,0,0:0:0:0:
256,192,198970,1,0,0:0:0:0:
256,192,199020,1,8,0:0:0:0:
256,192,199120,1,8,0:0:0:0:
256,192,199220,1,0,0:0:0:0:
256,192,199320,1,8,0:0:0:0:
256,192,199370,1,0,0:0:0:0:
256,192,199420,1,8,0:0:0:0:
256,192,199520,1,8,0:0:0:0:
256,192,199620,1,0,0:0:0:0:
256,192,199670,1,0,0:0:0:0:
256,192,199720,1,8,0:0:0:0:
256,192,199820,1,8,0:0:0:0:
256,192,199870,1,0,0:0:0:0:
256,192,199920,1,0,0:0:0:0:
256,192,199970,1,0,0:0:0:0:
256,192,200020,1,8,0:0:0:0:
256,192,200070,1,0,0:0:0:0:
256,192,200120,1,8,0:0:0:0:
256,192,200170,1,0,0:0:0:0:
256,192,200220,1,8,0:0:0:0:
256,192,200270,1,8,0:0:0:0:
256,192,200320,1,0,0:0:0:0:
256,192,200370,1,0,0:0:0:0:
256,192,200420,1,8,0:0:0:0:
256,192,200620,1,8,0:0:0:0:
256,192,200670,1,8,0:0:0:0:
256,192,200720,1,8,0:0:0:0:
256,192,200820,1,0,0:0:0:0:
256,192,200920,1,8,0:0:0:0:
256,192,201020,1,8,0:0:0:0:
256,192,201070,1,8,0:0:0:0:
256,192,201120,1,0,0:0:0:0:
256,192,201170,1,0,0:0:0:0:
256,192,201220,1,8,0:0:0:0:
256,192,201270,1,8,0:0:0:0:
256,192,201320,1,0,0:0:0:0:
256,192,201420,1,8,0:0:0:0:
256,192,201520,1,0,0:0:0:0:
256,192,201570,1,0,0:0:0:0:
256,192,201620,1,0,0:0:0:0:
256,192,201720,1,8,0:0:0:0:
256,192,201820,1,8,0:0:0:0:
256,192,201920,1,0,0:0:0:0:
256,192,201970,1,0,0:0:0:0:
256,192,202020,1,8,0:0:0:0:
256,192,202120,1,8,0:0:0:0:
256,192,202220,1,8,0:0:0:0:
256,192,202270,1,8,0:0:0:0:
256,192,202320,1,8,0:0:0:0:
256,192,202420,1,0,0:0:0:0:
256,192,202520,1,8,0:0:0:0:
256,192,202620,1,8,0:0:0:0:
256,192,202670,1,0,0:0:0:0:
256,192,202720,1,8,0:0:0:0:
256,192,202820,1,8,0:0:0:0:
256,192,202870,1,8,0:0:0:0:
256,192,202920,1,0,0:0:0:0:
256,192,203020,1,8,0:0:0:0:
256,192,203120,1,0,0:0:0:0:
256,192,203170,1,0,0:0:0:0:
256,192,203220,1,8,0:0:0:0:
256,192,203270,1,8,0:0:0:0:
256,192,203320,1,8,0:0:0:0:
256,192,203370,1,0,0:0:0:0:
256,192,203420,1,8,0:0:0:0:
256,192,203620,1,8,0:0:0:0:
256,192,203720,1,0,0:0:0:0:
256,192,203820,1,8,0:0:0:0:
256,192,203870,1,8,0:0:0:0:
256,192,203920,1,0,0:0:0:0:
256,192,203970,1,0,0:0:0:0:
256,192,204020,1,8,0:0:0:0:
256,192,204120,1,0,0:0:0:0:
256,192,204170,1,0,0:0:0:0:
256,192,204220,1,8,0:0:0:0:
256,192,204320,1,0,0:0:0:0:
256,192,204420,1,8,0:0:0:0:
256,192,204470,1,8,0:0:0:0:
256,192,204520,1,0,0:0:0:0:
256,192,204570,1,0,0:0:0:0:
256,192,204620,1,8,0:0:0:0:
256,192,204670,1,8,0:0:0:0:
256,192,204720,1,8,0:0:0:0:
256,192,204770,1,8,0:0:0:0:
256,192,204820,1,0,0:0:0:0:
256,192,204920,1,8,0:0:0:0:
256,192,205020,1,8,0:0:0:0:
256,192,205120,1,0,0:0:0:0:
256,192,205220,1,8,0:0:0:0:
256,192,205270,1,0,0:0:0:0:
256,192,205320,1,8,0:0:0:0:
256,192,205370,1,0,0:0:0:0:
256,192,205420,1,8,0:0:0:0:
256,192,205520,1,8,0:0:0:0:
256,192,205620,1,0,0:0:0:0:
256,192,205720,1,8,0:0:0:0:
256,192,205770,1,0,0:0:0:0:
256,192,205820,1,8,0:0:0:0:
256,192,205870,1,8,0:0:0:0:
256,192,205920,1,0,0:0:0:0:
256,192,205970,1,0,0:0:0:0:
256,192,206020,1,8,0:0:0:0:
256,192,206070,1,8,0:0:0:0:
256,192,206120,1,8,0:0:0:0:
256,192,206170,1,8,0:0:0:0:
256,192,206220,1,0,0:0:0:0:
256,192,206270,1,0,0:0:0:0:
256,192,206320,1,0,0:0:0:0:
256,192,206370,1,0,0:0:0:0:
256,192,206420,1,8,0:0:0:0:
256,192,206470,1,8,0:0:0:0:
256,192,206520,1,0,0:0:0:0:
256,192,206570,1,0,0:0:0:0:
256,192,206620,1,8,0:0:0:0:
256,192,206670,1,8,0:0:0:0:
256,192,206720,1,8,0:0:0:0:
256,192,206770,1,8,0:0:0:0:
256,192,206820,1,0,0:0:0:0:
256,192,206920,1,0,0:0:0:0:
256,192,207020,1,12,0:0:0:0:
256,192,207220,1,0,0:0:0:0:
256,192,207420,1,8,0:0:0:0:
256,192,207470,1,8,0:0:0:0:
256,192,207520,1,8,0:0:0:0:
256,192,207570,1,8,0:0:0:0:
256,192,207620,1,0,0:0:0:0:
256,192,207820,1,0,0:0:0:0:
256,192,207920,1,0,0:0:0:0:
256,192,208020,1,0,0:0:0:0:
256,192,208120,1,0,0:0:0:0:
256,192,208220,1,8,0:0:0:0:
256,192,208420,1,0,0:0:0:0:
256,192,208620,1,8,0:0:0:0:
256,192,208820,1,0,0:0:0:0:
256,192,209020,1,8,0:0:0:0:
256,192,209220,1,0,0:0:0:0:
256,192,209420,1,0,0:0:0:0:
256,192,209520,1,8,0:0:0:0:
256,192,209570,1,8,0:0:0:0:
256,192,209620,1,0,0:0:0:0:
256,192,209720,1,8,0:0:0:0:
256,192,209820,1,0,0:0:0:0:
256,192,210020,1,8,0:0:0:0:
256,192,210070,1,8,0:0:0:0:
256,192,210120,1,8,0:0:0:0:
256,192,210170,1,8,0:0:0:0:
256,192,210220,1,4,0:0:0:0:
256,192,210320,1,8,0:0:0:0:
256,192,210420,1,0,0:0:0:0:
256,192,210470,1,0,0:0:0:0:
256,192,210520,1,0,0:0:0:0:
256,192,210570,1,0,0:0:0:0:
256,192,210620,1,0,0:0:0:0:
256,192,210720,1,0,0:0:0:0:
256,192,210820,1,0,0:0:0:0:
256,192,210920,1,0,0:0:0:0:
256,192,211020,1,8,0:0:0:0:
256,192,211120,1,0,0:0:0:0:
256,192,211220,1,0,0:0:0:0:
256,192,211320,1,0,0:0:0:0:
256,192,211420,1,8,0:0:0:0:
256,192,211620,1,0,0:0:0:0:
256,192,211820,1,0,0:0:0:0:
256,192,212020,1,8,0:0:0:0:
256,192,212120,1,8,0:0:0:0:
256,192,212220,1,0,0:0:0:0:
256,192,212420,1,8,0:0:0:0:
256,192,212470,1,8,0:0:0:0:
256,192,212520,1,8,0:0:0:0:
256,192,212570,1,8,0:0:0:0:
256,192,212620,1,0,0:0:0:0:
256,192,212670,1,0,0:0:0:0:
256,192,212720,1,8,0:0:0:0:
256,192,212770,1,8,0:0:0:0:
256,192,212820,1,0,0:0:0:0:
256,192,212920,1,0,0:0:0:0:
256,192,213020,1,0,0:0:0:0:
256,192,213220,1,8,0:0:0:0:
256,192,213320,1,8,0:0:0:0:
256,192,213420,1,4,0:0:0:0:
256,192,213620,1,0,0:0:0:0:
256,192,213820,1,8,0:0:0:0:
256,192,214020,1,0,0:0:0:0:
256,192,214220,1,0,0:0:0:0:
256,192,214320,1,0,0:0:0:0:
256,192,214420,1,0,0:0:0:0:
256,192,214520,1,0,0:0:0:0:
256,192,214620,1,8,0:0:0:0:
256,192,214720,1,8,0:0:0:0:
256,192,214820,1,0,0:0:0:0:
256,192,215020,1,0,0:0:0:0:
256,192,215120,1,8,0:0:0:0:
256,192,215220,1,8,0:0:0:0:
256,192,215420,1,0,0:0:0:0:
256,192,215520,1,8,0:0:0:0:
256,192,215620,1,8,0:0:0:0:
256,192,215820,1,0,0:0:0:0:
256,192,215920,1,8,0:0:0:0:
256,192,215970,1,8,0:0:0:0:
256,192,216020,1,8,0:0:0:0:
256,192,216120,1,8,0:0:0:0:
256,192,216220,1,0,0:0:0:0:
256,192,216420,1,8,0:0:0:0:
256,192,216620,1,4,0:0:0:0:
256,192,216820,1,0,0:0:0:0:
256,192,217020,1,0,0:0:0:0:
256,192,217220,1,0,0:0:0:0:
256,192,217420,1,0,0:0:0:0:
256,192,217520,1,8,0:0:0:0:
256,192,217570,1,8,0:0:0:0:
256,192,217620,1,0,0:0:0:0:
256,192,217720,1,8,0:0:0:0:
256,192,217820,1,0,0:0:0:0:
256,192,217870,1,0,0:0:0:0:
256,192,217920,1,0,0:0:0:0:
256,192,217970,1,0,0:0:0:0:
256,192,218020,1,8,0:0:0:0:
256,192,218120,1,0,0:0:0:0:
256,192,218220,1,4,0:0:0:0:
256,192,218420,2,0,L|320:192,1,1
256,192,218620,1,4,0:0:0:0:
256,192,218820,2,0,L|320:192,1,1
256,192,219020,1,4,0:0:0:0:
256,192,219220,2,0,L|320:192,1,1
256,192,219420,1,12,0:0:0:0:
256,192,219620,1,12,0:0:0:0:
256,192,219820,1,12,0:0:0:0:
256,192,219920,1,8,0:0:0:0:
256,192,220020,1,8,0:0:0:0:
256,192,220220,1,8,0:0:0:0:
256,192,220320,1,8,0:0:0:0:
256,192,220420,1,8,0:0:0:0:
256,192,220620,1,8,0:0:0:0:
256,192,220670,1,0,0:0:0:0:
256,192,220720,1,8,0:0:0:0:
256,192,220770,1,0,0:0:0:0:
256,192,220820,1,8,0:0:0:0:
256,192,220920,1,8,0:0:0:0:
256,192,221020,1,8,0:0:0:0:
256,192,221220,1,8,0:0:0:0:
256,192,221420,1,8,0:0:0:0:
256,192,221520,1,8,0:0:0:0:
256,192,221620,1,8,0:0:0:0:
256,192,221820,1,8,0:0:0:0:
256,192,221920,1,8,0:0:0:0:
256,192,222020,1,8,0:0:0:0:
256,192,222220,1,8,0:0:0:0:
256,192,222270,1,8,0:0:0:0:
256,192,222320,1,0,0:0:0:0:
256,192,222370,1,0,0:0:0:0:
256,192,222420,1,8,0:0:0:0:
256,192,222520,1,8,0:0:0:0:
256,192,222620,1,8,0:0:0:0:
256,192,222820,1,8,0:0:0:0:
256,192,222920,1,8,0:0:0:0:
256,192,223020,1,12,0:0:0:0:
256,192,223120,1,8,0:0:0:0:
256,192,223220,1,8,0:0:0:0:
256,192,223420,1,8,0:0:0:0:
256,192,223520,1,8,0:0:0:0:
256,192,223620,1,8,0:0:0:0:
256,192,223820,1,8,0:0:0:0:
256,192,223870,1,0,0:0:0:0:
256,192,223920,1,8,0:0:0:0:
256,192,223970,1,0,0:0:0:0:
256,192,224020,1,8,0:0:0:0:
256,192,224120,1,8,0:0:0:0:
256,192,224220,1,8,0:0:0:0:
256,192,224420,1,8,0:0:0:0:
256,192,224620,1,8,0:0:0:0:
256,192,224720,1,8,0:0:0:0:
256,192,224820,1,8,0:0:0:0:
256,192,225020,1,8,0:0:0:0:
256,192,225120,1,8,0:0:0:0:
256,192,225220,1,8,0:0:0:0:
256,192,225420,1,8,0:0:0:0:
256,192,225470,1,8,0:0:0:0:
256,192,225520,1,8,0:0:0:0:
256,192,225570,1,0,0:0:0:0:
256,192,225620,1,8,0:0:0:0:
256,192,225720,1,8,0:0:0:0:
256,192,225820,1,8,0:0:0:0:
256,192,226020,1,8,0:0:0:0:
256,192,226120,1,8,0:0:0:0:
256,192,226220,1,12,0:0:0:0:
256,192,226320,1,0,0:0:0:0:
256,192,226420,1,8,0:0:0:0:
256,192,226620,1,8,0:0:0:0:
256,192,226720,1,0,0:0:0:0:
256,192,226820,1,8,0:0:0:0:
256,192,227020,1,8,0:0:0:0:
256,192,227120,1,8,0:0:0:0:
256,192,227220,1,8,0:0:0:0:
256,192,227320,1,8,0:0:0:0:
256,192,227370,1,8,0:0:0:0:
256,192,227420,1,0,0:0:0:0:
256,192,227620,1,8,0:0:0:0:
256,192,227720,1,8,0:0:0:0:
256,192,227820,1,8,0:0:0:0:
256,192,227920,1,8,0:0:0:0:
256,192,227970,1,0,0:0:0:0:
256,192,228020,1,8,0:0:0:0:
256,192,228220,1,8,0:0:0:0:
256,192,228320,1,0,0:0:0:0:
256,192,228420,1,8,0:0:0:0:
256,192,228620,1,8,0:0:0:0:
256,192,228720,1,8,0:0:0:0:
256,192,228820,1,8,0:0:0:0:
256,192,228870,1,8,0:0:0:0:
256,192,228920,1,0,0:0:0:0:
256,192,228970,1,0,0:0:0:0:
256,192,229020,1,8,0:0:0:0:
256,192,229220,1,8,0:0:0:0:
256,192,229320,1,8,0:0:0:0:
256,192,229420,1,12,0:0:0:0:
256,192,229520,1,0,0:0:0:0:
256,192,229620,1,8,0:0:0:0:
256,192,229820,1,8,0:0:0:0:
256,192,229920,1,0,0:0:0:0:
256,192,230020,1,8,0:0:0:0:
256,192,230220,1,8,0:0:0:0:
256,192,230320,1,8,0:0:0:0:
256,192,230420,1,8,0:0:0:0:
256,192,230520,1,8,0:0:0:0:
256,192,230570,1,8,0:0:0:0:
256,192,230620,1,0,0:0:0:0:
256,192,230820,1,8,0:0:0:0:
256,192,230920,1,8,0:0:0:0:
256,192,231020,1,8,0:0:0:0:
256,192,231070,1,8,0:0:0:0:
256,192,231120,1,0,0:0:0:0:
256,192,231170,1,0,0:0:0:0:
256,192,231220,1,8,0:0:0:0:
256,192,231420,1,8,0:0:0:0:
256,192,231520,1,0,0:0:0:0:
256,192,231620,1,8,0:0:0:0:
256,192,231820,1,8,0:0:0:0:
256,192,231920,1,8,0:0:0:0:
256,192,232020,1,8,0:0:0:0:
256,192,232120,1,0,0:0:0:0:
256,192,232220,1,8,0:0:0:0:
256,192,232420,1,12,0:0:0:0:
