osu file format v14

[General]
AudioFilename: audio.mp3
AudioLeadIn: 0
PreviewTime: 70637
Countdown: 0
SampleSet: Soft
StackLeniency: 0.6
Mode: 0
LetterboxInBreaks: 0
EpilepsyWarning: 1
WidescreenStoryboard: 1

[Editor]
Bookmarks: 14504
DistanceSpacing: 0.7
BeatDivisor: 4
GridSize: 4
TimelineZoom: 1.2

[Metadata]
Title:Boukyaku no Ame
TitleUnicode:忘却の雨
Artist:IOSYS
ArtistUnicode:IOSYS
Creator:bigfrog
Version:Lunatic
Source:東方紅魔郷 ~ the Embodiment of Scarlet Devil.
Tags:ROCKIN'ON TOUHOU VOL.1 亡き王女の為のセプテット あさな 96 void Naki oujo no tame no seputetto Septet for the Dead Princess japanese video game zun project
BeatmapID:2317737
BeatmapSetID:1109084

[Difficulty]
HPDrainRate:7
CircleSize:4
OverallDifficulty:7
ApproachRate:8.2
SliderMultiplier:1.8
SliderTickRate:1

[Events]
//Background and Video events
0,0,"BG.jpg",0,0
//Break Periods
2,203265,209163
//Storyboard Layer 0 (Background)
//Storyboard Layer 1 (Fail)
//Storyboard Layer 2 (Pass)
//Storyboard Layer 3 (Foreground)
//Storyboard Layer 4 (Overlay)
//Storyboard Sound Samples

[TimingPoints]
780,428.571428571429,4,2,0,40,1,0
780,-133.333333333333,4,2,0,40,0,0
14494,-111.111111111111,4,2,1,50,0,0
28637,-111.111111111111,4,2,1,60,0,0
55637,-200,4,2,2,40,0,0
71065,-90.9090909090909,4,2,1,70,0,1
84672,-90.9090909090909,4,2,1,70,0,0
84780,-90.9090909090909,4,2,1,70,0,1
98172,-90.9090909090909,4,3,1,70,0,1
98494,-100,4,2,2,70,0,0
103637,-100,4,2,2,40,0,0
105351,-111.111111111111,4,2,2,60,0,0
110494,-111.111111111111,4,2,2,70,0,0
112208,-111.111111111111,4,2,2,60,0,0
117351,-111.111111111111,4,2,2,70,0,0
118637,-111.111111111111,4,2,2,80,0,0
119065,-111.111111111111,4,2,1,60,0,0
132780,-200,4,2,2,40,0,0
148208,-90.9090909090909,4,2,1,70,0,1
161815,-90.9090909090909,4,2,1,70,0,0
161922,-90.9090909090909,4,2,1,70,0,1
175315,-90.9090909090909,4,3,0,70,0,1
175530,-90.9090909090909,4,3,0,70,0,0
175637,-90.9090909090909,4,2,1,70,0,1
175744,-90.9090909090909,4,2,1,70,0,0
182172,-90.9090909090909,4,3,0,70,0,0
182494,-90.9090909090909,4,2,1,70,0,0
188494,-90.9090909090909,4,2,1,80,0,0
188922,-90.9090909090909,4,2,1,90,0,0
189351,-100,4,2,2,70,0,0
201351,-100,4,2,0,40,0,0
203065,-100,4,2,0,60,0,0
209922,-111.111111111111,4,2,2,50,0,0
215922,-111.111111111111,4,2,1,50,0,0
216137,-111.111111111111,4,3,0,60,0,0
216351,-111.111111111111,4,3,0,70,0,0
216780,-90.9090909090909,4,2,1,70,0,1
230387,-90.9090909090909,4,2,1,70,0,0
230494,-90.9090909090909,4,2,1,70,0,1
243887,-90.9090909090909,4,2,1,80,0,1
244208,-133.333333333333,4,2,0,40,0,0
251065,-133.333333333333,4,2,0,30,0,0
257922,-133.333333333333,4,2,0,20,0,0

[Colours]
Combo1 : 36,58,134
Combo2 : 255,128,128
Combo3 : 128,128,255
Combo4 : 255,149,255
Combo5 : 192,192,192
Combo6 : 191,128,128

[HitObjects]
91,78,780,53,2,0:0:0:0:
285,137,1422,1,0,0:0:0:0:
285,137,1637,1,2,0:0:0:0:
159,186,2065,1,2,0:0:0:0:
159,186,2280,1,0,0:0:0:0:
159,186,3565,1,0,0:0:0:0:
92,247,3780,1,2,0:0:0:0:
134,330,3994,1,0,0:0:0:0:
198,269,4208,5,2,0:0:0:0:
393,335,4851,1,0,0:0:0:0:
393,335,5065,1,2,0:0:0:0:
322,221,5494,1,2,0:0:0:0:
322,221,5708,1,0,0:0:0:0:
431,90,7637,69,2,0:0:0:0:
234,133,8280,1,0,0:0:0:0:
234,133,8494,1,2,0:0:0:0:
355,194,8922,1,2,0:0:0:0:
355,194,9137,1,0,0:0:0:0:
355,194,10422,1,0,0:0:0:0:
400,277,10637,1,2,0:0:0:0:
337,341,10851,1,0,0:0:0:0:
294,257,11065,5,2,0:0:0:0:
105,334,11708,1,0,0:0:0:0:
105,334,11922,1,2,0:0:0:0:
166,213,12351,1,2,0:0:0:0:
166,213,12565,1,0,0:0:0:0:
25,52,14494,22,0,P|75:103|173:111,1,161.999995056153,6|8,0:0|0:0,0:0:0:0:
240,55,15137,1,0,0:0:0:0:
317,114,15351,2,0,L|292:204,1,80.9999975280763,2|8,0:0|0:0,0:0:0:0:
212,243,15780,1,0,0:0:0:0:
306,288,15994,1,0,0:0:0:0:
179,357,16208,6,0,P|117:317|21:312,1,161.999995056153,2|8,0:0|0:0,0:0:0:0:
41,207,16851,1,0,0:0:0:0:
128,163,17065,2,0,P|139:198|134:243,1,80.9999975280763,2|8,0:0|0:0,0:0:0:0:
46,110,17494,2,0,P|73:82|113:67,1,80.9999975280763
280,29,17922,6,0,P|258:106|287:183,1,161.999995056153,2|8,0:0|0:0,0:0:0:0:
380,166,18565,1,0,0:0:0:0:
430,253,18780,2,0,P|376:265|334:248,1,80.9999975280763,2|8,0:0|0:0,0:0:0:0:
498,182,19208,1,0,0:0:0:0:
482,335,19422,1,0,0:0:0:0:
352,258,19637,6,0,P|289:247|197:295,1,161.999995056153,2|8,0:0|0:0,0:0:0:0:
161,376,20280,1,0,0:0:0:0:
106,296,20494,2,0,L|94:211,1,80.9999975280763,2|8,0:0|0:0,0:0:0:0:
192,207,20922,2,0,L|203:290,1,80.9999975280763
282,156,21351,6,0,P|215:113|134:126,1,161.999995056153,2|8,0:0|0:0,0:0:0:0:
192,207,21994,1,0,0:0:0:0:
282,156,22208,2,0,P|318:157|362:180,1,80.9999975280763,2|8,0:0|0:0,0:0:0:0:
355,274,22637,1,0,0:0:0:0:
449,253,22851,1,0,0:0:0:0:
421,346,23065,22,0,P|346:366|268:327,1,161.999995056153,2|8,0:0|0:0,0:0:0:0:
266,234,23708,1,0,0:0:0:0:
174,202,23922,2,0,L|106:246,1,80.9999975280763,2|8,0:0|0:0,0:0:0:0:
87,342,24351,2,0,L|15:295,1,80.9999975280763
105,142,24780,6,0,P|165:170|271:136,1,161.999995056153,2|8,0:0|0:0,0:0:0:0:
313,71,25422,1,0,0:0:0:0:
371,149,25637,2,0,P|400:159|461:153,1,80.9999975280763,2|8,0:0|0:0,0:0:0:0:
313,71,26065,1,0,0:0:0:0:
255,149,26280,1,0,0:0:0:0:
165,28,26494,6,0,P|83:38|18:97,1,161.999995056153,2|8,0:0|0:0,0:0:0:0:
14,184,27137,1,0,0:0:0:0:
107,210,27351,2,0,L|193:202,1,80.9999975280763,2|8,0:0|0:0,0:0:0:0:
221,293,27780,2,0,L|136:301,1,80.9999975280763
29,365,28208,5,6,0:0:0:0:
221,293,28637,2,0,P|252:295|301:319,1,80.9999975280763,8|0,0:0|0:0,0:0:0:0:
383,363,29065,1,2,0:0:0:0:
425,279,29280,1,8,0:0:0:0:
512,311,29494,1,0,0:0:0:0:
429,185,29708,1,0,0:0:0:0:
293,219,29922,6,0,P|250:144|260:68,1,161.999995056153,2|8,0:0|0:0,0:0:0:0:
166,38,30565,1,0,0:0:0:0:
166,38,30672,1,8,0:0:0:0:
166,38,30780,2,0,L|86:53,1,80.9999975280763,2|8,0:0|0:0,0:0:0:0:
81,150,31208,2,0,L|173:130,1,80.9999975280763
260,160,31637,21,2,0:0:0:0:
258,71,31851,1,0,0:0:0:0:
192,225,32065,1,8,0:0:0:0:
160,132,32280,1,0,0:0:0:0:
117,286,32494,2,0,P|76:269|42:235,1,80.9999975280763,2|8,0:0|0:0,0:0:0:0:
192,225,32922,1,0,0:0:0:0:
223,317,33137,1,0,0:0:0:0:
287,191,33351,6,0,P|336:208|402:299,1,161.999995056153,2|8,0:0|0:0,0:0:0:0:
477,233,33994,1,0,0:0:0:0:
477,233,34101,1,8,0:0:0:0:
477,233,34208,2,0,L|478:152,1,80.9999975280763,2|8,0:0|0:0,0:0:0:0:
455,56,34637,1,0,0:0:0:0:
309,181,35065,6,0,P|228:169|160:114,1,161.999995056153,2|8,0:0|0:0,0:0:0:0:
129,30,35708,1,0,0:0:0:0:
74,110,35922,2,0,P|77:147|96:189,1,80.9999975280763,2|8,0:0|0:0,0:0:0:0:
167,245,36351,1,0,0:0:0:0:
21,242,36565,1,0,0:0:0:0:
132,340,36780,6,0,P|167:332|217:345,2,80.9999975280763,2|0|8,0:0|0:0|0:0,0:0:0:0:
273,263,37422,1,0,0:0:0:0:
273,263,37530,1,8,0:0:0:0:
273,263,37637,2,0,P|301:291|315:333,1,80.9999975280763,2|8,0:0|0:0,0:0:0:0:
236,173,38065,2,0,P|269:167|315:176,1,80.9999975280763
380,254,38494,5,2,0:0:0:0:
314,329,38708,1,0,0:0:0:0:
451,330,38922,1,8,0:0:0:0:
380,254,39137,1,0,0:0:0:0:
476,150,39351,2,0,L|489:232,1,80.9999975280763,2|8,0:0|0:0,0:0:0:0:
382,107,39780,2,0,L|394:20,1,80.9999975280763
294,177,40208,22,0,P|217:166|158:103,1,161.999995056153,2|8,0:0|0:0,0:0:0:0:
269,76,40851,1,0,0:0:0:0:
269,76,40958,1,8,0:0:0:0:
269,76,41065,2,0,P|305:84|362:76,1,80.9999975280763,2|8,0:0|0:0,0:0:0:0:
201,177,41494,1,2,0:0:0:0:
177,187,41601,1,8,0:0:0:0:
152,187,41708,1,8,0:0:0:0:
131,184,41815,1,8,0:0:0:0:
109,173,41922,6,0,P|104:238|31:302,1,161.999995056153,2|8,0:0|0:0,0:0:0:0:
115,359,42565,1,0,0:0:0:0:
184,290,42780,2,0,P|213:282|267:284,1,80.9999975280763,2|8,0:0|0:0,0:0:0:0:
382,274,43208,1,0,0:0:0:0:
330,350,43422,1,0,0:0:0:0:
309,200,43637,6,0,P|372:176|463:209,1,161.999995056153,2|8,0:0|0:0,0:0:0:0:
382,274,44280,1,0,0:0:0:0:
399,140,44494,2,0,L|453:77,1,80.9999975280763,2|8,0:0|0:0,0:0:0:0:
347,46,44922,2,0,L|289:116,1,80.9999975280763
243,213,45351,5,2,0:0:0:0:
172,132,45565,1,0,0:0:0:0:
149,235,45780,1,8,0:0:0:0:
70,164,45994,1,0,0:0:0:0:
70,164,46101,1,8,0:0:0:0:
70,164,46208,2,0,P|48:199|42:240,1,80.9999975280763,2|8,0:0|0:0,0:0:0:0:
97,317,46637,1,0,0:0:0:0:
149,235,46851,1,0,0:0:0:0:
265,333,47065,6,0,P|330:353|412:316,1,161.999995056153,2|8,0:0|0:0,0:0:0:0:
423,219,47708,1,0,0:0:0:0:
335,176,47922,2,0,P|328:213|335:259,1,80.9999975280763,2|8,0:0|0:0,0:0:0:0:
411,316,48351,1,0,0:0:0:0:
475,101,48780,22,0,P|410:102|329:49,1,161.999995056153,2|8,0:0|0:0,0:0:0:0:
230,41,49422,1,0,0:0:0:0:
230,41,49530,1,8,0:0:0:0:
230,41,49637,2,0,P|201:66|181:112,1,80.9999975280763,2|8,0:0|0:0,0:0:0:0:
208,197,50065,1,0,0:0:0:0:
277,127,50280,1,0,0:0:0:0:
90,119,50494,6,0,L|4:163,2,80.9999975280763,2|0|8,0:0|0:0|0:0,0:0:0:0:
208,197,51137,1,0,0:0:0:0:
67,233,51351,2,0,L|34:310,1,80.9999975280763,2|8,0:0|0:0,0:0:0:0:
138,302,51780,1,0,0:0:0:0:
205,374,51994,1,0,0:0:0:0:
208,197,52208,6,0,P|277:168|381:189,1,161.999995056153,2|8,0:0|0:0,0:0:0:0:
414,262,52851,1,0,0:0:0:0:
414,262,52958,1,8,0:0:0:0:
414,262,53065,2,0,P|362:278|328:272,1,80.9999975280763,2|8,0:0|0:0,0:0:0:0:
361,178,53494,1,0,0:0:0:0:
414,262,53708,1,0,0:0:0:0:
451,124,53922,6,0,P|384:84|298:95,1,161.999995056153,2|8,0:0|0:0,0:0:0:0:
265,182,54565,1,0,0:0:0:0:
162,95,54780,1,2,0:0:0:0:
163,253,54994,1,2,0:0:0:0:
145,265,55101,1,8,0:0:0:0:
127,276,55208,1,8,0:0:0:0:
111,288,55315,1,8,0:0:0:0:
95,299,55422,1,8,0:0:0:0:
80,309,55530,1,8,0:0:0:0:
66,318,55637,6,0,L|56:225,1,90,6|8,0:0|0:0,0:0:0:0:
79,189,56280,1,0,0:0:0:0:
111,158,56494,2,0,L|185:164,2,67.5,8|0|2,0:0|0:0|0:0,0:0:0:0:
112,68,57351,70,0,L|208:73,1,90,2|8,0:0|0:0,0:0:0:0:
241,96,57994,1,0,0:0:0:0:
281,78,58208,2,0,L|353:71,2,67.5,8|0|2,0:0|0:0|0:0,0:0:0:0:
250,171,59065,6,0,L|269:269,1,90,2|8,0:0|0:0,0:0:0:0:
295,294,59708,1,0,0:0:0:0:
329,323,59922,2,0,P|359:319|411:324,2,67.5,8|0|2,0:0|0:0|0:0,0:0:0:0:
223,336,60780,70,0,P|173:344|131:330,1,90,10|8,0:0|0:0,0:0:0:0:
183,249,61637,2,0,P|226:240|269:252,1,90,8|8,0:0|0:0,0:0:0:0:
338,194,62494,6,0,L|327:97,1,90,10|8,0:0|0:0,0:0:0:0:
290,79,63137,1,0,0:0:0:0:
252,55,63351,2,0,P|220:74|181:82,2,67.5,8|0|2,0:0|0:0|0:0,0:0:0:0:
109,31,64208,70,0,L|106:126,1,90,2|8,0:0|0:0,0:0:0:0:
134,156,64851,1,0,0:0:0:0:
174,176,65065,2,0,P|209:173|243:160,2,67.5,8|0|0,0:0|0:0|0:0,0:0:0:0:
130,264,65922,6,0,L|223:261,1,90,8|8,0:0|0:0,0:0:0:0:
250,294,66565,1,0,0:0:0:0:
276,330,66780,2,0,L|367:333,1,90,8|8,0:0|0:0,0:0:0:0:
450,364,67637,70,0,L|460:268,1,90,8|8,0:0|0:0,0:0:0:0:
430,239,68280,1,0,0:0:0:0:
396,209,68494,2,0,L|387:118,1,90,8|8,0:0|0:0,0:0:0:0:
101,61,71065,38,0,L|144:170,1,99.0000030212403,6|0,0:0|0:0,0:0:0:0:
139,313,71494,1,8,0:0:0:0:
243,161,71708,1,0,0:0:0:0:
29,147,71922,2,0,L|66:244,1,99.0000030212403,2|8,0:0|0:0,0:0:0:0:
245,279,72351,1,0,0:0:0:0:
137,153,72565,1,0,0:0:0:0:
279,73,72780,6,0,P|322:103|343:146,1,99.0000030212403,2|0,0:0|0:0,0:0:0:0:
383,322,73208,2,0,P|340:292|319:249,1,99.0000030212403,8|0,0:0|0:0,0:0:0:0:
442,128,73637,2,0,P|485:158|506:201,1,99.0000030212403,2|8,0:0|0:0,0:0:0:0:
472,356,74065,1,0,0:0:0:0:
472,356,74172,1,8,0:0:0:0:
472,356,74280,1,2,0:0:0:0:
320,252,74494,6,0,L|288:138,1,99.0000030212403,2|0,0:0|0:0,0:0:0:0:
419,226,74922,1,8,0:0:0:0:
323,352,75137,1,0,0:0:0:0:
204,230,75351,2,0,L|175:124,1,99.0000030212403,2|8,0:0|0:0,0:0:0:0:
320,252,75780,1,0,0:0:0:0:
166,332,75994,1,0,0:0:0:0:
285,161,76208,53,2,0:0:0:0:
403,316,76422,1,0,0:0:0:0:
204,230,76637,1,8,0:0:0:0:
323,368,76851,1,0,0:0:0:0:
421,139,77065,2,0,L|446:238,1,99.0000030212403,2|8,0:0|0:0,0:0:0:0:
323,59,77494,1,8,0:0:0:0:
297,66,77601,1,8,0:0:0:0:
270,72,77708,1,8,0:0:0:0:
244,79,77815,1,8,0:0:0:0:
220,86,77922,6,0,P|191:135|152:162,1,99.0000030212403,6|0,0:0|0:0,0:0:0:0:
34,179,78351,1,8,0:0:0:0:
122,58,78565,1,0,0:0:0:0:
159,259,78780,2,0,P|188:308|227:335,1,99.0000030212403,2|8,0:0|0:0,0:0:0:0:
359,363,79208,1,0,0:0:0:0:
265,235,79422,1,0,0:0:0:0:
460,223,79637,6,0,L|395:129,1,99.0000030212403,2|0,0:0|0:0,0:0:0:0:
290,0,80065,2,0,L|302:104,1,99.0000030212403,8|0,0:0|0:0,0:0:0:0:
265,235,80494,2,0,L|209:153,1,99.0000030212403,2|8,0:0|0:0,0:0:0:0:
60,201,80922,1,0,0:0:0:0:
175,297,81137,1,0,0:0:0:0:
209,153,81351,54,0,P|192:113|147:72,1,99.0000030212403,2|0,0:0|0:0,0:0:0:0:
60,201,81780,1,8,0:0:0:0:
265,234,81994,2,0,P|343:226|427:133,1,198.000006042481,0|8,0:0|0:0,0:0:0:0:
495,7,82637,1,0,0:0:0:0:
512,184,82851,1,0,0:0:0:0:
368,42,83065,5,2,0:0:0:0:
265,235,83280,1,0,0:0:0:0:
238,56,83494,1,8,0:0:0:0:
423,144,83708,1,0,0:0:0:0:
313,244,83922,2,0,L|237:229,1,49.5000015106202,2|8,0:0|0:0,0:0:0:0:
144,279,84137,1,8,0:0:0:0:
128,267,84244,1,8,0:0:0:0:
112,255,84351,1,8,0:0:0:0:
97,244,84458,1,8,0:0:0:0:
80,233,84565,1,8,0:0:0:0:
64,220,84672,1,8,0:0:0:0:
48,207,84780,6,0,P|51:156|77:108,1,99.0000030212403,6|0,0:0|0:0,0:0:0:0:
265,66,85208,1,8,0:0:0:0:
168,182,85422,1,0,0:0:0:0:
343,155,85637,2,0,P|370:112|381:66,1,99.0000030212403,2|8,0:0|0:0,0:0:0:0:
171,85,86065,1,0,0:0:0:0:
343,155,86280,1,0,0:0:0:0:
214,269,86494,54,0,L|265:365,1,99.0000030212403,2|0,0:0|0:0,0:0:0:0:
389,242,86922,2,0,L|339:149,1,99.0000030212403,8|0,0:0|0:0,0:0:0:0:
168,182,87351,2,0,L|219:277,1,99.0000030212403,2|8,0:0|0:0,0:0:0:0:
223,60,87780,1,0,0:0:0:0:
50,131,87994,1,0,0:0:0:0:
223,60,88208,6,0,L|332:62,1,99.0000030212403,2|0,0:0|0:0,0:0:0:0:
496,144,88637,1,8,0:0:0:0:
405,6,88851,1,0,0:0:0:0:
406,185,89065,2,0,L|404:289,1,99.0000030212403,2|8,0:0|0:0,0:0:0:0:
497,145,89494,1,0,0:0:0:0:
295,227,89708,1,0,0:0:0:0:
440,372,89922,5,2,0:0:0:0:
406,185,90137,1,0,0:0:0:0:
310,347,90351,1,8,0:0:0:0:
503,256,90565,1,0,0:0:0:0:
295,227,90780,2,0,L|193:251,1,99.0000030212403,2|8,0:0|0:0,0:0:0:0:
44,150,91208,1,8,0:0:0:0:
69,126,91315,1,8,0:0:0:0:
102,117,91422,1,8,0:0:0:0:
136,122,91530,1,8,0:0:0:0:
166,136,91637,54,0,P|212:125|262:88,1,99.0000030212403,6|0,0:0|0:0,0:0:0:0:
457,137,92065,1,8,0:0:0:0:
339,29,92280,1,0,0:0:0:0:
277,196,92494,2,0,P|236:223|188:235,1,99.0000030212403,2|8,0:0|0:0,0:0:0:0:
254,96,92922,1,0,0:0:0:0:
380,283,93137,1,0,0:0:0:0:
471,134,93351,6,0,L|464:28,1,99.0000030212403,2|0,0:0|0:0,0:0:0:0:
373,184,93780,2,0,L|380:298,1,99.0000030212403,8|0,0:0|0:0,0:0:0:0:
254,96,94208,2,0,P|211:68|162:59,1,99.0000030212403,2|8,0:0|0:0,0:0:0:0:
37,107,94637,1,0,0:0:0:0:
177,163,94851,1,0,0:0:0:0:
46,233,95065,6,0,L|69:331,1,99.0000030212403,2|0,0:0|0:0,0:0:0:0:
154,258,95494,1,8,0:0:0:0:
46,233,95708,1,0,0:0:0:0:
167,363,95922,2,0,L|255:319,1,99.0000030212403,2|8,0:0|0:0,0:0:0:0:
333,174,96351,2,0,L|241:224,1,99.0000030212403
411,306,96780,53,2,0:0:0:0:
428,99,96994,1,0,0:0:0:0:
246,221,97208,1,8,0:0:0:0:
294,92,97422,1,0,0:0:0:0:
370,277,97637,2,0,L|412:307,1,49.5000015106202,2|0,0:0|0:0,0:0:0:0:
449,218,97851,1,8,0:0:0:0:
426,198,97958,1,8,0:0:0:0:
403,182,98065,1,8,0:0:0:0:
380,165,98172,1,8,0:0:0:0:
358,147,98280,1,4,0:0:0:0:
336,128,98387,1,4,0:0:0:0:
311,111,98494,6,0,P|270:130|214:131,1,90,2|0,0:0|0:0,0:0:0:0:
134,53,98922,1,8,0:0:0:0:
63,198,99137,2,0,P|103:216|148:218,1,90,0|8,0:0|0:0,0:0:0:0:
225,132,99565,1,0,0:0:0:0:
148,218,99780,1,8,0:0:0:0:
300,304,99994,6,0,P|370:288|435:207,1,180,6|0,0:0|0:0,0:0:0:0:
440,81,100637,1,8,0:0:0:0:
332,203,100851,2,0,P|280:214|233:207,1,90,0|8,0:0|0:0,0:0:0:0:
187,131,101280,1,0,0:0:0:0:
332,203,101494,1,8,0:0:0:0:
248,50,101708,1,0,0:0:0:0:
94,118,101922,6,0,P|98:160|125:203,1,90,2|0,0:0|0:0,0:0:0:0:
187,131,102351,1,8,0:0:0:0:
31,45,102565,2,0,P|5:86|0:131,1,90,0|8,0:0|0:0,0:0:0:0:
39,243,102994,1,0,0:0:0:0:
187,131,103208,1,8,0:0:0:0:
255,347,103422,5,6,0:0:0:0:
256,192,103637,12,6,105351,0:0:0:0:
470,67,105780,22,0,P|462:114|440:148,1,80.9999975280763,8|0,0:0|0:0,0:0:0:0:
352,166,106208,1,0,0:0:0:0:
426,234,106422,1,0,0:0:0:0:
295,237,106637,1,8,0:0:0:0:
282,101,106851,1,2,0:0:0:0:
200,236,107065,6,0,P|232:304|313:337,1,161.999995056153,2|8,0:0|0:0,0:0:0:0:
295,237,107708,1,0,0:0:0:0:
200,236,107922,2,0,L|117:265,1,80.9999975280763,8|0,0:0|0:0,0:0:0:0:
39,329,108351,2,0,L|118:357,1,80.9999975280763,8|0,0:0|0:0,0:0:0:0:
42,201,108780,5,2,0:0:0:0:
123,262,108994,1,0,0:0:0:0:
228,139,109208,1,8,0:0:0:0:
130,169,109422,1,0,0:0:0:0:
63,99,109637,2,0,P|70:61|102:16,1,80.9999975280763,8|0,0:0|0:0,0:0:0:0:
130,169,110065,1,8,0:0:0:0:
188,57,110280,1,2,0:0:0:0:
224,205,110494,6,0,B|290:162|290:162|366:200,1,161.999995056153,8|8,0:0|0:0,0:0:0:0:
407,292,111137,1,0,0:0:0:0:
407,292,111351,2,0,B|366:303|366:303|327:293,1,80.9999975280763,8|0,0:0|0:0,0:0:0:0:
364,199,111780,1,8,0:0:0:0:
487,94,112208,6,0,P|409:43|334:40,1,161.999995056153,2|8,0:0|0:0,0:0:0:0:
265,89,112851,1,0,0:0:0:0:
171,50,113065,2,0,L|185:145,1,80.9999975280763,8|0,0:0|0:0,0:0:0:0:
260,180,113494,1,8,0:0:0:0:
114,197,113708,1,2,0:0:0:0:
220,264,113922,22,0,P|253:274|304:267,2,80.9999975280763,2|0|8,0:0|0:0|0:0,0:0:0:0:
114,197,114565,1,0,0:0:0:0:
101,333,114780,2,0,P|140:335|190:358,1,80.9999975280763,8|0,0:0|0:0,0:0:0:0:
277,360,115208,2,0,P|314:362|357:348,1,80.9999975280763,8|0,0:0|0:0,0:0:0:0:
409,208,115637,5,2,0:0:0:0:
481,291,115851,1,0,0:0:0:0:
509,164,116065,1,8,0:0:0:0:
409,208,116280,1,0,0:0:0:0:
454,55,116494,2,0,L|371:91,1,80.9999975280763,8|0,0:0|0:0,0:0:0:0:
320,174,116922,1,8,0:0:0:0:
285,41,117137,1,2,0:0:0:0:
214,184,117351,6,0,P|143:194|51:157,1,161.999995056153,2|8,0:0|0:0,0:0:0:0:
103,81,117994,1,0,0:0:0:0:
147,287,118208,2,0,P|185:289|229:276,1,80.9999975280763,8|0,0:0|0:0,0:0:0:0:
294,134,118637,5,8,0:0:0:0:
414,331,119065,6,0,L|416:244,1,80.9999975280763,6|0,0:0|0:0,0:0:0:0:
391,154,119494,1,8,0:0:0:0:
498,181,119708,1,0,0:0:0:0:
452,69,119922,2,0,P|406:53|374:50,1,80.9999975280763,2|8,0:0|0:0,0:0:0:0:
302,114,120351,1,0,0:0:0:0:
374,50,120565,1,0,0:0:0:0:
222,48,120780,22,0,P|209:126|250:195,1,161.999995056153,2|8,0:0|0:0,0:0:0:0:
340,230,121422,1,0,0:0:0:0:
295,312,121637,2,0,L|215:331,1,80.9999975280763,2|8,0:0|0:0,0:0:0:0:
130,369,122065,2,0,L|43:340,1,80.9999975280763
42,248,122494,5,2,0:0:0:0:
110,178,122708,1,0,0:0:0:0:
137,272,122922,1,8,0:0:0:0:
15,155,123137,1,0,0:0:0:0:
15,155,123244,1,8,0:0:0:0:
15,155,123351,2,0,P|29:126|64:91,1,80.9999975280763,2|8,0:0|0:0,0:0:0:0:
185,106,123780,1,0,0:0:0:0:
110,178,123994,1,0,0:0:0:0:
233,292,124208,6,0,P|310:275|359:212,1,161.999995056153,2|8,0:0|0:0,0:0:0:0:
263,196,124851,1,0,0:0:0:0:
233,292,125065,2,0,P|246:337|271:365,1,80.9999975280763,2|8,0:0|0:0,0:0:0:0:
365,369,125494,1,0,0:0:0:0:
480,211,125922,6,0,P|405:183|366:95,1,161.999995056153,2|8,0:0|0:0,0:0:0:0:
303,40,126565,1,0,0:0:0:0:
303,40,126672,1,8,0:0:0:0:
303,40,126780,2,0,L|270:119,1,80.9999975280763,2|8,0:0|0:0,0:0:0:0:
198,178,127208,2,0,L|235:271,1,80.9999975280763
180,338,127637,5,2,0:0:0:0:
323,273,127851,1,0,0:0:0:0:
132,253,128065,2,0,P|96:258|53:284,1,80.9999975280763,8|0,0:0|0:0,0:0:0:0:
180,338,128494,1,2,0:0:0:0:
157,162,128708,2,0,P|117:159|76:168,1,80.9999975280763,8|0,0:0|0:0,0:0:0:0:
220,234,129137,1,0,0:0:0:0:
190,76,129351,22,0,P|230:69|278:77,1,80.9999975280763,2|0,0:0|0:0,0:0:0:0:
344,164,129780,1,8,0:0:0:0:
397,40,129994,1,0,0:0:0:0:
397,40,130101,1,8,0:0:0:0:
397,40,130208,2,0,L|429:115,1,80.9999975280763,2|8,0:0|0:0,0:0:0:0:
512,225,130637,2,0,L|481:300,1,80.9999975280763
331,358,131065,6,0,P|254:335|169:361,1,161.999995056153,2|8,0:0|0:0,0:0:0:0:
66,308,131708,1,0,0:0:0:0:
224,241,131922,1,2,0:0:0:0:
56,157,132137,1,0,0:0:0:0:
67,140,132244,1,8,0:0:0:0:
78,123,132351,1,8,0:0:0:0:
89,106,132458,1,8,0:0:0:0:
100,89,132565,1,8,0:0:0:0:
111,72,132672,1,8,0:0:0:0:
120,58,132780,22,0,P|159:63|223:57,1,90,6|8,0:0|0:0,0:0:0:0:
252,45,133422,1,0,0:0:0:0:
286,77,133637,2,0,L|294:149,2,67.5,8|0|2,0:0|0:0|0:0,0:0:0:0:
374,44,134494,6,0,P|409:34|468:47,1,90,2|8,0:0|0:0,0:0:0:0:
481,83,135137,1,0,0:0:0:0:
472,127,135351,2,0,L|478:213,2,67.5,8|0|0,0:0|0:0|0:0,0:0:0:0:
385,176,136208,70,0,L|390:280,1,90,2|8,0:0|0:0,0:0:0:0:
372,308,136851,1,0,0:0:0:0:
338,339,137065,2,0,P|301:355|251:351,1,90,8|8,0:0|0:0,0:0:0:0:
214,327,137708,1,2,0:0:0:0:
202,233,137922,6,0,L|196:136,1,90,8|8,0:0|0:0,0:0:0:0:
106,115,138780,2,0,L|99:12,1,90,8|8,0:0|0:0,0:0:0:0:
18,102,139637,70,0,P|21:146|43:186,1,90,2|8,0:0|0:0,0:0:0:0:
75,216,140280,1,0,0:0:0:0:
96,255,140494,2,0,P|93:293|76:326,2,67.5,8|0|2,0:0|0:0|0:0,0:0:0:0:
195,239,141351,6,0,P|212:202|210:143,1,90,2|8,0:0|0:0,0:0:0:0:
186,117,141994,1,0,0:0:0:0:
149,90,142208,2,0,P|136:56|141:17,2,67.5,8|0|0,0:0|0:0|0:0,0:0:0:0:
238,46,143065,70,0,L|342:44,1,90,8|8,0:0|0:0,0:0:0:0:
344,86,143708,1,0,0:0:0:0:
357,128,143922,2,0,L|263:131,1,90,8|8,0:0|0:0,0:0:0:0:
240,217,144780,6,0,L|248:315,1,90,8|8,0:0|0:0,0:0:0:0:
290,318,145422,1,0,0:0:0:0:
335,325,145637,2,0,L|326:221,1,90,8|8,0:0|0:0,0:0:0:0:
449,71,148208,22,0,L|351:92,1,99.0000030212403,6|0,0:0|0:0,0:0:0:0:
260,215,148637,1,8,0:0:0:0:
278,29,148851,1,0,0:0:0:0:
368,193,149065,2,0,L|469:172,1,99.0000030212403,2|8,0:0|0:0,0:0:0:0:
375,326,149494,1,0,0:0:0:0:
491,276,149708,1,0,0:0:0:0:
260,215,149922,6,0,P|239:168|245:100,1,99.0000030212403,2|0,0:0|0:0,0:0:0:0:
173,290,150351,2,0,P|199:331|240:357,1,99.0000030212403,8|0,0:0|0:0,0:0:0:0:
55,257,150780,2,0,P|35:217|33:162,1,99.0000030212403,2|8,0:0|0:0,0:0:0:0:
190,179,151208,1,0,0:0:0:0:
190,179,151315,1,8,0:0:0:0:
190,179,151422,1,2,0:0:0:0:
30,39,151637,6,0,L|154:73,1,99.0000030212403,2|0,0:0|0:0,0:0:0:0:
190,179,152065,1,8,0:0:0:0:
284,37,152280,1,0,0:0:0:0:
398,175,152494,2,0,L|302:201,1,99.0000030212403,2|8,0:0|0:0,0:0:0:0:
394,47,152922,1,0,0:0:0:0:
496,222,153137,1,0,0:0:0:0:
302,200,153351,53,2,0:0:0:0:
490,329,153565,1,0,0:0:0:0:
440,140,153780,1,8,0:0:0:0:
339,336,153994,1,0,0:0:0:0:
280,101,154208,2,0,P|240:121|200:168,1,99.0000030212403,2|8,0:0|0:0,0:0:0:0:
51,270,154637,1,8,0:0:0:0:
23,249,154744,1,8,0:0:0:0:
8,217,154851,1,8,0:0:0:0:
2,182,154958,1,8,0:0:0:0:
13,143,155065,6,0,L|72:62,1,99.0000030212403,6|0,0:0|0:0,0:0:0:0:
218,25,155494,1,8,0:0:0:0:
126,156,155708,1,0,0:0:0:0:
328,147,155922,2,0,L|375:207,1,99.0000030212403,2|8,0:0|0:0,0:0:0:0:
504,138,156351,1,0,0:0:0:0:
328,147,156565,1,0,0:0:0:0:
396,322,156780,6,0,P|462:296|483:275,1,99.0000030212403,2|0,0:0|0:0,0:0:0:0:
239,278,157208,2,0,P|264:326|301:355,1,99.0000030212403,8|0,0:0|0:0,0:0:0:0:
202,127,157637,2,0,P|174:169|166:224,1,99.0000030212403,2|8,0:0|0:0,0:0:0:0:
331,254,158065,1,0,0:0:0:0:
349,124,158280,1,0,0:0:0:0:
202,127,158494,54,0,L|104:98,1,99.0000030212403,2|0,0:0|0:0,0:0:0:0:
278,189,158922,1,8,0:0:0:0:
349,25,159137,2,0,B|275:51|275:51|156:14,1,198.000006042481,0|8,0:0|0:0,0:0:0:0:
349,124,159780,2,0,L|444:85,1,99.0000030212403
278,189,160208,5,2,0:0:0:0:
349,25,160422,1,0,0:0:0:0:
428,193,160637,1,8,0:0:0:0:
252,79,160851,1,0,0:0:0:0:
200,246,161065,2,0,L|145:255,1,49.5000015106202,2|8,0:0|0:0,0:0:0:0:
52,256,161280,1,8,0:0:0:0:
51,236,161387,1,8,0:0:0:0:
48,216,161494,1,8,0:0:0:0:
46,196,161601,1,8,0:0:0:0:
44,176,161708,1,8,0:0:0:0:
43,156,161815,1,8,0:0:0:0:
41,136,161922,6,0,P|72:107|132:88,1,99.0000030212403,6|0,0:0|0:0,0:0:0:0:
275,48,162351,1,8,0:0:0:0:
413,173,162565,1,0,0:0:0:0:
237,139,162780,2,0,P|191:155|153:188,1,99.0000030212403,2|8,0:0|0:0,0:0:0:0:
347,260,163208,1,0,0:0:0:0:
375,73,163422,1,0,0:0:0:0:
243,240,163637,54,0,L|219:341,1,99.0000030212403,2|0,0:0|0:0,0:0:0:0:
72,254,164065,2,0,L|46:158,1,99.0000030212403,8|0,0:0|0:0,0:0:0:0:
192,65,164494,2,0,L|167:173,1,99.0000030212403,2|8,0:0|0:0,0:0:0:0:
316,172,164922,1,0,0:0:0:0:
192,65,165137,1,0,0:0:0:0:
408,127,165351,6,0,P|415:180|405:234,1,99.0000030212403,2|0,0:0|0:0,0:0:0:0:
324,70,165780,1,8,0:0:0:0:
501,143,165994,1,0,0:0:0:0:
316,172,166208,2,0,P|269:160|229:118,1,99.0000030212403,2|8,0:0|0:0,0:0:0:0:
324,70,166637,1,0,0:0:0:0:
289,264,166851,1,0,0:0:0:0:
138,165,167065,5,2,0:0:0:0:
226,342,167280,1,0,0:0:0:0:
316,172,167494,1,8,0:0:0:0:
132,277,167708,1,0,0:0:0:0:
390,269,167922,2,0,L|432:175,1,99.0000030212403,2|8,0:0|0:0,0:0:0:0:
298,52,168351,1,8,0:0:0:0:
276,62,168458,1,8,0:0:0:0:
253,71,168565,1,8,0:0:0:0:
227,82,168672,1,8,0:0:0:0:
205,91,168780,54,0,P|145:83|97:53,1,99.0000030212403,6|0,0:0|0:0,0:0:0:0:
68,210,169208,1,8,0:0:0:0:
205,91,169422,1,0,0:0:0:0:
227,260,169637,2,0,P|284:252|325:221,1,99.0000030212403,2|8,0:0|0:0,0:0:0:0:
183,176,170065,1,0,0:0:0:0:
274,345,170280,1,0,0:0:0:0:
414,207,170494,6,0,P|421:162|403:102,1,99.0000030212403,2|0,0:0|0:0,0:0:0:0:
244,26,170922,2,0,P|258:79|251:126,1,99.0000030212403,8|0,0:0|0:0,0:0:0:0:
90,219,171351,2,0,P|95:170|80:123,1,99.0000030212403,2|8,0:0|0:0,0:0:0:0:
0,183,171780,1,0,0:0:0:0:
184,190,171994,1,0,0:0:0:0:
102,315,172208,6,0,P|54:325|3:314,1,99.0000030212403,2|0,0:0|0:0,0:0:0:0:
184,190,172637,1,8,0:0:0:0:
203,323,172851,1,0,0:0:0:0:
346,274,173065,2,0,P|390:239|408:200,1,99.0000030212403,2|8,0:0|0:0,0:0:0:0:
345,80,173494,2,0,L|451:79,1,99.0000030212403
281,177,173922,53,2,0:0:0:0:
261,17,174137,1,0,0:0:0:0:
202,232,174351,1,8,0:0:0:0:
407,201,174565,1,0,0:0:0:0:
220,106,174780,2,0,L|167:107,1,49.5000015106202,2|8,0:0|0:0,0:0:0:0:
46,183,174994,1,8,0:0:0:0:
47,201,175101,1,8,0:0:0:0:
51,220,175208,1,8,0:0:0:0:
57,238,175315,1,8,0:0:0:0:
69,252,175422,1,4,0:0:0:0:
84,264,175530,1,4,0:0:0:0:
101,273,175637,6,0,P|194:258|285:302,1,198.000006042481,6|0,0:0|0:0,0:0:0:0:
454,337,176280,1,2,0:0:0:0:
361,170,176494,2,0,L|378:267,1,99.0000030212403,8|0,0:0|0:0,0:0:0:0:
442,101,176922,1,8,0:0:0:0:
260,185,177137,54,0,P|170:140|146:49,1,198.000006042481,6|2,0:0|0:0,0:0:0:0:
295,102,177780,2,0,P|339:78|374:35,1,99.0000030212403,2|0,0:0|0:0,0:0:0:0:
260,185,178208,2,0,P|304:196|364:190,1,99.0000030212403,8|0,0:0|0:0,0:0:0:0:
229,278,178637,1,2,0:0:0:0:
153,133,178851,1,8,0:0:0:0:
134,155,178958,1,8,0:0:0:0:
113,181,179065,22,0,P|103:275|163:359,1,198.000006042481,6|2,0:0|0:0,0:0:0:0:
229,278,179708,1,2,0:0:0:0:
371,338,179922,2,0,L|274:360,1,99.0000030212403,8|0,0:0|0:0,0:0:0:0:
350,205,180351,1,8,0:0:0:0:
504,329,180565,54,0,P|448:233|489:160,1,198.000006042481,6|2,0:0|0:0,0:0:0:0:
391,64,181208,2,0,P|351:94|285:106,1,99.0000030212403,2|0,0:0|0:0,0:0:0:0:
201,28,181637,1,8,0:0:0:0:
77,100,181851,1,8,0:0:0:0:
83,118,181958,1,8,0:0:0:0:
93,135,182065,1,8,0:0:0:0:
107,149,182172,1,8,0:0:0:0:
123,160,182280,1,4,0:0:0:0:
138,167,182387,1,4,0:0:0:0:
153,168,182494,22,0,P|189:262|146:342,1,198.000006042481,6|2,0:0|0:0,0:0:0:0:
89,252,183137,1,2,0:0:0:0:
276,229,183351,2,0,P|323:238|368:270,1,99.0000030212403,8|0,0:0|0:0,0:0:0:0:
413,356,183780,1,8,0:0:0:0:
474,172,183994,54,0,P|400:130|379:24,1,198.000006042481,6|2,0:0|0:0,0:0:0:0:
365,165,184637,2,0,P|328:194|273:202,1,99.0000030212403,2|0,0:0|0:0,0:0:0:0:
196,70,185065,2,0,P|243:74|296:107,1,99.0000030212403,8|0,0:0|0:0,0:0:0:0:
147,158,185494,1,2,0:0:0:0:
47,60,185708,1,8,0:0:0:0:
47,60,185815,1,8,0:0:0:0:
47,60,185922,22,0,L|41:162,1,99.0000030212403,6|0,0:0|0:0,0:0:0:0:
104,312,186351,1,2,0:0:0:0:
147,158,186565,1,2,0:0:0:0:
104,312,186780,2,0,B|151:324|151:324|206:308,1,99.0000030212403,8|0,0:0|0:0,0:0:0:0:
273,132,187208,1,8,0:0:0:0:
302,324,187422,54,0,B|391:352|391:352|484:315,1,198.000006042481,6|8,0:0|0:0,0:0:0:0:
413,162,188065,1,8,0:0:0:0:
302,324,188280,1,8,0:0:0:0:
483,230,188494,1,8,0:0:0:0:
248,163,188708,1,8,0:0:0:0:
393,260,188922,1,8,0:0:0:0:
442,42,189137,1,8,0:0:0:0:
245,72,189351,6,0,L|150:66,1,90,6|0,0:0|0:0,0:0:0:0:
62,27,189780,1,8,0:0:0:0:
74,192,189994,2,0,L|103:285,1,90,0|8,0:0|0:0,0:0:0:0:
170,203,190422,1,0,0:0:0:0:
2,267,190637,1,8,0:0:0:0:
201,337,190851,6,0,P|274:321|388:346,1,180,6|0,0:0|0:0,0:0:0:0:
476,357,191494,1,8,0:0:0:0:
451,194,191708,2,0,P|408:208|366:239,1,90,0|8,0:0|0:0,0:0:0:0:
512,271,192137,1,0,0:0:0:0:
475,104,192351,1,8,0:0:0:0:
371,233,192565,1,0,0:0:0:0:
291,61,192780,6,0,P|252:81|203:85,1,90,2|0,0:0|0:0,0:0:0:0:
123,35,193208,1,8,0:0:0:0:
73,190,193422,2,0,P|115:203|153:227,1,90,0|8,0:0|0:0,0:0:0:0:
12,262,193851,1,0,0:0:0:0:
47,99,194065,1,8,0:0:0:0:
227,170,194280,6,0,P|277:244|269:346,1,180,2|0,0:0|0:0,0:0:0:0:
180,321,194922,1,8,0:0:0:0:
367,220,195137,2,0,P|377:256|372:317,1,90,0|8,0:0|0:0,0:0:0:0:
274,331,195565,1,0,0:0:0:0:
367,220,195780,2,0,P|403:216|450:184,1,90,8|0,0:0|0:0,0:0:0:0:
280,78,196208,6,0,L|269:177,1,90,2|0,0:0|0:0,0:0:0:0:
205,18,196637,1,8,0:0:0:0:
376,130,196851,2,0,L|364:238,1,90,0|8,0:0|0:0,0:0:0:0:
191,218,197280,1,0,0:0:0:0:
280,78,197494,1,8,0:0:0:0:
269,279,197708,22,0,P|175:304|101:269,1,180,2|0,0:0|0:0,0:0:0:0:
32,173,198351,1,8,0:0:0:0:
191,218,198565,2,0,P|229:204|270:165,1,90,0|8,0:0|0:0,0:0:0:0:
311,48,198994,1,0,0:0:0:0:
182,117,199208,1,8,0:0:0:0:
360,136,199422,1,0,0:0:0:0:
266,278,199637,6,0,L|285:369,1,90,2|0,0:0|0:0,0:0:0:0:
191,218,200065,1,8,0:0:0:0:
360,136,200280,2,0,L|340:227,1,90,0|8,0:0|0:0,0:0:0:0:
453,117,200708,1,0,0:0:0:0:
273,99,200922,1,8,0:0:0:0:
417,284,201137,5,6,0:0:0:0:
256,192,201351,12,2,203065,0:0:0:0:
261,191,209922,5,2,0:0:0:0:
87,102,210351,1,8,0:0:0:0:
0,263,210780,1,8,0:0:0:0:
174,352,211208,1,8,0:0:0:0:
132,226,211422,1,2,0:0:0:0:
261,191,211637,5,2,0:0:0:0:
327,360,212065,1,8,0:0:0:0:
506,282,212494,1,8,0:0:0:0:
440,113,212922,1,8,0:0:0:0:
384,239,213137,1,0,0:0:0:0:
261,191,213351,70,0,P|228:157|216:117,1,80.9999975280763,8|0,0:0|0:0,0:0:0:0:
159,47,213780,2,0,P|143:86|104:119,1,80.9999975280763,8|0,0:0|0:0,0:0:0:0:
65,196,214208,2,0,P|142:206|198:266,1,161.999995056153,8|8,0:0|0:0,0:0:0:0:
205,362,214851,1,0,0:0:0:0:
261,191,215065,5,4,0:0:0:0:
204,361,215922,21,8,0:0:0:0:
228,376,216030,1,8,0:0:0:0:
256,381,216137,1,8,0:0:0:0:
283,376,216244,1,8,0:0:0:0:
303,361,216351,1,4,0:0:0:0:
328,350,216458,1,4,0:0:0:0:
354,347,216565,1,4,0:0:0:0:
383,351,216672,1,4,0:0:0:0:
407,362,216780,6,0,P|438:326|455:262,1,99.0000030212403,6|0,0:0|0:0,0:0:0:0:
354,111,217208,1,8,0:0:0:0:
511,184,217422,1,0,0:0:0:0:
349,212,217637,2,0,P|290:185|257:152,1,99.0000030212403,2|8,0:0|0:0,0:0:0:0:
161,257,218065,1,0,0:0:0:0:
349,212,218280,1,0,0:0:0:0:
209,85,218494,6,0,L|105:93,1,99.0000030212403,2|0,0:0|0:0,0:0:0:0:
62,263,218922,2,0,L|164:256,1,99.0000030212403,8|0,0:0|0:0,0:0:0:0:
331,175,219351,2,0,L|228:182,1,99.0000030212403,2|8,0:0|0:0,0:0:0:0:
299,299,219780,1,0,0:0:0:0:
299,299,219887,1,8,0:0:0:0:
299,299,219994,1,2,0:0:0:0:
465,216,220208,54,0,P|467:165|450:103,1,99.0000030212403,2|0,0:0|0:0,0:0:0:0:
294,98,220637,1,8,0:0:0:0:
465,216,220851,1,0,0:0:0:0:
484,17,221065,2,0,P|433:22|388:44,1,99.0000030212403,2|8,0:0|0:0,0:0:0:0:
354,213,221494,1,0,0:0:0:0:
218,57,221708,1,0,0:0:0:0:
354,213,221922,5,2,0:0:0:0:
390,42,222137,1,0,0:0:0:0:
237,167,222351,1,8,0:0:0:0:
470,194,222565,1,0,0:0:0:0:
245,282,222780,2,0,L|148:244,1,99.0000030212403,2|8,0:0|0:0,0:0:0:0:
53,46,223208,1,8,0:0:0:0:
85,56,223315,1,8,0:0:0:0:
123,58,223422,1,8,0:0:0:0:
161,57,223530,1,8,0:0:0:0:
195,44,223637,6,0,P|240:58|287:101,1,99.0000030212403,6|0,0:0|0:0,0:0:0:0:
227,221,224065,1,8,0:0:0:0:
391,113,224280,1,0,0:0:0:0:
420,301,224494,2,0,P|375:287|332:252,1,99.0000030212403,2|8,0:0|0:0,0:0:0:0:
471,167,224922,1,0,0:0:0:0:
504,366,225137,1,0,0:0:0:0:
334,255,225351,54,0,L|313:153,1,99.0000030212403,2|0,0:0|0:0,0:0:0:0:
206,328,225780,2,0,L|228:218,1,99.0000030212403,8|0,0:0|0:0,0:0:0:0:
49,336,226208,2,0,L|129:255,1,99.0000030212403,2|8,0:0|0:0,0:0:0:0:
200,129,226637,1,0,0:0:0:0:
68,175,226851,1,0,0:0:0:0:
225,230,227065,6,0,P|266:235|324:218,1,99.0000030212403,2|0,0:0|0:0,0:0:0:0:
377,80,227494,1,8,0:0:0:0:
449,245,227708,2,0,P|352:243|287:322,1,198.000006042481,0|8,0:0|0:0,0:0:0:0:
401,342,228351,1,0,0:0:0:0:
449,245,228565,1,0,0:0:0:0:
284,87,228780,5,2,0:0:0:0:
289,314,228994,1,0,0:0:0:0:
193,137,229208,1,8,0:0:0:0:
355,246,229422,1,0,0:0:0:0:
147,231,229637,2,0,L|107:200,1,49.5000015106202,2|8,0:0|0:0,0:0:0:0:
73,87,229851,1,8,0:0:0:0:
90,77,229958,1,8,0:0:0:0:
107,67,230065,1,8,0:0:0:0:
124,57,230172,1,8,0:0:0:0:
141,47,230279,1,8,0:0:0:0:
158,37,230386,1,8,0:0:0:0:
173,29,230494,54,0,P|218:35|271:65,1,99.0000030212403,6|0,0:0|0:0,0:0:0:0:
323,225,230922,1,8,0:0:0:0:
193,137,231137,1,0,0:0:0:0:
390,143,231351,2,0,P|419:110|438:56,1,99.0000030212403,2|8,0:0|0:0,0:0:0:0:
296,138,231780,1,0,0:0:0:0:
497,164,231994,1,0,0:0:0:0:
419,319,232208,6,0,L|318:335,1,99.0000030212403,2|0,0:0|0:0,0:0:0:0:
186,211,232637,2,0,L|287:216,1,99.0000030212403,8|0,0:0|0:0,0:0:0:0:
135,320,233065,2,0,L|37:305,1,99.0000030212403,2|8,0:0|0:0,0:0:0:0:
40,154,233494,1,0,0:0:0:0:
40,154,233601,1,8,0:0:0:0:
40,154,233708,1,2,0:0:0:0:
198,57,233922,6,0,L|176:156,1,99.0000030212403,2|0,0:0|0:0,0:0:0:0:
114,3,234351,1,8,0:0:0:0:
297,29,234565,1,0,0:0:0:0:
274,194,234780,2,0,L|252:290,1,99.0000030212403,2|8,0:0|0:0,0:0:0:0:
176,153,235208,1,0,0:0:0:0:
371,234,235422,1,0,0:0:0:0:
108,233,235637,53,2,0:0:0:0:
319,369,235851,1,0,0:0:0:0:
274,194,236065,1,8,0:0:0:0:
155,369,236280,1,0,0:0:0:0:
176,153,236494,2,0,L|201:49,1,99.0000030212403,2|8,0:0|0:0,0:0:0:0:
416,122,236922,1,8,0:0:0:0:
426,148,237030,1,8,0:0:0:0:
437,175,237137,1,8,0:0:0:0:
446,202,237244,1,8,0:0:0:0:
450,228,237351,6,0,P|438:274|414:318,1,99.0000030212403,6|0,0:0|0:0,0:0:0:0:
267,259,237780,1,8,0:0:0:0:
450,228,237994,1,0,0:0:0:0:
269,156,238208,2,0,P|241:159|177:201,1,99.0000030212403,2|8,0:0|0:0,0:0:0:0:
357,214,238637,1,0,0:0:0:0:
283,52,238851,1,0,0:0:0:0:
181,195,239065,6,0,L|149:294,1,99.0000030212403,2|0,0:0|0:0,0:0:0:0:
113,110,239494,2,0,L|210:77,1,99.0000030212403,8|0,0:0|0:0,0:0:0:0:
75,211,239922,2,0,L|3:135,1,99.0000030212403,2|8,0:0|0:0,0:0:0:0:
113,110,240351,1,0,0:0:0:0:
150,278,240565,1,0,0:0:0:0:
337,219,240780,54,0,L|351:117,1,99.0000030212403,2|0,0:0|0:0,0:0:0:0:
449,91,241208,1,8,0:0:0:0:
433,197,241422,1,0,0:0:0:0:
350,120,241637,2,0,P|299:107|238:123,1,99.0000030212403,2|8,0:0|0:0,0:0:0:0:
117,206,242065,2,0,P|163:219|216:210,1,99.0000030212403
80,36,242494,5,2,0:0:0:0:
117,206,242708,1,0,0:0:0:0:
254,115,242922,1,8,0:0:0:0:
31,155,243137,1,0,0:0:0:0:
130,312,243351,1,2,0:0:0:0:
148,334,243458,1,8,0:0:0:0:
177,351,243565,1,8,0:0:0:0:
211,355,243672,1,8,0:0:0:0:
252,345,243780,1,8,0:0:0:0:
282,318,243887,1,8,0:0:0:0:
297,276,243994,1,8,0:0:0:0:
287,232,244101,1,8,0:0:0:0:
256,193,244208,21,2,0:0:0:0:
401,51,244851,1,0,0:0:0:0:
401,51,245065,1,2,0:0:0:0:
266,66,245494,1,2,0:0:0:0:
266,66,245708,1,0,0:0:0:0:
266,66,246994,1,0,0:0:0:0:
189,122,247208,1,2,0:0:0:0:
101,76,247422,1,0,0:0:0:0:
182,17,247637,5,2,0:0:0:0:
287,190,248280,1,0,0:0:0:0:
287,190,248494,1,2,0:0:0:0:
156,222,248922,1,2,0:0:0:0:
156,222,249137,1,0,0:0:0:0:
420,340,251065,69,2,0:0:0:0:
257,219,251708,1,0,0:0:0:0:
257,219,251922,1,2,0:0:0:0:
391,207,252351,1,2,0:0:0:0:
391,207,252565,1,0,0:0:0:0:
391,207,253851,1,0,0:0:0:0:
333,288,254065,1,2,0:0:0:0:
237,252,254280,1,0,0:0:0:0:
299,177,254494,5,2,0:0:0:0:
444,318,255137,1,0,0:0:0:0:
444,318,255351,1,2,0:0:0:0:
321,374,255780,1,2,0:0:0:0:
321,374,255994,1,0,0:0:0:0:
67,70,257922,69,2,0:0:0:0:
159,249,258565,1,0,0:0:0:0:
159,249,258780,1,2,0:0:0:0:
192,118,259208,1,2,0:0:0:0:
192,118,259422,1,0,0:0:0:0:
192,118,260708,1,0,0:0:0:0:
269,142,260922,1,2,0:0:0:0:
331,89,261137,1,0,0:0:0:0:
319,8,261351,5,2,0:0:0:0:
124,65,261994,1,0,0:0:0:0:
124,65,262208,1,2,0:0:0:0:
74,190,262637,1,2,0:0:0:0:
74,190,262851,1,0,0:0:0:0:
