osu file format v14

[General]
AudioFilename: audio.mp3
AudioLeadIn: 0
PreviewTime: 70637
Countdown: 0
SampleSet: Soft
StackLeniency: 0.5
Mode: 0
LetterboxInBreaks: 0
EpilepsyWarning: 1
WidescreenStoryboard: 1

[Editor]
Bookmarks: 14504
DistanceSpacing: 1.4
BeatDivisor: 4
GridSize: 4
TimelineZoom: 1

[Metadata]
Title:Boukyaku no Ame
TitleUnicode:忘却の雨
Artist:IOSYS
ArtistUnicode:IOSYS
Creator:bigfrog
Version:Hard
Source:東方紅魔郷 ~ the Embodiment of Scarlet Devil.
Tags:ROCKIN'ON TOUHOU VOL.1 亡き王女の為のセプテット あさな 96 void Naki oujo no tame no seputetto Septet for the Dead Princess japanese video game zun project
BeatmapID:2317736
BeatmapSetID:1109084

[Difficulty]
HPDrainRate:6
CircleSize:3.6
OverallDifficulty:6
ApproachRate:7
SliderMultiplier:1.4
SliderTickRate:1

[Events]
//Background and Video events
0,0,"BG.jpg",0,0
//Break Periods
2,203265,209022
//Storyboard Layer 0 (Background)
//Storyboard Layer 1 (Fail)
//Storyboard Layer 2 (Pass)
//Storyboard Layer 3 (Foreground)
//Storyboard Layer 4 (Overlay)
//Storyboard Sound Samples

[TimingPoints]
780,428.571428571429,4,2,3,40,1,0
780,-111.111111111111,4,2,3,40,0,0
14494,-111.111111111111,4,2,1,40,0,0
28637,-111.111111111111,4,2,1,60,0,0
55637,-200,4,2,2,40,0,0
71065,-90.9090909090909,4,2,1,70,0,1
84672,-90.9090909090909,4,2,1,70,0,0
84780,-90.9090909090909,4,2,1,70,0,1
98172,-90.9090909090909,4,3,1,70,0,1
98494,-100,4,2,2,70,0,0
103637,-100,4,2,2,40,0,0
105351,-111.111111111111,4,2,2,60,0,0
110494,-111.111111111111,4,2,2,70,0,0
112208,-111.111111111111,4,2,2,60,0,0
117351,-111.111111111111,4,2,2,70,0,0
118637,-111.111111111111,4,2,2,80,0,0
119065,-111.111111111111,4,2,1,60,0,0
132780,-200,4,2,2,40,0,0
148208,-90.9090909090909,4,2,1,70,0,1
161815,-90.9090909090909,4,2,1,70,0,0
161922,-90.9090909090909,4,2,1,70,0,1
175315,-90.9090909090909,4,3,0,70,0,1
175530,-90.9090909090909,4,3,0,70,0,0
175637,-90.9090909090909,4,2,1,70,0,1
175744,-90.9090909090909,4,2,1,70,0,0
182172,-90.9090909090909,4,3,0,70,0,0
182494,-90.9090909090909,4,2,1,70,0,0
188494,-90.9090909090909,4,2,1,80,0,0
188922,-90.9090909090909,4,2,1,90,0,0
189351,-100,4,2,2,70,0,0
201351,-100,4,2,0,40,0,0
203065,-100,4,2,0,60,0,0
209922,-111.111111111111,4,2,2,50,0,0
215922,-111.111111111111,4,2,1,50,0,0
216137,-111.111111111111,4,3,0,60,0,0
216351,-111.111111111111,4,3,0,70,0,0
216780,-90.9090909090909,4,2,1,70,0,1
230387,-90.9090909090909,4,2,1,70,0,0
230494,-90.9090909090909,4,2,1,70,0,1
243887,-90.9090909090909,4,2,1,80,0,1
244208,-111.111111111111,4,2,0,40,0,0
251065,-111.111111111111,4,2,0,30,0,0
257922,-111.111111111111,4,2,0,20,0,0

[Colours]
Combo1 : 36,58,134
Combo2 : 255,128,128
Combo3 : 128,128,255
Combo4 : 255,149,255
Combo5 : 192,192,192
Combo6 : 191,128,128

[HitObjects]
407,75,780,53,2,0:0:0:0:
438,337,1422,2,0,L|357:355,1,62.9999980773926,0|2,0:0|0:0,0:0:0:0:
264,213,2065,2,0,L|346:197,1,62.9999980773926,2|0,0:0|0:0,0:0:0:0:
121,343,3565,2,0,P|85:349|45:345,2,62.9999980773926,0|2|0,0:0|0:0|0:0,0:0:0:0:
198,300,4208,5,2,0:0:0:0:
53,78,4851,2,0,L|121:51,1,62.9999980773926,0|2,0:0|0:0,0:0:0:0:
248,166,5494,2,0,L|187:190,1,62.9999980773926,2|0,0:0|0:0,0:0:0:0:
405,360,7637,69,2,0:0:0:0:
472,103,8280,2,0,L|453:26,1,62.9999980773926,0|2,0:0|0:0,0:0:0:0:
348,180,8922,2,0,L|367:253,1,62.9999980773926,2|0,0:0|0:0,0:0:0:0:
127,49,10422,2,0,P|89:45|52:50,2,62.9999980773926,0|2|0,0:0|0:0|0:0,0:0:0:0:
212,72,11065,5,2,0:0:0:0:
51,282,11708,2,0,L|81:353,1,62.9999980773926,0|2,0:0|0:0,0:0:0:0:
206,221,12351,2,0,L|171:144,1,62.9999980773926,2|0,0:0|0:0,0:0:0:0:
464,69,14494,22,0,P|395:89|326:71,1,125.999996154785,6|8,0:0|0:0,0:0:0:0:
268,31,15137,1,0,0:0:0:0:
207,94,15351,2,0,P|179:95|134:82,1,62.9999980773926,2|8,0:0|0:0,0:0:0:0:
86,20,15780,1,0,0:0:0:0:
38,94,15994,1,0,0:0:0:0:
95,160,16208,6,0,P|84:226|41:295,1,125.999996154785,2|8,0:0|0:0,0:0:0:0:
4,349,16851,1,0,0:0:0:0:
56,277,17065,2,0,L|127:296,1,62.9999980773926,2|8,0:0|0:0,0:0:0:0:
194,335,17494,2,0,L|263:316,1,62.9999980773926
337,347,17922,6,0,P|293:300|293:223,1,125.999996154785,2|8,0:0|0:0,0:0:0:0:
352,181,18565,1,0,0:0:0:0:
272,141,18780,2,0,P|258:106|258:68,1,62.9999980773926,2|8,0:0|0:0,0:0:0:0:
325,26,19208,1,0,0:0:0:0:
389,86,19422,1,0,0:0:0:0:
446,18,19637,6,0,P|477:80|453:152,1,125.999996154785,2|8,0:0|0:0,0:0:0:0:
411,202,20280,1,0,0:0:0:0:
468,269,20494,2,0,L|438:334,1,62.9999980773926,2|8,0:0|0:0,0:0:0:0:
353,326,20922,2,0,L|322:261,1,62.9999980773926
245,231,21351,6,0,P|174:227|102:265,1,125.999996154785,2|8,0:0|0:0,0:0:0:0:
75,320,21994,1,0,0:0:0:0:
26,246,22208,2,0,L|46:163,1,62.9999980773926,2|8,0:0|0:0,0:0:0:0:
85,108,22637,1,0,0:0:0:0:
166,142,22851,1,0,0:0:0:0:
215,68,23065,22,0,P|276:89|357:78,1,125.999996154785,2|8,0:0|0:0,0:0:0:0:
424,97,23708,1,0,0:0:0:0:
370,166,23922,2,0,P|329:177|294:176,1,62.9999980773926,2|8,0:0|0:0,0:0:0:0:
269,257,24351,2,0,P|243:233|223:194,1,62.9999980773926
193,128,24780,6,0,P|179:186|111:238,1,125.999996154785,2|8,0:0|0:0,0:0:0:0:
50,195,25422,1,0,0:0:0:0:
131,230,25637,2,0,P|142:265|142:304,1,62.9999980773926,2|8,0:0|0:0,0:0:0:0:
78,351,26065,1,0,0:0:0:0:
143,291,26280,1,0,0:0:0:0:
220,346,26494,6,0,P|283:361|347:349,1,125.999996154785,2|8,0:0|0:0,0:0:0:0:
390,275,27137,1,0,0:0:0:0:
328,212,27351,2,0,L|358:132,1,62.9999980773926,2|8,0:0|0:0,0:0:0:0:
398,79,27780,2,0,L|438:138,1,62.9999980773926
502,185,28208,5,6,0:0:0:0:
328,212,28637,2,0,P|265:189|238:122,1,125.999996154785,8|2,0:0|0:0,0:0:0:0:
230,51,29280,1,8,0:0:0:0:
143,67,29494,2,0,L|122:150,1,62.9999980773926
39,135,29922,6,0,P|91:169|123:228,1,125.999996154785,2|8,0:0|0:0,0:0:0:0:
95,313,30565,1,0,0:0:0:0:
95,313,30672,1,8,0:0:0:0:
95,313,30780,2,0,P|130:316|160:309,1,62.9999980773926,2|8,0:0|0:0,0:0:0:0:
245,319,31208,2,0,P|244:289|232:257,1,62.9999980773926
265,178,31637,22,0,P|329:170|405:202,1,125.999996154785,2|8,0:0|0:0,0:0:0:0:
446,255,32280,1,0,0:0:0:0:
387,189,32494,2,0,P|394:153|417:119,1,62.9999980773926,2|8,0:0|0:0,0:0:0:0:
343,69,32922,2,0,P|315:93|275:104,1,62.9999980773926
221,48,33351,22,0,L|245:196,1,125.999996154785,2|8,0:0|0:0,0:0:0:0:
308,244,33994,1,0,0:0:0:0:
308,244,34101,1,8,0:0:0:0:
308,244,34208,2,0,L|295:323,2,62.9999980773926,2|8|0,0:0|0:0|0:0,0:0:0:0:
143,175,35065,6,0,L|117:324,1,125.999996154785,2|8,0:0|0:0,0:0:0:0:
52,355,35708,1,0,0:0:0:0:
35,269,35922,2,0,L|24:189,1,62.9999980773926,2|8,0:0|0:0,0:0:0:0:
67,128,36351,1,0,0:0:0:0:
143,175,36565,1,0,0:0:0:0:
218,128,36780,6,0,P|281:127|338:163,1,125.999996154785,2|8,0:0|0:0,0:0:0:0:
424,196,37422,1,0,0:0:0:0:
424,196,37530,1,0,0:0:0:0:
424,196,37637,2,0,L|476:153,1,62.9999980773926,2|8,0:0|0:0,0:0:0:0:
402,102,38065,2,0,L|407:30,1,62.9999980773926
319,55,38494,22,0,L|239:26,1,62.9999980773926,2|0,0:0|0:0,0:0:0:0:
171,30,38922,1,8,0:0:0:0:
139,112,39137,1,0,0:0:0:0:
194,181,39351,2,0,L|261:205,1,62.9999980773926,2|8,0:0|0:0,0:0:0:0:
337,231,39780,1,0,0:0:0:0:
313,315,39994,1,0,0:0:0:0:
227,294,40208,6,0,P|151:287|83:323,1,125.999996154785,2|8,0:0|0:0,0:0:0:0:
35,355,40851,1,0,0:0:0:0:
35,355,40958,1,8,0:0:0:0:
35,355,41065,2,0,L|21:283,1,62.9999980773926,2|8,0:0|0:0,0:0:0:0:
67,219,41494,2,0,L|62:176,1,31.4999990386963,2|8,0:0|0:0,0:0:0:0:
35,153,41708,2,0,L|33:115,1,31.4999990386963,8|8,0:0|0:0,0:0:0:0:
54,83,41922,22,0,P|111:66|185:85,1,125.999996154785,2|8,0:0|0:0,0:0:0:0:
232,148,42565,1,0,0:0:0:0:
314,116,42780,2,0,L|405:111,1,62.9999980773926,2|8,0:0|0:0,0:0:0:0:
409,30,43208,2,0,L|496:45,1,62.9999980773926
503,122,43637,6,0,P|480:187|411:229,1,125.999996154785,2|8,0:0|0:0,0:0:0:0:
351,197,44280,1,0,0:0:0:0:
275,241,44494,2,0,L|262:326,1,62.9999980773926,2|8,0:0|0:0,0:0:0:0:
189,346,44922,1,0,0:0:0:0:
189,257,45137,1,0,0:0:0:0:
265,303,45351,22,0,P|334:305|393:269,1,125.999996154785,2|8,0:0|0:0,0:0:0:0:
350,205,45994,1,0,0:0:0:0:
350,205,46101,1,8,0:0:0:0:
350,205,46208,2,0,P|319:190|299:167,1,62.9999980773926,2|8,0:0|0:0,0:0:0:0:
289,81,46637,1,0,0:0:0:0:
199,85,46851,1,0,0:0:0:0:
214,171,47065,6,0,L|191:309,1,125.999996154785,2|8,0:0|0:0,0:0:0:0:
138,364,47708,1,0,0:0:0:0:
83,297,47922,2,0,L|12:304,2,62.9999980773926,2|8|0,0:0|0:0|0:0,0:0:0:0:
211,171,48780,22,0,L|352:154,1,125.999996154785,2|8,0:0|0:0,0:0:0:0:
379,82,49422,1,0,0:0:0:0:
379,82,49530,1,8,0:0:0:0:
379,82,49637,2,0,P|403:101|419:128,1,62.9999980773926,2|8,0:0|0:0,0:0:0:0:
336,155,50065,2,0,P|319:178|310:229,1,62.9999980773926
397,220,50494,6,0,P|432:276|427:358,1,125.999996154785,2|8,0:0|0:0,0:0:0:0:
353,371,51137,1,0,0:0:0:0:
296,303,51351,2,0,L|220:309,1,62.9999980773926,2|8,0:0|0:0,0:0:0:0:
218,220,51780,2,0,L|144:253,1,62.9999980773926
113,320,52208,22,0,P|79:330|43:329,1,62.9999980773926,2|0,0:0|0:0,0:0:0:0:
7,253,52637,1,8,0:0:0:0:
73,194,52851,1,0,0:0:0:0:
73,194,52958,1,8,0:0:0:0:
73,194,53065,2,0,P|53:162|49:116,1,62.9999980773926,2|8,0:0|0:0,0:0:0:0:
92,60,53494,1,0,0:0:0:0:
141,132,53708,1,0,0:0:0:0:
212,77,53922,6,0,P|272:69|337:97,1,125.999996154785,2|8,0:0|0:0,0:0:0:0:
367,173,54565,1,0,0:0:0:0:
313,243,54780,1,2,0:0:0:0:
382,312,54994,1,2,0:0:0:0:
382,312,55101,1,8,0:0:0:0:
382,312,55208,2,0,L|423:317,3,31.4999990386963,2|8|8|8,0:0|0:0|0:0|0:0,0:0:0:0:
446,290,55637,22,0,L|451:215,1,70,6|8,0:0|0:0,0:0:0:0:
436,173,56280,1,0,0:0:0:0:
388,161,56494,2,0,L|321:175,2,52.5,0|0|2,0:0|0:0|0:0,0:0:0:0:
393,76,57351,2,0,L|314:60,1,70,2|8,0:0|0:0,0:0:0:0:
277,46,57994,1,0,0:0:0:0:
230,62,58208,2,0,L|176:72,2,52.5,8|0|2,0:0|0:0|0:0,0:0:0:0:
284,127,59065,6,0,P|287:167|280:205,1,70,2|8,0:0|0:0,0:0:0:0:
239,220,59708,1,0,0:0:0:0:
215,262,59922,2,0,P|215:296|223:318,2,52.5,8|0|2,0:0|0:0|0:0,0:0:0:0:
128,254,60780,2,0,L|50:267,1,70,10|8,0:0|0:0,0:0:0:0:
34,360,61637,2,0,L|113:349,1,70,8|8,0:0|0:0,0:0:0:0:
128,254,62494,70,0,P|120:214|127:181,1,70,10|8,0:0|0:0,0:0:0:0:
158,149,63137,1,0,0:0:0:0:
206,140,63351,2,0,P|237:146|263:163,2,52.5,8|0|2,0:0|0:0|0:0,0:0:0:0:
212,50,64208,2,0,P|258:55|288:47,1,70,2|8,0:0|0:0,0:0:0:0:
327,34,64851,1,0,0:0:0:0:
325,82,65065,2,0,P|324:117|336:148,2,52.5,8|0|0,0:0|0:0|0:0,0:0:0:0:
411,99,65922,6,0,L|437:173,1,70,8|8,0:0|0:0,0:0:0:0:
401,201,66565,1,0,0:0:0:0:
372,240,66780,2,0,L|365:316,1,70,8|8,0:0|0:0,0:0:0:0:
279,357,67637,2,0,L|206:344,1,70,8|8,0:0|0:0,0:0:0:0:
176,309,68280,1,0,0:0:0:0:
143,272,68494,2,0,L|61:288,1,70,8|8,0:0|0:0,0:0:0:0:
421,84,71065,22,0,P|376:82|323:94,1,77.0000023498536,6|0,0:0|0:0,0:0:0:0:
302,186,71494,1,8,0:0:0:0:
226,109,71708,1,0,0:0:0:0:
161,192,71922,2,0,P|117:200|74:198,1,77.0000023498536,2|8,0:0|0:0,0:0:0:0:
8,123,72351,1,0,0:0:0:0:
112,97,72565,1,0,0:0:0:0:
161,192,72780,6,0,L|144:280,1,77.0000023498536,2|0,0:0|0:0,0:0:0:0:
252,246,73208,2,0,L|268:332,1,77.0000023498536,8|0,0:0|0:0,0:0:0:0:
358,264,73637,2,0,L|428:344,1,77.0000023498536,2|8,0:0|0:0,0:0:0:0:
506,275,74065,1,0,0:0:0:0:
506,275,74172,1,8,0:0:0:0:
506,275,74280,1,2,0:0:0:0:
430,198,74494,6,0,P|425:160|440:112,1,77.0000023498536,2|0,0:0|0:0,0:0:0:0:
502,39,74922,1,8,0:0:0:0:
434,122,75137,1,0,0:0:0:0:
334,121,75351,2,0,P|291:103|257:59,1,77.0000023498536,2|8,0:0|0:0,0:0:0:0:
356,16,75780,1,0,0:0:0:0:
334,121,75994,1,0,0:0:0:0:
252,191,76208,54,0,L|298:263,1,77.0000023498536,2|0,0:0|0:0,0:0:0:0:
185,266,76637,2,0,L|190:353,1,77.0000023498536,8|0,0:0|0:0,0:0:0:0:
90,299,77065,2,0,L|23:373,1,77.0000023498536,2|8,0:0|0:0,0:0:0:0:
6,256,77494,1,8,0:0:0:0:
14,235,77601,1,8,0:0:0:0:
30,220,77708,1,8,0:0:0:0:
48,208,77815,1,8,0:0:0:0:
69,205,77922,6,0,P|85:163|83:105,1,77.0000023498536,6|0,0:0|0:0,0:0:0:0:
35,36,78351,1,8,0:0:0:0:
87,131,78565,1,0,0:0:0:0:
176,66,78780,2,0,P|223:61|271:73,1,77.0000023498536,2|8,0:0|0:0,0:0:0:0:
326,151,79208,1,0,0:0:0:0:
388,62,79422,1,0,0:0:0:0:
326,151,79637,6,0,B|320:234,1,77.0000023498536,2|0,0:0|0:0,0:0:0:0:
410,286,80065,2,0,L|415:197,1,77.0000023498536,8|0,0:0|0:0,0:0:0:0:
326,151,80494,2,0,P|282:141|244:144,1,77.0000023498536,2|8,0:0|0:0,0:0:0:0:
144,162,80922,1,0,0:0:0:0:
125,268,81137,1,0,0:0:0:0:
206,338,81351,54,0,P|225:301|232:252,1,77.0000023498536,2|0,0:0|0:0,0:0:0:0:
125,268,81780,1,8,0:0:0:0:
47,343,81994,2,0,P|18:268|61:179,1,154.000004699707,0|8,0:0|0:0,0:0:0:0:
142,161,82637,1,0,0:0:0:0:
125,268,82851,1,0,0:0:0:0:
142,161,83065,6,0,L|115:59,1,77.0000023498536,2|0,0:0|0:0,0:0:0:0:
228,104,83494,2,0,L|256:4,1,77.0000023498536,8|0,0:0|0:0,0:0:0:0:
340,86,83922,2,0,L|392:80,3,38.5000011749268,2|8|8|8,0:0|0:0|0:0|0:0,0:0:0:0:
419,46,84351,2,0,L|463:60,3,38.5000011749268,8|8|8|8,0:0|0:0|0:0|0:0,0:0:0:0:
503,83,84780,6,0,P|488:129|449:169,1,77.0000023498536,6|0,0:0|0:0,0:0:0:0:
367,181,85208,1,8,0:0:0:0:
442,257,85422,1,0,0:0:0:0:
341,293,85637,2,0,P|313:327|300:368,1,77.0000023498536,2|8,0:0|0:0,0:0:0:0:
407,375,86065,1,0,0:0:0:0:
341,293,86280,1,0,0:0:0:0:
233,298,86494,54,0,L|137:307,1,77.0000023498536,2|0,0:0|0:0,0:0:0:0:
88,217,86922,2,0,L|188:208,1,77.0000023498536,8|0,0:0|0:0,0:0:0:0:
206,110,87351,2,0,L|111:119,1,77.0000023498536,2|8,0:0|0:0,0:0:0:0:
22,127,87780,1,0,0:0:0:0:
89,211,87994,1,0,0:0:0:0:
22,127,88208,6,0,P|29:80|51:40,1,77.0000023498536,2|0,0:0|0:0,0:0:0:0:
143,25,88637,1,8,0:0:0:0:
206,110,88851,1,0,0:0:0:0:
295,50,89065,2,0,P|339:45|392:59,1,77.0000023498536,2|8,0:0|0:0,0:0:0:0:
441,135,89494,1,0,0:0:0:0:
334,148,89708,1,0,0:0:0:0:
441,135,89922,6,0,L|476:229,1,77.0000023498536,2|0,0:0|0:0,0:0:0:0:
406,296,90351,2,0,L|374:207,1,77.0000023498536,8|0,0:0|0:0,0:0:0:0:
274,201,90780,2,0,L|311:301,1,77.0000023498536,2|8,0:0|0:0,0:0:0:0:
235,358,91208,1,8,0:0:0:0:
214,351,91315,1,8,0:0:0:0:
195,339,91422,1,8,0:0:0:0:
182,321,91530,1,8,0:0:0:0:
172,307,91637,54,0,P|134:296|84:303,1,77.0000023498536,6|0,0:0|0:0,0:0:0:0:
12,365,92065,1,8,0:0:0:0:
97,298,92280,1,0,0:0:0:0:
28,219,92494,2,0,P|34:168|63:124,1,77.0000023498536,2|8,0:0|0:0,0:0:0:0:
141,92,92922,1,0,0:0:0:0:
142,198,93137,1,0,0:0:0:0:
141,92,93351,6,0,L|244:94,1,77.0000023498536,2|0,0:0|0:0,0:0:0:0:
271,187,93780,2,0,L|365:188,1,77.0000023498536,8|0,0:0|0:0,0:0:0:0:
408,98,94208,2,0,L|497:100,1,77.0000023498536,2|8,0:0|0:0,0:0:0:0:
444,200,94637,1,0,0:0:0:0:
408,98,94851,1,0,0:0:0:0:
347,187,95065,6,0,P|316:158|298:107,1,77.0000023498536,2|0,0:0|0:0,0:0:0:0:
343,27,95494,1,8,0:0:0:0:
235,17,95708,1,0,0:0:0:0:
189,114,95922,2,0,L|86:138,1,77.0000023498536,2|8,0:0|0:0,0:0:0:0:
34,204,96351,2,0,L|119:223,1,77.0000023498536
168,311,96780,53,2,0:0:0:0:
60,307,96994,1,0,0:0:0:0:
34,204,97208,1,8,0:0:0:0:
114,131,97422,1,0,0:0:0:0:
218,159,97637,2,0,L|229:210,3,38.5000011749268,2|8|8|8,0:0|0:0|0:0|0:0,0:0:0:0:
268,230,98065,2,0,L|266:289,3,38.5000011749268,8|4|4|4,0:0|0:0|0:0|0:0,0:0:0:0:
309,292,98494,6,0,P|355:300|399:290,1,70,2|0,0:0|0:0,0:0:0:0:
460,245,98922,1,8,0:0:0:0:
401,165,99137,1,0,0:0:0:0:
440,75,99351,2,0,L|359:72,1,70,8|0,0:0|0:0,0:0:0:0:
284,24,99780,1,8,0:0:0:0:
209,87,99994,6,0,L|48:82,1,140,6|0,0:0|0:0,0:0:0:0:
19,167,100637,2,0,P|33:208|58:239,1,70,8|0,0:0|0:0,0:0:0:0:
146,221,101065,2,0,P|133:183|109:151,1,70,8|0,0:0|0:0,0:0:0:0:
48,229,101494,2,0,P|62:270|87:301,1,70,8|0,0:0|0:0,0:0:0:0:
163,337,101922,6,0,L|254:318,1,70,2|0,0:0|0:0,0:0:0:0:
325,294,102351,1,8,0:0:0:0:
254,226,102565,1,0,0:0:0:0:
336,172,102780,2,0,L|413:191,1,70,8|0,0:0|0:0,0:0:0:0:
476,123,103208,1,8,0:0:0:0:
415,45,103422,5,6,0:0:0:0:
256,192,103637,12,6,105351,0:0:0:0:
474,296,105780,22,0,P|425:333|333:335,1,125.999996154785,8|0,0:0|0:0,0:0:0:0:
300,278,106422,1,0,0:0:0:0:
338,198,106637,2,0,P|370:183|420:179,1,62.9999980773926,8|2,0:0|0:0,0:0:0:0:
449,107,107065,22,0,P|389:68|330:62,1,125.999996154785,2|8,0:0|0:0,0:0:0:0:
255,98,107708,1,0,0:0:0:0:
167,84,107922,2,0,L|95:31,1,62.9999980773926,8|0,0:0|0:0,0:0:0:0:
43,96,108351,2,0,L|100:139,1,62.9999980773926,8|0,0:0|0:0,0:0:0:0:
142,209,108780,6,0,P|116:270|55:301,1,125.999996154785,2|8,0:0|0:0,0:0:0:0:
53,211,109422,1,0,0:0:0:0:
142,209,109637,2,0,L|211:238,1,62.9999980773926,8|0,0:0|0:0,0:0:0:0:
280,269,110065,2,0,L|359:236,1,62.9999980773926,8|2,0:0|0:0,0:0:0:0:
423,222,110494,6,0,B|431:157|431:157|397:73,1,125.999996154785,8|8,0:0|0:0,0:0:0:0:
334,52,111137,1,0,0:0:0:0:
334,52,111351,2,0,B|319:82|319:82|320:133,1,62.9999980773926,8|0,0:0|0:0,0:0:0:0:
408,100,111780,1,8,0:0:0:0:
249,181,112208,22,0,L|104:156,1,125.999996154785,2|8,0:0|0:0,0:0:0:0:
63,96,112851,1,0,0:0:0:0:
125,160,113065,2,0,L|101:242,1,62.9999980773926,8|0,0:0|0:0,0:0:0:0:
37,274,113494,2,0,L|66:358,1,62.9999980773926,8|2,0:0|0:0,0:0:0:0:
141,305,113922,6,0,P|203:298|289:324,1,125.999996154785,2|8,0:0|0:0,0:0:0:0:
340,356,114565,1,0,0:0:0:0:
393,285,114780,2,0,P|378:250|358:226,1,62.9999980773926,8|0,0:0|0:0,0:0:0:0:
418,162,115208,2,0,P|448:181|496:187,1,62.9999980773926,8|0,0:0|0:0,0:0:0:0:
482,99,115637,21,2,0:0:0:0:
397,75,115851,1,0,0:0:0:0:
313,103,116065,2,0,L|301:176,1,62.9999980773926,8|0,0:0|0:0,0:0:0:0:
217,188,116494,1,8,0:0:0:0:
177,266,116708,2,0,L|191:341,1,62.9999980773926,0|8,0:0|0:0,0:0:0:0:
269,364,117137,1,2,0:0:0:0:
188,327,117351,6,0,P|124:321|38:343,1,125.999996154785,2|8,0:0|0:0,0:0:0:0:
52,156,118208,2,0,P|82:149|120:152,1,62.9999980773926,8|0,0:0|0:0,0:0:0:0:
190,195,118637,1,8,0:0:0:0:
295,53,119065,22,0,L|323:179,1,125.999996154785,6|8,0:0|0:0,0:0:0:0:
402,212,119708,1,0,0:0:0:0:
331,265,119922,2,0,P|298:260|259:237,1,62.9999980773926,2|8,0:0|0:0,0:0:0:0:
187,218,120351,2,0,P|150:228|113:258,1,62.9999980773926
78,313,120780,6,0,L|60:170,1,125.999996154785,2|8,0:0|0:0,0:0:0:0:
99,108,121422,1,0,0:0:0:0:
185,90,121637,2,0,L|199:14,2,62.9999980773926,2|8|0,0:0|0:0|0:0,0:0:0:0:
216,172,122280,1,0,0:0:0:0:
291,126,122494,6,0,P|334:125|373:136,1,62.9999980773926,2|0,0:0|0:0,0:0:0:0:
320,210,122922,1,8,0:0:0:0:
299,135,123137,1,0,0:0:0:0:
299,135,123244,1,8,0:0:0:0:
299,135,123351,2,0,L|302:73,1,62.9999980773926,2|8,0:0|0:0,0:0:0:0:
370,14,123780,2,0,L|434:43,1,62.9999980773926
462,124,124208,22,0,P|455:187|466:266,1,125.999996154785,2|8,0:0|0:0,0:0:0:0:
465,337,124851,1,0,0:0:0:0:
380,304,125065,2,0,L|301:315,2,62.9999980773926,2|8|0,0:0|0:0|0:0,0:0:0:0:
270,165,125922,22,0,L|128:182,1,125.999996154785,2|8,0:0|0:0,0:0:0:0:
73,230,126565,1,0,0:0:0:0:
73,230,126672,1,8,0:0:0:0:
73,230,126780,2,0,L|137:275,1,62.9999980773926,2|8,0:0|0:0,0:0:0:0:
144,179,127208,2,0,L|202:137,1,62.9999980773926
256,205,127637,5,2,0:0:0:0:
321,146,127851,2,0,L|327:55,1,62.9999980773926,0|8,0:0|0:0,0:0:0:0:
389,21,128280,1,0,0:0:0:0:
325,83,128494,2,0,L|238:67,2,62.9999980773926,2|8|0,0:0|0:0|0:0,0:0:0:0:
410,105,129137,1,0,0:0:0:0:
443,186,129351,6,0,P|437:222|422:247,1,62.9999980773926,2|0,0:0|0:0,0:0:0:0:
335,246,129780,1,8,0:0:0:0:
268,200,129994,1,0,0:0:0:0:
268,200,130101,1,8,0:0:0:0:
268,200,130208,2,0,L|189:220,1,62.9999980773926,2|8,0:0|0:0,0:0:0:0:
118,213,130637,2,0,L|43:188,1,62.9999980773926
18,113,131065,6,0,P|55:87|137:72,1,125.999996154785,2|8,0:0|0:0,0:0:0:0:
221,94,131708,1,0,0:0:0:0:
281,32,131922,1,2,0:0:0:0:
371,69,132137,1,2,0:0:0:0:
371,69,132244,1,8,0:0:0:0:
371,69,132351,2,0,L|410:65,3,31.4999990386963,8|8|8|8,0:0|0:0|0:0|0:0,0:0:0:0:
426,69,132780,6,0,P|432:115|426:152,1,70,6|8,0:0|0:0,0:0:0:0:
411,183,133422,1,0,0:0:0:0:
425,229,133637,2,0,L|488:233,2,52.5,0|0|2,0:0|0:0|0:0,0:0:0:0:
355,276,134494,70,0,L|281:273,1,70,2|8,0:0|0:0,0:0:0:0:
241,249,135137,1,0,0:0:0:0:
199,275,135351,2,0,P|194:302|196:331,2,52.5,8|0|0,0:0|0:0|0:0,0:0:0:0:
168,193,136208,6,0,P|133:190|91:199,1,70,2|8,0:0|0:0,0:0:0:0:
57,222,136851,1,0,0:0:0:0:
19,190,137065,2,0,L|9:112,1,70,8|8,0:0|0:0,0:0:0:0:
30,75,137708,1,2,0:0:0:0:
119,40,137922,70,0,P|179:39|200:27,1,70,8|8,0:0|0:0,0:0:0:0:
272,32,138780,2,0,P|303:50|344:49,1,70,8|8,0:0|0:0,0:0:0:0:
431,28,139637,6,0,L|424:111,1,70,2|8,0:0|0:0,0:0:0:0:
398,139,140280,1,0,0:0:0:0:
366,176,140494,2,0,L|374:229,2,52.5,8|0|2,0:0|0:0|0:0,0:0:0:0:
296,121,141351,70,0,P|255:127|220:141,1,70,2|8,0:0|0:0,0:0:0:0:
198,175,141994,1,0,0:0:0:0:
153,196,142208,2,0,P|124:190|100:178,2,52.5,8|0|0,0:0|0:0|0:0,0:0:0:0:
218,255,143065,6,0,L|224:330,1,70,8|8,0:0|0:0,0:0:0:0:
272,330,143708,1,0,0:0:0:0:
317,312,143922,2,0,L|313:237,1,70,8|8,0:0|0:0,0:0:0:0:
352,151,144780,70,0,L|354:82,1,70,8|8,0:0|0:0,0:0:0:0:
400,66,145422,1,0,0:0:0:0:
445,84,145637,2,0,L|443:161,1,70,8|8,0:0|0:0,0:0:0:0:
454,53,148208,38,0,L|435:149,1,77.0000023498536,6|0,0:0|0:0,0:0:0:0:
339,170,148637,1,8,0:0:0:0:
425,234,148851,1,0,0:0:0:0:
327,280,149065,2,0,L|344:369,1,77.0000023498536,2|8,0:0|0:0,0:0:0:0:
448,339,149494,1,0,0:0:0:0:
425,234,149708,1,0,0:0:0:0:
327,280,149922,6,0,P|300:288|246:284,1,77.0000023498536,2|0,0:0|0:0,0:0:0:0:
164,350,150351,2,0,P|146:310|144:276,1,77.0000023498536,8|0,0:0|0:0,0:0:0:0:
48,226,150780,2,0,P|93:183|139:166,1,77.0000023498536,2|8,0:0|0:0,0:0:0:0:
212,185,151208,1,0,0:0:0:0:
212,185,151315,1,8,0:0:0:0:
212,185,151422,1,2,0:0:0:0:
287,107,151637,6,0,L|276:17,1,77.0000023498536,2|0,0:0|0:0,0:0:0:0:
382,58,152065,1,8,0:0:0:0:
287,107,152280,1,0,0:0:0:0:
379,161,152494,2,0,L|455:141,1,77.0000023498536,2|8,0:0|0:0,0:0:0:0:
442,248,152922,1,0,0:0:0:0:
333,248,153137,1,0,0:0:0:0:
442,248,153351,54,0,P|435:290|419:328,1,77.0000023498536,2|0,0:0|0:0,0:0:0:0:
313,321,153780,2,0,P|320:279|336:241,1,77.0000023498536,8|0,0:0|0:0,0:0:0:0:
263,164,154208,2,0,L|153:156,1,77.0000023498536,2|8,0:0|0:0,0:0:0:0:
104,88,154637,1,8,0:0:0:0:
87,104,154744,1,8,0:0:0:0:
78,125,154851,1,8,0:0:0:0:
76,147,154958,1,8,0:0:0:0:
77,170,155065,6,0,P|80:218|68:255,1,77.0000023498536,6|0,0:0|0:0,0:0:0:0:
16,337,155494,1,8,0:0:0:0:
114,379,155708,1,0,0:0:0:0:
170,290,155922,2,0,P|207:281|245:285,1,77.0000023498536,2|8,0:0|0:0,0:0:0:0:
355,284,156351,1,0,0:0:0:0:
302,378,156565,1,0,0:0:0:0:
355,284,156780,6,0,L|327:202,1,77.0000023498536,2|0,0:0|0:0,0:0:0:0:
437,210,157208,2,0,L|465:132,1,77.0000023498536,8|0,0:0|0:0,0:0:0:0:
358,108,157637,2,0,L|331:28,1,77.0000023498536,2|8,0:0|0:0,0:0:0:0:
249,102,158065,1,0,0:0:0:0:
358,108,158280,1,0,0:0:0:0:
297,197,158494,54,0,P|258:205|202:201,1,77.0000023498536,2|0,0:0|0:0,0:0:0:0:
146,128,158922,1,8,0:0:0:0:
117,231,159137,2,0,P|160:291|239:314,1,154.000004699707,0|8,0:0|0:0,0:0:0:0:
338,287,159780,1,0,0:0:0:0:
420,356,159994,1,0,0:0:0:0:
491,275,160208,6,0,L|486:191,1,77.0000023498536,2|0,0:0|0:0,0:0:0:0:
422,111,160637,2,0,L|341:74,1,77.0000023498536,8|0,0:0|0:0,0:0:0:0:
244,74,161065,2,0,L|201:98,3,38.5000011749268,2|8|8|8,0:0|0:0|0:0|0:0,0:0:0:0:
156,102,161494,2,0,L|116:92,3,38.5000011749268,8|8|8|8,0:0|0:0|0:0|0:0,0:0:0:0:
80,130,161922,6,0,P|69:159|67:217,1,77.0000023498536,6|0,0:0|0:0,0:0:0:0:
165,247,162351,1,8,0:0:0:0:
84,318,162565,1,0,0:0:0:0:
187,350,162780,2,0,P|218:339|253:308,1,77.0000023498536,2|8,0:0|0:0,0:0:0:0:
303,216,163208,1,0,0:0:0:0:
364,302,163422,1,0,0:0:0:0:
303,216,163637,54,0,L|335:137,1,77.0000023498536,2|0,0:0|0:0,0:0:0:0:
396,58,164065,2,0,L|437:136,1,77.0000023498536,8|0,0:0|0:0,0:0:0:0:
482,221,164494,2,0,L|384:226,1,77.0000023498536,2|8,0:0|0:0,0:0:0:0:
303,216,164922,1,0,0:0:0:0:
248,122,165137,1,0,0:0:0:0:
156,178,165351,6,0,P|139:219|98:254,1,77.0000023498536,2|0,0:0|0:0,0:0:0:0:
56,152,165780,1,8,0:0:0:0:
133,76,165994,1,0,0:0:0:0:
156,178,166208,2,0,P|178:207|223:232,1,77.0000023498536,2|8,0:0|0:0,0:0:0:0:
316,200,166637,1,0,0:0:0:0:
344,96,166851,1,0,0:0:0:0:
316,200,167065,6,0,L|336:281,1,77.0000023498536,2|0,0:0|0:0,0:0:0:0:
423,214,167494,2,0,L|441:139,1,77.0000023498536,8|0,0:0|0:0,0:0:0:0:
344,96,167922,2,0,P|310:96|264:107,1,77.0000023498536,2|8,0:0|0:0,0:0:0:0:
178,163,168351,1,8,0:0:0:0:
156,155,168458,1,8,0:0:0:0:
134,147,168565,1,8,0:0:0:0:
112,138,168672,1,8,0:0:0:0:
89,132,168780,54,0,L|47:203,1,77.0000023498536,6|0,0:0|0:0,0:0:0:0:
111,286,169208,1,8,0:0:0:0:
30,357,169422,1,0,0:0:0:0:
111,286,169637,2,0,L|187:280,1,77.0000023498536,2|8,0:0|0:0,0:0:0:0:
289,243,170065,1,0,0:0:0:0:
329,343,170280,1,0,0:0:0:0:
396,259,170494,6,0,P|392:212|381:177,1,77.0000023498536,2|0,0:0|0:0,0:0:0:0:
289,243,170922,2,0,P|252:225|212:184,1,77.0000023498536,8|0,0:0|0:0,0:0:0:0:
263,100,171351,2,0,P|245:63|218:35,1,77.0000023498536,2|8,0:0|0:0,0:0:0:0:
113,23,171780,1,0,0:0:0:0:
158,120,171994,1,0,0:0:0:0:
263,100,172208,6,0,L|342:40,1,77.0000023498536,2|0,0:0|0:0,0:0:0:0:
430,33,172637,1,8,0:0:0:0:
451,138,172851,2,0,L|381:289,1,154.000004699707,0|8,0:0|0:0,0:0:0:0:
278,270,173494,1,0,0:0:0:0:
325,366,173708,1,0,0:0:0:0:
386,277,173922,54,0,L|362:194,1,77.0000023498536,2|0,0:0|0:0,0:0:0:0:
278,270,174351,2,0,L|214:204,1,77.0000023498536,8|0,0:0|0:0,0:0:0:0:
180,313,174780,2,0,L|141:310,3,38.5000011749268,2|8|8|8,0:0|0:0|0:0|0:0,0:0:0:0:
86,309,175208,2,0,L|37:315,3,38.5000011749268,8|4|4|4,0:0|0:0|0:0|0:0,0:0:0:0:
11,273,175637,6,0,P|10:200|40:126,1,154.000004699707,6|0,0:0|0:0,0:0:0:0:
139,83,176280,1,2,0:0:0:0:
201,170,176494,2,0,P|165:186|117:188,1,77.0000023498536,8|0,0:0|0:0,0:0:0:0:
139,83,176922,1,8,0:0:0:0:
242,50,177137,54,0,P|306:71|406:61,1,154.000004699707,6|2,0:0|0:0,0:0:0:0:
499,72,177780,2,0,L|470:159,1,77.0000023498536,2|0,0:0|0:0,0:0:0:0:
371,175,178208,2,0,L|402:270,1,77.0000023498536,8|0,0:0|0:0,0:0:0:0:
483,310,178637,1,2,0:0:0:0:
387,358,178851,1,8,0:0:0:0:
387,358,178958,1,8,0:0:0:0:
387,358,179065,22,0,P|325:328|287:251,1,154.000004699707,6|2,0:0|0:0,0:0:0:0:
216,172,179708,1,2,0:0:0:0:
126,232,179922,2,0,P|150:263|187:280,1,77.0000023498536,8|0,0:0|0:0,0:0:0:0:
216,172,180351,1,8,0:0:0:0:
122,118,180565,54,0,P|192:125|262:70,1,154.000004699707,6|2,0:0|0:0,0:0:0:0:
163,23,181208,2,0,L|83:21,1,77.0000023498536,2|0,0:0|0:0,0:0:0:0:
17,104,181637,1,8,0:0:0:0:
45,212,181851,1,8,0:0:0:0:
45,212,181958,1,8,0:0:0:0:
45,212,182065,2,0,L|89:213,3,38.5000011749268,8|8|4|4,0:0|0:0|0:0|0:0,0:0:0:0:
135,229,182494,22,0,P|207:215|295:246,1,154.000004699707,6|2,0:0|0:0,0:0:0:0:
263,344,183137,1,2,0:0:0:0:
370,349,183351,2,0,P|404:326|426:293,1,77.0000023498536,8|0,0:0|0:0,0:0:0:0:
443,190,183780,1,8,0:0:0:0:
355,128,183994,54,0,P|273:104|230:49,1,154.000004699707,6|2,0:0|0:0,0:0:0:0:
123,42,184637,2,0,L|147:147,1,77.0000023498536,2|0,0:0|0:0,0:0:0:0:
36,146,185065,2,0,L|89:233,1,77.0000023498536,8|0,0:0|0:0,0:0:0:0:
35,312,185494,1,2,0:0:0:0:
142,308,185708,1,8,0:0:0:0:
142,308,185815,1,8,0:0:0:0:
142,308,185922,22,0,P|170:281|190:240,1,77.0000023498536,6|0,0:0|0:0,0:0:0:0:
252,161,186351,1,2,0:0:0:0:
306,252,186565,1,2,0:0:0:0:
252,161,186780,2,0,P|245:117|249:78,1,77.0000023498536,8|0,0:0|0:0,0:0:0:0:
335,22,187208,1,8,0:0:0:0:
425,80,187422,54,0,P|445:147|439:235,1,154.000004699707,6|8,0:0|0:0,0:0:0:0:
332,238,188065,2,0,L|361:322,1,77.0000023498536,8|8,0:0|0:0,0:0:0:0:
234,299,188494,2,0,L|207:373,1,77.0000023498536,8|8,0:0|0:0,0:0:0:0:
105,278,188922,2,0,L|16:294,1,77.0000023498536,8|8,0:0|0:0,0:0:0:0:
90,164,189351,6,0,P|101:133|104:85,1,70,6|0,0:0|0:0,0:0:0:0:
43,18,189780,1,8,0:0:0:0:
5,108,189994,1,0,0:0:0:0:
90,164,190208,2,0,L|171:162,1,70,8|0,0:0|0:0,0:0:0:0:
228,92,190637,1,8,0:0:0:0:
295,162,190851,6,0,L|437:155,1,140,6|0,0:0|0:0,0:0:0:0:
475,244,191494,2,0,P|461:280|434:309,1,70,8|0,0:0|0:0,0:0:0:0:
349,265,191922,2,0,P|321:292|281:305,1,70,8|0,0:0|0:0,0:0:0:0:
229,227,192351,2,0,P|190:232|152:226,1,70,8|0,0:0|0:0,0:0:0:0:
100,149,192780,6,0,L|113:77,1,70,2|0,0:0|0:0,0:0:0:0:
195,28,193208,1,8,0:0:0:0:
232,118,193422,1,0,0:0:0:0:
321,79,193637,2,0,L|370:27,1,70,8|0,0:0|0:0,0:0:0:0:
466,35,194065,1,8,0:0:0:0:
425,124,194280,6,0,P|415:193|444:266,1,140,2|0,0:0|0:0,0:0:0:0:
488,341,194922,2,0,L|406:354,1,70,8|0,0:0|0:0,0:0:0:0:
344,288,195351,2,0,L|267:281,1,70,8|0,0:0|0:0,0:0:0:0:
203,349,195780,2,0,L|132:358,1,70,8|0,0:0|0:0,0:0:0:0:
51,305,196208,6,0,P|41:273|42:228,1,70,2|0,0:0|0:0,0:0:0:0:
103,161,196637,1,8,0:0:0:0:
139,251,196851,1,0,0:0:0:0:
199,173,197065,2,0,P|194:130|181:96,1,70,8|0,0:0|0:0,0:0:0:0:
97,61,197494,1,8,0:0:0:0:
185,104,197708,22,0,P|260:98|337:65,1,140,2|0,0:0|0:0,0:0:0:0:
404,24,198351,2,0,L|417:113,1,70,8|0,0:0|0:0,0:0:0:0:
343,161,198780,2,0,L|410:192,1,70,8|0,0:0|0:0,0:0:0:0:
420,287,199208,2,0,L|495:244,1,70,8|0,0:0|0:0,0:0:0:0:
406,190,199637,6,0,P|368:205|338:234,1,70,2|0,0:0|0:0,0:0:0:0:
297,308,200065,1,8,0:0:0:0:
231,234,200280,1,0,0:0:0:0:
152,292,200494,2,0,P|117:286|90:267,1,70,8|0,0:0|0:0,0:0:0:0:
56,174,200922,1,8,0:0:0:0:
133,113,201137,5,6,0:0:0:0:
256,192,201351,12,2,203065,0:0:0:0:
71,85,209922,5,2,0:0:0:0:
98,259,210351,1,8,0:0:0:0:
272,232,210780,1,8,0:0:0:0:
244,58,211208,1,8,0:0:0:0:
156,70,211422,1,2,0:0:0:0:
212,138,211637,5,2,0:0:0:0:
383,95,212065,1,8,0:0:0:0:
432,264,212494,1,8,0:0:0:0:
261,307,212922,1,8,0:0:0:0:
244,221,213137,1,0,0:0:0:0:
329,247,213351,70,0,L|353:318,1,62.9999980773926,8|0,0:0|0:0,0:0:0:0:
261,307,213780,2,0,L|205:352,1,62.9999980773926,8|0,0:0|0:0,0:0:0:0:
141,295,214208,2,0,P|98:297|37:244,1,125.999996154785,8|8,0:0|0:0,0:0:0:0:
50,158,214851,1,0,0:0:0:0:
122,207,215065,5,4,0:0:0:0:
122,207,215922,2,0,L|162:189,3,31.4999990386963,8|8|8|8,0:0|0:0|0:0|0:0,0:0:0:0:
195,194,216351,2,0,L|238:211,3,31.4999990386963,4|4|4|4,0:0|0:0|0:0|0:0,0:0:0:0:
273,228,216780,22,0,P|312:216|341:194,1,77.0000023498536,6|0,0:0|0:0,0:0:0:0:
411,114,217208,1,8,0:0:0:0:
305,92,217422,1,0,0:0:0:0:
340,194,217637,2,0,P|357:240|383:270,1,77.0000023498536,2|8,0:0|0:0,0:0:0:0:
459,333,218065,1,0,0:0:0:0:
509,234,218280,1,0,0:0:0:0:
459,333,218494,6,0,L|384:360,1,77.0000023498536,2|0,0:0|0:0,0:0:0:0:
290,308,218922,2,0,L|210:312,1,77.0000023498536,8|0,0:0|0:0,0:0:0:0:
173,211,219351,2,0,L|77:179,1,77.0000023498536,2|8,0:0|0:0,0:0:0:0:
42,104,219780,1,0,0:0:0:0:
42,104,219887,1,8,0:0:0:0:
42,104,219994,1,2,0:0:0:0:
126,34,220208,6,0,P|164:29|219:38,1,77.0000023498536,2|0,0:0|0:0,0:0:0:0:
262,122,220637,1,8,0:0:0:0:
334,42,220851,1,0,0:0:0:0:
404,123,221065,2,0,P|439:129|492:118,1,77.0000023498536,2|8,0:0|0:0,0:0:0:0:
442,224,221494,1,0,0:0:0:0:
340,188,221708,1,0,0:0:0:0:
442,224,221922,54,0,L|424:299,1,77.0000023498536,2|0,0:0|0:0,0:0:0:0:
340,367,222351,2,0,L|320:292,1,77.0000023498536,8|0,0:0|0:0,0:0:0:0:
236,224,222780,2,0,L|214:311,1,77.0000023498536,2|8,0:0|0:0,0:0:0:0:
130,363,223208,1,8,0:0:0:0:
112,348,223315,1,8,0:0:0:0:
96,331,223422,1,8,0:0:0:0:
88,308,223530,1,8,0:0:0:0:
91,285,223637,6,0,P|98:242|92:208,1,77.0000023498536,6|0,0:0|0:0,0:0:0:0:
30,121,224065,1,8,0:0:0:0:
102,41,224280,1,0,0:0:0:0:
196,92,224494,2,0,P|226:96|285:73,1,77.0000023498536,2|8,0:0|0:0,0:0:0:0:
364,31,224922,1,0,0:0:0:0:
453,91,225137,1,0,0:0:0:0:
403,185,225351,6,0,L|403:280,1,77.0000023498536,2|0,0:0|0:0,0:0:0:0:
316,327,225780,2,0,L|238:290,1,77.0000023498536,8|0,0:0|0:0,0:0:0:0:
243,187,226208,2,0,L|307:135,1,77.0000023498536,2|8,0:0|0:0,0:0:0:0:
392,78,226637,1,0,0:0:0:0:
403,185,226851,1,0,0:0:0:0:
302,138,227065,54,0,P|271:108|256:74,1,77.0000023498536,2|0,0:0|0:0,0:0:0:0:
170,12,227494,1,8,0:0:0:0:
104,97,227708,2,0,P|85:167|23:227,1,154.000004699707,0|8,0:0|0:0,0:0:0:0:
63,329,228351,1,0,0:0:0:0:
142,256,228565,1,0,0:0:0:0:
63,329,228780,6,0,L|139:374,1,77.0000023498536,2|0,0:0|0:0,0:0:0:0:
229,328,229208,2,0,L|260:230,1,77.0000023498536,8|0,0:0|0:0,0:0:0:0:
340,192,229637,2,0,L|389:214,3,38.5000011749268,2|8|8|8,0:0|0:0|0:0|0:0,0:0:0:0:
428,202,230065,2,0,L|465:186,3,38.5000011749268,8|8|8|8,0:0|0:0|0:0|0:0,0:0:0:0:
481,135,230494,6,0,P|464:106|426:79,1,77.0000023498536,6|0,0:0|0:0,0:0:0:0:
324,61,230922,1,8,0:0:0:0:
261,149,231137,1,0,0:0:0:0:
170,90,231351,2,0,P|125:92|95:105,1,77.0000023498536,2|8,0:0|0:0,0:0:0:0:
48,201,231780,1,0,0:0:0:0:
155,193,231994,1,0,0:0:0:0:
48,201,232208,54,0,L|85:286,1,77.0000023498536,2|0,0:0|0:0,0:0:0:0:
155,193,232637,2,0,L|185:122,1,77.0000023498536,8|0,0:0|0:0,0:0:0:0:
266,194,233065,2,0,L|303:282,1,77.0000023498536,2|8,0:0|0:0,0:0:0:0:
391,334,233494,1,0,0:0:0:0:
391,334,233601,1,8,0:0:0:0:
391,334,233708,1,2,0:0:0:0:
461,253,233922,6,0,P|429:229|384:217,1,77.0000023498536,2|0,0:0|0:0,0:0:0:0:
295,264,234351,1,8,0:0:0:0:
383,326,234565,1,0,0:0:0:0:
394,218,234780,2,0,P|417:189|464:162,1,77.0000023498536,2|8,0:0|0:0,0:0:0:0:
459,62,235208,1,0,0:0:0:0:
362,109,235422,1,0,0:0:0:0:
459,62,235637,6,0,L|395:13,1,77.0000023498536,2|0,0:0|0:0,0:0:0:0:
293,43,236065,2,0,L|209:51,1,77.0000023498536,8|0,0:0|0:0,0:0:0:0:
207,158,236494,2,0,L|118:210,1,77.0000023498536,2|8,0:0|0:0,0:0:0:0:
153,304,236922,1,8,0:0:0:0:
167,322,237030,1,8,0:0:0:0:
185,335,237137,1,8,0:0:0:0:
207,340,237244,1,8,0:0:0:0:
230,340,237351,54,0,P|267:327|317:327,1,77.0000023498536,6|0,0:0|0:0,0:0:0:0:
402,370,237780,1,8,0:0:0:0:
462,281,237994,1,0,0:0:0:0:
365,234,238208,2,0,P|328:221|278:221,1,77.0000023498536,2|8,0:0|0:0,0:0:0:0:
185,246,238637,1,0,0:0:0:0:
261,317,238851,1,0,0:0:0:0:
185,246,239065,6,0,L|195:159,1,77.0000023498536,2|0,0:0|0:0,0:0:0:0:
96,121,239494,2,0,L|89:201,1,77.0000023498536,8|0,0:0|0:0,0:0:0:0:
193,169,239922,2,0,L|202:91,1,77.0000023498536,2|8,0:0|0:0,0:0:0:0:
275,13,240351,1,0,0:0:0:0:
304,116,240565,1,0,0:0:0:0:
201,92,240780,6,0,P|159:92|112:104,1,77.0000023498536,2|0,0:0|0:0,0:0:0:0:
53,179,241208,1,8,0:0:0:0:
18,76,241422,1,0,0:0:0:0:
53,179,241637,2,0,P|49:217|69:272,1,77.0000023498536,2|8,0:0|0:0,0:0:0:0:
159,292,242065,2,0,P|199:266|226:227,1,77.0000023498536
268,148,242494,53,2,0:0:0:0:
325,239,242708,1,0,0:0:0:0:
217,243,242922,1,8,0:0:0:0:
160,151,243137,1,0,0:0:0:0:
210,56,243351,2,0,L|254:45,3,38.5000011749268,2|8|8|8,0:0|0:0|0:0|0:0,0:0:0:0:
302,45,243780,2,0,L|348:62,3,38.5000011749268,8|8|8|8,0:0|0:0|0:0|0:0,0:0:0:0:
369,102,244208,37,2,0:0:0:0:
163,268,244851,2,0,L|99:270,1,62.9999980773926,0|2,0:0|0:0,0:0:0:0:
291,332,245494,2,0,L|355:332,1,62.9999980773926,2|0,0:0|0:0,0:0:0:0:
156,184,246994,2,0,L|92:184,2,62.9999980773926,0|2|0,0:0|0:0|0:0,0:0:0:0:
227,131,247637,5,2,0:0:0:0:
449,274,248280,2,0,L|450:344,1,62.9999980773926,0|2,0:0|0:0,0:0:0:0:
357,187,248922,2,0,L|357:113,1,62.9999980773926,2|0,0:0|0:0,0:0:0:0:
67,342,251065,69,2,0:0:0:0:
256,160,251708,2,0,L|343:155,1,62.9999980773926,0|2,0:0|0:0,0:0:0:0:
477,234,252351,2,0,L|396:239,1,62.9999980773926,2|0,0:0|0:0,0:0:0:0:
227,73,253851,2,0,L|298:69,2,62.9999980773926,0|2|0,0:0|0:0|0:0,0:0:0:0:
157,18,254494,5,2,0:0:0:0:
46,260,255137,2,0,L|116:270,1,62.9999980773926,0|2,0:0|0:0,0:0:0:0:
274,211,255780,2,0,L|207:203,1,62.9999980773926,2|0,0:0|0:0,0:0:0:0:
460,46,257922,69,2,0:0:0:0:
330,275,258565,2,0,L|352:339,1,62.9999980773926,0|2,0:0|0:0,0:0:0:0:
241,198,259208,2,0,L|219:265,1,62.9999980773926,2|0,0:0|0:0,0:0:0:0:
337,63,260708,2,0,L|362:132,2,62.9999980773926,0|2|0,0:0|0:0|0:0,0:0:0:0:
257,23,261351,5,2,0:0:0:0:
180,277,261994,2,0,L|143:203,1,62.9999980773926,0|2,0:0|0:0,0:0:0:0:
254,361,262637,2,0,L|290:290,1,62.9999980773926,2|0,0:0|0:0,0:0:0:0:
