osu file format v14

[General]
AudioFilename: audio.mp3
AudioLeadIn: 0
PreviewTime: 103570
Countdown: 0
SampleSet: Normal
StackLeniency: 0.7
Mode: 1
LetterboxInBreaks: 0
WidescreenStoryboard: 1

[Editor]
Bookmarks: 115,18938,37762,75409,94232,113056,131879,141291,150703,160115,169526,188350,207173,216585
DistanceSpacing: 1
BeatDivisor: 2
GridSize: 16
TimelineZoom: 1.400001

[Metadata]
Title:Border of extacy (Karaoke Ver)
TitleUnicode:Border of extacy (カラオケVer)
Artist:IOSYS
ArtistUnicode:IOSYS
Creator:-Kazu-
Version:Kantan
Source:東方妖々夢 ~ Perfect Cherry Blossom.
Tags:東方Project Touhou ZUN Team Shanghai Alice PCB TH07 TH 07 Youyoumu Ghostly Dream ネクロファンタジア Necrofantasia 八雲 紫 Yukari Yakumo 幽雅に咲かせ、墨染の桜 ~ Border of Life 西行寺 幽々子 Yuyuko Saigyouji Bloom Nobly, of Sumizome ARM+RoughSketch uno DJ Laugh ARM RoughSketch TOHO WORKS 2007-2012 Reitaisai 10 RTS10 RTS 10 IO-0250 東方真華神祭 Makashinsai Splendid Divine Festival RTS5 5 IO-0142 Sapporo Hardcore Channel おさいせんとかのからおけ osaisen toka no Off Vocal Instrumental M3-22 M3 IO-0138
BeatmapID:1564126
BeatmapSetID:732190

[Difficulty]
HPDrainRate:7
CircleSize:5
OverallDifficulty:4
ApproachRate:5
SliderMultiplier:1.4
SliderTickRate:1

[Events]
//Background and Video events
0,0,"BGowo.jpg",0,0
//Break Periods
//Storyboard Layer 0 (Background)
//Storyboard Layer 1 (Fail)
//Storyboard Layer 2 (Pass)
//Storyboard Layer 3 (Foreground)
//Storyboard Sound Samples

[TimingPoints]
115,294.117647058824,4,1,0,85,1,0
115,-111.111111111111,4,1,0,85,0,0
113056,-111.111111111111,4,1,0,85,0,1
129526,-111.111111111111,4,1,0,85,0,0
131879,-111.111111111111,4,1,0,85,0,1
150721,-111.111111111111,4,1,0,50,0,0
160115,-111.111111111111,4,1,0,85,0,0
169526,-111.111111111111,4,1,0,85,0,1
185997,-111.111111111111,4,1,0,85,0,0
207173,-111.111111111111,4,1,0,50,0,0
216585,-111.111111111111,4,1,0,85,0,0

[HitObjects]
256,192,115,5,0,0:0:0:0:
256,192,703,1,8,0:0:0:0:
256,192,1291,1,0,0:0:0:0:
256,192,1585,1,0,0:0:0:0:
256,192,1879,1,0,0:0:0:0:
256,192,2467,1,0,0:0:0:0:
256,192,3056,1,8,0:0:0:0:
256,192,3644,1,0,0:0:0:0:
256,192,4820,1,0,0:0:0:0:
256,192,5409,1,8,0:0:0:0:
256,192,5997,1,0,0:0:0:0:
256,192,6291,1,8,0:0:0:0:
256,192,6585,1,0,0:0:0:0:
256,192,7173,1,0,0:0:0:0:
256,192,7762,1,8,0:0:0:0:
256,192,8350,1,0,0:0:0:0:
256,192,9526,1,0,0:0:0:0:
256,192,10115,1,8,0:0:0:0:
256,192,10409,1,0,0:0:0:0:
256,192,10703,1,0,0:0:0:0:
256,192,11291,1,0,0:0:0:0:
256,192,11879,1,0,0:0:0:0:
256,192,12467,1,8,0:0:0:0:
256,192,12762,1,0,0:0:0:0:
256,192,13056,1,0,0:0:0:0:
256,192,14232,1,0,0:0:0:0:
256,192,14820,1,8,0:0:0:0:
256,192,15115,1,8,0:0:0:0:
256,192,15409,1,0,0:0:0:0:
256,192,15997,1,0,0:0:0:0:
256,192,16585,1,0,0:0:0:0:
256,192,17173,1,8,0:0:0:0:
256,192,17467,1,8,0:0:0:0:
256,192,17762,1,0,0:0:0:0:
256,192,18938,1,0,0:0:0:0:
256,192,19526,1,8,0:0:0:0:
256,192,20115,1,0,0:0:0:0:
256,192,20409,1,8,0:0:0:0:
256,192,20703,1,0,0:0:0:0:
256,192,21291,1,0,0:0:0:0:
256,192,21585,1,8,0:0:0:0:
256,192,21879,1,0,0:0:0:0:
256,192,22467,1,0,0:0:0:0:
256,192,23644,1,0,0:0:0:0:
256,192,24232,1,0,0:0:0:0:
256,192,24526,1,0,0:0:0:0:
256,192,24820,1,0,0:0:0:0:
256,192,25409,1,8,0:0:0:0:
256,192,25997,1,0,0:0:0:0:
256,192,26585,1,8,0:0:0:0:
256,192,26879,1,8,0:0:0:0:
256,192,27173,1,0,0:0:0:0:
256,192,28350,1,0,0:0:0:0:
256,192,28938,1,8,0:0:0:0:
256,192,29232,1,0,0:0:0:0:
256,192,30115,1,0,0:0:0:0:
256,192,30409,1,0,0:0:0:0:
256,192,30997,1,0,0:0:0:0:
256,192,31585,1,0,0:0:0:0:
256,192,31879,1,0,0:0:0:0:
256,192,32173,1,0,0:0:0:0:
256,192,32762,1,8,0:0:0:0:
256,192,33056,1,0,0:0:0:0:
256,192,33938,1,0,0:0:0:0:
256,192,34820,1,0,0:0:0:0:
256,192,35115,1,0,0:0:0:0:
256,192,35409,1,8,0:0:0:0:
256,192,35703,12,0,37467,0:0:0:0:
256,192,37762,5,0,0:0:0:0:
256,192,38350,1,0,0:0:0:0:
256,192,38938,1,0,0:0:0:0:
256,192,39232,1,0,0:0:0:0:
256,192,39526,1,0,0:0:0:0:
256,192,40115,1,0,0:0:0:0:
256,192,40703,1,8,0:0:0:0:
256,192,41291,1,0,0:0:0:0:
256,192,42467,1,0,0:0:0:0:
256,192,43056,1,8,0:0:0:0:
256,192,43644,1,0,0:0:0:0:
256,192,43938,1,0,0:0:0:0:
256,192,44232,1,0,0:0:0:0:
256,192,44820,1,0,0:0:0:0:
256,192,45115,1,8,0:0:0:0:
256,192,45409,1,0,0:0:0:0:
256,192,45703,1,8,0:0:0:0:
256,192,45997,1,0,0:0:0:0:
256,192,47173,1,0,0:0:0:0:
256,192,47762,1,0,0:0:0:0:
256,192,48350,1,0,0:0:0:0:
256,192,48644,1,8,0:0:0:0:
256,192,48938,1,0,0:0:0:0:
256,192,49526,1,0,0:0:0:0:
256,192,50115,1,8,0:0:0:0:
256,192,50703,1,0,0:0:0:0:
256,192,51879,1,0,0:0:0:0:
256,192,52467,1,0,0:0:0:0:
256,192,53056,1,0,0:0:0:0:
256,192,53350,1,8,0:0:0:0:
256,192,53938,1,8,0:0:0:0:
256,192,54232,1,0,0:0:0:0:
256,192,56291,1,8,0:0:0:0:
256,192,56585,1,0,0:0:0:0:
256,192,57173,1,0,0:0:0:0:
256,192,57762,1,0,0:0:0:0:
256,192,58056,1,0,0:0:0:0:
256,192,58350,1,0,0:0:0:0:
256,192,58644,1,8,0:0:0:0:
256,192,58938,1,0,0:0:0:0:
256,192,59526,1,0,0:0:0:0:
256,192,60115,1,8,0:0:0:0:
256,192,61291,1,0,0:0:0:0:
256,192,61879,1,0,0:0:0:0:
256,192,62467,1,0,0:0:0:0:
256,192,62762,1,0,0:0:0:0:
256,192,63056,1,0,0:0:0:0:
256,192,63644,1,0,0:0:0:0:
256,192,63938,1,8,0:0:0:0:
256,192,64526,1,8,0:0:0:0:
256,192,64820,1,0,0:0:0:0:
256,192,65997,1,0,0:0:0:0:
256,192,66585,1,8,0:0:0:0:
256,192,67173,1,0,0:0:0:0:
256,192,67467,1,0,0:0:0:0:
256,192,67762,1,0,0:0:0:0:
256,192,68056,1,8,0:0:0:0:
256,192,68350,1,0,0:0:0:0:
256,192,68938,1,0,0:0:0:0:
256,192,69526,1,8,0:0:0:0:
256,192,70703,1,0,0:0:0:0:
256,192,70997,1,0,0:0:0:0:
256,192,71291,1,0,0:0:0:0:
256,192,71879,1,0,0:0:0:0:
256,192,72173,1,0,0:0:0:0:
256,192,72467,1,8,0:0:0:0:
256,192,73056,1,0,0:0:0:0:
256,192,75409,1,0,0:0:0:0:
256,192,75703,1,8,0:0:0:0:
256,192,76291,1,8,0:0:0:0:
256,192,76585,1,0,0:0:0:0:
256,192,76879,1,8,0:0:0:0:
256,192,77467,1,8,0:0:0:0:
256,192,77762,1,0,0:0:0:0:
256,192,78350,1,0,0:0:0:0:
256,192,78938,1,0,0:0:0:0:
256,192,80115,1,0,0:0:0:0:
256,192,80409,1,8,0:0:0:0:
256,192,80997,1,8,0:0:0:0:
256,192,81291,1,0,0:0:0:0:
256,192,81585,1,8,0:0:0:0:
256,192,82173,1,8,0:0:0:0:
256,192,82467,1,0,0:0:0:0:
256,192,83056,1,0,0:0:0:0:
256,192,83644,1,0,0:0:0:0:
256,192,84820,1,0,0:0:0:0:
256,192,85409,1,0,0:0:0:0:
256,192,85997,1,0,0:0:0:0:
256,192,86585,1,8,0:0:0:0:
256,192,86879,1,0,0:0:0:0:
256,192,87173,1,8,0:0:0:0:
256,192,87762,1,0,0:0:0:0:
256,192,88056,1,8,0:0:0:0:
256,192,88350,1,0,0:0:0:0:
256,192,88938,1,8,0:0:0:0:
256,192,89526,1,0,0:0:0:0:
256,192,90703,1,0,0:0:0:0:
256,192,91879,1,0,0:0:0:0:
256,192,92467,1,0,0:0:0:0:
256,192,93056,1,8,0:0:0:0:
256,192,93350,1,8,0:0:0:0:
256,192,93644,1,8,0:0:0:0:
256,192,93938,1,8,0:0:0:0:
256,192,94232,1,8,0:0:0:0:
256,192,96585,1,0,0:0:0:0:
256,192,97173,1,0,0:0:0:0:
256,192,97762,1,0,0:0:0:0:
256,192,98056,1,0,0:0:0:0:
256,192,98644,1,0,0:0:0:0:
256,192,98938,1,8,0:0:0:0:
256,192,101291,1,0,0:0:0:0:
256,192,101879,1,0,0:0:0:0:
256,192,102467,1,0,0:0:0:0:
256,192,102762,1,0,0:0:0:0:
256,192,103350,1,0,0:0:0:0:
256,192,103644,1,8,0:0:0:0:
256,192,103938,1,0,0:0:0:0:
256,192,104526,1,0,0:0:0:0:
256,192,104820,1,0,0:0:0:0:
256,192,105409,1,0,0:0:0:0:
256,192,105703,1,8,0:0:0:0:
256,192,105997,1,0,0:0:0:0:
256,192,106438,1,0,0:0:0:0:
256,192,106879,1,0,0:0:0:0:
256,192,107173,1,8,0:0:0:0:
256,192,107762,1,0,0:0:0:0:
256,192,108056,1,8,0:0:0:0:
256,192,108350,1,0,0:0:0:0:
256,192,108791,1,0,0:0:0:0:
256,192,109232,1,0,0:0:0:0:
256,192,109526,1,8,0:0:0:0:
256,192,110115,1,8,0:0:0:0:
256,192,110409,1,8,0:0:0:0:
256,192,110703,1,0,0:0:0:0:
256,192,111291,1,0,0:0:0:0:
256,192,111879,1,0,0:0:0:0:
256,192,112173,1,0,0:0:0:0:
256,192,112467,1,0,0:0:0:0:
256,192,113056,1,0,0:0:0:0:
256,192,113350,1,8,0:0:0:0:
256,192,113938,1,8,0:0:0:0:
256,192,114232,1,8,0:0:0:0:
256,192,114820,1,0,0:0:0:0:
256,192,115115,1,8,0:0:0:0:
256,192,115409,1,0,0:0:0:0:
256,192,115997,1,0,0:0:0:0:
256,192,116291,1,0,0:0:0:0:
256,192,116585,1,8,0:0:0:0:
256,192,117026,1,8,0:0:0:0:
256,192,117467,1,8,0:0:0:0:
256,192,117762,1,0,0:0:0:0:
256,192,118644,1,8,0:0:0:0:
256,192,118938,1,0,0:0:0:0:
256,192,119232,1,0,0:0:0:0:
256,192,119526,1,8,0:0:0:0:
256,192,120115,1,0,0:0:0:0:
256,192,120703,1,8,0:0:0:0:
256,192,121291,1,0,0:0:0:0:
256,192,122467,1,0,0:0:0:0:
256,192,122762,1,0,0:0:0:0:
256,192,123350,1,0,0:0:0:0:
256,192,123644,1,8,0:0:0:0:
256,192,123938,1,0,0:0:0:0:
256,192,124232,1,0,0:0:0:0:
256,192,124820,1,0,0:0:0:0:
256,192,125115,1,0,0:0:0:0:
256,192,125703,1,8,0:0:0:0:
256,192,125997,1,0,0:0:0:0:
256,192,126585,1,8,0:0:0:0:
256,192,126879,1,0,0:0:0:0:
256,192,127173,1,8,0:0:0:0:
256,192,127467,1,8,0:0:0:0:
256,192,127909,1,8,0:0:0:0:
256,192,128350,1,0,0:0:0:0:
256,192,129232,1,8,0:0:0:0:
256,192,129526,1,4,0:0:0:0:
256,192,131879,1,0,0:0:0:0:
256,192,132173,1,8,0:0:0:0:
256,192,132762,1,0,0:0:0:0:
256,192,133056,1,0,0:0:0:0:
256,192,133644,1,0,0:0:0:0:
256,192,133938,1,8,0:0:0:0:
256,192,134232,1,0,0:0:0:0:
256,192,134820,1,8,0:0:0:0:
256,192,135409,1,0,0:0:0:0:
256,192,136585,1,0,0:0:0:0:
256,192,137173,1,0,0:0:0:0:
256,192,137467,1,8,0:0:0:0:
256,192,137762,1,0,0:0:0:0:
256,192,138350,1,0,0:0:0:0:
256,192,138644,1,8,0:0:0:0:
256,192,138938,1,8,0:0:0:0:
256,192,139820,1,8,0:0:0:0:
256,192,140115,1,0,0:0:0:0:
256,192,141291,1,0,0:0:0:0:
256,192,141585,1,0,0:0:0:0:
256,192,141879,1,0,0:0:0:0:
256,192,142467,1,0,0:0:0:0:
256,192,143056,1,0,0:0:0:0:
256,192,143644,1,0,0:0:0:0:
256,192,143938,1,0,0:0:0:0:
256,192,144232,1,0,0:0:0:0:
256,192,144820,1,0,0:0:0:0:
256,192,145115,1,8,0:0:0:0:
256,192,145409,1,8,0:0:0:0:
256,192,145703,1,8,0:0:0:0:
256,192,145997,1,0,0:0:0:0:
256,192,146585,1,0,0:0:0:0:
256,192,147173,1,0,0:0:0:0:
256,192,147467,1,0,0:0:0:0:
256,192,147762,1,0,0:0:0:0:
256,192,148350,1,0,0:0:0:0:
256,192,148938,1,0,0:0:0:0:
256,192,149526,1,8,0:0:0:0:
256,192,150703,1,0,0:0:0:0:
256,192,151144,1,0,0:0:0:0:
256,192,153056,1,8,0:0:0:0:
256,192,153497,1,0,0:0:0:0:
256,192,155409,1,8,0:0:0:0:
256,192,155850,1,0,0:0:0:0:
256,192,157762,1,0,0:0:0:0:
256,192,158203,1,0,0:0:0:0:
256,192,159379,1,0,0:0:0:0:
256,192,160115,1,0,0:0:0:0:
256,192,160703,1,8,0:0:0:0:
256,192,161291,1,0,0:0:0:0:
256,192,161585,1,0,0:0:0:0:
256,192,162467,1,0,0:0:0:0:
256,192,163056,1,8,0:0:0:0:
256,192,163644,1,0,0:0:0:0:
256,192,163938,1,0,0:0:0:0:
256,192,164820,1,0,0:0:0:0:
256,192,165409,1,8,0:0:0:0:
256,192,165997,1,0,0:0:0:0:
256,192,166291,1,0,0:0:0:0:
256,192,167173,1,0,0:0:0:0:
256,192,168350,1,0,0:0:0:0:
256,192,168938,1,8,0:0:0:0:
256,192,169526,1,0,0:0:0:0:
256,192,170115,1,8,0:0:0:0:
256,192,170703,1,0,0:0:0:0:
256,192,170997,1,8,0:0:0:0:
256,192,171291,1,8,0:0:0:0:
256,192,171585,1,0,0:0:0:0:
256,192,171879,1,0,0:0:0:0:
256,192,172467,1,8,0:0:0:0:
256,192,173056,1,0,0:0:0:0:
256,192,174232,1,0,0:0:0:0:
256,192,174820,1,8,0:0:0:0:
256,192,175409,1,0,0:0:0:0:
256,192,175703,1,0,0:0:0:0:
256,192,175997,1,0,0:0:0:0:
256,192,176585,1,0,0:0:0:0:
256,192,176879,1,8,0:0:0:0:
256,192,177467,1,8,0:0:0:0:
256,192,177762,1,0,0:0:0:0:
256,192,178938,1,0,0:0:0:0:
256,192,179526,1,0,0:0:0:0:
256,192,180115,1,0,0:0:0:0:
256,192,180409,1,0,0:0:0:0:
256,192,180703,1,8,0:0:0:0:
256,192,180997,1,0,0:0:0:0:
256,192,181291,1,0,0:0:0:0:
256,192,181879,1,8,0:0:0:0:
256,192,182467,1,0,0:0:0:0:
256,192,183644,1,0,0:0:0:0:
256,192,183938,1,8,0:0:0:0:
256,192,184379,1,8,0:0:0:0:
256,192,184820,1,0,0:0:0:0:
256,192,185703,1,8,0:0:0:0:
256,192,185997,1,0,0:0:0:0:
256,192,187173,1,8,0:0:0:0:
256,192,187762,1,8,0:0:0:0:
256,192,188056,1,8,0:0:0:0:
256,192,188350,1,0,0:0:0:0:
256,192,189526,1,0,0:0:0:0:
256,192,189820,1,0,0:0:0:0:
256,192,190409,1,8,0:0:0:0:
256,192,190703,1,0,0:0:0:0:
256,192,191879,1,0,0:0:0:0:
256,192,192173,1,0,0:0:0:0:
256,192,193056,1,0,0:0:0:0:
256,192,194232,1,0,0:0:0:0:
256,192,194526,1,0,0:0:0:0:
256,192,195115,1,8,0:0:0:0:
256,192,195409,1,0,0:0:0:0:
256,192,196585,1,0,0:0:0:0:
256,192,196879,1,0,0:0:0:0:
256,192,197173,1,8,0:0:0:0:
256,192,197467,1,8,0:0:0:0:
256,192,197762,1,0,0:0:0:0:
256,192,198350,1,0,0:0:0:0:
256,192,198938,1,8,0:0:0:0:
256,192,199232,1,8,0:0:0:0:
256,192,199526,1,8,0:0:0:0:
256,192,200115,1,0,0:0:0:0:
256,192,200703,1,0,0:0:0:0:
256,192,201291,1,8,0:0:0:0:
256,192,201585,1,8,0:0:0:0:
256,192,201879,1,8,0:0:0:0:
256,192,202467,1,0,0:0:0:0:
256,192,203350,1,8,0:0:0:0:
256,192,203644,1,0,0:0:0:0:
256,192,204232,1,0,0:0:0:0:
256,192,204526,1,0,0:0:0:0:
256,192,204820,1,8,0:0:0:0:
256,192,207173,1,0,0:0:0:0:
256,192,209232,1,8,0:0:0:0:
256,192,209526,1,0,0:0:0:0:
256,192,211879,1,0,0:0:0:0:
256,192,213938,1,8,0:0:0:0:
256,192,214232,1,0,0:0:0:0:
256,192,215997,1,0,0:0:0:0:
256,192,216585,1,0,0:0:0:0:
256,192,217173,1,8,0:0:0:0:
256,192,217762,1,0,0:0:0:0:
256,192,218056,1,0,0:0:0:0:
256,192,218350,1,8,0:0:0:0:
256,192,218938,1,0,0:0:0:0:
256,192,219526,1,8,0:0:0:0:
256,192,220703,1,8,0:0:0:0:
256,192,220997,1,8,0:0:0:0:
256,192,221291,1,0,0:0:0:0:
256,192,221879,1,8,0:0:0:0:
256,192,222467,1,0,0:0:0:0:
256,192,222762,1,0,0:0:0:0:
256,192,223056,1,8,0:0:0:0:
256,192,223644,1,0,0:0:0:0:
256,192,224232,1,8,0:0:0:0:
256,192,224820,1,0,0:0:0:0:
256,192,225115,1,8,0:0:0:0:
256,192,225409,1,0,0:0:0:0:
256,192,225703,1,8,0:0:0:0:
256,192,225997,1,0,0:0:0:0:
256,192,228350,1,0,0:0:0:0:
256,192,228938,1,0,0:0:0:0:
256,192,229526,1,0,0:0:0:0:
256,192,229820,1,0,0:0:0:0:
256,192,230409,1,0,0:0:0:0:
256,192,230703,1,8,0:0:0:0:
256,192,233056,1,0,0:0:0:0:
256,192,233644,1,0,0:0:0:0:
256,192,234232,1,0,0:0:0:0:
256,192,234526,1,0,0:0:0:0:
256,192,235115,1,8,0:0:0:0:
256,192,235409,1,0,0:0:0:0:
256,192,235997,1,0,0:0:0:0:
256,192,236585,1,0,0:0:0:0:
256,192,237173,1,0,0:0:0:0:
256,192,237762,1,0,0:0:0:0:
256,192,238938,1,0,0:0:0:0:
256,192,240115,1,0,0:0:0:0:
256,192,240703,1,0,0:0:0:0:
256,192,241291,1,0,0:0:0:0:
256,192,241879,1,0,0:0:0:0:
256,192,242467,1,0,0:0:0:0:
256,192,242762,1,0,0:0:0:0:
256,192,243056,1,0,0:0:0:0:
256,192,243644,1,0,0:0:0:0:
256,192,243938,1,0,0:0:0:0:
256,192,244232,1,8,0:0:0:0:
256,192,244820,1,12,0:0:0:0:
256,192,247173,1,12,0:0:0:0:
