osu file format v14

[General]
AudioFilename: audio.mp3
AudioLeadIn: 0
PreviewTime: 103570
Countdown: 0
SampleSet: Normal
StackLeniency: 0.7
Mode: 1
LetterboxInBreaks: 0
WidescreenStoryboard: 0

[Editor]
Bookmarks: 115,18938,37762,75409,94232,113056,131879,141291,150703,160115,169526,188350,207173,216585
DistanceSpacing: 1
BeatDivisor: 12
GridSize: 8
TimelineZoom: 3.399999

[Metadata]
Title:Border of extacy (Karaoke Ver)
TitleUnicode:Border of extacy (カラオケVer)
Artist:IOSYS
ArtistUnicode:IOSYS
Creator:-Kazu-
Version:Hell Oni
Source:東方妖々夢 ~ Perfect Cherry Blossom.
Tags:東方Project Touhou ZUN Team Shanghai Alice PCB TH07 TH 07 Youyoumu Ghostly Dream ネクロファンタジア Necrofantasia 八雲 紫 Yukari Yakumo 幽雅に咲かせ、墨染の桜 ~ Border of Life 西行寺 幽々子 Yuyuko Saigyouji Bloom Nobly, of Sumizome ARM+RoughSketch uno DJ Laugh ARM RoughSketch TOHO WORKS 2007-2012 Reitaisai 10 RTS10 RTS 10 IO-0250 東方真華神祭 Makashinsai Splendid Divine Festival RTS5 5 IO-0142 Sapporo Hardcore Channel おさいせんとかのからおけ osaisen toka no Off Vocal Instrumental M3-22 M3 IO-0138
BeatmapID:1544944
BeatmapSetID:732190

[Difficulty]
HPDrainRate:4
CircleSize:5
OverallDifficulty:6.5
ApproachRate:5
SliderMultiplier:1.4
SliderTickRate:1

[Events]
//Background and Video events
0,0,"BGowo.jpg",0,0
//Break Periods
//Storyboard Layer 0 (Background)
//Storyboard Layer 1 (Fail)
//Storyboard Layer 2 (Pass)
//Storyboard Layer 3 (Foreground)
//Storyboard Sound Samples

[TimingPoints]
115,294.117647058824,4,1,0,60,1,0
75115,-50,4,1,0,60,0,0
75409,-100,4,1,0,60,0,0
109526,-76.9230769230769,4,1,0,60,0,0
111291,-100,4,1,0,60,0,0
111879,-95.2380952380952,4,1,0,60,0,0
112173,-90.9090909090909,4,1,0,60,0,0
112467,-86.9565217391304,4,1,0,60,0,0
112909,-83.3333333333333,4,1,0,60,0,0
113056,-83.3333333333333,4,1,0,60,0,1
129526,-83.3333333333333,4,1,0,60,0,0
131879,-83.3333333333333,4,1,0,85,0,1
141291,-76.9230769230769,4,1,0,85,0,1
150721,-100,4,1,0,50,0,0
160115,-100,4,1,0,85,0,0
168938,-76.9230769230769,4,1,0,85,0,0
169526,-76.9230769230769,4,1,0,85,0,1
169545,-83.3333333333333,4,1,0,85,0,1
185997,-83.3333333333333,4,1,0,85,0,0
187173,-100,4,1,0,85,0,0
207173,-100,4,1,0,50,0,0
216585,-100,4,1,0,85,0,0

[HitObjects]
256,192,115,5,0,0:0:0:0:
256,192,409,1,8,0:0:0:0:
256,192,556,1,0,0:0:0:0:
256,192,629,1,0,0:0:0:0:
256,192,703,1,8,0:0:0:0:
256,192,850,1,8,0:0:0:0:
256,192,997,1,0,0:0:0:0:
256,192,1291,1,0,0:0:0:0:
256,192,1438,1,8,0:0:0:0:
256,192,1585,1,0,0:0:0:0:
256,192,1732,1,0,0:0:0:0:
256,192,1806,1,0,0:0:0:0:
256,192,1879,1,8,0:0:0:0:
256,192,2026,1,0,0:0:0:0:
256,192,2173,1,8,0:0:0:0:
256,192,2467,1,0,0:0:0:0:
256,192,2762,1,8,0:0:0:0:
256,192,2909,1,0,0:0:0:0:
256,192,2982,1,0,0:0:0:0:
256,192,3056,1,8,0:0:0:0:
256,192,3203,1,8,0:0:0:0:
256,192,3350,1,0,0:0:0:0:
256,192,3644,1,4,0:0:0:0:
256,192,3938,1,4,0:0:0:0:
256,192,4232,1,4,0:0:0:0:
256,192,4379,1,4,0:0:0:0:
256,192,4526,1,12,0:0:0:0:
256,192,4820,1,12,0:0:0:0:
256,192,5115,1,8,0:0:0:0:
256,192,5262,1,0,0:0:0:0:
256,192,5335,1,0,0:0:0:0:
256,192,5409,1,8,0:0:0:0:
256,192,5556,1,8,0:0:0:0:
256,192,5703,1,0,0:0:0:0:
256,192,5997,1,0,0:0:0:0:
256,192,6144,1,8,0:0:0:0:
256,192,6291,1,0,0:0:0:0:
256,192,6365,1,0,0:0:0:0:
256,192,6438,1,0,0:0:0:0:
256,192,6512,1,0,0:0:0:0:
256,192,6585,1,8,0:0:0:0:
256,192,6732,1,0,0:0:0:0:
256,192,6879,1,8,0:0:0:0:
256,192,7173,1,0,0:0:0:0:
256,192,7320,1,0,0:0:0:0:
256,192,7615,1,0,0:0:0:0:
256,192,7688,1,0,0:0:0:0:
256,192,7762,1,8,0:0:0:0:
256,192,7909,1,8,0:0:0:0:
256,192,8056,1,0,0:0:0:0:
256,192,8129,1,0,0:0:0:0:
256,192,8203,1,8,0:0:0:0:
256,192,8350,1,4,0:0:0:0:
256,192,8497,1,4,0:0:0:0:
256,192,8644,1,4,0:0:0:0:
256,192,8938,1,4,0:0:0:0:
256,192,9085,1,8,0:0:0:0:
256,192,9232,1,4,0:0:0:0:
256,192,9526,1,12,0:0:0:0:
256,192,9820,1,8,0:0:0:0:
256,192,9967,1,8,0:0:0:0:
256,192,10041,1,0,0:0:0:0:
256,192,10115,1,8,0:0:0:0:
256,192,10262,1,8,0:0:0:0:
256,192,10409,1,0,0:0:0:0:
256,192,10703,1,0,0:0:0:0:
256,192,10850,1,8,0:0:0:0:
256,192,10923,1,0,0:0:0:0:
256,192,10997,1,0,0:0:0:0:
256,192,11144,1,0,0:0:0:0:
256,192,11291,1,8,0:0:0:0:
256,192,11438,1,0,0:0:0:0:
256,192,11512,1,0,0:0:0:0:
256,192,11585,1,8,0:0:0:0:
256,192,11879,1,0,0:0:0:0:
256,192,12026,1,0,0:0:0:0:
256,192,12320,1,8,0:0:0:0:
256,192,12394,1,0,0:0:0:0:
256,192,12467,1,8,0:0:0:0:
256,192,12615,1,8,0:0:0:0:
256,192,12762,1,0,0:0:0:0:
256,192,13056,1,4,0:0:0:0:
256,192,13350,1,4,0:0:0:0:
256,192,13644,1,4,0:0:0:0:
256,192,13791,1,4,0:0:0:0:
256,192,13938,1,4,0:0:0:0:
256,192,14232,1,12,0:0:0:0:
256,192,14526,1,8,0:0:0:0:
256,192,14673,1,8,0:0:0:0:
256,192,14747,1,0,0:0:0:0:
256,192,14820,1,8,0:0:0:0:
256,192,14967,1,8,0:0:0:0:
256,192,15115,1,0,0:0:0:0:
256,192,15409,1,0,0:0:0:0:
256,192,15482,1,0,0:0:0:0:
256,192,15556,1,8,0:0:0:0:
256,192,15703,1,0,0:0:0:0:
256,192,15850,1,0,0:0:0:0:
256,192,15997,1,8,0:0:0:0:
256,192,16070,1,0,0:0:0:0:
256,192,16144,1,0,0:0:0:0:
256,192,16291,1,8,0:0:0:0:
256,192,16585,1,0,0:0:0:0:
256,192,16732,1,0,0:0:0:0:
256,192,17026,1,0,0:0:0:0:
256,192,17100,1,0,0:0:0:0:
256,192,17173,1,8,0:0:0:0:
256,192,17320,1,8,0:0:0:0:
256,192,17467,1,8,0:0:0:0:
256,192,17541,1,0,0:0:0:0:
256,192,17615,1,0,0:0:0:0:
256,192,17762,1,8,0:0:0:0:
256,192,17909,1,8,0:0:0:0:
256,192,17982,1,8,0:0:0:0:
256,192,18056,1,8,0:0:0:0:
256,192,18203,1,8,0:0:0:0:
256,192,18276,1,8,0:0:0:0:
256,192,18350,1,8,0:0:0:0:
256,192,18423,1,8,0:0:0:0:
256,192,18497,1,8,0:0:0:0:
256,192,18644,1,8,0:0:0:0:
256,192,18791,1,8,0:0:0:0:
256,192,18938,1,0,0:0:0:0:
256,192,19085,1,8,0:0:0:0:
256,192,19159,1,8,0:0:0:0:
256,192,19232,1,0,0:0:0:0:
256,192,19379,1,8,0:0:0:0:
256,192,19453,1,0,0:0:0:0:
256,192,19526,1,8,0:0:0:0:
256,192,19600,1,8,0:0:0:0:
256,192,19673,1,0,0:0:0:0:
256,192,19820,1,0,0:0:0:0:
256,192,19967,1,0,0:0:0:0:
256,192,20041,1,8,0:0:0:0:
256,192,20115,1,0,0:0:0:0:
256,192,20262,1,0,0:0:0:0:
256,192,20335,1,8,0:0:0:0:
256,192,20409,1,8,0:0:0:0:
256,192,20482,1,0,0:0:0:0:
256,192,20556,1,8,0:0:0:0:
256,192,20703,1,8,0:0:0:0:
256,192,20752,1,8,0:0:0:0:
256,192,20801,1,8,0:0:0:0:
256,192,20850,1,0,0:0:0:0:
256,192,20923,1,8,0:0:0:0:
256,192,20997,1,0,0:0:0:0:
256,192,21291,1,0,0:0:0:0:
256,192,21438,1,0,0:0:0:0:
256,192,21512,1,8,0:0:0:0:
256,192,21585,1,0,0:0:0:0:
256,192,21732,1,8,0:0:0:0:
256,192,21806,1,0,0:0:0:0:
256,192,21879,1,8,0:0:0:0:
256,192,21928,1,8,0:0:0:0:
256,192,21977,1,8,0:0:0:0:
256,192,22026,1,0,0:0:0:0:
256,192,22100,1,8,0:0:0:0:
256,192,22173,1,0,0:0:0:0:
256,192,22320,1,0,0:0:0:0:
256,192,22467,1,0,0:0:0:0:
256,192,22615,1,8,0:0:0:0:
256,192,22664,1,8,0:0:0:0:
256,192,22713,1,8,0:0:0:0:
256,192,22762,1,0,0:0:0:0:
256,192,22909,1,8,0:0:0:0:
256,192,22958,1,8,0:0:0:0:
256,192,23007,1,8,0:0:0:0:
256,192,23056,1,0,0:0:0:0:
256,192,23203,1,0,0:0:0:0:
256,192,23350,1,8,0:0:0:0:
256,192,23399,1,8,0:0:0:0:
256,192,23448,1,8,0:0:0:0:
256,192,23497,1,8,0:0:0:0:
256,192,23546,1,8,0:0:0:0:
256,192,23595,1,8,0:0:0:0:
256,192,23644,1,0,0:0:0:0:
256,192,23791,1,0,0:0:0:0:
256,192,23865,1,8,0:0:0:0:
256,192,23938,1,0,0:0:0:0:
256,192,24085,1,8,0:0:0:0:
256,192,24159,1,0,0:0:0:0:
256,192,24232,1,8,0:0:0:0:
256,192,24306,1,8,0:0:0:0:
256,192,24379,1,0,0:0:0:0:
256,192,24453,1,8,0:0:0:0:
256,192,24526,1,0,0:0:0:0:
256,192,24673,1,0,0:0:0:0:
256,192,24747,1,0,0:0:0:0:
256,192,24820,1,0,0:0:0:0:
256,192,24967,1,0,0:0:0:0:
256,192,25041,1,0,0:0:0:0:
256,192,25115,1,8,0:0:0:0:
256,192,25262,1,8,0:0:0:0:
256,192,25335,1,0,0:0:0:0:
256,192,25409,1,8,0:0:0:0:
256,192,25458,1,8,0:0:0:0:
256,192,25507,1,8,0:0:0:0:
256,192,25556,1,8,0:0:0:0:
256,192,25703,1,0,0:0:0:0:
256,192,25752,1,0,0:0:0:0:
256,192,25801,1,0,0:0:0:0:
256,192,25850,1,0,0:0:0:0:
256,192,25997,1,0,0:0:0:0:
256,192,26144,1,8,0:0:0:0:
256,192,26217,1,0,0:0:0:0:
256,192,26291,1,0,0:0:0:0:
256,192,26438,1,8,0:0:0:0:
256,192,26512,1,0,0:0:0:0:
256,192,26585,1,8,0:0:0:0:
256,192,26634,1,8,0:0:0:0:
256,192,26683,1,8,0:0:0:0:
256,192,26732,1,0,0:0:0:0:
256,192,26879,1,8,0:0:0:0:
256,192,26928,1,8,0:0:0:0:
256,192,26977,1,8,0:0:0:0:
256,192,27026,1,8,0:0:0:0:
256,192,27075,1,8,0:0:0:0:
256,192,27124,1,8,0:0:0:0:
256,192,27173,1,0,0:0:0:0:
256,192,27467,1,0,0:0:0:0:
256,192,27762,1,0,0:0:0:0:
256,192,27909,1,0,0:0:0:0:
256,192,28056,1,0,0:0:0:0:
256,192,28350,1,12,0:0:0:0:
256,192,28497,1,8,0:0:0:0:
256,192,28570,1,8,0:0:0:0:
256,192,28644,1,0,0:0:0:0:
256,192,28791,1,8,0:0:0:0:
256,192,28865,1,0,0:0:0:0:
256,192,28938,1,8,0:0:0:0:
256,192,29085,1,8,0:0:0:0:
256,192,29232,1,4,0:0:0:0:
256,192,29379,1,8,0:0:0:0:
256,192,29453,1,0,0:0:0:0:
256,192,29526,1,0,0:0:0:0:
256,192,29673,1,8,0:0:0:0:
256,192,29747,1,0,0:0:0:0:
256,192,29820,1,8,0:0:0:0:
256,192,29967,1,8,0:0:0:0:
256,192,30041,1,0,0:0:0:0:
256,192,30115,1,8,0:0:0:0:
256,192,30188,1,8,0:0:0:0:
256,192,30262,1,0,0:0:0:0:
256,192,30409,1,4,0:0:0:0:
256,192,30703,1,0,0:0:0:0:
256,192,30997,1,4,0:0:0:0:
256,192,31144,1,8,0:0:0:0:
256,192,31217,1,0,0:0:0:0:
256,192,31291,1,8,0:0:0:0:
256,192,31438,1,0,0:0:0:0:
256,192,31585,1,4,0:0:0:0:
256,192,31732,1,12,0:0:0:0:
256,192,31879,1,4,0:0:0:0:
256,192,32173,1,0,0:0:0:0:
256,192,32467,1,8,0:0:0:0:
256,192,32541,1,8,0:0:0:0:
256,192,32615,1,0,0:0:0:0:
256,192,32762,1,12,0:0:0:0:
256,192,33056,1,0,0:0:0:0:
256,192,33203,1,0,0:0:0:0:
256,192,33276,1,0,0:0:0:0:
256,192,33350,1,8,0:0:0:0:
256,192,33497,1,0,0:0:0:0:
256,192,33570,1,8,0:0:0:0:
256,192,33644,1,0,0:0:0:0:
256,192,33717,1,0,0:0:0:0:
256,192,33791,1,0,0:0:0:0:
256,192,33938,1,12,0:0:0:0:
256,192,34085,1,0,0:0:0:0:
256,192,34232,1,0,0:0:0:0:
256,192,34379,1,8,0:0:0:0:
256,192,34453,1,8,0:0:0:0:
256,192,34526,1,0,0:0:0:0:
256,192,34673,1,8,0:0:0:0:
256,192,34820,1,4,0:0:0:0:
256,192,35115,1,4,0:0:0:0:
256,192,35409,1,12,0:0:0:0:
256,192,37467,1,0,0:0:0:0:
256,192,37615,1,0,0:0:0:0:
256,192,37664,1,8,0:0:0:0:
256,192,37713,1,8,0:0:0:0:
256,192,37762,1,0,0:0:0:0:
256,192,37835,1,0,0:0:0:0:
256,192,37909,1,8,0:0:0:0:
256,192,38056,1,0,0:0:0:0:
256,192,38203,1,8,0:0:0:0:
256,192,38276,1,8,0:0:0:0:
256,192,38350,1,0,0:0:0:0:
256,192,38497,1,8,0:0:0:0:
256,192,38644,1,0,0:0:0:0:
256,192,38791,1,0,0:0:0:0:
256,192,38865,1,8,0:0:0:0:
256,192,38938,1,0,0:0:0:0:
256,192,39085,1,8,0:0:0:0:
256,192,39159,1,0,0:0:0:0:
256,192,39232,1,8,0:0:0:0:
256,192,39306,1,8,0:0:0:0:
256,192,39379,1,0,0:0:0:0:
256,192,39453,1,8,0:0:0:0:
256,192,39526,1,0,0:0:0:0:
256,192,39673,1,0,0:0:0:0:
256,192,39820,1,0,0:0:0:0:
256,192,39894,1,0,0:0:0:0:
256,192,39967,1,8,0:0:0:0:
256,192,40115,1,0,0:0:0:0:
256,192,40188,1,0,0:0:0:0:
256,192,40262,1,8,0:0:0:0:
256,192,40409,1,0,0:0:0:0:
256,192,40556,1,8,0:0:0:0:
256,192,40629,1,8,0:0:0:0:
256,192,40703,1,0,0:0:0:0:
256,192,40850,1,8,0:0:0:0:
256,192,40997,1,0,0:0:0:0:
256,192,41144,1,8,0:0:0:0:
256,192,41217,1,0,0:0:0:0:
256,192,41291,1,0,0:0:0:0:
256,192,41438,1,8,0:0:0:0:
256,192,41512,1,8,0:0:0:0:
256,192,41585,1,0,0:0:0:0:
256,192,41659,1,8,0:0:0:0:
256,192,41732,1,0,0:0:0:0:
256,192,41806,1,0,0:0:0:0:
256,192,41879,1,8,0:0:0:0:
256,192,42026,1,8,0:0:0:0:
256,192,42075,1,8,0:0:0:0:
256,192,42124,1,8,0:0:0:0:
256,192,42173,1,0,0:0:0:0:
256,192,42320,1,8,0:0:0:0:
256,192,42369,1,8,0:0:0:0:
256,192,42418,1,8,0:0:0:0:
256,192,42467,1,0,0:0:0:0:
256,192,42762,1,0,0:0:0:0:
256,192,42909,1,8,0:0:0:0:
256,192,42982,1,8,0:0:0:0:
256,192,43056,1,0,0:0:0:0:
256,192,43203,1,8,0:0:0:0:
256,192,43350,1,0,0:0:0:0:
256,192,43423,1,0,0:0:0:0:
256,192,43497,1,8,0:0:0:0:
256,192,43644,1,0,0:0:0:0:
256,192,43791,1,8,0:0:0:0:
256,192,43865,1,0,0:0:0:0:
256,192,43938,1,8,0:0:0:0:
256,192,44012,1,8,0:0:0:0:
256,192,44085,1,0,0:0:0:0:
256,192,44159,1,8,0:0:0:0:
256,192,44232,1,0,0:0:0:0:
256,192,44379,1,0,0:0:0:0:
256,192,44526,1,0,0:0:0:0:
256,192,44673,1,0,0:0:0:0:
256,192,44747,1,8,0:0:0:0:
256,192,44820,1,0,0:0:0:0:
256,192,44967,1,0,0:0:0:0:
256,192,45041,1,0,0:0:0:0:
256,192,45115,1,8,0:0:0:0:
256,192,45409,1,0,0:0:0:0:
256,192,45556,1,8,0:0:0:0:
256,192,45629,1,8,0:0:0:0:
256,192,45703,1,0,0:0:0:0:
256,192,45997,1,0,0:0:0:0:
256,192,46144,1,8,0:0:0:0:
256,192,46193,1,8,0:0:0:0:
256,192,46242,1,8,0:0:0:0:
256,192,46291,1,0,0:0:0:0:
256,192,46438,1,8,0:0:0:0:
256,192,46487,1,8,0:0:0:0:
256,192,46536,1,8,0:0:0:0:
256,192,46585,1,0,0:0:0:0:
256,192,46732,1,0,0:0:0:0:
256,192,46879,1,0,0:0:0:0:
256,192,46953,1,0,0:0:0:0:
256,192,47026,1,8,0:0:0:0:
256,192,47075,1,8,0:0:0:0:
256,192,47124,1,8,0:0:0:0:
256,192,47173,1,0,0:0:0:0:
256,192,47467,1,0,0:0:0:0:
256,192,47615,1,8,0:0:0:0:
256,192,47688,1,0,0:0:0:0:
256,192,47762,1,0,0:0:0:0:
256,192,47909,1,0,0:0:0:0:
256,192,48056,1,0,0:0:0:0:
256,192,48129,1,0,0:0:0:0:
256,192,48203,1,8,0:0:0:0:
256,192,48350,1,0,0:0:0:0:
256,192,48497,1,8,0:0:0:0:
256,192,48570,1,0,0:0:0:0:
256,192,48644,1,8,0:0:0:0:
256,192,48717,1,8,0:0:0:0:
256,192,48791,1,0,0:0:0:0:
256,192,48865,1,8,0:0:0:0:
256,192,48938,1,0,0:0:0:0:
256,192,49085,1,0,0:0:0:0:
256,192,49232,1,8,0:0:0:0:
256,192,49306,1,8,0:0:0:0:
256,192,49379,1,8,0:0:0:0:
256,192,49453,1,8,0:0:0:0:
256,192,49526,1,0,0:0:0:0:
256,192,49673,1,8,0:0:0:0:
256,192,49747,1,8,0:0:0:0:
256,192,49820,1,0,0:0:0:0:
256,192,49967,1,8,0:0:0:0:
256,192,50115,1,0,0:0:0:0:
256,192,50188,1,0,0:0:0:0:
256,192,50262,1,8,0:0:0:0:
256,192,50409,1,0,0:0:0:0:
256,192,50556,1,8,0:0:0:0:
256,192,50629,1,0,0:0:0:0:
256,192,50703,1,0,0:0:0:0:
256,192,50776,1,0,0:0:0:0:
256,192,50850,1,8,0:0:0:0:
256,192,50923,1,0,0:0:0:0:
256,192,50997,1,8,0:0:0:0:
256,192,51144,1,0,0:0:0:0:
256,192,51217,1,8,0:0:0:0:
256,192,51291,1,0,0:0:0:0:
256,192,51438,1,8,0:0:0:0:
256,192,51487,1,8,0:0:0:0:
256,192,51536,1,8,0:0:0:0:
256,192,51585,1,0,0:0:0:0:
256,192,51732,1,8,0:0:0:0:
256,192,51781,1,8,0:0:0:0:
256,192,51830,1,8,0:0:0:0:
256,192,51879,1,0,0:0:0:0:
256,192,52026,1,0,0:0:0:0:
256,192,52173,1,8,0:0:0:0:
256,192,52247,1,8,0:0:0:0:
256,192,52320,1,8,0:0:0:0:
256,192,52394,1,8,0:0:0:0:
256,192,52467,1,0,0:0:0:0:
256,192,52615,1,8,0:0:0:0:
256,192,52664,1,8,0:0:0:0:
256,192,52713,1,8,0:0:0:0:
256,192,52762,1,8,0:0:0:0:
256,192,52811,1,8,0:0:0:0:
256,192,52860,1,8,0:0:0:0:
256,192,52909,1,0,0:0:0:0:
256,192,53056,1,0,0:0:0:0:
256,192,53203,1,8,0:0:0:0:
256,192,53276,1,0,0:0:0:0:
256,192,53350,1,0,0:0:0:0:
256,192,53497,1,4,0:0:0:0:
256,192,53791,1,0,0:0:0:0:
256,192,53938,1,12,0:0:0:0:
256,192,54232,1,4,0:0:0:0:
256,192,56291,1,8,0:0:0:0:
256,192,56585,1,0,0:0:0:0:
256,192,56659,1,0,0:0:0:0:
256,192,56806,1,8,0:0:0:0:
256,192,56879,1,0,0:0:0:0:
256,192,57026,1,8,0:0:0:0:
256,192,57100,1,0,0:0:0:0:
256,192,57173,1,0,0:0:0:0:
256,192,57320,1,8,0:0:0:0:
256,192,57467,1,0,0:0:0:0:
256,192,57541,1,0,0:0:0:0:
256,192,57615,1,8,0:0:0:0:
256,192,57762,1,0,0:0:0:0:
256,192,57909,1,8,0:0:0:0:
256,192,57982,1,0,0:0:0:0:
256,192,58056,1,8,0:0:0:0:
256,192,58203,1,8,0:0:0:0:
256,192,58350,1,0,0:0:0:0:
256,192,58497,1,0,0:0:0:0:
256,192,58570,1,8,0:0:0:0:
256,192,58644,1,0,0:0:0:0:
256,192,58717,1,0,0:0:0:0:
256,192,58791,1,8,0:0:0:0:
256,192,58938,1,0,0:0:0:0:
256,192,59012,1,0,0:0:0:0:
256,192,59159,1,8,0:0:0:0:
256,192,59232,1,0,0:0:0:0:
256,192,59379,1,8,0:0:0:0:
256,192,59453,1,0,0:0:0:0:
256,192,59526,1,0,0:0:0:0:
256,192,59673,1,0,0:0:0:0:
256,192,59820,1,0,0:0:0:0:
256,192,59967,1,8,0:0:0:0:
256,192,60041,1,8,0:0:0:0:
256,192,60115,1,0,0:0:0:0:
256,192,60188,1,8,0:0:0:0:
256,192,60335,1,0,0:0:0:0:
256,192,60409,1,0,0:0:0:0:
256,192,60556,1,8,0:0:0:0:
256,192,60629,1,0,0:0:0:0:
256,192,60703,1,0,0:0:0:0:
256,192,60850,1,8,0:0:0:0:
256,192,60899,1,8,0:0:0:0:
256,192,60948,1,8,0:0:0:0:
256,192,60997,1,0,0:0:0:0:
256,192,61144,1,8,0:0:0:0:
256,192,61193,1,8,0:0:0:0:
256,192,61242,1,8,0:0:0:0:
256,192,61291,1,0,0:0:0:0:
256,192,61438,1,0,0:0:0:0:
256,192,61585,1,0,0:0:0:0:
256,192,61732,1,0,0:0:0:0:
256,192,61806,1,8,0:0:0:0:
256,192,61879,1,0,0:0:0:0:
256,192,62026,1,8,0:0:0:0:
256,192,62100,1,8,0:0:0:0:
256,192,62173,1,0,0:0:0:0:
256,192,62320,1,8,0:0:0:0:
256,192,62467,1,0,0:0:0:0:
256,192,62541,1,0,0:0:0:0:
256,192,62688,1,0,0:0:0:0:
256,192,62762,1,8,0:0:0:0:
256,192,62909,1,8,0:0:0:0:
256,192,62982,1,0,0:0:0:0:
256,192,63056,1,0,0:0:0:0:
256,192,63203,1,0,0:0:0:0:
256,192,63350,1,0,0:0:0:0:
256,192,63423,1,8,0:0:0:0:
256,192,63497,1,0,0:0:0:0:
256,192,63644,1,0,0:0:0:0:
256,192,63791,1,0,0:0:0:0:
256,192,63865,1,0,0:0:0:0:
256,192,63938,1,8,0:0:0:0:
256,192,64232,1,0,0:0:0:0:
256,192,64379,1,8,0:0:0:0:
256,192,64453,1,8,0:0:0:0:
256,192,64526,1,0,0:0:0:0:
256,192,64820,1,4,0:0:0:0:
256,192,65115,1,4,0:0:0:0:
256,192,65409,1,0,0:0:0:0:
256,192,65556,1,0,0:0:0:0:
256,192,65703,1,12,0:0:0:0:
256,192,65997,1,0,0:0:0:0:
256,192,66144,1,8,0:0:0:0:
256,192,66217,1,8,0:0:0:0:
256,192,66291,1,0,0:0:0:0:
256,192,66438,1,8,0:0:0:0:
256,192,66585,1,0,0:0:0:0:
256,192,66659,1,0,0:0:0:0:
256,192,66806,1,0,0:0:0:0:
256,192,66879,1,8,0:0:0:0:
256,192,67026,1,0,0:0:0:0:
256,192,67100,1,8,0:0:0:0:
256,192,67173,1,0,0:0:0:0:
256,192,67320,1,0,0:0:0:0:
256,192,67467,1,8,0:0:0:0:
256,192,67615,1,0,0:0:0:0:
256,192,67688,1,8,0:0:0:0:
256,192,67762,1,0,0:0:0:0:
256,192,67835,1,0,0:0:0:0:
256,192,67982,1,0,0:0:0:0:
256,192,68056,1,8,0:0:0:0:
256,192,68203,1,8,0:0:0:0:
256,192,68350,1,8,0:0:0:0:
256,192,68423,1,8,0:0:0:0:
256,192,68497,1,0,0:0:0:0:
256,192,68644,1,0,0:0:0:0:
256,192,68791,1,8,0:0:0:0:
256,192,68865,1,0,0:0:0:0:
256,192,68938,1,8,0:0:0:0:
256,192,69012,1,8,0:0:0:0:
256,192,69085,1,0,0:0:0:0:
256,192,69232,1,0,0:0:0:0:
256,192,69379,1,8,0:0:0:0:
256,192,69453,1,0,0:0:0:0:
256,192,69526,1,0,0:0:0:0:
256,192,69673,1,8,0:0:0:0:
256,192,69722,1,8,0:0:0:0:
256,192,69771,1,8,0:0:0:0:
256,192,69820,1,0,0:0:0:0:
256,192,69967,1,8,0:0:0:0:
256,192,70016,1,8,0:0:0:0:
256,192,70065,1,8,0:0:0:0:
256,192,70115,1,0,0:0:0:0:
256,192,70262,1,0,0:0:0:0:
256,192,70335,1,8,0:0:0:0:
256,192,70409,1,0,0:0:0:0:
256,192,70556,1,8,0:0:0:0:
256,192,70605,1,8,0:0:0:0:
256,192,70654,1,8,0:0:0:0:
256,192,70703,1,0,0:0:0:0:
256,192,70850,1,0,0:0:0:0:
256,192,70997,1,0,0:0:0:0:
256,192,71144,1,8,0:0:0:0:
256,192,71291,1,0,0:0:0:0:
256,192,71438,1,0,0:0:0:0:
256,192,71512,1,0,0:0:0:0:
256,192,71585,1,8,0:0:0:0:
256,192,71879,1,0,0:0:0:0:
256,192,72026,1,8,0:0:0:0:
256,192,72100,1,0,0:0:0:0:
256,192,72173,1,8,0:0:0:0:
256,192,72247,1,8,0:0:0:0:
256,192,72320,1,0,0:0:0:0:
256,192,72394,1,8,0:0:0:0:
256,192,72467,1,0,0:0:0:0:
256,192,72615,1,8,0:0:0:0:
256,192,72762,1,12,0:0:0:0:
256,192,73056,1,0,0:0:0:0:
256,192,73203,1,0,0:0:0:0:
256,192,73350,1,8,0:0:0:0:
256,192,73497,1,0,0:0:0:0:
256,192,73644,1,0,0:0:0:0:
256,192,73791,1,8,0:0:0:0:
256,192,73938,1,8,0:0:0:0:
256,192,74085,1,8,0:0:0:0:
256,192,74232,1,0,0:0:0:0:
256,192,74306,1,8,0:0:0:0:
256,192,74379,1,0,0:0:0:0:
256,192,74453,1,8,0:0:0:0:
256,192,74526,1,0,0:0:0:0:
256,192,74673,1,0,0:0:0:0:
256,192,74820,1,8,0:0:0:0:
256,192,75115,1,8,0:0:0:0:
256,192,75409,1,0,0:0:0:0:
256,192,75703,1,8,0:0:0:0:
256,192,75752,1,8,0:0:0:0:
256,192,75801,1,8,0:0:0:0:
256,192,75850,1,8,0:0:0:0:
256,192,75899,1,8,0:0:0:0:
256,192,75948,1,8,0:0:0:0:
256,192,75997,1,0,0:0:0:0:
256,192,76144,1,0,0:0:0:0:
256,192,76291,1,8,0:0:0:0:
256,192,76340,1,8,0:0:0:0:
256,192,76585,1,0,0:0:0:0:
256,192,76732,1,0,0:0:0:0:
256,192,76879,1,8,0:0:0:0:
256,192,76928,1,8,0:0:0:0:
256,192,76977,1,8,0:0:0:0:
256,192,77026,1,8,0:0:0:0:
256,192,77075,1,8,0:0:0:0:
256,192,77124,1,8,0:0:0:0:
256,192,77173,1,0,0:0:0:0:
256,192,77320,1,0,0:0:0:0:
256,192,77394,1,0,0:0:0:0:
256,192,77467,1,8,0:0:0:0:
256,192,77516,1,8,0:0:0:0:
256,192,77713,1,8,0:0:0:0:
256,192,77762,1,0,0:0:0:0:
256,192,78056,1,8,0:0:0:0:
256,192,78105,1,8,0:0:0:0:
256,192,78154,1,8,0:0:0:0:
256,192,78203,1,8,0:0:0:0:
256,192,78252,1,8,0:0:0:0:
256,192,78301,1,8,0:0:0:0:
256,192,78350,1,0,0:0:0:0:
256,192,78497,1,0,0:0:0:0:
256,192,78644,1,8,0:0:0:0:
256,192,78693,1,8,0:0:0:0:
256,192,78791,1,0,0:0:0:0:
256,192,79085,1,0,0:0:0:0:
256,192,79159,1,0,0:0:0:0:
256,192,79232,1,8,0:0:0:0:
256,192,79281,1,8,0:0:0:0:
256,192,79330,1,8,0:0:0:0:
256,192,79379,1,8,0:0:0:0:
256,192,79428,1,8,0:0:0:0:
256,192,79477,1,8,0:0:0:0:
256,192,79526,1,0,0:0:0:0:
256,192,79600,1,0,0:0:0:0:
256,192,79673,1,0,0:0:0:0:
256,192,79820,1,8,0:0:0:0:
256,192,79869,1,8,0:0:0:0:
256,192,79918,1,8,0:0:0:0:
256,192,79967,1,0,0:0:0:0:
256,192,80115,1,0,0:0:0:0:
256,192,80409,1,8,0:0:0:0:
256,192,80458,1,8,0:0:0:0:
256,192,80507,1,8,0:0:0:0:
256,192,80556,1,8,0:0:0:0:
256,192,80605,1,8,0:0:0:0:
256,192,80654,1,8,0:0:0:0:
256,192,80703,1,0,0:0:0:0:
256,192,80850,1,0,0:0:0:0:
256,192,80997,1,8,0:0:0:0:
256,192,81046,1,8,0:0:0:0:
256,192,81095,1,8,0:0:0:0:
256,192,81144,1,0,0:0:0:0:
256,192,81291,1,0,0:0:0:0:
256,192,81438,1,0,0:0:0:0:
256,192,81585,1,8,0:0:0:0:
256,192,81634,1,8,0:0:0:0:
256,192,81683,1,8,0:0:0:0:
256,192,81732,1,8,0:0:0:0:
256,192,81781,1,8,0:0:0:0:
256,192,81830,1,8,0:0:0:0:
256,192,81879,1,0,0:0:0:0:
256,192,82026,1,0,0:0:0:0:
256,192,82100,1,0,0:0:0:0:
256,192,82173,1,8,0:0:0:0:
256,192,82222,1,8,0:0:0:0:
256,192,82418,1,8,0:0:0:0:
256,192,82467,1,0,0:0:0:0:
256,192,82762,1,8,0:0:0:0:
256,192,82811,1,8,0:0:0:0:
256,192,82860,1,8,0:0:0:0:
256,192,82909,1,8,0:0:0:0:
256,192,82958,1,8,0:0:0:0:
256,192,83007,1,8,0:0:0:0:
256,192,83056,1,0,0:0:0:0:
256,192,83203,1,0,0:0:0:0:
256,192,83350,1,8,0:0:0:0:
256,192,83399,1,8,0:0:0:0:
256,192,83448,1,8,0:0:0:0:
256,192,83497,1,0,0:0:0:0:
256,192,83644,1,8,0:0:0:0:
256,192,83791,1,0,0:0:0:0:
256,192,83865,1,0,0:0:0:0:
256,192,83938,1,8,0:0:0:0:
256,192,83987,1,8,0:0:0:0:
256,192,84036,1,8,0:0:0:0:
256,192,84085,1,8,0:0:0:0:
256,192,84232,1,0,0:0:0:0:
256,192,84281,1,0,0:0:0:0:
256,192,84330,1,0,0:0:0:0:
256,192,84379,1,0,0:0:0:0:
256,192,84526,1,8,0:0:0:0:
256,192,84575,1,8,0:0:0:0:
256,192,84624,1,8,0:0:0:0:
256,192,84673,1,8,0:0:0:0:
256,192,84722,1,8,0:0:0:0:
256,192,84771,1,8,0:0:0:0:
256,192,84820,1,0,0:0:0:0:
256,192,84967,1,8,0:0:0:0:
256,192,85115,1,0,0:0:0:0:
256,192,85188,1,0,0:0:0:0:
256,192,85262,1,8,0:0:0:0:
256,192,85409,1,0,0:0:0:0:
256,192,85556,1,8,0:0:0:0:
256,192,85605,1,0,0:0:0:0:
256,192,85654,1,0,0:0:0:0:
256,192,85703,1,0,0:0:0:0:
256,192,85850,1,8,0:0:0:0:
256,192,85899,1,8,0:0:0:0:
256,192,85948,1,8,0:0:0:0:
256,192,85997,1,0,0:0:0:0:
256,192,86144,1,8,0:0:0:0:
256,192,86291,1,0,0:0:0:0:
256,192,86438,1,0,0:0:0:0:
256,192,86512,1,0,0:0:0:0:
256,192,86585,1,8,0:0:0:0:
256,192,86634,1,8,0:0:0:0:
256,192,86683,1,8,0:0:0:0:
256,192,86732,1,8,0:0:0:0:
256,192,86879,1,0,0:0:0:0:
256,192,86928,1,0,0:0:0:0:
256,192,86977,1,0,0:0:0:0:
256,192,87026,1,0,0:0:0:0:
256,192,87075,1,0,0:0:0:0:
256,192,87124,1,0,0:0:0:0:
256,192,87173,1,8,0:0:0:0:
256,192,87467,1,0,0:0:0:0:
256,192,87615,1,8,0:0:0:0:
256,192,87762,1,0,0:0:0:0:
256,192,87909,1,8,0:0:0:0:
256,192,87958,1,0,0:0:0:0:
256,192,88007,1,0,0:0:0:0:
256,192,88056,1,0,0:0:0:0:
256,192,88203,1,8,0:0:0:0:
256,192,88252,1,8,0:0:0:0:
256,192,88301,1,8,0:0:0:0:
256,192,88350,1,0,0:0:0:0:
256,192,88497,1,8,0:0:0:0:
256,192,88570,1,0,0:0:0:0:
256,192,88644,1,0,0:0:0:0:
256,192,88791,1,0,0:0:0:0:
256,192,88865,1,0,0:0:0:0:
256,192,88938,1,8,0:0:0:0:
256,192,88987,1,8,0:0:0:0:
256,192,89085,1,0,0:0:0:0:
256,192,89134,1,0,0:0:0:0:
256,192,89232,1,0,0:0:0:0:
256,192,89281,1,0,0:0:0:0:
256,192,89379,1,8,0:0:0:0:
256,192,89428,1,8,0:0:0:0:
256,192,89477,1,8,0:0:0:0:
256,192,89526,1,0,0:0:0:0:
256,192,89673,1,8,0:0:0:0:
256,192,89820,1,0,0:0:0:0:
256,192,89967,1,8,0:0:0:0:
256,192,90041,1,0,0:0:0:0:
256,192,90115,1,0,0:0:0:0:
256,192,90262,1,8,0:0:0:0:
256,192,90311,1,0,0:0:0:0:
256,192,90360,1,0,0:0:0:0:
256,192,90409,1,0,0:0:0:0:
256,192,90556,1,8,0:0:0:0:
256,192,90605,1,8,0:0:0:0:
256,192,90654,1,8,0:0:0:0:
256,192,90703,1,0,0:0:0:0:
256,192,90850,1,8,0:0:0:0:
256,192,90997,1,8,0:0:0:0:
256,192,91144,1,0,0:0:0:0:
256,192,91291,1,8,0:0:0:0:
256,192,91340,1,8,0:0:0:0:
256,192,91389,1,8,0:0:0:0:
256,192,91438,1,8,0:0:0:0:
256,192,91585,1,0,0:0:0:0:
256,192,91634,1,0,0:0:0:0:
256,192,91683,1,0,0:0:0:0:
256,192,91732,1,8,0:0:0:0:
256,192,91879,1,0,0:0:0:0:
256,192,92173,1,0,0:0:0:0:
256,192,92222,1,0,0:0:0:0:
256,192,92271,1,0,0:0:0:0:
256,192,92320,1,8,0:0:0:0:
256,192,92467,1,0,0:0:0:0:
256,192,92615,1,8,0:0:0:0:
256,192,92664,1,8,0:0:0:0:
256,192,92762,1,0,0:0:0:0:
256,192,93056,1,0,0:0:0:0:
256,192,93203,1,8,0:0:0:0:
256,192,93252,1,8,0:0:0:0:
256,192,93301,1,8,0:0:0:0:
256,192,93350,1,0,0:0:0:0:
256,192,93497,1,8,0:0:0:0:
256,192,93546,1,8,0:0:0:0:
256,192,93595,1,0,0:0:0:0:
256,192,93644,1,0,0:0:0:0:
256,192,93791,1,8,0:0:0:0:
256,192,93840,1,8,0:0:0:0:
256,192,93938,1,0,0:0:0:0:
256,192,93987,1,0,0:0:0:0:
256,192,94085,1,0,0:0:0:0:
256,192,94134,1,0,0:0:0:0:
256,192,95997,1,8,0:0:0:0:
256,192,96046,1,8,0:0:0:0:
256,192,96095,1,8,0:0:0:0:
256,192,96144,1,8,0:0:0:0:
256,192,96291,1,8,0:0:0:0:
256,192,96340,1,8,0:0:0:0:
256,192,96389,1,8,0:0:0:0:
256,192,96438,1,0,0:0:0:0:
256,192,96585,1,4,0:0:0:0:
256,192,96879,1,4,0:0:0:0:
256,192,97173,1,4,0:0:0:0:
256,192,97320,1,4,0:0:0:0:
256,192,97467,1,4,0:0:0:0:
256,192,97762,1,4,0:0:0:0:
256,192,97909,1,4,0:0:0:0:
256,192,98056,1,4,0:0:0:0:
256,192,98203,1,4,0:0:0:0:
256,192,98497,1,4,0:0:0:0:
256,192,98644,1,4,0:0:0:0:
256,192,98938,1,8,0:0:0:0:
256,192,100556,1,8,0:0:0:0:
256,192,100605,1,8,0:0:0:0:
256,192,100703,1,0,0:0:0:0:
256,192,100752,1,0,0:0:0:0:
256,192,100850,1,0,0:0:0:0:
256,192,100899,1,0,0:0:0:0:
256,192,100997,1,8,0:0:0:0:
256,192,101046,1,8,0:0:0:0:
256,192,101144,1,0,0:0:0:0:
256,192,101193,1,0,0:0:0:0:
256,192,101291,1,4,0:0:0:0:
256,192,101585,1,4,0:0:0:0:
256,192,101879,1,4,0:0:0:0:
256,192,102026,1,4,0:0:0:0:
256,192,102173,1,4,0:0:0:0:
256,192,102467,1,4,0:0:0:0:
256,192,102615,1,4,0:0:0:0:
256,192,102762,1,4,0:0:0:0:
256,192,102909,1,4,0:0:0:0:
256,192,103203,1,4,0:0:0:0:
256,192,103350,1,4,0:0:0:0:
256,192,103497,1,8,0:0:0:0:
256,192,103546,1,8,0:0:0:0:
256,192,103595,1,8,0:0:0:0:
256,192,103644,1,0,0:0:0:0:
256,192,103938,1,8,0:0:0:0:
256,192,104085,1,0,0:0:0:0:
256,192,104379,1,0,0:0:0:0:
256,192,104526,1,8,0:0:0:0:
256,192,104673,1,8,0:0:0:0:
256,192,104820,1,0,0:0:0:0:
256,192,104967,1,0,0:0:0:0:
256,192,105115,1,8,0:0:0:0:
256,192,105262,1,0,0:0:0:0:
256,192,105556,1,0,0:0:0:0:
256,192,105703,1,8,0:0:0:0:
256,192,105850,1,8,0:0:0:0:
256,192,105997,1,0,0:0:0:0:
256,192,106144,1,0,0:0:0:0:
256,192,106291,1,8,0:0:0:0:
256,192,106438,1,0,0:0:0:0:
256,192,106732,1,0,0:0:0:0:
256,192,106879,1,8,0:0:0:0:
256,192,107173,1,0,0:0:0:0:
256,192,107320,1,0,0:0:0:0:
256,192,107467,1,8,0:0:0:0:
256,192,107615,1,0,0:0:0:0:
256,192,107688,1,8,0:0:0:0:
256,192,107762,1,0,0:0:0:0:
256,192,107909,1,0,0:0:0:0:
256,192,108056,1,8,0:0:0:0:
256,192,108350,1,0,0:0:0:0:
256,192,108423,1,0,0:0:0:0:
256,192,108497,1,8,0:0:0:0:
256,192,108570,1,0,0:0:0:0:
256,192,108644,1,8,0:0:0:0:
256,192,108717,1,8,0:0:0:0:
256,192,108791,1,0,0:0:0:0:
256,192,108865,1,8,0:0:0:0:
256,192,108938,1,0,0:0:0:0:
256,192,109012,1,0,0:0:0:0:
256,192,109085,1,8,0:0:0:0:
256,192,109159,1,0,0:0:0:0:
256,192,109232,1,8,0:0:0:0:
256,192,109306,1,8,0:0:0:0:
256,192,109379,1,8,0:0:0:0:
256,192,109453,1,0,0:0:0:0:
256,192,109526,1,0,0:0:0:0:
256,192,109575,1,0,0:0:0:0:
256,192,109624,1,0,0:0:0:0:
256,192,109673,1,0,0:0:0:0:
256,192,109722,1,0,0:0:0:0:
256,192,109771,1,0,0:0:0:0:
256,192,109820,1,8,0:0:0:0:
256,192,109869,1,8,0:0:0:0:
256,192,109918,1,8,0:0:0:0:
256,192,109967,1,8,0:0:0:0:
256,192,110016,1,0,0:0:0:0:
256,192,110065,1,0,0:0:0:0:
256,192,110115,1,8,0:0:0:0:
256,192,110164,1,8,0:0:0:0:
256,192,110213,1,0,0:0:0:0:
256,192,110262,1,0,0:0:0:0:
256,192,110311,1,0,0:0:0:0:
256,192,110360,1,0,0:0:0:0:
256,192,110409,1,8,0:0:0:0:
256,192,110458,1,8,0:0:0:0:
256,192,110507,1,8,0:0:0:0:
256,192,110556,1,8,0:0:0:0:
256,192,110605,1,8,0:0:0:0:
256,192,110654,1,8,0:0:0:0:
256,192,110703,1,0,0:0:0:0:
256,192,111291,1,0,0:0:0:0:
256,192,111879,1,0,0:0:0:0:
256,192,112173,1,0,0:0:0:0:
256,192,112467,1,0,0:0:0:0:
256,192,112615,1,0,0:0:0:0:
256,192,112664,1,0,0:0:0:0:
256,192,112713,1,0,0:0:0:0:
256,192,112762,1,0,0:0:0:0:
256,192,112909,1,0,0:0:0:0:
256,192,112958,1,0,0:0:0:0:
256,192,113007,1,0,0:0:0:0:
256,192,113056,1,8,0:0:0:0:
256,192,113129,1,0,0:0:0:0:
256,192,113203,1,8,0:0:0:0:
256,192,113276,1,0,0:0:0:0:
256,192,113350,1,8,0:0:0:0:
256,192,113423,1,8,0:0:0:0:
256,192,113497,1,0,0:0:0:0:
256,192,113644,1,0,0:0:0:0:
256,192,113791,1,8,0:0:0:0:
256,192,113865,1,0,0:0:0:0:
256,192,113938,1,8,0:0:0:0:
256,192,114012,1,8,0:0:0:0:
256,192,114085,1,8,0:0:0:0:
256,192,114232,1,0,0:0:0:0:
256,192,114379,1,8,0:0:0:0:
256,192,114453,1,8,0:0:0:0:
256,192,114526,1,0,0:0:0:0:
256,192,114673,1,8,0:0:0:0:
256,192,114820,1,0,0:0:0:0:
256,192,114967,1,8,0:0:0:0:
256,192,115041,1,8,0:0:0:0:
256,192,115115,1,8,0:0:0:0:
256,192,115262,1,0,0:0:0:0:
256,192,115409,1,0,0:0:0:0:
256,192,115482,1,8,0:0:0:0:
256,192,115556,1,0,0:0:0:0:
256,192,115629,1,0,0:0:0:0:
256,192,115703,1,8,0:0:0:0:
256,192,115776,1,8,0:0:0:0:
256,192,115850,1,0,0:0:0:0:
256,192,115997,1,0,0:0:0:0:
256,192,116144,1,0,0:0:0:0:
256,192,116217,1,8,0:0:0:0:
256,192,116291,1,0,0:0:0:0:
256,192,116365,1,0,0:0:0:0:
256,192,116438,1,8,0:0:0:0:
256,192,116585,1,0,0:0:0:0:
256,192,116732,1,8,0:0:0:0:
256,192,116806,1,0,0:0:0:0:
256,192,116879,1,8,0:0:0:0:
256,192,117026,1,8,0:0:0:0:
256,192,117100,1,8,0:0:0:0:
256,192,117173,1,8,0:0:0:0:
256,192,117320,1,0,0:0:0:0:
256,192,117394,1,8,0:0:0:0:
256,192,117467,1,0,0:0:0:0:
256,192,117541,1,0,0:0:0:0:
256,192,117615,1,8,0:0:0:0:
256,192,117688,1,8,0:0:0:0:
256,192,117762,1,0,0:0:0:0:
256,192,117909,1,0,0:0:0:0:
256,192,117982,1,8,0:0:0:0:
256,192,118056,1,0,0:0:0:0:
256,192,118203,1,8,0:0:0:0:
256,192,118276,1,0,0:0:0:0:
256,192,118350,1,8,0:0:0:0:
256,192,118423,1,8,0:0:0:0:
256,192,118497,1,0,0:0:0:0:
256,192,118570,1,0,0:0:0:0:
256,192,118644,1,8,0:0:0:0:
256,192,118717,1,0,0:0:0:0:
256,192,118791,1,0,0:0:0:0:
256,192,118938,1,0,0:0:0:0:
256,192,119085,1,8,0:0:0:0:
256,192,119159,1,0,0:0:0:0:
256,192,119232,1,8,0:0:0:0:
256,192,119379,1,8,0:0:0:0:
256,192,119453,1,8,0:0:0:0:
256,192,119526,1,0,0:0:0:0:
256,192,119673,1,8,0:0:0:0:
256,192,119820,1,0,0:0:0:0:
256,192,119894,1,0,0:0:0:0:
256,192,119967,1,0,0:0:0:0:
256,192,120041,1,8,0:0:0:0:
256,192,120115,1,0,0:0:0:0:
256,192,120262,1,0,0:0:0:0:
256,192,120335,1,0,0:0:0:0:
256,192,120409,1,12,0:0:0:0:
256,192,120703,1,0,0:0:0:0:
256,192,120850,1,0,0:0:0:0:
256,192,120923,1,8,0:0:0:0:
256,192,120997,1,4,0:0:0:0:
256,192,121291,1,4,0:0:0:0:
256,192,121438,1,8,0:0:0:0:
256,192,121512,1,0,0:0:0:0:
256,192,121585,1,8,0:0:0:0:
256,192,121732,1,8,0:0:0:0:
256,192,121806,1,8,0:0:0:0:
256,192,121879,1,4,0:0:0:0:
256,192,122173,1,4,0:0:0:0:
256,192,122467,1,0,0:0:0:0:
256,192,122541,1,0,0:0:0:0:
256,192,122615,1,8,0:0:0:0:
256,192,122688,1,0,0:0:0:0:
256,192,122762,1,8,0:0:0:0:
256,192,122835,1,8,0:0:0:0:
256,192,122909,1,0,0:0:0:0:
256,192,123056,1,0,0:0:0:0:
256,192,123203,1,8,0:0:0:0:
256,192,123276,1,0,0:0:0:0:
256,192,123350,1,8,0:0:0:0:
256,192,123423,1,8,0:0:0:0:
256,192,123497,1,8,0:0:0:0:
256,192,123644,1,0,0:0:0:0:
256,192,123791,1,8,0:0:0:0:
256,192,123865,1,8,0:0:0:0:
256,192,123938,1,0,0:0:0:0:
256,192,124085,1,0,0:0:0:0:
256,192,124159,1,8,0:0:0:0:
256,192,124232,1,0,0:0:0:0:
256,192,124379,1,8,0:0:0:0:
256,192,124453,1,0,0:0:0:0:
256,192,124526,1,0,0:0:0:0:
256,192,124600,1,8,0:0:0:0:
256,192,124673,1,0,0:0:0:0:
256,192,124820,1,0,0:0:0:0:
256,192,124967,1,0,0:0:0:0:
256,192,125041,1,0,0:0:0:0:
256,192,125115,1,8,0:0:0:0:
256,192,125188,1,0,0:0:0:0:
256,192,125262,1,0,0:0:0:0:
256,192,125409,1,0,0:0:0:0:
256,192,125556,1,8,0:0:0:0:
256,192,125629,1,0,0:0:0:0:
256,192,125703,1,8,0:0:0:0:
256,192,125776,1,8,0:0:0:0:
256,192,125850,1,8,0:0:0:0:
256,192,125997,1,0,0:0:0:0:
256,192,126144,1,8,0:0:0:0:
256,192,126217,1,0,0:0:0:0:
256,192,126291,1,8,0:0:0:0:
256,192,126365,1,8,0:0:0:0:
256,192,126438,1,8,0:0:0:0:
256,192,126512,1,0,0:0:0:0:
256,192,126585,1,8,0:0:0:0:
256,192,126806,1,8,0:0:0:0:
256,192,126879,1,0,0:0:0:0:
256,192,127026,1,8,0:0:0:0:
256,192,127100,1,0,0:0:0:0:
256,192,127173,1,0,0:0:0:0:
256,192,127320,1,0,0:0:0:0:
256,192,127467,1,8,0:0:0:0:
256,192,127541,1,8,0:0:0:0:
256,192,127615,1,8,0:0:0:0:
256,192,127688,1,8,0:0:0:0:
256,192,127762,1,0,0:0:0:0:
256,192,127909,1,8,0:0:0:0:
256,192,127958,1,8,0:0:0:0:
256,192,128007,1,8,0:0:0:0:
256,192,128056,1,8,0:0:0:0:
256,192,128105,1,8,0:0:0:0:
256,192,128154,1,8,0:0:0:0:
256,192,128203,1,0,0:0:0:0:
256,192,128350,1,0,0:0:0:0:
256,192,128644,1,0,0:0:0:0:
256,192,128717,1,0,0:0:0:0:
256,192,128791,1,8,0:0:0:0:
256,192,128938,1,0,0:0:0:0:
256,192,129085,1,12,0:0:0:0:
256,192,129232,1,8,0:0:0:0:
256,192,129526,1,4,0:0:0:0:
256,192,131291,1,8,0:0:0:0:
256,192,131365,1,8,0:0:0:0:
256,192,131438,1,8,0:0:0:0:
256,192,131512,1,8,0:0:0:0:
256,192,131585,1,4,0:0:0:0:
256,192,131879,1,0,0:0:0:0:
256,192,131953,1,0,0:0:0:0:
256,192,132026,1,8,0:0:0:0:
256,192,132100,1,0,0:0:0:0:
256,192,132173,1,8,0:0:0:0:
256,192,132247,1,8,0:0:0:0:
256,192,132320,1,0,0:0:0:0:
256,192,132394,1,8,0:0:0:0:
256,192,132467,1,0,0:0:0:0:
256,192,132615,1,8,0:0:0:0:
256,192,132688,1,0,0:0:0:0:
256,192,132762,1,8,0:0:0:0:
256,192,132835,1,8,0:0:0:0:
256,192,132909,1,8,0:0:0:0:
256,192,132982,1,0,0:0:0:0:
256,192,133056,1,8,0:0:0:0:
256,192,133203,1,8,0:0:0:0:
256,192,133276,1,8,0:0:0:0:
256,192,133350,1,0,0:0:0:0:
256,192,133497,1,8,0:0:0:0:
256,192,133570,1,0,0:0:0:0:
256,192,133644,1,8,0:0:0:0:
256,192,133717,1,8,0:0:0:0:
256,192,133791,1,0,0:0:0:0:
256,192,133865,1,0,0:0:0:0:
256,192,133938,1,8,0:0:0:0:
256,192,134012,1,0,0:0:0:0:
256,192,134085,1,8,0:0:0:0:
256,192,134232,1,0,0:0:0:0:
256,192,134379,1,8,0:0:0:0:
256,192,134453,1,0,0:0:0:0:
256,192,134526,1,8,0:0:0:0:
256,192,134600,1,8,0:0:0:0:
256,192,134673,1,0,0:0:0:0:
256,192,134820,1,0,0:0:0:0:
256,192,134894,1,8,0:0:0:0:
256,192,134967,1,0,0:0:0:0:
256,192,135041,1,0,0:0:0:0:
256,192,135115,1,8,0:0:0:0:
256,192,135188,1,0,0:0:0:0:
256,192,135262,1,8,0:0:0:0:
256,192,135409,1,0,0:0:0:0:
256,192,135556,1,8,0:0:0:0:
256,192,135629,1,0,0:0:0:0:
256,192,135703,1,8,0:0:0:0:
256,192,135776,1,8,0:0:0:0:
256,192,135850,1,0,0:0:0:0:
256,192,135923,1,8,0:0:0:0:
256,192,135997,1,0,0:0:0:0:
256,192,136070,1,0,0:0:0:0:
256,192,136217,1,8,0:0:0:0:
256,192,136291,1,0,0:0:0:0:
256,192,136365,1,0,0:0:0:0:
256,192,136438,1,8,0:0:0:0:
256,192,136512,1,0,0:0:0:0:
256,192,136585,1,8,0:0:0:0:
256,192,136732,1,8,0:0:0:0:
256,192,136806,1,8,0:0:0:0:
256,192,136879,1,0,0:0:0:0:
256,192,136953,1,8,0:0:0:0:
256,192,137026,1,0,0:0:0:0:
256,192,137173,1,8,0:0:0:0:
256,192,137247,1,8,0:0:0:0:
256,192,137320,1,0,0:0:0:0:
256,192,137467,1,8,0:0:0:0:
256,192,137541,1,0,0:0:0:0:
256,192,137615,1,0,0:0:0:0:
256,192,137762,1,0,0:0:0:0:
256,192,137909,1,8,0:0:0:0:
256,192,137982,1,0,0:0:0:0:
256,192,138056,1,8,0:0:0:0:
256,192,138203,1,8,0:0:0:0:
256,192,138350,1,0,0:0:0:0:
256,192,138423,1,8,0:0:0:0:
256,192,138497,1,8,0:0:0:0:
256,192,138570,1,0,0:0:0:0:
256,192,138644,1,8,0:0:0:0:
256,192,138717,1,0,0:0:0:0:
256,192,138791,1,0,0:0:0:0:
256,192,138938,1,0,0:0:0:0:
256,192,139085,1,0,0:0:0:0:
256,192,139159,1,8,0:0:0:0:
256,192,139232,1,8,0:0:0:0:
256,192,139306,1,0,0:0:0:0:
256,192,139379,1,8,0:0:0:0:
256,192,139453,1,0,0:0:0:0:
256,192,139526,1,0,0:0:0:0:
256,192,139600,1,8,0:0:0:0:
256,192,139673,1,0,0:0:0:0:
256,192,139820,1,0,0:0:0:0:
256,192,139967,1,8,0:0:0:0:
256,192,140041,1,8,0:0:0:0:
256,192,140115,1,0,0:0:0:0:
256,192,140262,1,8,0:0:0:0:
256,192,140311,1,8,0:0:0:0:
256,192,140360,1,8,0:0:0:0:
256,192,140409,1,0,0:0:0:0:
256,192,140556,1,8,0:0:0:0:
256,192,140605,1,8,0:0:0:0:
256,192,140703,1,0,0:0:0:0:
256,192,140850,1,8,0:0:0:0:
256,192,140899,1,8,0:0:0:0:
256,192,140948,1,8,0:0:0:0:
256,192,140997,1,0,0:0:0:0:
256,192,141144,1,8,0:0:0:0:
256,192,141193,1,8,0:0:0:0:
256,192,141291,1,0,0:0:0:0:
256,192,141365,1,0,0:0:0:0:
256,192,141438,1,8,0:0:0:0:
256,192,141585,1,0,0:0:0:0:
256,192,141659,1,8,0:0:0:0:
256,192,141732,1,0,0:0:0:0:
256,192,141806,1,8,0:0:0:0:
256,192,141879,1,0,0:0:0:0:
256,192,141953,1,0,0:0:0:0:
256,192,142026,1,8,0:0:0:0:
256,192,142100,1,0,0:0:0:0:
256,192,142173,1,8,0:0:0:0:
256,192,142247,1,8,0:0:0:0:
256,192,142320,1,8,0:0:0:0:
256,192,142394,1,8,0:0:0:0:
256,192,142467,1,0,0:0:0:0:
256,192,142541,1,0,0:0:0:0:
256,192,142615,1,8,0:0:0:0:
256,192,142762,1,0,0:0:0:0:
256,192,142835,1,0,0:0:0:0:
256,192,142909,1,8,0:0:0:0:
256,192,142982,1,0,0:0:0:0:
256,192,143056,1,8,0:0:0:0:
256,192,143129,1,0,0:0:0:0:
256,192,143203,1,8,0:0:0:0:
256,192,143276,1,8,0:0:0:0:
256,192,143350,1,8,0:0:0:0:
256,192,143423,1,0,0:0:0:0:
256,192,143497,1,8,0:0:0:0:
256,192,143570,1,0,0:0:0:0:
256,192,143644,1,0,0:0:0:0:
256,192,143717,1,0,0:0:0:0:
256,192,143791,1,8,0:0:0:0:
256,192,143938,1,0,0:0:0:0:
256,192,144012,1,8,0:0:0:0:
256,192,144085,1,0,0:0:0:0:
256,192,144159,1,8,0:0:0:0:
256,192,144232,1,0,0:0:0:0:
256,192,144306,1,0,0:0:0:0:
256,192,144379,1,8,0:0:0:0:
256,192,144453,1,0,0:0:0:0:
256,192,144526,1,8,0:0:0:0:
256,192,144600,1,8,0:0:0:0:
256,192,144673,1,8,0:0:0:0:
256,192,144747,1,8,0:0:0:0:
256,192,144820,1,0,0:0:0:0:
256,192,144894,1,8,0:0:0:0:
256,192,144967,1,0,0:0:0:0:
256,192,145115,1,0,0:0:0:0:
256,192,145188,1,0,0:0:0:0:
256,192,145262,1,8,0:0:0:0:
256,192,145335,1,0,0:0:0:0:
256,192,145409,1,8,0:0:0:0:
256,192,145482,1,0,0:0:0:0:
256,192,145556,1,8,0:0:0:0:
256,192,145629,1,8,0:0:0:0:
256,192,145703,1,0,0:0:0:0:
256,192,145776,1,8,0:0:0:0:
256,192,145850,1,8,0:0:0:0:
256,192,145923,1,8,0:0:0:0:
256,192,145997,1,0,0:0:0:0:
256,192,146070,1,0,0:0:0:0:
256,192,146144,1,8,0:0:0:0:
256,192,146291,1,0,0:0:0:0:
256,192,146365,1,8,0:0:0:0:
256,192,146438,1,0,0:0:0:0:
256,192,146512,1,8,0:0:0:0:
256,192,146585,1,0,0:0:0:0:
256,192,146659,1,0,0:0:0:0:
256,192,146732,1,8,0:0:0:0:
256,192,146806,1,0,0:0:0:0:
256,192,146879,1,8,0:0:0:0:
256,192,146953,1,8,0:0:0:0:
256,192,147026,1,8,0:0:0:0:
256,192,147100,1,8,0:0:0:0:
256,192,147173,1,0,0:0:0:0:
256,192,147247,1,0,0:0:0:0:
256,192,147320,1,8,0:0:0:0:
256,192,147467,1,0,0:0:0:0:
256,192,147541,1,8,0:0:0:0:
256,192,147615,1,0,0:0:0:0:
256,192,147688,1,8,0:0:0:0:
256,192,147762,1,0,0:0:0:0:
256,192,147835,1,0,0:0:0:0:
256,192,147909,1,8,0:0:0:0:
256,192,147982,1,0,0:0:0:0:
256,192,148056,1,8,0:0:0:0:
256,192,148129,1,0,0:0:0:0:
256,192,148203,1,8,0:0:0:0:
256,192,148276,1,8,0:0:0:0:
256,192,148350,1,0,0:0:0:0:
256,192,148423,1,0,0:0:0:0:
256,192,148497,1,8,0:0:0:0:
256,192,148644,1,0,0:0:0:0:
256,192,148717,1,8,0:0:0:0:
256,192,148791,1,0,0:0:0:0:
256,192,148865,1,8,0:0:0:0:
256,192,148938,1,0,0:0:0:0:
256,192,149012,1,0,0:0:0:0:
256,192,149085,1,8,0:0:0:0:
256,192,149159,1,0,0:0:0:0:
256,192,149232,1,8,0:0:0:0:
256,192,149306,1,8,0:0:0:0:
256,192,149379,1,8,0:0:0:0:
256,192,149453,1,8,0:0:0:0:
256,192,149526,1,0,0:0:0:0:
256,192,149600,1,8,0:0:0:0:
256,192,149673,1,0,0:0:0:0:
256,192,149820,1,0,0:0:0:0:
256,192,149894,1,8,0:0:0:0:
256,192,149967,1,0,0:0:0:0:
256,192,150115,1,0,0:0:0:0:
256,192,150188,1,8,0:0:0:0:
256,192,150262,1,0,0:0:0:0:
256,192,150409,1,0,0:0:0:0:
256,192,150482,1,8,0:0:0:0:
256,192,150556,1,0,0:0:0:0:
256,192,150605,1,8,0:0:0:0:
256,192,150654,1,8,0:0:0:0:
256,192,150703,1,0,0:0:0:0:
256,192,151144,1,8,0:0:0:0:
256,192,151291,1,8,0:0:0:0:
256,192,151585,1,8,0:0:0:0:
256,192,151732,1,8,0:0:0:0:
256,192,151806,1,0,0:0:0:0:
256,192,152026,1,8,0:0:0:0:
256,192,152320,1,8,0:0:0:0:
256,192,152467,1,8,0:0:0:0:
256,192,152541,1,0,0:0:0:0:
256,192,152762,1,8,0:0:0:0:
256,192,153056,1,8,0:0:0:0:
256,192,153497,1,8,0:0:0:0:
256,192,153570,1,0,0:0:0:0:
256,192,153644,1,8,0:0:0:0:
256,192,153791,1,8,0:0:0:0:
256,192,154085,1,8,0:0:0:0:
256,192,154159,1,0,0:0:0:0:
256,192,154379,1,8,0:0:0:0:
256,192,154673,1,8,0:0:0:0:
256,192,154820,1,8,0:0:0:0:
256,192,154894,1,0,0:0:0:0:
256,192,155115,1,8,0:0:0:0:
256,192,155262,1,8,0:0:0:0:
256,192,155409,1,8,0:0:0:0:
256,192,155850,1,8,0:0:0:0:
256,192,155923,1,0,0:0:0:0:
256,192,155997,1,8,0:0:0:0:
256,192,156070,1,0,0:0:0:0:
256,192,156144,1,0,0:0:0:0:
256,192,156438,1,8,0:0:0:0:
256,192,156512,1,0,0:0:0:0:
256,192,156732,1,8,0:0:0:0:
256,192,157026,1,8,0:0:0:0:
256,192,157173,1,8,0:0:0:0:
256,192,157247,1,0,0:0:0:0:
256,192,157320,1,8,0:0:0:0:
256,192,157467,1,0,0:0:0:0:
256,192,157541,1,0,0:0:0:0:
256,192,157615,1,8,0:0:0:0:
256,192,157762,1,0,0:0:0:0:
256,192,158203,1,8,0:0:0:0:
256,192,158350,1,8,0:0:0:0:
256,192,158423,1,0,0:0:0:0:
256,192,158644,1,8,0:0:0:0:
256,192,158791,1,8,0:0:0:0:
256,192,158865,1,0,0:0:0:0:
256,192,159085,1,8,0:0:0:0:
256,192,159379,1,8,0:0:0:0:
256,192,159526,1,8,0:0:0:0:
256,192,159600,1,0,0:0:0:0:
256,192,159820,1,8,0:0:0:0:
256,192,160115,1,0,0:0:0:0:
256,192,160556,1,0,0:0:0:0:
256,192,160703,1,0,0:0:0:0:
256,192,160752,1,0,0:0:0:0:
256,192,160801,1,0,0:0:0:0:
256,192,160850,1,0,0:0:0:0:
256,192,160997,1,8,0:0:0:0:
256,192,161046,1,8,0:0:0:0:
256,192,161095,1,8,0:0:0:0:
256,192,161144,1,8,0:0:0:0:
256,192,161193,1,8,0:0:0:0:
256,192,161242,1,8,0:0:0:0:
256,192,161291,1,0,0:0:0:0:
256,192,161585,1,0,0:0:0:0:
256,192,161879,1,0,0:0:0:0:
256,192,161928,1,0,0:0:0:0:
256,192,161977,1,0,0:0:0:0:
256,192,162026,1,0,0:0:0:0:
256,192,162173,1,8,0:0:0:0:
256,192,162222,1,8,0:0:0:0:
256,192,162271,1,8,0:0:0:0:
256,192,162320,1,8,0:0:0:0:
256,192,162369,1,8,0:0:0:0:
256,192,162418,1,8,0:0:0:0:
256,192,162467,1,0,0:0:0:0:
256,192,162909,1,0,0:0:0:0:
256,192,163056,1,0,0:0:0:0:
256,192,163105,1,0,0:0:0:0:
256,192,163154,1,0,0:0:0:0:
256,192,163203,1,0,0:0:0:0:
256,192,163350,1,8,0:0:0:0:
256,192,163399,1,8,0:0:0:0:
256,192,163448,1,8,0:0:0:0:
256,192,163497,1,8,0:0:0:0:
256,192,163546,1,8,0:0:0:0:
256,192,163595,1,8,0:0:0:0:
256,192,163644,1,0,0:0:0:0:
256,192,163938,1,0,0:0:0:0:
256,192,164232,1,0,0:0:0:0:
256,192,164281,1,0,0:0:0:0:
256,192,164330,1,0,0:0:0:0:
256,192,164379,1,0,0:0:0:0:
256,192,164526,1,8,0:0:0:0:
256,192,164575,1,8,0:0:0:0:
256,192,164624,1,8,0:0:0:0:
256,192,164673,1,8,0:0:0:0:
256,192,164722,1,8,0:0:0:0:
256,192,164771,1,8,0:0:0:0:
256,192,164820,1,0,0:0:0:0:
256,192,165262,1,0,0:0:0:0:
256,192,165409,1,0,0:0:0:0:
256,192,165458,1,0,0:0:0:0:
256,192,165507,1,0,0:0:0:0:
256,192,165556,1,0,0:0:0:0:
256,192,165703,1,8,0:0:0:0:
256,192,165752,1,8,0:0:0:0:
256,192,165801,1,8,0:0:0:0:
256,192,165850,1,8,0:0:0:0:
256,192,165899,1,8,0:0:0:0:
256,192,165948,1,8,0:0:0:0:
256,192,165997,1,0,0:0:0:0:
256,192,166291,1,0,0:0:0:0:
256,192,166438,1,0,0:0:0:0:
256,192,166585,1,0,0:0:0:0:
256,192,166634,1,0,0:0:0:0:
256,192,166683,1,0,0:0:0:0:
256,192,166732,1,0,0:0:0:0:
256,192,166879,1,8,0:0:0:0:
256,192,166928,1,8,0:0:0:0:
256,192,166977,1,8,0:0:0:0:
256,192,167026,1,8,0:0:0:0:
256,192,167075,1,8,0:0:0:0:
256,192,167124,1,8,0:0:0:0:
256,192,167173,1,0,0:0:0:0:
256,192,168350,1,0,0:0:0:0:
256,192,168423,1,0,0:0:0:0:
256,192,168497,1,0,0:0:0:0:
256,192,168570,1,0,0:0:0:0:
256,192,168644,1,0,0:0:0:0:
256,192,168717,1,0,0:0:0:0:
256,192,168791,1,0,0:0:0:0:
256,192,168865,1,0,0:0:0:0:
256,192,168938,1,8,0:0:0:0:
256,192,168987,1,8,0:0:0:0:
256,192,169036,1,8,0:0:0:0:
256,192,169085,1,8,0:0:0:0:
256,192,169134,1,0,0:0:0:0:
256,192,169183,1,0,0:0:0:0:
256,192,169232,1,8,0:0:0:0:
256,192,169281,1,8,0:0:0:0:
256,192,169330,1,8,0:0:0:0:
256,192,169379,1,8,0:0:0:0:
256,192,169428,1,8,0:0:0:0:
256,192,169477,1,8,0:0:0:0:
256,192,169526,1,0,0:0:0:0:
256,192,169820,1,8,0:0:0:0:
256,192,169894,1,8,0:0:0:0:
256,192,169967,1,0,0:0:0:0:
256,192,170115,1,0,0:0:0:0:
256,192,170262,1,8,0:0:0:0:
256,192,170335,1,0,0:0:0:0:
256,192,170409,1,0,0:0:0:0:
256,192,170556,1,8,0:0:0:0:
256,192,170703,1,0,0:0:0:0:
256,192,170850,1,8,0:0:0:0:
256,192,170923,1,0,0:0:0:0:
256,192,170997,1,8,0:0:0:0:
256,192,171070,1,0,0:0:0:0:
256,192,171144,1,8,0:0:0:0:
256,192,171217,1,8,0:0:0:0:
256,192,171291,1,0,0:0:0:0:
256,192,171365,1,0,0:0:0:0:
256,192,171438,1,8,0:0:0:0:
256,192,171585,1,0,0:0:0:0:
256,192,171659,1,8,0:0:0:0:
256,192,171732,1,0,0:0:0:0:
256,192,171879,1,0,0:0:0:0:
256,192,172026,1,8,0:0:0:0:
256,192,172100,1,0,0:0:0:0:
256,192,172173,1,8,0:0:0:0:
256,192,172247,1,8,0:0:0:0:
256,192,172320,1,0,0:0:0:0:
256,192,172394,1,8,0:0:0:0:
256,192,172467,1,0,0:0:0:0:
256,192,172615,1,8,0:0:0:0:
256,192,172688,1,8,0:0:0:0:
256,192,172762,1,0,0:0:0:0:
256,192,172909,1,8,0:0:0:0:
256,192,172982,1,8,0:0:0:0:
256,192,173056,1,8,0:0:0:0:
256,192,173203,1,8,0:0:0:0:
256,192,173276,1,8,0:0:0:0:
256,192,173350,1,0,0:0:0:0:
256,192,173423,1,8,0:0:0:0:
256,192,173497,1,0,0:0:0:0:
256,192,173570,1,0,0:0:0:0:
256,192,173644,1,8,0:0:0:0:
256,192,173717,1,0,0:0:0:0:
256,192,173791,1,8,0:0:0:0:
256,192,173865,1,0,0:0:0:0:
256,192,173938,1,0,0:0:0:0:
256,192,174085,1,0,0:0:0:0:
256,192,174232,1,0,0:0:0:0:
256,192,174306,1,0,0:0:0:0:
256,192,174379,1,8,0:0:0:0:
256,192,174453,1,0,0:0:0:0:
256,192,174526,1,8,0:0:0:0:
256,192,174673,1,0,0:0:0:0:
256,192,174820,1,0,0:0:0:0:
256,192,174894,1,0,0:0:0:0:
256,192,174967,1,8,0:0:0:0:
256,192,175041,1,0,0:0:0:0:
256,192,175115,1,8,0:0:0:0:
256,192,175188,1,8,0:0:0:0:
256,192,175262,1,0,0:0:0:0:
256,192,175335,1,8,0:0:0:0:
256,192,175409,1,0,0:0:0:0:
256,192,175556,1,8,0:0:0:0:
256,192,175629,1,0,0:0:0:0:
256,192,175703,1,8,0:0:0:0:
256,192,175850,1,8,0:0:0:0:
256,192,175997,1,0,0:0:0:0:
256,192,176070,1,8,0:0:0:0:
256,192,176144,1,8,0:0:0:0:
256,192,176217,1,0,0:0:0:0:
256,192,176291,1,8,0:0:0:0:
256,192,176438,1,0,0:0:0:0:
256,192,176585,1,0,0:0:0:0:
256,192,176732,1,0,0:0:0:0:
256,192,176806,1,0,0:0:0:0:
256,192,176879,1,12,0:0:0:0:
256,192,177173,1,0,0:0:0:0:
256,192,177320,1,8,0:0:0:0:
256,192,177394,1,8,0:0:0:0:
256,192,177467,1,4,0:0:0:0:
256,192,177762,1,4,0:0:0:0:
256,192,177909,1,8,0:0:0:0:
256,192,177982,1,0,0:0:0:0:
256,192,178056,1,8,0:0:0:0:
256,192,178203,1,8,0:0:0:0:
256,192,178350,1,4,0:0:0:0:
256,192,178644,1,4,0:0:0:0:
256,192,178938,1,0,0:0:0:0:
256,192,179085,1,8,0:0:0:0:
256,192,179159,1,0,0:0:0:0:
256,192,179232,1,8,0:0:0:0:
256,192,179306,1,0,0:0:0:0:
256,192,179379,1,0,0:0:0:0:
256,192,179453,1,8,0:0:0:0:
256,192,179526,1,0,0:0:0:0:
256,192,179673,1,8,0:0:0:0:
256,192,179747,1,0,0:0:0:0:
256,192,179820,1,8,0:0:0:0:
256,192,179894,1,0,0:0:0:0:
256,192,179967,1,0,0:0:0:0:
256,192,180115,1,8,0:0:0:0:
256,192,180262,1,8,0:0:0:0:
256,192,180335,1,0,0:0:0:0:
256,192,180409,1,8,0:0:0:0:
256,192,180556,1,8,0:0:0:0:
256,192,180703,1,0,0:0:0:0:
256,192,180776,1,0,0:0:0:0:
256,192,180850,1,8,0:0:0:0:
256,192,180923,1,0,0:0:0:0:
256,192,180997,1,8,0:0:0:0:
256,192,181070,1,8,0:0:0:0:
256,192,181144,1,0,0:0:0:0:
256,192,181291,1,0,0:0:0:0:
256,192,181438,1,8,0:0:0:0:
256,192,181512,1,0,0:0:0:0:
256,192,181585,1,8,0:0:0:0:
256,192,181732,1,8,0:0:0:0:
256,192,181879,1,0,0:0:0:0:
256,192,182026,1,8,0:0:0:0:
256,192,182100,1,8,0:0:0:0:
256,192,182173,1,0,0:0:0:0:
256,192,182247,1,0,0:0:0:0:
256,192,182320,1,8,0:0:0:0:
256,192,182394,1,0,0:0:0:0:
256,192,182467,1,8,0:0:0:0:
256,192,182615,1,8,0:0:0:0:
256,192,182688,1,0,0:0:0:0:
256,192,182762,1,8,0:0:0:0:
256,192,182835,1,8,0:0:0:0:
256,192,182909,1,0,0:0:0:0:
256,192,183056,1,0,0:0:0:0:
256,192,183129,1,8,0:0:0:0:
256,192,183203,1,8,0:0:0:0:
256,192,183276,1,0,0:0:0:0:
256,192,183350,1,8,0:0:0:0:
256,192,183423,1,0,0:0:0:0:
256,192,183497,1,0,0:0:0:0:
256,192,183570,1,8,0:0:0:0:
256,192,183644,1,0,0:0:0:0:
256,192,183791,1,0,0:0:0:0:
256,192,183865,1,0,0:0:0:0:
256,192,183938,1,8,0:0:0:0:
256,192,184012,1,8,0:0:0:0:
256,192,184085,1,8,0:0:0:0:
256,192,184159,1,8,0:0:0:0:
256,192,184232,1,0,0:0:0:0:
256,192,184379,1,8,0:0:0:0:
256,192,184428,1,8,0:0:0:0:
256,192,184477,1,8,0:0:0:0:
256,192,184526,1,8,0:0:0:0:
256,192,184575,1,8,0:0:0:0:
256,192,184624,1,8,0:0:0:0:
256,192,184673,1,0,0:0:0:0:
256,192,184820,1,0,0:0:0:0:
256,192,185115,1,8,0:0:0:0:
256,192,185262,1,0,0:0:0:0:
256,192,185556,1,0,0:0:0:0:
256,192,185703,1,8,0:0:0:0:
256,192,185776,1,8,0:0:0:0:
256,192,185850,1,8,0:0:0:0:
256,192,185923,1,8,0:0:0:0:
256,192,185997,1,4,0:0:0:0:
256,192,187173,1,8,0:0:0:0:
256,192,187320,1,8,0:0:0:0:
256,192,187394,1,8,0:0:0:0:
256,192,187467,1,8,0:0:0:0:
256,192,187615,1,8,0:0:0:0:
256,192,187688,1,8,0:0:0:0:
256,192,187762,1,8,0:0:0:0:
256,192,187909,1,8,0:0:0:0:
256,192,188056,1,4,0:0:0:0:
256,192,188203,1,8,0:0:0:0:
256,192,188276,1,8,0:0:0:0:
256,192,188350,1,4,0:0:0:0:
256,192,188644,1,8,0:0:0:0:
256,192,188791,1,4,0:0:0:0:
256,192,189085,1,4,0:0:0:0:
256,192,189379,1,8,0:0:0:0:
256,192,189526,1,4,0:0:0:0:
256,192,189820,1,4,0:0:0:0:
256,192,190115,1,4,0:0:0:0:
256,192,190262,1,0,0:0:0:0:
256,192,190409,1,12,0:0:0:0:
256,192,190703,1,4,0:0:0:0:
256,192,190997,1,8,0:0:0:0:
256,192,191144,1,4,0:0:0:0:
256,192,191438,1,4,0:0:0:0:
256,192,191732,1,8,0:0:0:0:
256,192,191879,1,4,0:0:0:0:
256,192,192173,1,4,0:0:0:0:
256,192,192467,1,4,0:0:0:0:
256,192,192615,1,4,0:0:0:0:
256,192,192762,1,0,0:0:0:0:
256,192,192835,1,0,0:0:0:0:
256,192,192909,1,0,0:0:0:0:
256,192,193056,1,4,0:0:0:0:
256,192,193350,1,8,0:0:0:0:
256,192,193497,1,4,0:0:0:0:
256,192,193791,1,4,0:0:0:0:
256,192,194085,1,8,0:0:0:0:
256,192,194232,1,4,0:0:0:0:
256,192,194526,1,4,0:0:0:0:
256,192,194820,1,4,0:0:0:0:
256,192,195115,1,4,0:0:0:0:
256,192,195262,1,0,0:0:0:0:
256,192,195409,1,12,0:0:0:0:
256,192,195703,1,8,0:0:0:0:
256,192,195850,1,4,0:0:0:0:
256,192,196144,1,4,0:0:0:0:
256,192,196438,1,8,0:0:0:0:
256,192,196585,1,4,0:0:0:0:
256,192,196879,1,4,0:0:0:0:
256,192,197173,1,12,0:0:0:0:
256,192,197320,1,12,0:0:0:0:
256,192,197467,1,4,0:0:0:0:
256,192,197615,1,4,0:0:0:0:
256,192,197762,1,0,0:0:0:0:
256,192,197835,1,0,0:0:0:0:
256,192,197909,1,8,0:0:0:0:
256,192,198056,1,0,0:0:0:0:
256,192,198203,1,8,0:0:0:0:
256,192,198276,1,8,0:0:0:0:
256,192,198350,1,0,0:0:0:0:
256,192,198497,1,0,0:0:0:0:
256,192,198644,1,0,0:0:0:0:
256,192,198717,1,0,0:0:0:0:
256,192,198791,1,0,0:0:0:0:
256,192,198938,1,12,0:0:0:0:
256,192,199232,1,12,0:0:0:0:
256,192,199526,1,12,0:0:0:0:
256,192,199673,1,0,0:0:0:0:
256,192,199747,1,0,0:0:0:0:
256,192,199820,1,8,0:0:0:0:
256,192,199894,1,8,0:0:0:0:
256,192,200041,1,8,0:0:0:0:
256,192,200115,1,0,0:0:0:0:
256,192,200262,1,8,0:0:0:0:
256,192,200335,1,8,0:0:0:0:
256,192,200409,1,0,0:0:0:0:
256,192,200556,1,8,0:0:0:0:
256,192,200703,1,0,0:0:0:0:
256,192,200850,1,0,0:0:0:0:
256,192,200923,1,8,0:0:0:0:
256,192,200997,1,0,0:0:0:0:
256,192,201144,1,0,0:0:0:0:
256,192,201291,1,12,0:0:0:0:
256,192,201585,1,12,0:0:0:0:
256,192,201879,1,12,0:0:0:0:
256,192,202026,1,8,0:0:0:0:
256,192,202100,1,0,0:0:0:0:
256,192,202173,1,0,0:0:0:0:
256,192,202320,1,0,0:0:0:0:
256,192,202467,1,12,0:0:0:0:
256,192,202615,1,8,0:0:0:0:
256,192,202688,1,8,0:0:0:0:
256,192,202762,1,0,0:0:0:0:
256,192,202909,1,8,0:0:0:0:
256,192,203056,1,0,0:0:0:0:
256,192,203129,1,0,0:0:0:0:
256,192,203276,1,8,0:0:0:0:
256,192,203350,1,0,0:0:0:0:
256,192,203497,1,0,0:0:0:0:
256,192,203644,1,12,0:0:0:0:
256,192,203791,1,0,0:0:0:0:
256,192,203865,1,8,0:0:0:0:
256,192,203938,1,0,0:0:0:0:
256,192,204085,1,0,0:0:0:0:
256,192,204159,1,8,0:0:0:0:
256,192,204232,1,0,0:0:0:0:
256,192,204306,1,0,0:0:0:0:
256,192,204379,1,8,0:0:0:0:
256,192,204453,1,8,0:0:0:0:
256,192,204526,1,0,0:0:0:0:
256,192,204673,1,0,0:0:0:0:
256,192,204820,1,12,0:0:0:0:
256,192,205262,1,8,0:0:0:0:
256,192,205409,1,8,0:0:0:0:
256,192,205703,1,8,0:0:0:0:
256,192,205850,1,8,0:0:0:0:
256,192,206144,1,8,0:0:0:0:
256,192,206438,1,8,0:0:0:0:
256,192,206585,1,8,0:0:0:0:
256,192,206879,1,0,0:0:0:0:
256,192,207026,1,8,0:0:0:0:
256,192,207173,1,0,0:0:0:0:
256,192,207565,1,8,0:0:0:0:
256,192,207615,1,8,0:0:0:0:
256,192,208203,1,0,0:0:0:0:
256,192,209232,1,8,0:0:0:0:
256,192,209379,1,8,0:0:0:0:
256,192,209526,1,0,0:0:0:0:
256,192,209820,1,8,0:0:0:0:
256,192,209967,1,8,0:0:0:0:
256,192,210262,1,0,0:0:0:0:
256,192,210556,1,8,0:0:0:0:
256,192,210850,1,8,0:0:0:0:
256,192,210997,1,8,0:0:0:0:
256,192,211144,1,0,0:0:0:0:
256,192,211291,1,8,0:0:0:0:
256,192,211879,1,0,0:0:0:0:
256,192,212271,1,0,0:0:0:0:
256,192,212320,1,8,0:0:0:0:
256,192,212909,1,0,0:0:0:0:
256,192,213938,1,8,0:0:0:0:
256,192,214085,1,8,0:0:0:0:
256,192,214232,1,0,0:0:0:0:
256,192,214526,1,8,0:0:0:0:
256,192,214673,1,8,0:0:0:0:
256,192,214967,1,8,0:0:0:0:
256,192,215262,1,0,0:0:0:0:
256,192,215997,1,0,0:0:0:0:
256,192,216585,1,0,0:0:0:0:
256,192,217026,1,0,0:0:0:0:
256,192,217173,1,0,0:0:0:0:
256,192,217222,1,0,0:0:0:0:
256,192,217271,1,0,0:0:0:0:
256,192,217320,1,0,0:0:0:0:
256,192,217467,1,8,0:0:0:0:
256,192,217516,1,8,0:0:0:0:
256,192,217565,1,8,0:0:0:0:
256,192,217615,1,8,0:0:0:0:
256,192,217664,1,8,0:0:0:0:
256,192,217713,1,8,0:0:0:0:
256,192,217762,1,0,0:0:0:0:
256,192,218056,1,0,0:0:0:0:
256,192,218350,1,0,0:0:0:0:
256,192,218399,1,0,0:0:0:0:
256,192,218448,1,0,0:0:0:0:
256,192,218497,1,0,0:0:0:0:
256,192,218644,1,8,0:0:0:0:
256,192,218693,1,8,0:0:0:0:
256,192,218742,1,8,0:0:0:0:
256,192,218791,1,8,0:0:0:0:
256,192,218840,1,8,0:0:0:0:
256,192,218889,1,8,0:0:0:0:
256,192,218938,1,0,0:0:0:0:
256,192,219232,1,0,0:0:0:0:
256,192,219379,1,0,0:0:0:0:
256,192,219526,1,0,0:0:0:0:
256,192,219575,1,0,0:0:0:0:
256,192,219624,1,0,0:0:0:0:
256,192,219673,1,0,0:0:0:0:
256,192,219820,1,8,0:0:0:0:
256,192,219869,1,8,0:0:0:0:
256,192,219918,1,8,0:0:0:0:
256,192,219967,1,8,0:0:0:0:
256,192,220016,1,8,0:0:0:0:
256,192,220065,1,8,0:0:0:0:
256,192,220115,1,0,0:0:0:0:
256,192,220262,1,0,0:0:0:0:
256,192,220556,1,0,0:0:0:0:
256,192,220703,1,0,0:0:0:0:
256,192,220752,1,0,0:0:0:0:
256,192,220801,1,0,0:0:0:0:
256,192,220850,1,0,0:0:0:0:
256,192,220997,1,8,0:0:0:0:
256,192,221046,1,8,0:0:0:0:
256,192,221095,1,8,0:0:0:0:
256,192,221144,1,8,0:0:0:0:
256,192,221193,1,8,0:0:0:0:
256,192,221242,1,8,0:0:0:0:
256,192,221291,1,0,0:0:0:0:
256,192,221732,1,0,0:0:0:0:
256,192,221879,1,0,0:0:0:0:
256,192,221928,1,0,0:0:0:0:
256,192,221977,1,0,0:0:0:0:
256,192,222026,1,0,0:0:0:0:
256,192,222173,1,8,0:0:0:0:
256,192,222222,1,8,0:0:0:0:
256,192,222271,1,8,0:0:0:0:
256,192,222320,1,8,0:0:0:0:
256,192,222369,1,8,0:0:0:0:
256,192,222418,1,8,0:0:0:0:
256,192,222467,1,0,0:0:0:0:
256,192,222762,1,0,0:0:0:0:
256,192,223056,1,0,0:0:0:0:
256,192,223105,1,0,0:0:0:0:
256,192,223154,1,0,0:0:0:0:
256,192,223203,1,0,0:0:0:0:
256,192,223350,1,8,0:0:0:0:
256,192,223399,1,8,0:0:0:0:
256,192,223448,1,8,0:0:0:0:
256,192,223497,1,8,0:0:0:0:
256,192,223546,1,8,0:0:0:0:
256,192,223595,1,8,0:0:0:0:
256,192,223644,1,0,0:0:0:0:
256,192,223938,1,0,0:0:0:0:
256,192,224085,1,0,0:0:0:0:
256,192,224232,1,0,0:0:0:0:
256,192,224281,1,0,0:0:0:0:
256,192,224330,1,0,0:0:0:0:
256,192,224379,1,0,0:0:0:0:
256,192,224526,1,8,0:0:0:0:
256,192,224575,1,8,0:0:0:0:
256,192,224624,1,8,0:0:0:0:
256,192,224673,1,8,0:0:0:0:
256,192,224722,1,8,0:0:0:0:
256,192,224771,1,8,0:0:0:0:
256,192,224820,1,0,0:0:0:0:
256,192,224967,1,0,0:0:0:0:
256,192,225115,1,8,0:0:0:0:
256,192,225164,1,8,0:0:0:0:
256,192,225213,1,8,0:0:0:0:
256,192,225262,1,8,0:0:0:0:
256,192,225311,1,8,0:0:0:0:
256,192,225360,1,8,0:0:0:0:
256,192,225409,1,0,0:0:0:0:
256,192,225556,1,0,0:0:0:0:
256,192,225703,1,8,0:0:0:0:
256,192,225752,1,8,0:0:0:0:
256,192,225801,1,8,0:0:0:0:
256,192,225850,1,8,0:0:0:0:
256,192,225899,1,8,0:0:0:0:
256,192,225948,1,8,0:0:0:0:
256,192,225997,1,0,0:0:0:0:
256,192,226291,1,8,0:0:0:0:
256,192,226585,1,8,0:0:0:0:
256,192,226732,1,8,0:0:0:0:
256,192,226879,1,8,0:0:0:0:
256,192,227173,1,8,0:0:0:0:
256,192,227320,1,8,0:0:0:0:
256,192,227467,1,8,0:0:0:0:
256,192,227615,1,8,0:0:0:0:
256,192,227762,1,8,0:0:0:0:
256,192,227811,1,8,0:0:0:0:
256,192,227860,1,8,0:0:0:0:
256,192,227909,1,8,0:0:0:0:
256,192,228056,1,8,0:0:0:0:
256,192,228105,1,0,0:0:0:0:
256,192,228154,1,0,0:0:0:0:
256,192,228203,1,0,0:0:0:0:
256,192,228350,1,4,0:0:0:0:
256,192,228644,1,4,0:0:0:0:
256,192,228938,1,4,0:0:0:0:
256,192,229085,1,4,0:0:0:0:
256,192,229232,1,4,0:0:0:0:
256,192,229526,1,4,0:0:0:0:
256,192,229673,1,4,0:0:0:0:
256,192,229820,1,4,0:0:0:0:
256,192,229967,1,4,0:0:0:0:
256,192,230262,1,4,0:0:0:0:
256,192,230409,1,4,0:0:0:0:
256,192,230703,1,8,0:0:0:0:
256,192,230997,1,8,0:0:0:0:
256,192,231291,1,8,0:0:0:0:
256,192,231438,1,8,0:0:0:0:
256,192,231585,1,8,0:0:0:0:
256,192,231879,1,8,0:0:0:0:
256,192,232026,1,8,0:0:0:0:
256,192,232173,1,8,0:0:0:0:
256,192,232320,1,8,0:0:0:0:
256,192,232369,1,8,0:0:0:0:
256,192,232467,1,0,0:0:0:0:
256,192,232516,1,0,0:0:0:0:
256,192,232615,1,0,0:0:0:0:
256,192,232664,1,0,0:0:0:0:
256,192,232762,1,8,0:0:0:0:
256,192,232811,1,8,0:0:0:0:
256,192,232909,1,0,0:0:0:0:
256,192,232958,1,0,0:0:0:0:
256,192,233056,1,4,0:0:0:0:
256,192,233350,1,4,0:0:0:0:
256,192,233644,1,4,0:0:0:0:
256,192,233791,1,4,0:0:0:0:
256,192,233938,1,4,0:0:0:0:
256,192,234232,1,4,0:0:0:0:
256,192,234379,1,4,0:0:0:0:
256,192,234526,1,4,0:0:0:0:
256,192,234673,1,4,0:0:0:0:
256,192,234967,1,4,0:0:0:0:
256,192,235115,1,4,0:0:0:0:
256,192,235262,1,8,0:0:0:0:
256,192,235311,1,8,0:0:0:0:
256,192,235360,1,8,0:0:0:0:
256,192,235409,1,4,0:0:0:0:
256,192,235556,1,4,0:0:0:0:
256,192,235703,1,4,0:0:0:0:
256,192,235997,1,4,0:0:0:0:
256,192,236144,1,4,0:0:0:0:
256,192,236291,1,4,0:0:0:0:
256,192,236585,1,4,0:0:0:0:
256,192,236732,1,4,0:0:0:0:
256,192,236879,1,4,0:0:0:0:
256,192,237173,1,4,0:0:0:0:
256,192,237320,1,4,0:0:0:0:
256,192,237467,1,4,0:0:0:0:
256,192,237762,1,4,0:0:0:0:
256,192,237909,1,4,0:0:0:0:
256,192,238056,1,4,0:0:0:0:
256,192,238350,1,4,0:0:0:0:
256,192,238497,1,4,0:0:0:0:
256,192,238644,1,4,0:0:0:0:
256,192,238938,1,4,0:0:0:0:
256,192,239085,1,4,0:0:0:0:
256,192,239232,1,4,0:0:0:0:
256,192,239526,1,4,0:0:0:0:
256,192,239673,1,4,0:0:0:0:
256,192,239820,1,4,0:0:0:0:
256,192,240115,1,12,0:0:0:0:
256,192,240262,1,0,0:0:0:0:
256,192,240409,1,12,0:0:0:0:
256,192,240556,1,0,0:0:0:0:
256,192,240703,1,12,0:0:0:0:
256,192,240850,1,0,0:0:0:0:
256,192,240997,1,12,0:0:0:0:
256,192,241144,1,0,0:0:0:0:
256,192,241291,1,12,0:0:0:0:
256,192,241438,1,0,0:0:0:0:
256,192,241585,1,12,0:0:0:0:
256,192,241732,1,0,0:0:0:0:
256,192,241879,1,12,0:0:0:0:
256,192,242026,1,0,0:0:0:0:
256,192,242173,1,12,0:0:0:0:
256,192,242320,1,0,0:0:0:0:
256,192,242467,1,4,0:0:0:0:
256,192,242615,1,0,0:0:0:0:
256,192,242762,1,4,0:0:0:0:
256,192,242909,1,0,0:0:0:0:
256,192,243056,1,4,0:0:0:0:
256,192,243203,1,0,0:0:0:0:
256,192,243350,1,4,0:0:0:0:
256,192,243497,1,0,0:0:0:0:
256,192,243644,1,4,0:0:0:0:
256,192,243791,1,4,0:0:0:0:
256,192,243938,1,4,0:0:0:0:
256,192,244085,1,4,0:0:0:0:
256,192,244232,1,0,0:0:0:0:
256,192,244379,1,0,0:0:0:0:
256,192,244526,1,0,0:0:0:0:
256,192,244673,1,0,0:0:0:0:
256,192,244820,1,12,0:0:0:0:
256,192,247173,1,12,0:0:0:0:
