osu file format v14

[General]
AudioFilename: Alice-Dere.mp3
AudioLeadIn: 0
PreviewTime: 64288
Countdown: 0
SampleSet: Soft
StackLeniency: 0.7
Mode: 0
LetterboxInBreaks: 0
WidescreenStoryboard: 0

[Editor]
Bookmarks: 15538,64288,154288,236788
DistanceSpacing: 1
BeatDivisor: 4
GridSize: 4
TimelineZoom: 1

[Metadata]
Title:Alice Dere
TitleUnicode:アリス→デレ
Artist:IOSYS
ArtistUnicode:IOSYS
Creator:Darcsol
Version:lovhin's Easy
Source:東方妖々夢 ~ Perfect Cherry Blossom.
Tags:lovhin456 ARISU-dere Alice-Sweet ARM Hikura miko ひくら アリス・マーガトロイド Youyoumu 7 seven The Doll Maker of Bucuresti 東方河想狗蒼池 River Vision Dog Blue Pond 東方Project Touhou Toho Project Shrine Maiden Alice Margatroid 霧雨 魔理沙 Marisa Kirisame ブクレシュティの人形師 tsundere
BeatmapID:1525931
BeatmapSetID:34030

[Difficulty]
HPDrainRate:2
CircleSize:2
OverallDifficulty:2
ApproachRate:3
SliderMultiplier:1.1
SliderTickRate:2

[Events]
//Background and Video events
Video,-190,"Alice-Dere Music Video.avi"
0,0,"bg_guest.jpg",0,0
//Break Periods
2,98038,104098
2,186163,189913
2,214288,216163
2,268663,272848
//Storyboard Layer 0 (Background)
//Storyboard Layer 1 (Fail)
//Storyboard Layer 2 (Pass)
//Storyboard Layer 3 (Foreground)
//Storyboard Sound Samples

[TimingPoints]
538,468.75,4,2,1,60,1,0
64288,-100,4,2,1,70,0,1
78350,-100,4,2,1,70,0,0
79288,-100,4,2,1,70,0,1
94288,-100,4,2,1,60,0,0
154288,-100,4,2,1,70,0,1
168350,-100,4,2,1,70,0,0
169288,-100,4,2,1,70,0,1
184288,-100,4,2,1,60,0,0
235850,-100,4,2,1,60,0,0
236788,-100,4,2,1,70,0,1
250850,-100,4,2,1,70,0,0
251788,-100,4,2,1,70,0,1
266788,-100,4,2,1,60,0,0

[Colours]
Combo1 : 255,108,149
Combo2 : 250,218,88
Combo3 : 244,77,81
Combo4 : 70,200,238

[HitObjects]
256,192,15538,5,4,0:0:0:0:
348,132,16006,2,0,P|256:80|164:132,1,220,0|8,0:0|0:0,0:0:0:0:
88,208,17413,2,0,P|52:252|44:304,1,110
152,296,18350,2,0,P|200:316|256:308,1,110,0|8,0:0|0:0,0:0:0:0:
256,196,19288,5,4,0:0:0:0:
164,131,19756,2,0,P|256:80|348:132,1,220,0|8,0:0|0:0,0:0:0:0:
428,204,21163,2,0,P|464:248|472:300,1,110
360,292,22100,2,0,P|312:312|256:304,1,110,0|8,0:0|0:0,0:0:0:0:
256,192,23038,6,0,B|256:80,1,110,4|0,0:0|0:0,0:0:0:0:
144,80,23975,2,0,P|92:100|64:144,1,110,0|8,0:0|0:0,0:0:0:0:
148,216,24913,2,0,P|120:292|52:336,2,165,0|2|8,0:0|0:0|0:0,0:0:0:0:
256,192,26788,6,0,B|256:80,1,110,4|0,0:0|0:0,0:0:0:0:
368,80,27725,2,0,P|420:100|448:144,1,110,0|8,0:0|0:0,0:0:0:0:
364,216,28663,2,0,P|392:292|460:336,2,165,0|2|8,0:0|0:0|0:3,0:0:0:0:
332,112,30538,6,0,B|252:56|180:112|180:112|108:168|24:112,2,330,4|8|0,0:0|0:0|0:0,0:0:0:0:
256,192,33819,1,8,0:0:0:0:
180,272,34288,6,0,B|260:328|332:272|332:272|404:216|488:272,2,330,0|8|0,0:0|0:0|0:0,0:0:0:0:
256,192,37569,2,0,B|256:80,1,110,8|4,0:0|0:0,0:0:0:0:
476,80,38975,5,0,0:0:0:0:
476,192,39444,1,8,0:0:0:0:
364,192,39913,2,0,P|308:100|204:100,1,220
256,196,41319,1,8,0:0:0:0:
306,292,41788,2,0,P|201:290|148:200,1,220
256,196,43194,1,8,0:0:0:0:
364,192,43663,6,0,P|308:100|204:100,2,220,0|0|4,0:0|0:0|0:0,0:0:0:0:
256,192,46006,6,0,B|256:248|256:248|256:360|164:360,1,220,0|8,0:0|0:0,0:0:0:0:
64,312,47413,1,0,0:0:0:0:
64,204,47881,1,0,0:0:0:0:
92,96,48350,2,0,P|144:84|200:96,1,110,2|8,0:0|0:0,0:0:0:0:
256,192,49288,6,0,B|256:248|256:248|256:360|348:360,1,220,4|0,0:0|0:0,0:0:0:0:
452,324,50695,1,8,0:0:0:0:
452,216,51163,1,0,0:0:0:0:
452,108,51631,2,0,P|416:68|360:56,1,110,0|2,0:0|0:0,0:0:0:0:
256,60,52569,1,8,0:0:0:0:
256,60,53038,6,0,B|184:48|108:112|108:188,1,220,4|0,0:0|0:0,0:0:0:0:
168,280,54444,1,8,0:0:0:0:
256,348,54913,2,0,B|328:360|404:296|404:220,1,220,0|2,0:0|0:0,0:0:0:0:
404,112,56319,1,8,0:0:0:0:
292,112,56788,5,4,0:0:0:0:
184,112,57256,2,0,B|120:108|84:156,1,110
172,220,58194,1,8,0:0:0:0:
256,192,58663,12,0,61709,0:0:0:0:
256,192,63350,6,0,B|256:80,1,110,0|2,0:0|0:0,0:0:0:0:
152,48,64288,5,4,0:0:0:0:
76,124,64756,2,0,P|40:224|72:332,1,220,0|8,0:0|0:0,0:0:0:0:
180,336,66163,1,0,0:0:0:0:
256,256,66631,2,0,B|256:144,1,110,0|2,0:0|0:0,0:0:0:0:
256,36,67569,1,8,0:0:0:0:
360,48,68038,5,4,0:0:0:0:
436,124,68506,2,0,P|472:224|440:332,1,220,0|8,0:0|0:0,0:0:0:0:
340,372,69913,1,0,0:0:0:0:
236,336,70381,2,0,P|205:232|241:130,1,220,0|8,0:0|0:0,0:0:0:0:
308,44,71788,6,0,B|360:8|412:44,2,110,4|0|2,0:0|0:0|0:0,0:0:0:0:
204,84,73194,2,0,B|152:120|100:84,2,110,8|0|0,0:0|0:0|0:0,0:0:0:0:
256,180,74600,1,2,0:0:0:0:
256,292,75069,1,8,0:0:0:0:
364,264,75538,6,0,B|324:208|360:156|360:156|392:108|360:56,1,220,4|2,0:0|0:0,0:0:0:0:
256,92,76944,1,8,0:0:0:0:
152,56,77413,2,0,B|122:107|154:155|154:155|190:207|150:263,1,220
256,296,78819,1,8,0:0:0:0:
356,252,79288,6,0,B|468:252,2,110,4|0|2,0:0|0:0|0:0,0:0:0:0:
256,204,80694,1,8,0:0:0:0:
160,152,81163,2,0,B|48:152,2,110,0|0|2,0:0|0:0|0:0,0:0:0:0:
256,100,82569,1,8,0:0:0:0:
312,192,83038,6,0,B|312:288|384:332,2,165,4|2|8,0:0|0:0|0:0,0:0:0:0:
200,192,84913,2,0,B|200:288|128:332,2,165,0|2|8,0:0|0:0|0:0,0:0:0:0:
128,108,86788,5,4,0:0:0:0:
204,28,87256,2,0,P|256:12|312:28,2,110,0|2|8,0:0|0:0|0:0,0:0:0:0:
256,124,88663,1,0,0:0:0:0:
256,232,89131,1,0,0:0:0:0:
308,328,89600,2,0,P|256:341|200:325,1,110,2|8,0:0|0:0,0:0:0:0:
172,220,90538,6,0,B|196:140|316:140|340:216,2,220,4|2|0,0:0|0:0|0:0,0:0:0:0:
144,328,92881,1,0,0:0:0:0:
256,328,93350,1,2,0:0:0:0:
368,328,93819,1,8,0:0:0:0:
256,192,94288,12,0,95694,0:0:0:0:
216,316,105538,6,0,B|131:248,1,110,4|0,0:0|0:0,0:0:0:0:
132,136,106475,2,0,B|217:68,1,110,0|8,0:0|0:0,0:0:0:0:
300,144,107413,2,0,B|388:156|448:84,2,165,0|2|8,0:0|0:0|0:0,0:0:0:0:
216,68,109288,6,0,B|131:136,1,110
132,248,110225,2,0,B|217:316,1,110,0|8,0:0|0:0,0:0:0:0:
300,240,111163,2,0,B|388:228|448:300,2,165,0|2|8,0:0|0:0|0:0,0:0:0:0:
256,140,113038,5,4,0:0:0:0:
164,200,113506,2,0,B|112:236|60:200,2,110,0|0|8,0:0|0:0|0:0,0:0:0:0:
256,140,114913,1,0,0:0:0:0:
348,200,115381,2,0,B|400:236|452:200,2,110,0|0|8,0:0|0:0|0:0,0:0:0:0:
256,264,116788,6,0,B|256:380,2,110
256,152,118194,1,8,0:0:0:0:
348,92,118663,2,0,B|308:24|204:24|164:92,1,220,2|2,0:0|0:0,0:0:0:0:
200,196,120069,1,8,0:3:0:0:
312,196,120538,5,4,0:0:0:0:
256,352,121475,2,0,B|256:240,1,110,0|2,0:0|0:0,0:0:0:0:
256,132,122413,1,0,0:0:0:0:
144,320,123350,1,0,0:0:0:0:
364,320,124288,5,0,0:0:0:0:
364,100,125225,1,0,0:0:0:0:
256,88,125694,1,2,0:0:0:0:
148,100,126163,1,0,0:0:0:0:
148,320,127100,1,0,0:0:0:0:
255,131,128038,6,0,B|223:183|255:235|255:235|291:287|255:339,2,220,4|0|0,0:0|0:0|0:0,0:0:0:0:
364,324,130850,1,0,0:0:0:0:
256,337,131319,1,2,0:0:0:0:
148,320,131788,1,0,0:0:0:0:
256,128,132725,2,0,B|256:240,1,110,0|2,0:0|0:0,0:0:0:0:
168,308,133663,6,0,B|200:376|316:376|348:304,2,220,0|0|4,0:0|0:0|0:0,0:0:0:0:
160,200,136006,6,0,B|60:252,2,110,0|0|8,0:0|0:0|0:0,0:0:0:0:
256,144,137413,1,0,0:0:0:0:
348,200,137881,2,0,B|448:252,2,110,0|2|8,0:0|0:0|0:0,0:0:0:0:
256,144,139288,6,0,B|256:232|196:288|120:288,1,220
256,144,141163,2,0,B|256:232|316:288|392:288,1,220,0|2,0:0|0:0,0:0:0:0:
416,180,142569,1,8,0:0:0:0:
364,84,143038,6,0,B|416:56|468:84,2,110,4|0|0,0:0|0:0|0:0,0:0:0:0:
256,112,144444,1,8,0:0:0:0:
160,164,144913,2,0,B|108:192|56:164,2,110,0|0|2,0:0|0:0|0:0,0:0:0:0:
108,60,146319,1,8,0:0:0:0:
216,40,146788,6,0,B|384:40,2,165,4|2|8,0:0|0:0|0:0,0:0:0:0:
256,192,148663,12,0,151709,0:0:0:0:
256,152,153350,6,0,B|256:264,1,110,0|2,0:0|0:0,0:0:0:0:
256,372,154288,5,4,0:0:0:0:
156,328,154756,1,0,0:0:0:0:
60,276,155225,1,2,0:0:0:0:
60,164,155694,2,0,B|32:108|64:56,2,110,8|0|0,0:0|0:0|0:0,0:0:0:0:
156,112,157100,1,2,0:0:0:0:
256,160,157569,1,8,0:0:0:0:
256,48,158038,5,4,0:0:0:0:
352,100,158506,1,0,0:0:0:0:
448,152,158975,1,2,0:0:0:0:
448,264,159444,2,0,B|472:320|444:372,2,110,8|0|0,0:0|0:0|0:0,0:0:0:0:
348,312,160850,1,0,0:0:0:0:
256,252,161319,1,8,0:0:0:0:
148,224,161788,6,0,P|96:236|40:224,2,110,4|0|2,0:0|0:0|0:0,0:0:0:0:
256,196,163194,1,8,0:0:0:0:
364,160,163663,2,0,P|416:148|472:160,2,110,0|0|2,0:0|0:0|0:0,0:0:0:0:
256,196,165069,1,8,0:0:0:0:
172,268,165538,6,0,P|128:172|180:76,1,220,4|2,0:0|0:0,0:0:0:0:
256,0,166944,1,8,0:0:0:0:
334,77,167413,2,0,P|383:171|340:268,1,220
256,336,168819,1,8,0:0:0:0:
256,224,169288,5,4,0:0:0:0:
200,128,169756,2,0,B|88:128,1,110,0|2,0:0|0:0,0:0:0:0:
44,228,170694,1,8,0:0:0:0:
92,328,171163,2,0,B|144:360|196:328,1,110
144,228,172100,1,2,0:0:0:0:
256,224,172569,1,8,0:0:0:0:
312,128,173038,6,0,B|424:128,1,110,4|0,0:0|0:0,0:0:0:0:
472,228,173975,1,2,0:0:0:0:
416,324,174444,2,0,B|364:356|312:324,1,110,8|0,0:0|0:0,0:0:0:0:
364,224,175381,1,0,0:0:0:0:
364,112,175850,1,2,0:0:0:0:
256,84,176319,1,8,0:0:0:0:
252,192,176788,6,0,B|261:267|187:343|118:337,1,220,4|2,0:0|0:0,0:0:0:0:
44,256,178194,1,8,0:0:0:0:
48,144,178663,2,0,L|164:144,1,110
256,192,179600,2,0,B|246:267|320:343|389:337,1,220,2|4,0:0|0:0,0:0:0:0:
456,248,181006,5,0,0:0:0:0:
452,140,181475,2,0,L|336:140,1,110,2|8,0:0|0:0,0:0:0:0:
256,192,182413,12,4,184288,0:0:0:0:
212,140,191788,6,0,P|140:112|60:148,2,165,4|2|8,0:0|0:0|0:0,0:0:0:0:
140,224,193663,1,0,0:0:0:0:
200,316,194131,1,0,0:0:0:0:
312,316,194600,1,0,0:0:0:0:
372,224,195069,1,8,0:0:0:0:
300,140,195538,6,0,P|372:112|452:148,2,165,0|2|8,0:0|0:0|0:0,0:0:0:0:
256,240,197413,2,0,L|256:352,2,110
212,140,198819,1,8,0:0:0:0:
156,236,199288,6,0,B|76:284|0:236,2,165,4|2|8,0:0|0:0|0:0,0:0:0:0:
129,129,201163,2,0,L|200:44,1,110
312,44,202100,2,0,L|383:129,1,110,0|8,0:0|0:0,0:0:0:0:
352,236,203038,6,0,B|432:284|512:236,2,165,0|2|8,0:0|0:0|0:0,0:0:0:0:
256,284,204913,1,0,0:0:0:0:
156,236,205381,2,0,L|56:288,2,110,0|0|8,0:0|0:0|0:0,0:0:0:0:
256,192,206788,6,0,B|256:28,2,165,4|2|8,0:0|0:0|0:0,0:0:0:0:
356,236,208663,1,0,0:0:0:0:
312,336,209131,1,0,0:0:0:0:
200,336,209600,1,0,0:0:0:0:
156,236,210069,1,8,0:0:0:0:
180,128,210538,6,0,B|256:76|336:128,2,165,0|2|8,0:0|0:0|0:0,0:0:0:0:
256,212,212413,2,0,L|256:324,2,110
256,100,213819,1,8,0:0:0:0:
256,376,218038,5,4,0:0:0:0:
256,268,218506,1,0,0:0:0:0:
256,156,218975,2,0,B|256:44,1,110,0|2,0:0|0:3,0:0:0:0:
148,64,219913,1,0,0:0:0:0:
52,120,220381,1,0,0:0:0:0:
52,232,220850,1,0,0:0:0:0:
256,304,221788,6,0,B|256:192,2,110
364,332,223194,1,2,0:3:0:0:
436,248,223663,1,8,0:3:0:0:
256,124,224600,6,0,B|256:14,1,110,0|10,0:0|0:3,0:0:0:0:
143,44,225538,2,0,B|184:80|152:144|152:144|120:208|160:248,1,220,4|0,0:0|0:0,0:0:0:0:
256,296,226944,1,2,0:3:0:0:
356,248,227413,2,0,B|394:209|362:145|362:145|330:81|371:45,1,220
152,44,229288,5,4,0:0:0:0:
148,152,229756,1,0,0:3:0:0:
148,264,230225,2,0,B|200:288|254:268,1,110,0|2,0:0|0:3,0:0:0:0:
256,192,231163,12,0,234209,0:0:0:0:
256,60,235850,6,0,B|256:176,1,110,2|2,0:0|0:0,0:0:0:0:
312,264,236788,5,4,0:0:0:0:
200,264,237256,2,0,B|88:264,2,110,0|2|8,0:0|0:0|0:0,0:0:0:0:
296,212,238663,2,0,B|408:212,2,110,0|0|2,0:0|0:0|0:0,0:0:0:0:
108,92,240538,6,0,P|60:184|112:280,1,220,4|2,0:0|0:0,0:0:0:0:
168,184,241944,1,8,0:0:0:0:
256,116,242413,1,0,0:0:0:0:
340,184,242881,1,0,0:0:0:0:
400,276,243350,2,0,P|448:184|396:88,1,220,2|4,0:0|0:0,0:0:0:0:
308,24,244756,6,0,B|256:-4|204:24,2,110,0|2|8,0:0|0:0|0:0,0:0:0:0:
256,136,246163,2,0,B|256:356,1,220,0|2,0:0|0:0,0:0:0:0:
116,184,248038,6,0,B|176:196|200:248,1,110,4|0,0:0|0:0,0:0:0:0:
312,248,248975,2,0,B|336:195|396:183,1,110,2|8,0:0|0:0,0:0:0:0:
356,80,249913,2,0,B|304:32|204:32|152:80,1,220
44,80,251319,1,8,0:0:0:0:
44,192,251788,5,4,0:0:0:0:
44,300,252256,2,0,B|96:344|148:304|148:304|196:264|248:296,1,220,0|8,0:0|0:0,0:0:0:0:
248,184,253663,1,0,0:0:0:0:
248,76,254131,2,0,B|300:120|352:80|352:80|400:40|452:72,1,220,0|8,0:0|0:0,0:0:0:0:
448,180,255538,6,0,B|388:272,1,110,4|0,0:0|0:0,0:0:0:0:
288,228,256475,2,0,B|228:320,1,110,2|8,0:0|0:0,0:0:0:0:
128,272,257413,2,0,B|68:364,2,110
36,208,258819,1,8,0:0:0:0:
88,112,259288,6,0,B|144:36|240:68,2,165,4|2|8,0:0|0:0|0:0,0:0:0:0:
180,172,261163,2,0,B|216:236|320:236|368:172,1,220,0|2,0:0|0:0,0:0:0:0:
444,92,262569,1,8,0:0:0:0:
464,200,263038,6,0,B|488:276|440:356|364:368,1,220,4|2,0:0|0:0,0:0:0:0:
256,348,264444,1,8,0:0:0:0:
256,236,264913,2,0,B|256:124,2,110,0|2|0,0:0|0:0|0:0,0:0:0:0:
256,348,266319,1,2,0:0:0:0:
256,192,266788,12,0,268194,0:0:0:0:
256,96,274288,6,0,B|220:24|112:24|76:96,1,220,4|2,0:0|0:0,0:0:0:0:
256,220,276163,2,0,B|292:292|400:292|436:220,1,220,0|2,0:0|0:0,0:0:0:0:
256,96,278038,5,0,0:0:0:0:
204,192,278506,2,0,B|256:220|312:192,2,110,0|0|8,0:0|0:0|0:0,0:0:0:0:
204,80,279913,2,0,B|256:48|308:80,2,110
256,176,281319,1,8,0:0:0:0:
256,192,281788,12,4,283428,0:0:0:0:
