osu file format v14

[General]
AudioFilename: Alice-Dere.mp3
AudioLeadIn: 0
PreviewTime: 64288
Countdown: 0
SampleSet: Soft
StackLeniency: 0.7
Mode: 0
LetterboxInBreaks: 0
WidescreenStoryboard: 0

[Editor]
Bookmarks: 15538,30538,45538,60538,64288,79288,94288,105538,120538,135538,150538,154288,169288,184288,191788,199288,206788,214288,218038,229288,233038,236788,251788,266788,274288,281788
DistanceSpacing: 1
BeatDivisor: 4
GridSize: 4
TimelineZoom: 1

[Metadata]
Title:Alice Dere
TitleUnicode:アリス→デレ
Artist:IOSYS
ArtistUnicode:IOSYS
Creator:Darcsol
Version:Hard
Source:東方妖々夢 ~ Perfect Cherry Blossom.
Tags:lovhin456 ARISU-dere Alice-Sweet ARM Hikura miko ひくら アリス・マーガトロイド Youyoumu 7 seven The Doll Maker of Bucuresti 東方河想狗蒼池 River Vision Dog Blue Pond 東方Project Touhou Toho Project Shrine Maiden Alice Margatroid 霧雨 魔理沙 Marisa Kirisame ブクレシュティの人形師 tsundere
BeatmapID:743399
BeatmapSetID:34030

[Difficulty]
HPDrainRate:7
CircleSize:4
OverallDifficulty:6
ApproachRate:7
SliderMultiplier:1.7
SliderTickRate:2

[Events]
//Background and Video events
Video,-190,"Alice-Dere Music Video.avi"
0,0,"bg.jpg",0,0
//Break Periods
2,98038,104169
2,186163,189913
2,268663,273388
//Storyboard Layer 0 (Background)
//Storyboard Layer 1 (Fail)
//Storyboard Layer 2 (Pass)
//Storyboard Layer 3 (Foreground)
//Storyboard Sound Samples

[TimingPoints]
538,468.75,4,2,1,45,1,0
15538,-100,4,2,1,50,0,0
30538,-111.111111111111,4,2,1,45,0,0
38038,-100,4,2,1,50,0,0
62413,-100,4,2,1,30,0,0
63350,-100,4,2,1,45,0,0
64288,-90.9090909090909,4,2,1,60,0,1
78350,-90.9090909090909,4,2,1,55,0,0
79288,-90.9090909090909,4,2,1,60,0,1
94288,-100,4,2,1,50,0,0
120538,-105.263157894737,4,2,1,45,0,0
128038,-100,4,2,1,50,0,0
152413,-100,4,2,1,30,0,0
153350,-100,4,2,1,45,0,0
154288,-90.9090909090909,4,2,1,60,0,1
168350,-90.9090909090909,4,2,1,55,0,0
169288,-90.9090909090909,4,2,1,60,0,1
184288,-100,4,2,1,55,0,0
218506,-133.333333333333,4,2,1,55,0,0
228819,-100,4,2,1,50,0,0
234913,-100,4,2,1,30,0,0
235850,-100,4,2,1,45,0,0
236788,-90.9090909090909,4,2,1,60,0,1
250850,-90.9090909090909,4,2,1,55,0,0
251788,-90.9090909090909,4,2,1,60,0,1
264913,-100,4,2,1,45,0,0

[Colours]
Combo1 : 255,111,106
Combo2 : 253,227,83
Combo3 : 96,138,202

[HitObjects]
360,348,14600,6,0,L|312:352,1,42.5,0|2,0:0|0:0,0:0:0:0:
188,348,15069,1,10,0:0:0:0:
116,304,15303,5,2,0:0:0:0:
100,292,15420,1,2,0:0:0:0:
84,280,15538,2,0,L|80:192,1,85,4|0,0:0|0:0,0:0:0:0:
104,108,16006,1,8,0:0:0:0:
256,28,16475,2,0,P|280:108|256:188,1,170,0|8,0:0|0:0,0:0:0:0:
200,256,17178,1,0,0:0:0:0:
232,336,17413,6,0,L|360:328,1,127.5,0|2,0:0|0:0,0:0:0:0:
400,324,17881,1,8,0:0:0:0:
412,156,18350,6,0,L|284:164,1,127.5,0|2,0:0|0:0,0:0:0:0:
244,168,18819,1,8,0:0:0:0:
160,176,19053,1,2,0:0:0:0:
76,180,19288,6,0,P|60:140|60:96,1,85
124,44,19756,1,8,0:0:0:0:
284,100,20225,2,0,L|268:272,1,170,0|8,0:0|0:0,0:0:0:0:
192,308,20928,1,0,0:0:0:0:
132,248,21163,6,0,P|120:188|132:120,1,127.5,0|2,0:0|0:0,0:0:0:0:
164,96,21631,1,8,0:0:0:0:
332,108,22100,6,0,P|344:172|332:232,1,127.5,0|2,0:0|0:0,0:0:0:0:
312,272,22569,1,8,0:0:0:0:
220,268,22803,5,2,0:0:0:0:
204,256,22920,1,0,0:0:0:0:
188,244,23038,2,0,L|192:152,1,85,4|0,0:0|0:0,0:0:0:0:
200,76,23506,1,8,0:0:0:0:
364,36,23975,2,0,P|404:108|400:200,1,170,0|8,0:0|0:0,0:0:0:0:
332,244,24678,1,0,0:0:0:0:
252,216,24913,6,0,L|244:84,1,127.5,0|2,0:0|0:0,0:0:0:0:
228,48,25381,1,8,0:0:0:0:
64,96,25850,6,0,L|72:228,1,127.5,0|2,0:0|0:0,0:0:0:0:
84,264,26319,1,8,0:0:0:0:
156,312,26553,1,2,0:0:0:0:
236,336,26788,6,0,P|280:336|324:324,1,85
388,276,27256,1,8,0:0:0:0:
428,112,27725,1,0,0:0:0:0:
352,72,27959,1,0,0:0:0:0:
268,56,28194,2,0,L|184:52,1,85,8|0,0:0|0:0,0:0:0:0:
104,88,28663,6,0,P|80:148|88:212,1,127.5,0|2,0:0|0:0,0:0:0:0:
104,248,29131,1,8,0:0:0:0:
272,216,29600,6,0,L|268:132,1,85,0|2,0:0|0:0,0:0:0:0:
300,52,30069,2,0,L|344:48,1,42.5,8|8,0:3|0:3,0:0:0:0:
376,76,30303,2,0,L|420:72,1,42.5,8|8,0:3|0:3,0:0:0:0:
452,96,30538,6,0,P|468:172|448:244,1,152.999995330811,4|2,0:0|0:0,0:0:0:0:
320,356,31475,2,0,L|168:348,1,152.999995330811,0|2,0:0|0:0,0:0:0:0:
32,244,32413,5,0,0:0:0:0:
52,164,32647,1,0,0:0:0:0:
72,84,32881,2,0,L|148:80,1,76.4999976654053,2|0,0:0|0:0,0:0:0:0:
228,56,33350,2,0,P|248:132|232:204,1,152.999995330811,0|2,0:0|0:0,0:0:0:0:
184,272,34053,1,0,0:0:0:0:
120,220,34288,6,0,P|88:148|92:72,1,152.999995330811,0|2,0:0|0:0,0:0:0:0:
156,24,34991,1,0,0:0:0:0:
236,48,35225,2,0,L|392:40,1,152.999995330811,0|2,0:0|0:0,0:0:0:0:
484,180,36163,6,0,P|412:204|336:192,1,152.999995330811,0|2,0:0|0:0,0:0:0:0:
256,168,36866,1,0,0:0:0:0:
176,140,37100,2,0,L|172:96,1,38.2499988327027,0|2,0:0|0:0,0:0:0:0:
68,36,37569,1,2,0:0:0:0:
36,120,37803,5,0,0:0:0:0:
44,136,37920,1,0,0:0:0:0:
52,156,38038,2,0,L|48:244,1,85,4|0,0:0|0:0,0:0:0:0:
144,324,38506,2,0,L|148:236,1,85,8|0,0:0|0:0,0:0:0:0:
204,124,38975,2,0,P|260:184|264:272,1,170,0|8,0:0|0:0,0:0:0:0:
416,348,39913,6,0,P|440:272|428:184,1,170,0|8,0:0|0:0,0:0:0:0:
376,116,40616,1,0,0:0:0:0:
320,180,40850,2,0,L|316:264,1,85,0|2,0:0|0:0,0:0:0:0:
204,328,41319,2,0,L|207:243,1,85,8|2,0:0|0:0,0:0:0:0:
240,120,41788,6,0,P|156:128|96:184,1,170,0|8,0:0|0:0,0:0:0:0:
68,264,42491,1,2,0:0:0:0:
72,348,42725,1,0,0:0:0:0:
244,352,43194,1,10,0:0:0:0:
416,352,43663,6,0,L|420:308,3,42.5,0|0|2|0,0:0|0:0|0:0|0:0,0:0:0:0:
400,272,44131,2,0,L|356:268,3,42.5,8|0|2|0,0:0|0:0|0:0|0:0,0:0:0:0:
324,240,44600,2,0,P|340:200|336:156,1,85,0|2,0:0|0:0,0:0:0:0:
288,60,45069,1,2,0:0:0:0:
180,72,45303,5,0,0:0:0:0:
160,80,45420,1,0,0:0:0:0:
140,88,45538,2,0,L|56:80,1,85,4|0,0:0|0:0,0:0:0:0:
132,180,46006,2,0,L|216:188,1,85,8|0,0:0|0:0,0:0:0:0:
256,272,46475,2,0,L|340:283,1,85
404,352,46944,2,0,P|428:316|432:268,1,85,8|0,0:0|0:0,0:0:0:0:
384,196,47413,6,0,L|372:112,1,85,0|2,0:0|0:0,0:0:0:0:
252,64,47881,2,0,L|264:152,1,85,8|2,0:0|0:0,0:0:0:0:
224,268,48350,2,0,P|140:264|69:219,1,170,0|8,0:0|0:0,0:0:0:0:
96,36,49288,5,0,0:0:0:0:
184,64,49522,1,0,0:0:0:0:
272,100,49756,2,0,L|360:96,1,85,8|0,0:0|0:0,0:0:0:0:
440,136,50225,2,0,P|448:176|444:220,1,85
364,340,50694,2,0,P|352:300|356:252,1,85,8|0,0:0|0:0,0:0:0:0:
440,136,51163,5,0,0:0:0:0:
352,68,51397,1,2,0:0:0:0:
280,152,51631,1,8,0:0:0:0:
188,92,51866,1,2,0:0:0:0:
112,172,52100,2,0,L|120:256,1,85
172,356,52569,2,0,L|260:348,1,85,10|0,0:0|0:0,0:0:0:0:
272,336,52920,1,0,0:0:0:0:
288,324,53038,1,4,0:0:0:0:
344,248,53272,5,0,0:0:0:0:
380,164,53506,2,0,P|372:120|344:84,1,85,8|0,0:0|0:0,0:0:0:0:
260,64,53975,1,0,0:0:0:0:
240,156,54209,1,0,0:0:0:0:
220,248,54444,2,0,L|135:237,1,85,8|0,0:0|0:0,0:0:0:0:
44,224,54913,5,0,0:0:0:0:
64,116,55147,1,2,0:0:0:0:
140,36,55381,2,0,P|164:72|172:112,1,85,8|2,0:0|0:0,0:0:0:0:
139,237,55850,2,0,L|312:256,1,170,0|8,0:0|0:0,0:0:0:0:
400,260,56553,1,2,0:0:0:0:
476,208,56788,5,0,0:0:0:0:
464,116,57022,1,0,0:0:0:0:
452,24,57256,2,0,L|368:28,1,85,8|2,0:0|0:0,0:0:0:0:
272,36,57725,1,0,0:0:0:0:
268,128,57959,1,0,0:0:0:0:
264,220,58194,2,0,L|348:216,1,85,8|2,0:0|0:0,0:0:0:0:
468,168,58663,6,0,P|477:210|468:251,1,85,2|0,0:0|0:0,0:0:0:0:
376,340,59131,2,0,P|336:352|289:347,1,85,10|0,0:0|0:0,0:0:0:0:
200,260,59600,2,0,L|196:176,1,85,2|0,0:0|0:0,0:0:0:0:
324,160,60069,2,0,L|328:244,1,85,10|0,0:0|0:0,0:0:0:0:
256,192,60538,12,0,62413,0:0:0:0:
36,268,63350,5,2,0:0:0:0:
48,284,63467,1,0,0:0:0:0:
60,300,63584,1,2,0:0:0:0:
72,316,63702,1,2,0:0:0:0:
84,332,63819,2,0,L|168:324,1,85,0|2,0:0|0:0,0:0:0:0:
256,268,64288,6,0,P|271:312|266:358,1,93.5000028533936,4|0,0:0|0:0,0:0:0:0:
168,232,64756,2,0,P|160:184|176:140,1,93.5000028533936,8|0,0:0|0:0,0:0:0:0:
264,112,65225,2,0,L|360:116,2,93.5000028533936,0|2|8,0:0|0:0|0:0,0:0:0:0:
192,52,65928,1,2,0:0:0:0:
192,192,66163,6,0,P|280:224|372:208,1,187.000005706787,0|8,0:0|0:0,0:0:0:0:
440,144,66866,1,2,0:0:0:0:
480,276,67100,6,0,P|404:328|312:340,1,187.000005706787,0|8,0:0|0:0,0:0:0:0:
220,356,67803,1,2,0:0:0:0:
88,304,68038,5,4,0:0:0:0:
48,220,68272,1,0,0:0:0:0:
52,128,68506,1,8,0:0:0:0:
108,52,68741,1,2,0:0:0:0:
200,28,68975,6,0,P|248:24|292:40,1,93.5000028533936
321,176,69444,2,0,P|273:180|229:164,1,93.5000028533936,8|2,0:0|0:0,0:0:0:0:
290,38,69913,5,0,0:0:0:0:
372,80,70147,1,0,0:0:0:0:
412,164,70381,1,8,0:0:0:0:
400,256,70616,1,2,0:0:0:0:
340,328,70850,2,0,P|296:336|248:328,2,93.5000028533936,0|2|8,0:0|0:0|0:0,0:0:0:0:
368,104,71788,6,0,P|416:100|460:112,1,93.5000028533936,4|0,0:0|0:0,0:0:0:0:
316,188,72256,2,0,P|269:192|224:180,1,93.5000028533936,8|0,0:0|0:0,0:0:0:0:
144,228,72725,2,0,P|96:236|52:224,2,93.5000028533936,0|2|8,0:0|0:0|0:0,0:0:0:0:
224,180,73428,1,2,0:0:0:0:
100,116,73663,6,0,L|92:308,1,187.000005706787,0|8,0:0|0:0,0:0:0:0:
168,344,74366,1,2,0:0:0:0:
308,356,74600,6,0,P|392:316|440:232,1,187.000005706787,0|8,0:0|0:0,0:0:0:0:
444,144,75303,1,2,0:0:0:0:
312,88,75538,5,4,0:0:0:0:
220,80,75772,1,0,0:0:0:0:
128,72,76006,2,0,L|120:168,1,93.5000028533936,8|2,0:0|0:0,0:0:0:0:
196,284,76475,5,0,0:0:0:0:
300,192,76709,1,0,0:0:0:0:
408,280,76943,2,0,P|364:296|317:291,1,93.5000028533936,8|2,0:0|0:0,0:0:0:0:
212,196,77413,6,0,P|164:200|124:224,1,93.5000028533936
140,324,77881,1,8,0:0:0:0:
244,336,78116,1,2,0:0:0:0:
348,340,78350,2,0,L|364:152,1,187.000005706787,0|10,0:0|0:0,0:0:0:0:
176,32,79288,5,4,0:0:0:0:
96,80,79522,1,0,0:0:0:0:
60,168,79756,1,8,0:0:0:0:
56,260,79991,1,0,0:0:0:0:
96,340,80225,2,0,P|142:349|188:341,1,93.5000028533936,0|2,0:0|0:0,0:0:0:0:
324,256,80694,2,0,P|279:246|233:254,1,93.5000028533936,8|2,0:0|0:0,0:0:0:0:
360,352,81163,6,0,L|368:164,1,187.000005706787,0|8,0:0|0:0,0:0:0:0:
372,72,81866,1,2,0:0:0:0:
236,48,82100,6,0,P|184:128|176:220,1,187.000005706787,0|8,0:0|0:0,0:0:0:0:
184,304,82803,1,2,0:0:0:0:
316,352,83038,5,4,0:0:0:0:
404,324,83272,1,0,0:0:0:0:
440,208,83506,1,8,0:0:0:0:
324,128,83741,1,2,0:0:0:0:
176,68,83975,6,0,P|160:112|168:164,1,93.5000028533936
316,219,84444,2,0,P|328:175|323:125,1,93.5000028533936,8|2,0:0|0:0,0:0:0:0:
357,310,84913,6,0,P|312:320|268:308,1,93.5000028533936
188,244,85381,1,8,0:0:0:0:
164,144,85616,1,2,0:0:0:0:
172,40,85850,2,0,L|68:32,2,93.5000028533936,0|2|8,0:0|0:0|0:0,0:0:0:0:
204,264,86788,6,0,L|300:268,1,93.5000028533936,4|0,0:0|0:0,0:0:0:0:
388,252,87256,2,0,P|396:212|388:160,1,93.5000028533936,8|0,0:0|0:0,0:0:0:0:
348,56,87725,1,0,0:0:0:0:
220,32,87959,1,2,0:0:0:0:
208,192,88194,2,0,P|249:170|272:124,1,93.5000028533936,8|2,0:0|0:0,0:0:0:0:
112,104,88663,6,0,L|104:292,1,187.000005706787,0|8,0:0|0:0,0:0:0:0:
184,340,89366,1,2,0:0:0:0:
320,304,89600,6,0,P|320:212|272:132,1,187.000005706787,0|8,0:0|0:0,0:0:0:0:
180,144,90303,1,2,0:0:0:0:
96,280,90538,6,0,L|92:184,1,93.5000028533936,4|0,0:0|0:0,0:0:0:0:
220,92,91006,2,0,L|224:188,1,93.5000028533936,8|2,0:0|0:0,0:0:0:0:
232,324,91475,5,0,0:0:0:0:
340,232,91709,1,0,0:0:0:0:
448,348,91944,2,0,P|400:352|358:338,1,93.5000028533936,8|2,0:0|0:0,0:0:0:0:
240,232,92413,5,0,0:0:0:0:
328,148,92647,1,0,0:0:0:0:
428,216,92881,1,8,0:0:0:0:
344,304,93116,1,2,0:0:0:0:
232,356,93350,2,0,P|144:320|104:236,1,187.000005706787,0|10,0:0|0:0,0:0:0:0:
100,148,94053,1,0,0:0:0:0:
256,192,94288,12,0,95694,0:0:0:0:
116,308,105069,5,8,0:0:0:0:
116,308,105538,6,0,L|200:312,1,85,4|0,0:0|0:0,0:0:0:0:
280,344,106006,1,8,0:0:0:0:
440,292,106475,2,0,P|468:216|460:128,1,170,0|8,0:0|0:0,0:0:0:0:
400,68,107178,1,0,0:0:0:0:
316,60,107413,6,0,L|188:64,1,127.5,0|2,0:0|0:0,0:0:0:0:
156,40,107881,2,0,L|72:44,1,85,8|0,0:0|0:0,0:0:0:0:
32,164,108350,6,0,L|160:156,1,127.5,0|2,0:0|0:0,0:0:0:0:
192,184,108819,2,0,L|280:180,1,85,8|0,0:0|0:0,0:0:0:0:
364,180,109288,5,0,0:0:0:0:
456,320,109756,2,0,P|377:347|294:336,1,170,8|0,0:0|0:0,0:0:0:0:
228,280,110459,1,0,0:0:0:0:
172,216,110694,2,0,L|84:208,1,85,8|0,0:0|0:0,0:0:0:0:
100,124,111163,2,0,L|228:136,1,127.5,0|2,0:0|0:0,0:0:0:0:
256,168,111631,2,0,L|340:176,1,85,8|0,0:0|0:0,0:0:0:0:
396,60,112100,6,0,L|268:48,1,127.5,0|2,0:0|0:0,0:0:0:0:
228,44,112569,1,8,0:0:0:0:
140,72,112803,5,0,0:0:0:0:
128,88,112920,1,0,0:0:0:0:
116,104,113038,2,0,L|120:188,1,85,4|0,0:0|0:0,0:0:0:0:
88,276,113506,2,0,P|144:336|228:356,1,170,8|0,0:0|0:0,0:0:0:0:
320,352,114209,1,0,0:0:0:0:
412,336,114444,2,0,L|416:252,1,85,8|0,0:0|0:0,0:0:0:0:
380,172,114913,6,0,L|252:180,1,127.5,0|2,0:0|0:0,0:0:0:0:
240,220,115381,2,0,P|200:228|156:216,1,85,8|0,0:0|0:0,0:0:0:0:
120,96,115850,6,0,L|248:88,1,127.5,0|2,0:0|0:0,0:0:0:0:
280,60,116319,2,0,P|324:52|364:60,1,85,8|0,0:0|0:0,0:0:0:0:
416,124,116788,5,0,0:0:0:0:
436,292,117256,2,0,L|264:304,1,170,8|0,0:0|0:0,0:0:0:0:
180,304,117959,1,0,0:0:0:0:
100,268,118194,2,0,P|92:228|96:184,1,85,8|0,0:0|0:0,0:0:0:0:
164,132,118663,6,0,L|296:128,1,127.5,0|2,0:0|0:0,0:0:0:0:
328,148,119131,2,0,P|340:188|340:232,1,85,8|0,0:0|0:0,0:0:0:0:
268,276,119600,6,0,L|184:279,1,85,0|2,0:0|0:0,0:0:0:0:
108,240,120069,2,0,L|104:196,1,42.5,8|8,0:3|0:3,0:0:0:0:
124,160,120303,2,0,L|120:116,1,42.5,8|8,0:3|0:3,0:0:0:0:
140,80,120538,6,0,P|216:52|296:56,1,161.499995687485,4|2,0:0|0:0,0:0:0:0:
428,148,121475,2,0,L|424:312,1,161.499995687485,0|2,0:0|0:0,0:0:0:0:
252,356,122413,6,0,L|256:232,1,121.124996765614
284,200,122881,1,2,0:0:0:0:
316,116,123116,1,0,0:0:0:0:
268,48,123350,2,0,P|192:28|108:40,1,161.499995687485,0|2,0:0|0:0,0:0:0:0:
44,96,124053,1,0,0:0:0:0:
32,184,124288,6,0,L|44:348,1,161.499995687485,0|2,0:0|0:0,0:0:0:0:
132,360,124991,1,0,0:0:0:0:
196,296,125225,2,0,L|184:132,1,161.499995687485,0|2,0:0|0:0,0:0:0:0:
336,40,126163,6,0,P|416:52|464:112,1,161.499995687485,0|2,0:0|0:0,0:0:0:0:
464,200,126866,1,0,0:0:0:0:
460,288,127100,2,0,L|456:336,1,40.3749989218712,0|2,0:0|0:0,0:0:0:0:
324,352,127569,1,2,0:0:0:0:
300,268,127803,5,2,0:0:0:0:
292,248,127920,1,2,0:0:0:0:
284,228,128038,2,0,L|196:232,1,85,4|0,0:0|0:0,0:0:0:0:
260,140,128506,2,0,L|348:136,1,85,8|0,0:0|0:0,0:0:0:0:
256,44,128975,2,0,P|184:76|164:160,1,170,0|8,0:0|0:0,0:0:0:0:
216,316,129913,6,0,L|388:308,1,170,0|8,0:0|0:0,0:0:0:0:
412,228,130616,1,0,0:0:0:0:
348,172,130850,2,0,L|264:176,1,85,0|2,0:0|0:0,0:0:0:0:
300,72,131319,2,0,L|384:68,1,85,8|2,0:0|0:0,0:0:0:0:
448,160,131788,6,0,P|472:240|460:324,1,170,0|8,0:0|0:0,0:0:0:0:
376,340,132491,1,2,0:0:0:0:
292,328,132725,1,0,0:0:0:0:
268,160,133194,1,10,0:0:0:0:
152,36,133663,6,0,L|104:44,3,42.5,0|0|2|0,0:0|0:0|0:0|0:0,0:0:0:0:
92,84,134131,2,0,L|96:128,3,42.5,0|0|2|0,0:0|0:0|0:0|0:0,0:0:0:0:
80,164,134600,2,0,P|48:240|64:324,1,170,0|10,0:0|0:0,0:0:0:0:
176,356,135303,5,0,0:0:0:0:
196,348,135420,1,0,0:0:0:0:
216,340,135538,2,0,L|300:337,1,85,4|0,0:0|0:0,0:0:0:0:
272,248,136006,2,0,L|188:252,1,85,8|0,0:0|0:0,0:0:0:0:
100,184,136475,1,0,0:0:0:0:
156,92,136709,1,0,0:0:0:0:
224,156,136944,2,0,L|308:152,1,85,8|0,0:0|0:0,0:0:0:0:
232,40,137413,5,0,0:0:0:0:
156,92,137647,1,2,0:0:0:0:
140,184,137881,1,8,0:0:0:0:
148,276,138116,1,2,0:0:0:0:
204,352,138350,2,0,P|292:356|368:316,1,170,0|8,0:0|0:0,0:0:0:0:
392,136,139288,5,0,0:0:0:0:
448,208,139522,1,0,0:0:0:0:
363,319,139756,2,0,L|359:235,1,85,8|0,0:0|0:0,0:0:0:0:
272,128,140225,2,0,L|264:216,1,85
172,312,140694,2,0,P|160:272|164:228,1,85,8|0,0:0|0:0,0:0:0:0:
220,104,141163,5,0,0:0:0:0:
128,44,141397,1,2,0:0:0:0:
48,120,141631,1,8,0:0:0:0:
88,224,141866,1,2,0:0:0:0:
200,216,142100,2,0,P|244:216|284:204,1,85
344,112,142569,1,10,0:0:0:0:
444,164,142803,1,0,0:0:0:0:
440,184,142920,1,0,0:0:0:0:
437,204,143038,1,4,0:0:0:0:
420,296,143272,5,0,0:1:0:0:
340,344,143506,2,0,L|256:340,1,85,8|0,0:0|0:0,0:0:0:0:
204,244,143975,1,0,0:0:0:0:
108,300,144209,1,0,0:0:0:0:
60,200,144444,2,0,L|64:112,1,85,8|0,0:0|0:0,0:0:0:0:
152,48,144913,6,0,P|192:58|225:85,1,85,0|2,0:0|0:0,0:0:0:0:
240,196,145381,1,8,0:0:0:0:
132,264,145616,1,2,0:0:0:0:
260,336,145850,2,0,P|332:300|376:224,1,170,0|8,0:0|0:0,0:0:0:0:
380,132,146553,1,2,0:0:0:0:
288,112,146788,5,0,0:0:0:0:
196,92,147022,1,0,0:0:0:0:
104,80,147256,2,0,L|108:168,1,85,8|2,0:0|0:0,0:0:0:0:
196,260,147725,1,0,0:0:0:0:
288,252,147959,1,0,0:0:0:0:
380,244,148194,2,0,L|376:156,1,85,8|2,0:0|0:0,0:0:0:0:
292,64,148663,6,0,P|248:60|208:68,1,85,2|0,0:0|0:0,0:0:0:0:
116,176,149131,2,0,P|160:180|200:172,1,85,10|0,0:0|0:0,0:0:0:0:
340,132,149600,2,0,P|348:172|344:215,1,85,2|0,0:0|0:0,0:0:0:0:
260,336,150069,2,0,P|251:294|255:252,1,85,10|0,0:0|0:0,0:0:0:0:
256,192,150538,12,0,152413,0:0:0:0:
464,240,153350,5,2,0:0:0:0:
456,260,153467,1,0,0:0:0:0:
448,280,153584,1,2,0:0:0:0:
440,300,153702,1,2,0:0:0:0:
432,320,153819,2,0,L|348:312,1,85,8|2,0:0|0:0,0:0:0:0:
192,272,154288,6,0,P|185:317|197:362,1,93.5000028533936,4|0,0:0|0:0,0:0:0:0:
264,208,154756,2,0,P|284:160|280:112,1,93.5000028533936,8|0,0:0|0:0,0:0:0:0:
204,64,155225,2,0,L|108:56,2,93.5000028533936,0|2|8,0:0|0:0|0:0,0:0:0:0:
292,32,155928,1,2,0:0:0:0:
408,112,156163,6,0,P|332:164|236:164,1,187.000005706787,0|8,0:0|0:0,0:0:0:0:
148,140,156866,1,2,0:0:0:0:
164,296,157100,6,0,L|352:304,1,187.000005706787,0|8,0:0|0:0,0:0:0:0:
404,228,157803,1,2,0:0:0:0:
416,68,158038,5,4,0:0:0:0:
304,48,158272,1,0,0:0:0:0:
232,132,158506,1,8,0:0:0:0:
124,96,158741,1,2,0:0:0:0:
84,232,158975,6,0,P|130:238|174:226,1,93.5000028533936
215,92,159444,2,0,P|172:85|123:96,1,93.5000028533936,8|2,0:0|0:0,0:0:0:0:
260,180,159913,6,0,P|304:192|356:184,1,93.5000028533936
436,144,160381,1,8,0:0:0:0:
408,56,160616,1,2,0:0:0:0:
316,72,160850,2,0,L|220:64,2,93.5000028533936,0|2|8,0:0|0:0|0:0,0:0:0:0:
368,292,161788,6,0,L|272:284,1,93.5000028533936,4|0,0:0|0:0,0:0:0:0:
180,292,162256,1,8,0:0:0:0:
152,204,162491,1,0,0:0:0:0:
228,88,162725,2,0,P|248:132|244:176,1,93.5000028533936,0|2,0:0|0:0,0:0:0:0:
152,204,163194,1,8,0:0:0:0:
128,112,163428,1,2,0:0:0:0:
260,20,163663,6,0,P|316:100|312:204,1,187.000005706787,0|8,0:0|0:0,0:0:0:0:
292,276,164366,1,2,0:0:0:0:
164,332,164600,6,0,L|160:144,1,187.000005706787,0|8,0:0|0:0,0:0:0:0:
160,52,165303,1,2,0:0:0:0:
28,104,165538,5,4,0:0:0:0:
36,224,165772,1,0,0:0:0:0:
128,304,166006,2,0,P|149:263|152:216,1,93.5000028533936,8|2,0:0|0:0,0:0:0:0:
256,96,166475,6,0,P|272:140|272:188,1,93.5000028533936
208,332,166944,1,8,0:0:0:0:
60,276,167178,1,2,0:0:0:0:
68,116,167413,6,0,L|164:124,1,93.5000028533936
252,76,167881,2,0,L|348:84,1,93.5000028533936,8|2,0:0|0:0,0:0:0:0:
436,36,168350,2,0,P|476:116|472:212,1,187.000005706787,0|10,0:0|0:0,0:0:0:0:
292,348,169288,5,4,0:0:0:0:
200,340,169522,1,0,0:0:0:0:
108,332,169756,2,0,P|64:320|32:280,1,93.5000028533936,8|0,0:0|0:0,0:0:0:0:
64,168,170225,1,0,0:0:0:0:
180,140,170459,1,2,0:0:0:0:
264,228,170694,1,8,0:0:0:0:
220,340,170928,1,2,0:0:0:0:
104,332,171163,6,0,L|96:144,1,187.000005706787,0|8,0:0|0:0,0:0:0:0:
104,52,171866,1,2,0:0:0:0:
260,36,172100,6,0,P|352:32|436:72,1,187.000005706787,0|8,0:0|0:0,0:0:0:0:
448,164,172803,1,2,0:0:0:0:
308,240,173038,6,0,L|401:244,1,93.5000028533936,4|0,0:0|0:0,0:0:0:0:
448,324,173506,1,8,0:0:0:0:
356,344,173741,1,2,0:0:0:0:
216,272,173975,6,0,P|169:267|120:288,1,93.5000028533936
270,370,174444,2,0,P|316:368|358:342,1,93.5000028533936,8|2,0:0|0:0,0:0:0:0:
388,208,174913,5,0,0:0:0:0:
292,80,175147,1,0,0:0:0:0:
236,228,175381,1,8,0:0:0:0:
360,132,175616,1,2,0:0:0:0:
212,72,175850,2,0,P|168:84|128:112,2,93.5000028533936,0|2|8,0:0|0:0|0:0,0:0:0:0:
288,284,176788,5,4,0:0:0:0:
212,228,177022,1,0,0:0:0:0:
300,192,177256,2,0,P|344:204|372:240,1,93.5000028533936,8|0,0:0|0:0,0:0:0:0:
212,228,177725,2,0,P|204:180|216:136,1,93.5000028533936,0|2,0:0|0:0,0:0:0:0:
288,284,178194,1,8,0:0:0:0:
192,356,178428,1,2,0:0:0:0:
52,284,178663,6,0,P|32:192|56:100,1,187.000005706787,0|8,0:0|0:0,0:0:0:0:
144,76,179366,1,2,0:0:0:0:
172,232,179600,6,0,P|255:273|346:261,1,187.000005706787,0|8,0:0|0:0,0:0:0:0:
404,188,180303,1,2,0:0:0:0:
348,40,180538,5,4,0:0:0:0:
332,132,180772,1,0,0:0:0:0:
280,216,181006,2,0,L|184:223,1,93.5000028533936,8|2,0:0|0:0,0:0:0:0:
6,138,181475,5,0,0:0:0:0:
194,106,181709,1,0,0:0:0:0:
70,242,181944,1,8,0:0:0:0:
94,58,182178,1,2,0:0:0:0:
186,222,182413,5,0,0:0:0:0:
232,312,182647,1,0,0:0:0:0:
328,344,182881,1,8,0:0:0:0:
428,316,183116,1,2,0:0:0:0:
480,228,183350,2,0,P|472:136|420:56,1,187.000005706787,0|10,0:0|0:0,0:0:0:0:
320,44,184053,1,0,0:0:0:0:
256,192,184288,12,0,185694,0:0:0:0:
76,268,191788,6,0,L|124:272,1,42.5,4|0,0:0|0:0,0:0:0:0:
150,300,192022,2,0,L|198:304,1,42.5,2|0,0:0|0:0,0:0:0:0:
228,328,192256,2,0,P|272:328|308:308,1,85,8|2,0:0|0:0,0:0:0:0:
248,216,192725,6,0,L|200:212,1,42.5
176,184,192959,2,0,L|132:180,1,42.5,2|0,0:0|0:0,0:0:0:0:
108,148,193194,2,0,P|64:148|28:128,1,85,8|2,0:0|0:0,0:0:0:0:
92,32,193663,6,0,L|136:28,3,42.5,0|0|2|0,0:0|0:0|0:0|0:0,0:0:0:0:
172,44,194131,2,0,L|220:40,3,42.5,8|0|2|0,0:0|0:0|0:0|0:0,0:0:0:0:
256,52,194600,2,0,L|304:48,3,42.5,0|0|2|2,0:0|0:0|0:0|0:0,0:0:0:0:
336,68,195069,2,0,P|348:108|340:152,1,85,8|2,0:0|0:0,0:0:0:0:
256,208,195538,6,0,L|208:204,1,42.5
176,224,195772,2,0,L|124:220,1,42.5,2|0,0:0|0:0,0:0:0:0:
96,236,196006,2,0,P|80:276|84:320,1,85,8|2,0:0|0:0,0:0:0:0:
192,336,196475,6,0,L|240:332,1,42.5
268,308,196709,2,0,L|316:304,1,42.5,2|0,0:0|0:0,0:0:0:0:
340,276,196944,2,0,P|360:240|364:196,1,85,8|2,0:0|0:0,0:0:0:0:
300,104,197413,6,0,L|256:100,3,42.5,0|0|2|0,0:0|0:0|0:0|0:0,0:0:0:0:
232,136,197881,2,0,L|184:132,3,42.5,8|0|2|0,0:0|0:0|0:0|0:0,0:0:0:0:
148,144,198350,2,0,L|140:188,3,42.5,0|2|2|0,0:0|0:0|0:0|0:0,0:0:0:0:
108,216,198819,2,0,P|108:264|124:300,1,85,8|2,0:0|0:0,0:0:0:0:
252,292,199288,6,0,L|256:248,1,42.5,4|0,0:0|0:0,0:0:0:0:
232,212,199522,2,0,L|236:168,1,42.5,2|0,0:0|0:0,0:0:0:0:
220,132,199756,2,0,P|208:92|216:48,1,85,8|2,0:0|0:0,0:0:0:0:
320,80,200225,6,0,L|368:76,1,42.5
392,108,200459,2,0,L|440:104,1,42.5,2|0,0:0|0:0,0:0:0:0:
472,124,200694,2,0,P|484:164|476:208,1,85,8|2,0:0|0:0,0:0:0:0:
372,240,201163,6,0,L|324:236,1,42.5
292,216,201397,2,0,L|248:212,1,42.5,2|0,0:0|0:0,0:0:0:0:
224,180,201631,2,0,L|228:136,3,42.5,8|0|2|0,0:0|0:0|0:0|0:0,0:0:0:0:
208,100,202100,2,0,L|212:52,3,42.5,0|0|2|2,0:0|0:0|0:0|0:0,0:0:0:0:
176,32,202569,2,0,P|132:24|88:36,1,85,8|2,0:0|0:0,0:0:0:0:
60,156,203038,6,0,L|64:204,1,42.5
92,228,203272,2,0,L|96:276,1,42.5,2|0,0:0|0:0,0:0:0:0:
128,296,203506,2,0,P|160:328|200:340,1,85,8|2,0:0|0:0,0:0:0:0:
292,284,203975,6,0,L|296:240,1,42.5
332,220,204209,2,0,L|336:176,1,42.5,2|0,0:0|0:0,0:0:0:0:
372,156,204444,2,0,P|392:116|388:76,1,85,8|2,0:0|0:0,0:0:0:0:
284,40,204913,6,0,L|240:44,1,42.5
220,80,205147,2,0,L|176:84,1,42.5,2|0,0:0|0:0,0:0:0:0:
156,120,205381,2,0,L|160:164,3,42.5,8|0|2|0,0:0|0:0|0:0|0:0,0:0:0:0:
140,200,205850,2,0,L|144:248,3,42.5,0|2|2|0,0:0|0:0|0:0|0:0,0:0:0:0:
116,276,206319,2,0,P|75:284|36:270,1,85,8|2,0:0|0:0,0:0:0:0:
40,144,206788,6,0,L|48:96,1,42.5,4|0,0:0|0:0,0:0:0:0:
80,76,207022,2,0,L|128:84,1,42.5,2|0,0:0|0:0,0:0:0:0:
160,64,207256,2,0,P|176:104|212:128,1,85,8|2,0:0|0:0,0:0:0:0:
316,104,207725,6,0,L|360:100,1,42.5
400,112,207959,2,0,L|404:156,1,42.5,2|0,0:0|0:0,0:0:0:0:
420,192,208194,2,0,P|412:236|384:268,1,85,8|2,0:0|0:0,0:0:0:0:
276,248,208663,5,0,0:0:0:0:
268,228,208780,1,0,0:0:0:0:
260,208,208897,1,2,0:0:0:0:
252,188,209014,1,0,0:0:0:0:
244,168,209131,2,0,L|200:172,3,42.5,8|0|2|0,0:0|0:0|0:0|0:0,0:0:0:0:
164,152,209600,2,0,L|120:156,3,42.5,0|0|2|2,0:0|0:0|0:0|0:0,0:0:0:0:
84,136,210069,2,0,P|68:96|72:52,1,85,8|2,0:0|0:0,0:0:0:0:
196,32,210538,6,0,L|244:28,1,42.5
276,48,210772,2,0,L|320:44,1,42.5,2|0,0:0|0:0,0:0:0:0:
356,68,211006,2,0,P|368:112|360:152,1,85,8|2,0:0|0:0,0:0:0:0:
256,188,211475,6,0,L|212:192,1,42.5
180,216,211709,2,0,L|132:220,1,42.5,2|0,0:0|0:0,0:0:0:0:
104,248,211944,2,0,P|96:292|116:332,1,85,8|2,0:0|0:0,0:0:0:0:
226,335,212413,5,0,0:0:0:0:
242,323,212530,1,0,0:0:0:0:
258,311,212647,1,2,0:0:0:0:
274,299,212764,1,0,0:0:0:0:
290,287,212881,2,0,L|338:283,3,42.5,8|0|2|0,0:0|0:0|0:0|0:0,0:0:0:0:
368,260,213350,2,0,L|416:256,3,42.5,0|2|2|0,0:0|0:0|0:0|0:0,0:0:0:0:
444,228,213819,1,8,0:0:0:0:
424,104,214053,1,2,0:0:0:0:
256,192,214288,12,4,218038,0:0:0:0:
120,288,218506,5,2,3:0:0:0:
152,216,218741,1,0,0:0:0:0:
152,216,218975,2,0,L|216:212,1,63.7500024318696
268,156,219444,2,0,P|268:124|260:88,1,63.7500024318696,2|0,3:0|0:0,0:0:0:0:
200,48,219913,5,0,0:0:0:0:
128,76,220147,1,2,0:0:0:0:
104,148,220381,1,2,0:3:0:0:
116,224,220616,1,2,0:0:0:0:
180,268,220850,2,0,P|244:272|304:248,1,127.500004863739,0|2,0:0|0:3,0:0:0:0:
348,188,221553,1,0,0:0:0:0:
324,48,221788,5,0,0:0:0:0:
256,84,222022,1,0,0:0:0:0:
232,156,222256,1,2,0:3:0:0:
240,232,222491,1,0,0:0:0:0:
240,232,222725,2,0,L|308:236,1,63.7500024318696
416,300,223194,2,0,L|352:296,1,63.7500024318696,2|0,0:3|0:0,0:0:0:0:
220,344,223663,5,0,0:0:0:0:
156,304,223897,1,2,0:0:0:0:
140,228,224131,1,2,0:3:0:0:
160,156,224366,1,2,0:0:0:0:
224,112,224600,2,0,P|256:112|292:124,2,63.7500024318696,0|2|2,0:0|0:0|0:3,0:0:0:0:
244,240,225303,5,0,0:0:0:0:
248,257,225420,1,0,0:0:0:0:
252,272,225538,2,0,P|280:288|312:292,1,63.7500024318696,4|0,0:0|0:0,0:0:0:0:
384,272,226006,1,2,0:3:0:0:
404,196,226241,1,0,0:0:0:0:
344,148,226475,2,0,L|276:152,1,63.7500024318696
220,104,226944,2,0,P|216:72|224:41,1,63.7500024318696,2|0,0:3|0:0,0:0:0:0:
300,36,227413,5,0,0:0:0:0:
372,60,227647,1,2,0:0:0:0:
404,132,227881,1,2,0:3:0:0:
380,204,228116,1,2,0:0:0:0:
312,240,228350,2,0,L|184:236,1,127.500004863739,0|2,0:0|0:3,0:0:0:0:
132,168,229053,1,0,0:0:0:0:
60,212,229288,5,4,0:0:0:0:
44,296,229522,1,2,0:0:0:0:
100,360,229756,2,0,L|188:356,1,85,2|0,0:3|0:0,0:0:0:0:
276,352,230225,1,0,0:0:0:0:
284,268,230459,1,2,0:0:0:0:
292,184,230694,2,0,L|204:188,1,85,2|0,0:3|0:0,0:0:0:0:
92,100,231163,6,0,L|176:96,1,85,2|0,0:0|0:0,0:0:0:0:
292,184,231631,2,0,L|208:188,1,85,2|0,0:3|0:0,0:0:0:0:
348,92,232100,2,0,P|392:84|432:96,1,85,2|0,0:0|0:0,0:0:0:0:
380,260,232569,2,0,L|384:176,1,85,2|0,0:3|0:0,0:0:0:0:
256,192,233038,12,0,234913,0:0:0:0:
352,32,235850,5,2,0:0:0:0:
372,40,235967,1,0,0:0:0:0:
392,48,236084,1,2,0:0:0:0:
412,56,236202,1,2,0:0:0:0:
432,64,236319,2,0,L|424:148,1,85,8|2,0:0|0:0,0:0:0:0:
452,288,236788,6,0,P|404:296|364:276,1,93.5000028533936,4|0,0:0|0:0,0:0:0:0:
304,196,237256,1,8,0:0:0:0:
312,92,237491,1,0,0:0:0:0:
228,32,237725,2,0,P|180:36|144:64,1,93.5000028533936,0|2,0:0|0:0,0:0:0:0:
312,92,238194,2,0,P|364:88|404:60,1,93.5000028533936,8|2,0:0|0:0,0:0:0:0:
220,128,238663,6,0,L|228:316,1,187.000005706787,0|8,0:0|0:0,0:0:0:0:
148,360,239366,1,2,0:0:0:0:
40,244,239600,6,0,P|52:156|120:80,1,187.000005706787,0|8,0:0|0:0,0:0:0:0:
204,116,240303,1,2,0:0:0:0:
344,208,240538,6,0,P|300:212|252:196,1,93.5000028533936,4|0,0:0|0:0,0:0:0:0:
316,52,241006,1,8,0:0:0:0:
452,132,241241,1,2,0:0:0:0:
436,316,241475,6,0,P|428:264|440:220,1,93.5000028533936
480,48,241944,1,8,0:0:0:0:
328,156,242178,1,2,0:0:0:0:
180,40,242413,6,0,P|224:40|269:58,1,93.5000028533936
328,156,242881,1,8,0:0:0:0:
244,232,243116,1,2,0:0:0:0:
132,212,243350,2,0,P|116:168|120:116,2,93.5000028533936,0|2|8,0:0|0:0|0:0,0:0:0:0:
320,340,244288,5,4,0:0:0:0:
412,332,244522,1,0,0:0:0:0:
468,256,244756,2,0,P|460:208|432:168,1,93.5000028533936,8|0,0:0|0:0,0:0:0:0:
336,108,245225,2,0,L|328:204,1,93.5000028533936,0|2,0:0|0:0,0:0:0:0:
272,296,245694,1,8,0:0:0:0:
180,232,245928,1,2,0:0:0:0:
80,108,246163,6,0,P|33:186|36:280,1,187.000005706787,0|8,0:0|0:0,0:0:0:0:
108,336,246866,1,2,0:0:0:0:
252,264,247100,6,0,L|240:76,1,187.000005706787,0|8,0:0|0:0,0:0:0:0:
324,36,247803,1,2,0:0:0:0:
472,100,248038,6,0,P|431:121|385:120,1,93.5000028533936,4|0,0:0|0:0,0:0:0:0:
230,28,248506,2,0,L|324:36,1,93.5000028533936,8|2,0:0|0:0,0:0:0:0:
472,100,248975,5,0,0:0:0:0:
432,252,249209,1,0,0:0:0:0:
304,156,249444,1,8,0:0:0:0:
220,292,249678,1,2,0:0:0:0:
92,281,249913,6,0,L|100:188,1,93.5000028533936
168,348,250381,1,8,0:0:0:0:
272,344,250616,1,2,0:0:0:0:
376,340,250850,2,0,P|448:280|472:188,1,187.000005706787,0|10,0:0|0:0,0:0:0:0:
292,60,251788,5,4,0:0:0:0:
200,48,252022,1,0,0:0:0:0:
108,36,252256,2,0,P|84:80|80:128,1,93.5000028533936,8|0,0:0|0:0,0:0:0:0:
144,248,252725,1,0,0:0:0:0:
276,204,252959,1,2,0:0:0:0:
208,80,253194,2,0,P|188:124|188:168,1,93.5000028533936,8|2,0:0|0:0,0:0:0:0:
252,312,253663,6,0,L|65:304,1,187.000005706787,0|8,0:0|0:0,0:0:0:0:
40,216,254366,1,2,0:0:0:0:
108,72,254600,6,0,L|296:76,1,187.000005706787,0|8,0:0|0:0,0:0:0:0:
388,64,255303,1,2,0:0:0:0:
412,204,255538,6,0,P|371:225|325:223,1,93.5000028533936,4|0,0:0|0:0,0:0:0:0:
148,156,256006,2,0,P|104:156|60:188,1,93.5000028533936,8|2,0:0|0:0,0:0:0:0:
176,332,256475,6,0,P|144:296|132:248,1,93.5000028533936
216,84,256944,2,0,P|244:120|249:166,1,93.5000028533936,8|2,0:0|0:0,0:0:0:0:
63,182,257413,5,0,0:0:0:0:
216,84,257647,1,0,0:0:0:0:
140,256,257881,1,8,0:0:0:0:
60,88,258116,1,2,0:0:0:0:
220,184,258350,2,0,P|270:182|308:160,2,93.5000028533936,0|2|8,0:0|0:0|0:0,0:0:0:0:
52,36,259288,6,0,L|148:32,1,93.5000028533936,4|0,0:0|0:0,0:0:0:0:
228,76,259756,1,8,0:0:0:0:
212,168,259991,1,0,0:0:0:0:
100,252,260225,2,0,P|148:268|196:264,1,93.5000028533936,0|2,0:0|0:0,0:0:0:0:
376,236,260694,2,0,P|332:224|286:232,1,93.5000028533936,8|2,0:0|0:0,0:0:0:0:
432,352,261163,6,0,L|424:160,1,187.000005706787,0|8,0:0|0:0,0:0:0:0:
372,88,261866,1,2,0:0:0:0:
220,136,262100,6,0,P|228:228|280:304,1,187.000005706787,0|8,0:0|0:0,0:0:0:0:
372,280,262803,1,2,0:0:0:0:
424,100,263038,6,0,L|428:200,1,93.5000028533936,4|0,0:0|0:0,0:0:0:0:
280,304,263506,2,0,L|284:208,1,93.5000028533936,8|2,0:0|0:0,0:0:0:0:
264,52,263975,5,0,0:0:0:0:
104,56,264209,1,0,0:0:0:0:
132,240,264444,2,0,P|152:196|148:148,1,93.5000028533936,8|2,0:0|0:0,0:0:0:0:
24,180,264913,5,0,0:0:0:0:
24,180,265147,1,0,0:0:0:0:
36,280,265381,1,0,0:0:0:0:
36,280,265616,1,2,0:0:0:0:
116,340,265850,2,0,L|288:336,1,170,0|2,0:0|0:0,0:0:0:0:
388,348,266553,1,0,0:0:0:0:
256,192,266788,12,0,268194,0:0:0:0:
84,124,274288,5,4,0:0:0:0:
240,56,274756,2,0,P|324:44|408:68,1,170,8|0,0:0|0:0,0:0:0:0:
440,144,275459,2,0,L|432:316,1,170
264,344,276397,5,0,0:0:0:0:
188,308,276631,2,0,P|160:232|168:140,1,170,8|0,0:0|0:0,0:0:0:0:
316,64,277569,1,8,0:0:0:0:
428,192,278038,5,0,0:0:0:0:
344,328,278506,1,8,0:0:0:0:
256,192,278975,1,0,0:0:0:0:
256,192,279209,1,2,0:0:0:0:
172,44,279678,1,0,0:0:0:0:
80,188,280147,5,2,0:0:0:0:
80,188,280381,1,8,0:0:0:0:
176,328,280850,2,0,L|220:324,1,42.5
260,336,281084,2,0,L|304:332,1,42.5,2|0,0:0|0:0,0:0:0:0:
344,344,281319,1,8,0:0:0:0:
396,276,281553,2,0,L|392:232,1,42.5,2|0,0:0|0:0,0:0:0:0:
256,192,281788,12,4,283428,0:0:0:0:
