osu file format v14

[General]
AudioFilename: audio.mp3
AudioLeadIn: 0
PreviewTime: -1
Countdown: 1
SampleSet: None
StackLeniency: 1
Mode: 0
LetterboxInBreaks: 0
WidescreenStoryboard: 1

[Editor]
Bookmarks: 14983,16650,16983,21983,22317,27317,27650,32983,54317,56317,57650,58983,60317,61650,62983,64317,65650,66983,68317,69650,70983,73650,74317,75650,78317,78983,79150,79317
DistanceSpacing: 1.8
BeatDivisor: 4
GridSize: 4
TimelineZoom: 2.5

[Metadata]
Title:Overthinker
TitleUnicode:Overthinker
Artist:INZO
ArtistUnicode:INZO
Creator:LoliRafis0108
Version:test
Source:
Tags:INZO Overthinker
BeatmapID:1952435
BeatmapSetID:935154

[Difficulty]
HPDrainRate:3
CircleSize:4
OverallDifficulty:7
ApproachRate:9
SliderMultiplier:0.6
SliderTickRate:2

[Events]
//Background and Video events
0,0,"47298_photo_manipulation_colorful_space_view.jpg",0,0
//Break Periods
//Storyboard Layer 0 (Background)
//Storyboard Layer 1 (Fail)
//Storyboard Layer 2 (Pass)
//Storyboard Layer 3 (Foreground)
//Storyboard Sound Samples

[TimingPoints]
11650.4165307975,333.333333333333,4,1,0,100,1,0
32983,-66.6666666666667,4,1,0,100,0,0
33483,-40,4,1,0,100,0,0
33650,-28.5714285714286,4,1,0,100,0,0
33817,-100,4,1,0,100,0,0
40983,-200,4,1,0,100,0,0
43983,-66.6666666666667,4,1,0,100,0,0
44150,-40,4,1,0,100,0,0
44317,-28.5714285714286,4,1,0,100,0,0
44333,-100,4,1,0,100,0,0
48983,-66.6666666666667,4,1,0,100,0,0
52317,-1000,4,1,0,100,0,0
54650,-200,4,1,0,100,0,0
59650,-100,4,1,0,100,0,0
63983,-66.6666666666667,4,1,0,100,0,0
71650,-55.5555555555556,4,1,0,100,0,0
71983,-47.6190476190476,4,1,0,100,0,0
72317,-41.6666666666667,4,1,0,100,0,0
72678,-37.037037037037,4,1,0,100,0,0
72983,-33.3333333333333,4,1,0,100,0,0
75650,-28.5714285714286,4,1,0,100,0,0
76317,-25,4,1,0,100,0,0
76817,-33.3333333333333,4,1,0,100,0,0
78317,-100,4,1,0,100,0,0
78983,-25,4,1,0,100,0,0
81067,-25,4,1,0,100,0,0

[HitObjects]
66,198,11650,6,0,B|315:166|332:18|170:7|106:18|74:58|120:343|328:336|269:68|374:42|444:158|495:339|420:368|231:342|221:243|302:112|404:209|458:122,1,900
337,330,16983,6,0,B|246:277|310:179|203:139|203:139|181:184|181:184|177:129|177:129|121:144|121:144|173:103|173:103|119:76|119:76|174:91|174:91|171:33|171:33|200:79|200:79|242:37|242:37|222:95|222:95|274:109|274:109|251:102|251:102,1,900
105,170,22317,6,0,B|195:56|348:54|348:54|235:122|187:186|187:186|282:135|341:155|341:155|267:188|258:243|258:243|300:217|328:219|328:219|312:276,1,900
336,66,27650,6,0,B|466:159|187:347|40:178|40:178|201:-13|403:212|445:243|329:298|329:298,1,960
263,262,33317,6,0,P|247:246|244:227,1,22.5000008583069
295,233,33483,2,0,P|290:207|299:173,1,37.5
328,239,33650,2,0,P|348:208|392:177,1,52.500000500679
337,94,33817,6,0,P|280:82|242:99,1,90
250,317,34983,6,0,P|276:285|344:271,1,105
103,85,35983,6,0,P|131:113|151:120,1,60
283,65,36650,1,0,0:0:0:0:
373,232,36983,2,0,P|343:251|309:240,1,60
137,232,37650,2,0,P|147:204|173:183,1,60
384,80,38317,6,0,B|392:132|335:137|327:194,1,120
137,194,39317,1,0,0:0:0:0:
192,313,39650,2,0,L|227:256,1,60
420,262,40317,2,0,L|397:204,1,60
311,138,40983,6,0,B|282:154|282:154|255:142,1,60
171,53,41983,1,0,0:0:0:0:
65,103,42317,2,0,L|78:133,1,30
252,149,42983,2,0,L|264:182,1,30
436,176,43650,5,0,0:0:0:0:
340,256,43983,2,0,P|346:242|344:229,1,22.5000008583069
294,238,44150,2,0,P|289:210|268:191,1,37.5
258,254,44317,2,0,P|239:230|211:218,1,52.500000500679
82,155,44483,6,0,P|121:114|165:103,1,90
277,50,45317,2,0,L|324:93,1,60
225,152,45983,2,0,L|181:203,1,60
341,278,46650,1,0,0:0:0:0:
123,340,46983,6,0,P|100:314|96:277,1,60
214,267,47650,2,0,P|239:239|244:212,1,60
91,110,48317,2,0,B|123:99|123:99|161:109,1,60
412,52,48983,6,0,B|382:55|369:92|332:106,1,90.0000034332277
376,214,49650,1,0,0:0:0:0:
271,288,49983,2,0,L|192:234,1,90.0000034332277
106,236,50650,2,0,P|127:182|172:161,1,90.0000034332277
205,207,51317,2,0,P|165:237|184:281,1,90.0000034332277
294,257,51983,5,0,0:0:0:0:
238,76,52317,2,0,P|254:71|271:79,1,36
286,235,54650,6,0,P|305:225|313:217,1,30
239,135,55317,1,0,0:0:0:0:
400,138,55650,5,0,0:0:0:0:
171,128,55983,2,0,P|161:146|160:158,1,30
288,201,56650,1,0,0:0:0:0:
144,240,56983,1,0,0:0:0:0:
283,326,57317,2,0,L|265:298,1,30
278,113,57983,5,0,0:0:0:0:
407,95,58317,2,0,L|412:125,1,30
398,248,58983,1,0,0:0:0:0:
322,152,59317,1,0,0:0:0:0:
66,304,59650,6,0,L|121:270,1,60
295,331,60317,2,0,P|299:293|290:270,1,60
179,171,60983,1,0,0:0:0:0:
356,212,61317,1,0,0:0:0:0:
281,100,61650,2,0,P|318:101|347:122,1,60
68,41,62317,5,0,0:0:0:0:
123,184,62650,2,0,P|152:208|185:213,1,60
279,231,63317,1,0,0:0:0:0:
418,199,63650,5,0,0:0:0:0:
456,44,63983,2,0,P|424:76|372:90,1,90.0000034332277
211,46,64650,2,0,P|178:93|166:138,1,90.0000034332277
290,197,65317,2,0,P|298:227|299:256,2,45.0000017166138
88,198,65983,5,0,0:0:0:0:
122,88,66317,2,0,P|150:74|182:80,1,45.0000017166138
216,144,66650,2,0,P|242:147|267:141,1,45.0000017166138
384,74,66983,1,0,0:0:0:0:
435,351,67317,5,0,0:0:0:0:
459,259,67483,2,0,L|422:216,1,45.0000017166138
359,180,67817,1,0,0:0:0:0:
282,226,67983,1,0,0:0:0:0:
197,206,68150,2,0,P|172:193|151:167,1,45.0000017166138
127,104,68650,1,0,0:0:0:0:
420,50,68983,6,0,L|370:88,1,45.0000017166138
409,147,69317,2,0,L|363:179,2,45.0000017166138
415,45,69983,1,0,0:0:0:0:
374,167,70317,6,0,L|336:217,1,45.0000017166138
277,80,70650,2,0,L|272:132,1,45.0000017166138
163,38,70984,2,0,L|181:83,1,45.0000017166138
153,184,71317,6,0,L|110:140,1,45.0000017166138
145,265,71650,2,0,L|83:232,1,53.9999983520508
189,334,71983,2,0,L|124:343,1,62.9999980773926
296,344,72317,2,0,L|229:390,1,71.9999978027344
381,313,72650,2,0,L|370:390,1,71.9999978027344
289,159,72983,6,0,P|333:114|349:130,1,90.0000034332277,0|0,0:0|0:0,2:0:0:0:
223,225,73317,6,0,P|178:269|162:253,1,90.0000034332277,0|0,0:0|0:0,2:0:0:0:
289,225,73650,6,0,P|333:269|349:253,1,90.0000034332277,0|0,0:0|0:0,2:0:0:0:
222,159,73983,6,0,P|213:118|171:118,1,90.0000034332277,0|0,0:0|0:0,2:0:0:0:
171,118,74233,1,0,0:0:0:0:
171,118,74317,1,0,0:0:0:0:
160,237,75650,6,0,P|239:152|217:231,1,315.000003004074
282,83,76317,2,0,P|332:32|368:39,1,60
377,184,76483,2,0,B|392:144|414:137|414:137|384:146|375:188,1,120
124,296,76983,6,0,B|190:229|190:229|268:288|268:288|198:235,1,270.000010299683
267,287,77317,1,0,0:0:0:0:
192,233,77650,6,0,B|244:183|244:183|243:115|243:115|244:183,1,180.000006866455
445,66,78317,6,0,P|416:51|380:55,1,60
361,165,78983,2,0,P|316:180|319:132,1,60
312,176,79150,2,0,P|357:153|319:132,1,60
312,176,79317,2,0,P|267:191|317:116,1,240
342,93,79650,6,0,P|247:50|343:191,1,480
373,324,80358,2,0,B|346:329|346:329|338:310|338:310|299:331|299:331|299:265|299:265|237:332|237:332|261:230|261:230|201:290|198:224,1,450
229,44,80983,6,0,B|457:56|426:81|130:150|485:270|515:175|452:44|225:196,1,480
391,264,81650,2,0,P|406:331|308:349,1,180
267,261,81900,6,0,L|356:306,1,60
150,62,82316,1,0,0:0:0:0:
279,94,82483,2,0,B|293:134|266:166|266:166|292:133|279:87,1,120
242,253,82983,1,0,0:0:0:0:
