osu file format v14

[General]
AudioFilename: audio.mp3
AudioLeadIn: 0
PreviewTime:189
Countdown: 0
SampleSet: Soft
StackLeniency: 0.5
Mode: 0
LetterboxInBreaks: 0
WidescreenStoryboard: 1

[Editor]
DistanceSpacing: 0.5
BeatDivisor: 4
GridSize: 4
TimelineZoom: 2.3

[Metadata]
Title:PRINCE
TitleUnicode:PRINCE
Artist:INUMO KUWANEEYO
ArtistUnicode:犬も食わねぇよ。
Creator:Ryuusei Aika
Version:sorciere's Expert
Source:
Tags:sorairokarasu Astrolis AuroraE sorciere kanor Japanese Pop JPop J-Pop vocaloid ボーカロイド ボカロ flower v-flower vflower KINGっぽい曲 イヌクワ イヌクワチャンネル INUKUWA Channel マンモーニ拓磨 Mammoni Takuma
BeatmapID:3333456
BeatmapSetID:1614553

[Difficulty]
HPDrainRate:5.5
CircleSize:4.5
OverallDifficulty:8
ApproachRate:9
SliderMultiplier:2.09999990463257
SliderTickRate:1

[Events]
//Background and Video events
0,0,"BG.jpg",0,0
//Break Periods
2,64684,75313
//Storyboard Layer 0 (Background)
//Storyboard Layer 1 (Fail)
//Storyboard Layer 2 (Pass)
//Storyboard Layer 3 (Foreground)
//Storyboard Layer 4 (Overlay)
//Storyboard Sound Samples

[TimingPoints]
199,357.142857142857,4,2,1,40,1,0
199,-250,4,2,1,40,0,0
3056,-100,4,2,1,60,0,0
4484,-75.187969924812,4,2,1,60,0,0
5198,-133.333333333333,4,2,1,60,0,0
5913,-100,4,2,1,60,0,0
7698,-75.187969924812,4,2,1,60,0,0
8413,-66.6666666666667,4,2,1,60,0,0
8770,-100,4,2,1,60,0,0
10913,-133.333333333333,4,2,1,60,0,0
11627,-100,4,2,1,60,0,0
13413,-75.187969924812,4,2,1,60,0,0
14127,-66.6666666666667,4,2,1,60,0,0
14484,-66.6666666666667,4,2,1,50,0,0
15377,-200,4,2,1,50,0,0
16627,-333.333333333333,4,2,1,50,0,0
16984,-555.555555555556,4,2,1,50,0,0
18234,-200,4,2,1,50,0,0
22341,-303.030303030303,4,2,1,50,0,0
22698,-555.555555555556,4,2,1,50,0,0
23948,-200,4,2,1,50,0,0
25913,-200,4,2,1,60,0,0
27163,-133.333333333333,4,2,1,60,0,0
36270,-200,4,2,1,60,0,0
36627,-303.030303030303,4,2,1,60,0,0
39127,-75.187969924812,4,2,1,60,0,0
40377,-100,4,2,1,60,0,0
51627,-100,4,2,1,60,0,1
51716,-100,4,2,1,70,0,1
52698,-75.187969924812,4,2,1,70,0,1
53056,-66.6666666666667,4,2,1,70,0,1
53413,-75.187969924812,4,2,1,70,0,1
53591,-100,4,2,1,70,0,1
53770,-133.333333333333,4,2,1,70,0,1
53948,-200,4,2,1,70,0,1
54484,-75.187969924812,4,2,1,70,0,1
55020,-100,4,2,1,70,0,1
58413,-75.187969924812,4,2,1,70,0,1
58770,-66.6666666666667,4,2,1,70,0,1
59127,-75.187969924812,4,2,1,70,0,1
59306,-100,4,2,1,70,0,1
59484,-133.333333333333,4,2,1,70,0,1
59663,-200,4,2,1,70,0,1
60198,-75.187969924812,4,2,1,70,0,1
60734,-100,4,2,1,70,0,1
63056,-100,4,2,1,50,0,0
64484,-100,4,2,1,60,0,0
77163,-133.333333333333,4,2,1,60,0,0
86270,-200,4,2,1,60,0,0
87520,-100,4,2,1,60,0,0
98770,-100,4,2,1,70,0,1
99841,-75.187969924812,4,2,1,70,0,1
100198,-66.6666666666667,4,2,1,70,0,1
100556,-75.187969924812,4,2,1,70,0,1
100734,-100,4,2,1,70,0,1
100913,-133.333333333333,4,2,1,70,0,1
101091,-200,4,2,1,70,0,1
101627,-75.187969924812,4,2,1,70,0,1
102163,-100,4,2,1,70,0,1
105556,-75.187969924812,4,2,1,70,0,1
105913,-66.6666666666667,4,2,1,70,0,1
106270,-75.187969924812,4,2,1,70,0,1
106448,-100,4,2,1,70,0,1
106627,-133.333333333333,4,2,1,70,0,1
106806,-200,4,2,1,70,0,1
107341,-75.187969924812,4,2,1,70,0,1
107877,-100,4,2,1,70,0,1
110198,-100,4,2,1,70,0,0
112341,-200,4,2,1,70,0,0
113056,-100,4,2,1,70,0,0
114484,-75.187969924812,4,2,1,70,0,0
115198,-133.333333333333,4,2,1,70,0,0
115913,-100,4,2,1,70,0,0
117698,-75.187969924812,4,2,1,70,0,0
118413,-66.6666666666667,4,2,1,70,0,0
118770,-100,4,2,1,70,0,0
120913,-133.333333333333,4,2,1,70,0,0
121627,-100,4,2,1,70,0,0
123413,-75.187969924812,4,2,1,70,0,0
124127,-66.6666666666667,4,2,1,70,0,0
124484,-66.6666666666667,4,2,1,60,0,0
125020,-200,4,2,1,60,0,0

[Colours]
Combo1 : 159,0,0
Combo2 : 95,95,95

[HitObjects]
52,256,199,6,0,P|29:220|8:184,1,83.9999961853028,0|0,2:0|2:0,2:0:0:0:
140,196,734,1,0,2:0:0:0:
140,196,913,2,0,P|130:214|124:234,1,41.9999980926514,0|0,2:0|2:0,2:0:0:0:
172,288,1270,2,0,P|191:281|211:278,1,41.9999980926514,0|0,2:0|2:0,2:0:0:0:
256,192,1627,5,0,2:0:0:0:
256,192,1806,1,0,2:0:0:0:
308,104,1984,6,0,P|328:100|348:93,1,41.9999980926514,0|0,2:0|2:0,2:0:0:0:
468,128,2341,2,0,P|479:146|490:164,1,41.9999980926514,0|0,2:0|2:0,2:0:0:0:
380,192,2698,2,0,P|389:174|395:154,1,41.9999980926514,0|0,2:0|2:0,2:0:0:0:
430,31,3056,6,0,P|392:40|328:53,1,104.999995231629,4|0,3:2|2:0,2:0:0:0:
260,80,3323,1,0,2:0:0:0:
252,76,3413,1,8,2:0:0:0:
200,16,3591,1,0,2:0:0:0:
304,220,3770,5,0,3:0:0:0:
378,118,3948,1,2,2:0:0:0:
180,184,4127,1,8,2:0:0:0:
308,236,4306,1,2,2:0:0:0:
372,131,4484,6,0,B|392:124|424:124|424:124|432:124|440:127|440:127|448:130|455:131|455:131|488:131|508:124,2,139.649993658066,0|0|8,3:0|2:0|2:0,2:0:0:0:
372,131,5198,2,0,P|357:144|353:163,1,39.3749982118608,0|0,3:0|2:0,2:0:0:0:
424,200,5377,2,0,P|437:185|441:166,1,39.3749982118608,2|0,2:0|2:0,2:0:0:0:
308,48,5556,5,8,2:0:0:0:
256,192,5734,1,2,2:0:0:0:
204,336,5913,6,0,P|152:324|101:313,1,104.999995231629,0|0,3:0|2:0,2:0:0:0:
36,336,6181,1,0,2:0:0:0:
28,340,6270,1,8,2:0:0:0:
72,244,6448,1,0,2:0:0:0:
264,232,6627,5,0,3:0:0:0:
288,356,6806,1,2,2:0:0:0:
148,248,6984,1,8,2:0:0:0:
274,221,7163,1,2,2:0:0:0:
132,372,7341,6,0,P|124:347|120:321,1,52.4999976158143,0|0,3:0|2:0,2:0:0:0:
60,280,7520,1,2,2:0:0:0:
60,280,7609,1,0,2:0:0:0:
120,321,7698,6,0,P|182:299|184:233,1,139.649993658066,8|2,2:0|2:0,2:0:0:0:
352,140,8056,6,0,P|356:108|367:72,1,69.824996829033,0|0,3:0|2:0,2:0:0:0:
444,48,8234,1,8,2:0:0:0:
444,48,8323,1,0,2:0:0:0:
428,124,8413,6,0,P|322:142|296:36,1,236.249989271164,8|0,2:0|2:0,2:0:0:0:
295,37,8770,6,0,P|244:53|194:68,1,104.999995231629,4|0,3:2|2:0,2:0:0:0:
132,104,9038,1,0,2:0:0:0:
124,100,9127,1,8,2:0:0:0:
64,44,9306,1,0,2:0:0:0:
100,220,9484,5,0,3:0:0:0:
224,252,9663,1,2,2:0:0:0:
24,320,9841,1,8,2:0:0:0:
96,205,10020,1,2,2:0:0:0:
232,240,10198,6,0,P|252:248|282:254,1,52.4999976158143,0|0,3:0|2:0,2:0:0:0:
360,296,10377,2,0,P|379:288|410:281,1,52.4999976158143,0|0,2:0|2:0,2:0:0:0:
496,240,10556,1,8,2:0:0:0:
496,240,10913,6,0,P|480:236|458:228,1,39.3749982118608,0|0,3:0|2:0,2:0:0:0:
400,276,11091,2,0,P|384:280|362:288,1,39.3749982118608,2|0,2:0|2:0,2:0:0:0:
304,340,11270,5,8,2:0:0:0:
256,192,11448,1,2,2:0:0:0:
208,44,11627,6,0,P|155:32|100:24,1,104.999995231629,0|0,3:0|2:0,2:0:0:0:
32,40,11895,1,0,2:0:0:0:
24,44,11984,1,8,2:0:0:0:
112,100,12163,1,0,2:0:0:0:
340,120,12341,5,0,3:0:0:0:
428,32,12520,1,2,2:0:0:0:
216,88,12698,1,8,2:0:0:0:
344,136,12877,1,2,2:0:0:0:
428,44,13056,6,0,P|405:31|370:21,1,52.4999976158143,0|0,3:0|2:0,2:0:0:0:
308,44,13234,1,2,2:0:0:0:
308,44,13323,1,0,2:0:0:0:
360,96,13413,6,0,P|402:146|381:214,1,139.649993658066,8|2,2:0|2:0,2:0:0:0:
180,288,13770,6,0,P|147:275|112:270,1,69.824996829033,0|0,3:0|2:0,2:0:0:0:
60,332,13948,1,8,2:0:0:0:
60,332,14038,1,0,2:0:0:0:
136,352,14127,6,0,P|196:257|105:184,1,236.249989271164,8|0,2:0|2:0,2:0:0:0:
40,196,14484,5,4,3:2:0:0:
40,196,14841,1,0,3:0:0:0:
40,196,15198,1,0,3:0:0:0:
104,232,15377,2,0,L|168:216,1,52.4999976158143,0|0,2:0|3:0,2:0:0:0:
256,192,15734,5,0,2:0:0:0:
256,192,16091,2,0,L|308:208,2,52.4999976158143,0|0|0,2:0|3:0|2:0,2:0:0:0:
356,160,16627,2,0,L|396:152,1,31.4999985694886,2|0,3:2|2:0,2:0:0:0:
432,208,16984,2,0,L|452:212,1,18.8999991416931,2|0,3:2|2:0,2:0:0:0:
512,180,17341,5,0,3:0:0:0:
512,180,17698,1,0,3:0:0:0:
512,180,18056,1,0,3:0:0:0:
450,211,18234,2,0,L|390:195,1,52.4999976158143,0|0,2:0|3:0,2:0:0:0:
307,179,18591,5,0,2:0:0:0:
307,179,18770,2,0,L|204:204,2,104.999995231629,0|0|2,3:0|3:0|3:2,2:0:0:0:
296,268,19663,1,0,2:0:0:0:
260,160,19841,2,0,L|252:212,1,52.4999976158143,2|0,3:2|2:0,2:0:0:0:
224,364,20198,5,0,3:0:0:0:
224,364,20556,1,0,3:0:0:0:
224,364,20913,1,0,3:0:0:0:
288,332,21091,2,0,L|275:280,1,52.4999976158143,0|0,2:0|3:0,2:0:0:0:
256,192,21448,5,0,2:0:0:0:
256,192,21806,2,0,L|284:144,2,52.4999976158143,0|0|0,2:0|3:0|2:0,2:0:0:0:
228,104,22341,2,0,L|208:76,1,34.6499984264374,2|0,3:2|2:0,2:0:0:0:
268,40,22698,2,0,L|281:20,1,18.8999991416931,2|0,3:2|2:0,2:0:0:0:
208,0,23056,5,0,3:0:0:0:
208,0,23413,1,0,3:0:0:0:
208,0,23770,1,0,3:0:0:0:
278,24,23948,2,0,L|265:75,1,52.4999976158143,0|0,2:0|3:0,2:0:0:0:
244,160,24306,5,0,2:0:0:0:
244,160,24484,2,0,L|268:262,2,104.999995231629,0|0|0,3:0|3:0|3:0,2:0:0:0:
312,124,25377,1,2,2:0:0:0:
228,180,25556,2,0,L|279:193,1,52.4999976158143,10|0,2:0|2:0,2:0:0:0:
424,144,25913,5,4,3:2:0:0:
324,284,26091,1,0,2:0:0:0:
176,192,26270,1,8,2:0:0:0:
88,256,26448,1,0,2:0:0:0:
24,168,26627,5,0,3:0:0:0:
112,104,26806,1,2,2:0:0:0:
116,116,26895,1,0,2:0:0:0:
120,128,26984,1,8,2:0:0:0:
13,278,27163,2,0,P|49:262|88:256,1,78.7499964237216,2|0,2:0|3:0,2:0:0:0:
312,308,27520,6,0,B|332:317|341:331|341:331|348:304|319:294,1,78.7499964237216,0|8,2:0|2:0,2:0:0:0:
280,372,27877,1,0,2:0:0:0:
464,320,28056,1,0,3:0:0:0:
300,224,28234,1,2,2:0:0:0:
444,320,28413,1,8,2:0:0:0:
280,372,28591,1,2,2:0:0:0:
132,280,28770,5,0,3:0:0:0:
212,244,28948,1,0,2:0:0:0:
218,255,29038,1,0,2:0:0:0:
220,266,29127,1,8,2:0:0:0:
123,367,29306,1,0,2:0:0:0:
61,228,29484,5,0,3:0:0:0:
244,304,29663,1,2,2:0:0:0:
256,280,29752,1,0,2:0:0:0:
256,252,29841,1,8,2:0:0:0:
216,100,30020,2,0,P|250:119|288:127,1,78.7499964237216,2|0,2:0|3:0,2:0:0:0:
428,192,30377,6,0,B|426:203|438:212|438:212|444:185|471:169,1,78.7499964237216,2|8,2:0|2:0,2:0:0:0:
512,236,30734,1,2,2:0:0:0:
331,181,30913,1,0,3:0:0:0:
374,364,31091,1,8,2:0:0:0:
444,268,31270,1,8,2:0:0:0:
371,246,31448,1,0,2:0:0:0:
256,380,31627,5,4,3:2:0:0:
104,292,31806,1,0,2:0:0:0:
200,148,31984,1,8,2:0:0:0:
296,96,32163,1,0,2:0:0:0:
243,0,32341,5,0,3:0:0:0:
147,52,32520,1,2,2:0:0:0:
152,64,32609,1,0,2:0:0:0:
156,76,32698,1,8,2:0:0:0:
258,164,32877,2,0,P|272:126|295:96,1,78.7499964237216,2|0,2:0|3:0,2:0:0:0:
476,28,33234,6,0,B|457:28|440:39|440:39|445:12|464:10,1,78.7499964237216,0|8,2:0|2:0,2:0:0:0:
416,176,33591,1,0,2:0:0:0:
484,100,33770,1,0,3:0:0:0:
436,264,33948,1,2,2:0:0:0:
324,140,34127,1,8,2:0:0:0:
440,276,34306,1,2,2:0:0:0:
344,363,34484,5,0,3:0:0:0:
232,281,34663,1,0,2:0:0:0:
360,240,34841,1,8,2:0:0:0:
232,296,35020,1,0,2:0:0:0:
124,188,35198,5,0,3:0:0:0:
280,240,35377,1,2,2:0:0:0:
416,148,35556,1,8,2:0:0:0:
260,96,35734,1,2,2:0:0:0:
416,148,35913,6,0,P|376:151|341:167,1,78.7499964237216,0|2,3:0|2:0,2:0:0:0:
200,212,36270,2,0,P|174:208|149:200,1,52.4999976158143,8|2,2:0|2:0,2:0:0:0:
52,152,36627,6,0,L|84:144,1,17.3249992132187,0|0,3:0|2:0,2:0:0:0:
246,194,36984,6,0,L|262:189,1,17.3249992132187,8|0,2:0|2:0,2:0:0:0:
443,236,37341,5,0,2:0:0:0:
443,236,38770,5,0,3:0:0:0:
256,120,39127,2,0,B|179:56|238:-36|309:10|300:56,1,209.474990487099,8|0,3:1|2:0,2:0:0:0:
296,64,39484,5,8,2:1:0:0:
256,192,39752,5,8,2:1:0:0:
216,320,40020,5,8,2:1:0:0:
284,348,40198,1,4,3:2:0:0:
164,156,40377,6,0,L|112:164,1,52.4999976158143,8|0,2:1|2:0,2:0:0:0:
348,228,40556,2,0,L|400:220,1,52.4999976158143,8|0,2:1|2:0,2:0:0:0:
276,180,40913,6,0,L|287:129,1,52.4999976158143,8|0,2:1|2:0,2:0:0:0:
229,196,41181,6,0,L|281:188,1,52.4999976158143,8|0,2:1|2:0,2:0:0:0:
225,255,41448,6,0,L|236:204,1,52.4999976158143,8|0,2:1|2:0,2:0:0:0:
92,144,41806,6,0,L|144:152,1,52.4999976158143,8|0,2:1|2:0,2:0:0:0:
420,240,41984,2,0,L|368:232,1,52.4999976158143,8|0,2:1|2:0,2:0:0:0:
216,120,42341,6,0,L|205:68,1,52.4999976158143,8|0,2:1|2:0,2:0:0:0:
281,196,42609,6,0,L|229:188,1,52.4999976158143,8|0,2:1|2:0,2:0:0:0:
307,316,42877,6,0,L|296:264,1,52.4999976158143,8|0,2:1|2:0,2:0:0:0:
136,164,43234,6,0,L|84:172,1,52.4999976158143,8|0,2:1|2:0,2:0:0:0:
376,220,43413,2,0,L|428:212,1,52.4999976158143,8|0,2:1|2:0,2:0:0:0:
336,124,43770,6,0,L|347:73,1,52.4999976158143,8|0,2:1|2:0,2:0:0:0:
229,196,44038,6,0,L|281:188,1,52.4999976158143,8|0,2:1|2:0,2:0:0:0:
165,311,44306,6,0,L|176:260,1,52.4999976158143,8|0,2:1|2:0,2:0:0:0:
268,96,44663,6,0,L|216:104,1,52.4999976158143,8|0,2:1|2:0,2:0:0:0:
244,288,44841,2,0,L|296:280,1,52.4999976158143,8|0,2:1|2:0,2:0:0:0:
320,116,45198,6,0,L|215:103,1,104.999995231629,8|0,2:1|3:0,2:0:0:0:
191,267,45466,2,0,L|295:279,1,104.999995231629,0|0,3:0|2:0,2:0:0:0:
280,188,45734,2,0,L|228:197,1,52.4999976158143,0|0,3:0|2:0,2:0:0:0:
80,216,45913,5,4,3:2:0:0:
116,328,46091,2,0,L|124:276,1,52.4999976158143,8|0,2:1|2:0,2:0:0:0:
80,216,46270,2,0,L|28:208,1,52.4999976158143,8|0,2:1|2:0,2:0:0:0:
28,208,46627,6,0,L|80:200,1,52.4999976158143,8|0,2:1|2:0,2:0:0:0:
230,234,46895,6,0,L|282:226,1,52.4999976158143,8|0,2:1|2:0,2:0:0:0:
432,260,47163,6,0,L|484:252,2,52.4999976158143,8|0|0,2:1|2:0|3:0,2:0:0:0:
432,260,47520,6,0,L|415:210,1,52.4999976158143,8|0,2:1|2:0,2:0:0:0:
431,142,47698,2,0,L|476:115,1,52.4999976158143,8|0,2:1|2:0,2:0:0:0:
476,114,48056,6,0,L|424:100,1,52.4999976158143,8|0,2:1|2:0,2:0:0:0:
280,153,48323,6,0,L|228:139,1,52.4999976158143,8|0,2:1|2:0,2:0:0:0:
84,192,48591,6,0,L|32:178,2,52.4999976158143,8|0|0,2:1|2:0|3:0,2:0:0:0:
84,192,48948,6,0,L|105:143,1,52.4999976158143,8|0,2:1|2:0,2:0:0:0:
88,76,49127,2,0,L|51:38,1,52.4999976158143,8|0,2:1|2:0,2:0:0:0:
51,38,49484,6,0,L|103:22,1,52.4999976158143,8|0,2:1|2:0,2:0:0:0:
231,104,49752,6,0,L|283:88,1,52.4999976158143,8|0,2:1|2:0,2:0:0:0:
411,170,50020,6,0,L|463:154,1,52.4999976158143,8|0,2:1|2:0,2:0:0:0:
484,88,50198,5,0,3:0:0:0:
272,56,50377,1,0,3:0:0:0:
284,48,50466,1,0,3:0:0:0:
296,40,50556,5,0,3:0:0:0:
256,192,50734,1,0,3:0:0:0:
216,344,50913,1,8,2:1:0:0:
53,338,51627,6,0,P|104:328|154:310,1,104.999995231629,4|0,3:2|2:0,2:0:0:0:
216,344,51895,1,0,2:0:0:0:
221,334,51984,1,8,2:0:0:0:
304,152,52163,1,0,2:0:0:0:
456,280,52341,2,0,P|431:287|404:289,1,52.4999976158143,0|0,3:0|2:0,2:0:0:0:
304,152,52520,2,0,P|328:144|355:142,1,52.4999976158143,2|0,2:0|2:0,2:0:0:0:
484,236,52698,6,0,P|380:218|279:193,1,209.474990487099,8|0,2:0|2:0,2:0:0:0:
234,43,53056,6,0,B|224:-12|303:-42|346:39|294:83|294:83|274:99|274:127,1,236.249989271164,0|0,3:0|2:0,2:0:0:0:
279,193,53413,6,0,P|280:228|286:262,1,69.824996829033,8|0,2:0|2:0,2:0:0:0:
328,384,53591,2,0,P|327:357|323:331,1,52.4999976158143,0|0,2:0|2:0,2:0:0:0:
408,212,53770,6,0,P|403:231|401:250,1,39.3749982118608,0|0,3:0|2:0,2:0:0:0:
416,344,53948,2,0,P|419:329|420:315,1,26.2499988079071,10|0,2:0|2:0,2:0:0:0:
500,248,54127,5,8,2:0:0:0:
500,248,54484,2,0,B|424:217|354:254|385:296|315:333|245:306,1,279.299987316132,0|8,3:0|2:0,2:0:0:0:
160,252,55020,2,0,P|131:293|150:340,1,104.999995231629,2|0,2:0|3:0,2:0:0:0:
332,364,55377,2,0,P|360:322|341:275,1,104.999995231629,2|8,2:0|2:0,2:0:0:0:
260,208,55734,1,2,2:0:0:0:
452,260,55913,5,0,3:0:0:0:
245,306,56091,1,2,2:0:0:0:
332,168,56270,5,8,2:0:0:0:
488,192,56448,1,2,2:0:0:0:
360,264,56627,6,0,P|380:248|398:227,1,52.4999976158143,0|0,3:0|2:0,2:0:0:0:
400,84,56806,2,0,P|411:107|417:133,1,52.4999976158143,8|0,2:0|2:0,2:0:0:0:
468,268,56984,1,8,2:0:0:0:
468,268,57341,6,0,P|419:287|368:298,1,104.999995231629,4|0,3:2|2:0,2:0:0:0:
308,336,57609,1,0,2:0:0:0:
300,332,57698,1,8,2:0:0:0:
184,144,57877,1,0,2:0:0:0:
80,256,58056,2,0,P|104:253|130:245,1,52.4999976158143,0|0,3:0|2:0,2:0:0:0:
296,175,58234,2,0,P|267:177|244:184,1,52.4999976158143,2|0,2:0|2:0,2:0:0:0:
87,180,58413,6,0,P|180:220|287:246,1,209.474990487099,8|0,2:0|2:0,2:0:0:0:
376,108,58770,6,0,B|398:101|441:52|404:-1|350:-9|315:36|330:103|367:118,1,236.249989271164,0|0,3:0|2:0,2:0:0:0:
432,156,59127,6,0,P|465:170|499:178,1,69.824996829033,8|0,2:0|2:0,2:0:0:0:
344,192,59306,2,0,P|329:214|312:233,1,52.4999976158143,0|0,2:0|2:0,2:0:0:0:
456,272,59484,6,0,P|466:288|480:302,1,39.3749982118608,0|0,3:0|2:0,2:0:0:0:
384,288,59663,2,0,P|372:296|361:301,1,26.2499988079071,10|0,2:0|2:0,2:0:0:0:
420,368,59841,5,8,2:0:0:0:
420,368,60198,2,0,B|343:398|273:361|304:319|234:282|164:309,1,279.299987316132,0|8,3:0|2:0,2:0:0:0:
76,364,60734,2,0,P|47:321|66:274,1,104.999995231629,2|0,2:0|3:0,2:0:0:0:
252,256,61091,2,0,P|280:296|261:343,1,104.999995231629,2|8,2:0|2:0,2:0:0:0:
144,208,61448,1,2,2:0:0:0:
216,116,61627,5,0,3:0:0:0:
165,308,61806,1,2,2:0:0:0:
396,280,61984,5,8,2:0:0:0:
252,256,62163,1,2,2:0:0:0:
472,236,62341,6,0,P|446:239|421:248,1,52.4999976158143,0|0,3:0|2:0,2:0:0:0:
292,316,62520,2,0,P|266:308|242:297,1,52.4999976158143,8|0,2:0|2:0,2:0:0:0:
120,228,62698,2,0,P|47:242|40:316,1,157.499992847443,8|0,2:0|2:0,2:0:0:0:
76,380,63056,5,4,3:2:0:0:
76,380,63413,1,0,2:0:0:0:
408,268,63770,1,0,2:0:0:0:
156,152,64127,1,0,2:0:0:0:
332,72,64484,5,4,3:2:0:0:
456,164,75913,5,4,3:2:0:0:
344,264,76091,1,0,2:0:0:0:
330,262,76181,1,0,2:0:0:0:
318,260,76270,1,8,2:0:0:0:
232,136,76448,1,0,2:0:0:0:
161,220,76627,5,0,3:0:0:0:
64,162,76806,1,2,2:0:0:0:
232,136,76984,1,8,2:0:0:0:
67,39,77163,2,0,P|98:62|135:77,1,78.7499964237216,2|0,2:0|3:0,2:0:0:0:
372,116,77520,5,0,2:0:0:0:
384,112,77609,1,0,2:0:0:0:
396,108,77698,1,8,2:0:0:0:
436,16,77877,1,0,2:0:0:0:
440,212,78056,5,0,3:0:0:0:
289,73,78234,1,2,2:0:0:0:
295,171,78413,1,8,2:0:0:0:
494,134,78591,1,2,2:0:0:0:
392,307,78770,5,0,3:0:0:0:
284,283,78948,1,0,2:0:0:0:
294,275,79038,1,0,2:0:0:0:
305,268,79127,1,8,2:0:0:0:
300,368,79306,1,0,2:0:0:0:
164,329,79484,5,0,3:0:0:0:
152,192,79663,1,2,2:0:0:0:
278,138,79841,1,8,2:0:0:0:
370,244,80020,1,2,2:0:0:0:
248,304,80198,6,0,L|196:312,1,39.3749982118608,0|0,3:0|2:0,2:0:0:0:
151,266,80377,2,0,L|142:214,1,39.3749982118608,2|0,2:0|2:0,2:0:0:0:
264,168,80556,6,0,L|316:176,1,39.3749982118608,8|0,2:0|2:0,2:0:0:0:
364,132,80734,2,0,L|372:80,1,39.3749982118608,2|0,2:0|2:0,2:0:0:0:
268,44,80913,5,0,3:0:0:0:
117,171,81091,1,8,2:0:0:0:
244,323,81270,1,8,2:0:0:0:
396,196,81448,1,0,2:0:0:0:
264,88,81627,5,0,3:0:0:0:
168,204,81806,1,0,2:0:0:0:
155,205,81895,1,0,2:0:0:0:
144,207,81984,1,8,2:0:0:0:
16,128,82163,1,0,2:0:0:0:
128,40,82341,5,0,3:0:0:0:
210,103,82520,1,2,2:0:0:0:
148,184,82698,1,8,2:0:0:0:
55,10,82877,2,0,P|89:30|128:39,1,78.7499964237216,2|0,2:0|3:0,2:0:0:0:
288,132,83234,5,0,2:0:0:0:
300,128,83323,1,0,2:0:0:0:
312,124,83413,1,8,2:0:0:0:
444,16,83591,1,0,2:0:0:0:
348,28,83770,5,0,3:0:0:0:
512,84,83948,1,2,2:0:0:0:
372,188,84127,1,8,2:0:0:0:
204,132,84306,1,2,2:0:0:0:
244,32,84484,5,0,3:0:0:0:
268,180,84663,1,0,2:0:0:0:
263,191,84752,1,0,2:0:0:0:
260,204,84841,1,8,2:0:0:0:
284,352,85020,1,0,2:0:0:0:
168,224,85198,5,0,3:0:0:0:
336,256,85377,1,2,2:0:0:0:
140,132,85556,5,8,2:0:0:0:
392,104,85734,1,2,2:0:0:0:
112,36,85913,6,0,P|150:41|187:55,1,78.7499964237216,0|2,3:0|2:0,2:0:0:0:
376,184,86270,2,0,P|350:176|326:165,1,52.4999976158143,8|2,2:0|2:0,2:0:0:0:
216,64,86627,5,8,2:1:0:0:
256,192,86895,5,8,2:1:0:0:
296,320,87163,5,8,2:1:0:0:
244,372,87341,1,4,3:2:0:0:
336,136,87520,6,0,L|387:143,1,52.4999976158143,8|0,2:1|2:0,2:0:0:0:
176,248,87698,2,0,L|125:241,1,52.4999976158143,8|0,2:1|2:0,2:0:0:0:
224,172,88056,6,0,L|210:121,1,52.4999976158143,8|0,2:1|2:0,2:0:0:0:
282,196,88323,6,0,L|230:188,1,52.4999976158143,8|0,2:1|2:0,2:0:0:0:
302,263,88591,6,0,L|288:212,1,52.4999976158143,8|0,2:1|2:0,2:0:0:0:
392,132,88948,6,0,L|340:140,1,52.4999976158143,8|0,2:1|2:0,2:0:0:0:
120,252,89127,2,0,L|172:244,1,52.4999976158143,8|0,2:1|2:0,2:0:0:0:
344,156,89484,6,0,L|351:104,1,52.4999976158143,8|0,2:1|2:0,2:0:0:0:
230,196,89752,6,0,L|282:188,1,52.4999976158143,8|0,2:1|2:0,2:0:0:0:
161,280,90020,6,0,L|168:228,1,52.4999976158143,8|0,2:1|2:0,2:0:0:0:
364,164,90377,6,0,L|415:171,1,52.4999976158143,8|0,2:1|2:0,2:0:0:0:
148,220,90556,2,0,L|97:213,1,52.4999976158143,8|0,2:1|2:0,2:0:0:0:
148,148,90913,6,0,L|134:97,1,52.4999976158143,8|0,2:1|2:0,2:0:0:0:
282,196,91181,6,0,L|230:188,1,52.4999976158143,8|0,2:1|2:0,2:0:0:0:
378,287,91448,6,0,L|364:236,1,52.4999976158143,8|0,2:1|2:0,2:0:0:0:
244,96,91806,6,0,L|296:104,1,52.4999976158143,8|0,2:1|2:0,2:0:0:0:
268,288,91984,2,0,L|216:280,1,52.4999976158143,8|0,2:1|2:0,2:0:0:0:
192,116,92341,6,0,L|297:103,1,104.999995231629,0|0,2:0|3:0,2:0:0:0:
321,267,92609,2,0,L|217:279,1,104.999995231629,0|0,3:0|2:0,2:0:0:0:
232,188,92877,2,0,L|284:197,1,52.4999976158143,0|0,3:0|2:0,2:0:0:0:
432,216,93056,5,4,3:2:0:0:
488,304,93234,2,0,L|436:290,1,52.4999976158143,8|0,2:1|2:0,2:0:0:0:
432,216,93413,2,0,L|477:189,1,52.4999976158143,8|0,2:1|2:0,2:0:0:0:
477,189,93770,6,0,L|426:174,1,52.4999976158143,8|0,2:1|2:0,2:0:0:0:
280,224,94038,6,0,L|229:209,1,52.4999976158143,8|0,2:1|2:0,2:0:0:0:
83,259,94306,6,0,L|32:244,2,52.4999976158143,8|0|0,2:1|2:0|3:0,2:0:0:0:
83,259,94663,6,0,L|115:218,1,52.4999976158143,8|0,2:1|2:0,2:0:0:0:
94,151,94841,2,0,L|42:132,1,52.4999976158143,8|0,2:1|2:0,2:0:0:0:
44,133,95198,6,0,L|96:119,1,52.4999976158143,8|0,2:1|2:0,2:0:0:0:
231,176,95466,6,0,L|283:162,1,52.4999976158143,8|0,2:1|2:0,2:0:0:0:
418,219,95734,6,0,L|470:205,2,52.4999976158143,8|0|0,2:1|2:0|3:0,2:0:0:0:
418,219,96091,6,0,L|386:175,1,52.4999976158143,8|0,2:1|2:0,2:0:0:0:
403,105,96270,2,0,L|444:73,1,52.4999976158143,8|0,2:1|2:0,2:0:0:0:
444,72,96627,6,0,L|387:58,1,52.4999976158143,8|0,2:1|2:0,2:0:0:0:
281,139,96895,6,0,L|224:125,1,52.4999976158143,8|0,2:1|2:0,2:0:0:0:
118,206,97163,6,0,L|61:192,1,52.4999976158143,8|0,2:1|2:0,2:0:0:0:
44,124,97341,5,0,3:0:0:0:
240,56,97520,1,0,3:0:0:0:
228,48,97609,1,0,3:0:0:0:
216,40,97698,5,0,3:0:0:0:
256,192,97877,1,0,3:0:0:0:
296,344,98056,1,8,2:1:0:0:
460,336,98770,6,0,P|408:325|359:308,1,104.999995231629,4|0,3:2|2:0,2:0:0:0:
296,344,99038,1,0,2:0:0:0:
290,332,99127,1,8,2:0:0:0:
212,148,99306,1,0,2:0:0:0:
124,312,99484,2,0,P|150:307|175:299,1,52.4999976158143,0|0,3:0|2:0,2:0:0:0:
212,148,99663,2,0,P|184:151|159:159,1,52.4999976158143,2|0,2:0|2:0,2:0:0:0:
157,333,99841,6,0,P|174:228|182:124,1,209.474990487099,8|0,2:0|2:0,2:0:0:0:
80,24,100198,6,0,B|54:-18|-8:-4|-16:67|46:95|74:59|74:59|87:87|119:87,1,236.249989271164,0|0,3:0|2:0,2:0:0:0:
182,126,100556,6,0,P|216:120|247:105,1,69.824996829033,8|0,2:0|2:0,2:0:0:0:
348,192,100734,2,0,P|322:184|297:179,1,52.4999976158143,0|0,2:0|2:0,2:0:0:0:
192,248,100913,6,0,P|211:243|229:235,1,39.3749982118608,0|0,3:0|2:0,2:0:0:0:
304,300,101091,2,0,P|291:295|278:292,1,26.2499988079071,10|0,2:0|2:0,2:0:0:0:
224,360,101270,5,8,2:0:0:0:
224,360,101627,2,0,B|246:237|422:239|390:358|342:365|314:355,1,279.299987316132,0|8,3:0|2:0,2:0:0:0:
240,284,102163,2,0,P|213:238|233:190,1,104.999995231629,2|0,2:0|3:0,2:0:0:0:
408,184,102520,2,0,P|431:227|411:274,1,104.999995231629,2|8,2:0|2:0,2:0:0:0:
320,232,102877,1,2,2:0:0:0:
488,140,103056,5,0,3:0:0:0:
300,104,103234,1,2,2:0:0:0:
112,68,103413,5,8,2:0:0:0:
264,32,103591,1,2,2:0:0:0:
84,176,103770,6,0,P|77:148|66:124,1,52.4999976158143,0|0,3:0|2:0,2:0:0:0:
124,17,103948,2,0,P|121:43|112:67,1,52.4999976158143,8|0,2:0|2:0,2:0:0:0:
20,216,104127,1,8,2:0:0:0:
20,216,104484,6,0,P|72:226|121:243,1,104.999995231629,4|0,3:2|2:0,2:0:0:0:
172,296,104752,1,0,2:0:0:0:
178,308,104841,1,8,2:0:0:0:
328,156,105020,1,0,2:0:0:0:
512,252,105198,2,0,P|486:256|461:265,1,52.4999976158143,0|0,3:0|2:0,2:0:0:0:
328,156,105377,2,0,P|353:151|378:142,1,52.4999976158143,2|0,2:0|2:0,2:0:0:0:
400,308,105556,6,0,P|418:204|444:102,1,209.474990487099,8|0,2:0|2:0,2:0:0:0:
480,240,105913,6,0,B|492:102|368:184|376:49,1,236.249989271164,0|0,3:0|2:0,2:0:0:0:
436,92,106270,2,0,P|455:64|448:28,1,69.824996829033,8|0,2:0|2:0,2:0:0:0:
332,108,106448,2,0,P|312:90|308:65,1,52.4999976158143,0|0,2:0|2:0,2:0:0:0:
468,200,106627,6,0,P|481:186|484:167,1,39.3749982118608,0|0,3:0|2:0,2:0:0:0:
392,188,106806,2,0,P|385:176|389:164,1,26.2499988079071,10|0,2:0|2:0,2:0:0:0:
416,280,106984,5,8,2:0:0:0:
416,280,107341,2,0,B|362:167|192:214|254:321|302:315|327:298,1,279.299987316132,0|8,3:0|2:0,2:0:0:0:
372,204,107877,2,0,P|390:154|362:110,1,104.999995231629,2|0,2:0|3:0,2:3:0:0:
184,132,108234,2,0,P|168:178|196:221,1,104.999995231629,2|8,2:0|2:0,2:0:0:0:
280,164,108591,1,2,2:0:0:0:
76,28,108770,5,0,3:0:0:0:
272,64,108948,1,2,2:0:0:0:
96,136,109127,5,8,2:0:0:0:
152,0,109306,1,2,2:0:0:0:
176,200,109484,6,0,P|182:174|191:150,1,52.4999976158143,0|0,3:0|2:0,2:0:0:0:
292,48,109663,2,0,P|298:74|307:98,1,52.4999976158143,8|0,2:0|2:0,2:0:0:0:
408,196,109841,2,0,P|470:155|466:80,1,157.499992847443,8|0,2:0|2:0,2:0:0:0:
412,24,110198,5,0,3:0:0:0:
412,24,110556,1,0,2:0:0:0:
120,148,110913,1,0,2:0:0:0:
352,252,111270,1,0,2:0:0:0:
76,60,111627,5,0,2:0:0:0:
76,60,111984,1,0,2:0:0:0:
400,208,112341,2,0,L|334:218,1,52.4999976158143,4|0,3:2|2:0,2:0:0:0:
132,312,112698,2,0,L|196:321,1,52.4999976158143,4|0,3:2|2:0,2:0:0:0:
320,376,113056,6,0,P|369:357|419:345,1,104.999995231629,4|0,3:2|2:0,2:0:0:0:
484,316,113323,1,0,2:0:0:0:
495,322,113413,1,8,2:0:0:0:
392,272,113591,1,2,2:0:0:0:
448,120,113770,5,0,3:0:0:0:
343,193,113948,1,2,2:0:0:0:
352,16,114127,1,8,2:0:0:0:
430,118,114306,1,2,2:0:0:0:
248,100,114484,6,0,B|210:87|182:96|182:96|174:104|174:104|145:108|111:98,2,139.649993658066,0|2|8,3:0|2:0|2:0,2:0:0:0:
248,100,115198,2,0,P|257:114|260:133,1,39.3749982118608,0|0,3:0|2:0,2:0:0:0:
192,160,115377,2,0,P|180:143|178:124,1,39.3749982118608,8|0,2:0|2:0,2:0:0:0:
340,56,115556,5,8,2:0:0:0:
296,200,115734,1,0,2:0:0:0:
252,344,115913,6,0,P|208:332|149:321,1,104.999995231629,0|0,3:0|2:0,2:0:0:0:
80,316,116181,1,0,2:0:0:0:
72,320,116270,1,8,2:0:0:0:
0,304,116448,1,2,2:0:0:0:
192,168,116627,5,0,3:0:0:0:
308,188,116806,1,2,2:0:0:0:
96,240,116984,1,8,2:0:0:0:
196,184,117163,1,2,2:0:0:0:
312,204,117341,6,0,P|336:214|362:220,1,52.4999976158143,0|0,3:0|2:0,2:0:0:0:
327,135,117520,1,2,2:0:0:0:
327,135,117609,1,0,2:0:0:0:
379,194,117698,6,0,P|436:161|433:95,1,139.649993658066,8|2,2:0|2:0,2:0:0:0:
212,16,118056,6,0,P|177:22|148:41,1,69.824996829033,0|0,3:0|2:0,2:0:0:0:
212,100,118234,1,8,2:0:0:0:
212,100,118323,1,0,2:0:0:0:
147,59,118413,6,0,P|108:160|205:209,1,236.249989271164,0|0,3:0|2:0,2:0:0:0:
203,209,118770,6,0,P|150:197|98:196,1,104.999995231629,4|0,3:2|2:0,2:0:0:0:
34,172,119038,1,0,2:0:0:0:
26,177,119127,1,8,2:0:0:0:
76,272,119306,1,2,2:0:0:0:
280,196,119484,5,0,3:0:0:0:
216,292,119663,1,2,2:0:0:0:
199,104,119841,1,8,2:0:0:0:
272,195,120020,1,2,2:0:0:0:
216,292,120198,6,0,P|192:284|166:278,1,52.4999976158143,0|0,3:0|2:0,2:0:0:0:
240,216,120377,2,0,P|215:207|189:201,1,52.4999976158143,2|0,2:0|2:0,2:0:0:0:
260,356,120556,1,8,2:0:0:0:
259,356,120913,6,0,P|277:349|307:347,1,39.3749982118608,0|0,3:0|2:0,2:0:0:0:
244,284,121091,2,0,P|262:277|292:275,1,39.3749982118608,8|0,2:0|2:0,2:0:0:0:
176,344,121270,5,8,2:0:0:0:
224,196,121448,1,0,2:0:0:0:
272,48,121627,6,0,P|324:43|374:29,1,104.999995231629,0|0,3:0|2:0,2:0:0:0:
440,0,121895,1,0,2:0:0:0:
448,4,121984,1,8,2:0:0:0:
488,68,122163,1,2,2:0:0:0:
364,160,122341,5,0,3:0:0:0:
292,264,122520,1,2,2:0:0:0:
464,235,122698,1,8,2:0:0:0:
365,172,122877,1,2,2:0:0:0:
296,276,123056,6,0,P|286:300|282:326,1,52.4999976158143,0|0,3:0|2:0,2:0:0:0:
340,376,123234,1,2,2:0:0:0:
340,376,123323,1,0,2:0:0:0:
268,348,123413,6,0,P|224:300|236:228,1,139.649993658066,8|2,2:0|2:0,2:0:0:0:
380,108,123770,6,0,P|396:142|399:175,1,69.824996829033,0|0,3:0|2:0,2:0:0:0:
372,248,123948,1,8,2:0:0:0:
372,248,124038,1,0,2:0:0:0:
436,200,124127,6,0,P|478:93|393:9,1,236.249989271164,8|0,2:0|2:0,2:0:0:0:
332,32,124484,5,0,3:0:0:0:
332,32,124841,1,0,3:0:0:0:
396,76,125020,2,0,L|448:84,1,52.4999976158143,0|0,2:0|3:0,2:0:0:0:
296,132,125377,2,0,L|348:140,1,52.4999976158143,0|0,2:0|3:0,2:0:0:0:
196,188,125734,2,0,L|248:196,1,52.4999976158143,0|0,2:0|3:0,2:0:0:0:
84,136,126091,6,0,B|136:128,2,52.4999976158143,0|0|0,2:0|3:0|2:0,2:0:0:0:
120,212,126627,5,0,3:0:0:0:
256,276,126895,5,0,3:0:0:0:
392,340,127163,5,0,3:0:0:0:
