osu file format v14

[General]
AudioFilename: audio.mp3
AudioLeadIn: 0
PreviewTime: 189
Countdown: 0
SampleSet: Soft
StackLeniency: 0.6
Mode: 0
LetterboxInBreaks: 0
WidescreenStoryboard: 1

[Editor]
Bookmarks: 14484,25913,51627,64484,75913,98770,113056
DistanceSpacing: 1
BeatDivisor: 4
GridSize: 8
TimelineZoom: 1.6

[Metadata]
Title:PRINCE
TitleUnicode:PRINCE
Artist:INUMO KUWANEEYO
ArtistUnicode:犬も食わねぇよ。
Creator:Ryuusei Aika
Version:karasu's Normal
Source:
Tags:sorairokarasu Astrolis AuroraE sorciere kanor Japanese Pop JPop J-Pop vocaloid ボーカロイド ボカロ flower v-flower vflower KINGっぽい曲 イヌクワ イヌクワチャンネル INUKUWA Channel マンモーニ拓磨 Mammoni Takuma
BeatmapID:3553607
BeatmapSetID:1614553

[Difficulty]
HPDrainRate:4
CircleSize:3
OverallDifficulty:5
ApproachRate:5.5
SliderMultiplier:1.12
SliderTickRate:1

[Events]
//Background and Video events
0,0,"BG.jpg",0,0
//Break Periods
//Storyboard Layer 0 (Background)
//Storyboard Layer 1 (Fail)
//Storyboard Layer 2 (Pass)
//Storyboard Layer 3 (Foreground)
//Storyboard Layer 4 (Overlay)
//Storyboard Sound Samples

[TimingPoints]
199,357.142857142857,4,2,1,40,1,0
3056,-100,4,2,1,60,0,0
14484,-100,4,2,1,50,0,0
26091,-100,4,2,1,60,0,0
51716,-100,4,2,1,70,0,0
63056,-100,4,2,1,50,0,0
64484,-100,4,2,1,60,0,0
98770,-100,4,2,1,70,0,0
124484,-100,4,2,1,60,0,0

[Colours]
Combo1 : 159,0,0
Combo2 : 95,95,95

[HitObjects]
472,192,3056,5,4,3:2:0:0:
408,288,3413,2,0,L|352:288,1,56,8|0,2:0|2:0,2:0:0:0:
312,248,3770,2,0,B|305:234|208:232|200:248,1,112,0|8,3:0|2:0,2:0:0:0:
120,320,4484,1,0,3:0:0:0:
16,272,4841,1,8,2:0:0:0:
24,160,5198,2,0,B|20:132|20:132|0:112,2,56,0|2|8,3:0|2:0|2:0,2:0:0:0:
136,136,5913,5,0,3:0:0:0:
248,136,6270,2,0,L|312:136,1,56,8|0,2:0|2:0,2:0:0:0:
352,160,6627,2,0,B|359:174|455:174|463:158,1,112,0|8,3:0|2:0,2:0:0:0:
504,264,7341,1,0,3:0:0:0:
424,344,7698,1,8,2:0:0:0:
328,288,8055,2,0,B|300:292|300:292|280:320,2,56,0|8|8,3:0|2:0|2:0,2:0:0:0:
336,176,8770,5,4,3:2:0:0:
256,104,9127,2,0,L|200:104,1,56,8|0,2:0|2:0,2:0:0:0:
152,76,9484,2,0,L|152:12,2,56,0|2|8,3:0|2:0|2:0,2:0:0:0:
124,184,10198,1,0,3:0:0:0:
16,160,10556,1,8,2:0:0:0:
48,272,10913,1,0,3:0:0:0:
48,272,11091,2,0,L|48:352,2,56,2|8|2,2:0|2:0|2:0,2:0:0:0:
76,224,11627,6,0,B|84:208|180:208|184:220,1,112,0|8,3:0|2:0,2:0:0:0:
216,272,12163,1,0,2:0:0:0:
216,272,12341,2,0,L|216:328,2,56,0|2|8,3:0|2:0|2:0,2:0:0:0:
304,200,13056,1,0,3:0:0:0:
416,200,13413,1,8,2:0:0:0:
500,272,13770,2,0,L|500:328,1,56,0|8,3:0|2:0,2:0:0:0:
452,356,14127,1,8,2:0:0:0:
340,352,14484,5,4,3:2:0:0:
228,344,14841,2,0,B|220:330|124:330|119:342,1,112,0|0,3:0|3:0,2:0:0:0:
40,192,15734,2,0,B|40:128,1,56,0|0,2:0|3:0,2:0:0:0:
72,88,16091,1,0,2:0:0:0:
72,88,16270,2,0,L|72:28,2,56,0|0|2,3:0|2:0|3:2,2:0:0:0:
184,72,16984,2,0,L|240:72,1,56,2|0,3:2|2:0,2:0:0:0:
296,72,17341,6,0,B|312:81|313:178|297:186,1,112,0|0,3:0|3:0,2:0:0:0:
192,192,18055,2,0,B|174:199|173:295|190:302,1,112,0|0,3:0|3:0,2:0:0:0:
232,328,18591,2,0,L|232:384,1,56,0|0,2:0|3:0,2:0:0:0:
120,384,19127,2,0,L|64:384,2,56,0|0|2,3:0|2:0|3:2,2:0:0:0:
120,272,19841,2,0,L|120:216,1,56,2|0,3:2|2:0,2:0:0:0:
120,160,20198,5,0,3:0:0:0:
232,160,20555,2,0,B|246:152|246:56|233:51,1,112,0|0,3:0|3:0,2:0:0:0:
64,40,21448,2,0,L|64:112,1,56,0|0,2:0|2:0,2:0:0:0:
32,144,21805,1,0,2:0:0:0:
32,144,21984,2,0,L|32:208,2,56,0|0|2,3:0|2:0|3:2,2:0:0:0:
144,152,22698,2,0,L|144:96,1,56,2|0,3:2|2:0,2:0:0:0:
152,40,23055,6,0,B|156:28|252:28|260:43,1,112,0|0,3:0|3:0,2:0:0:0:
368,56,23769,2,0,B|384:64|384:160|371:164,1,112,0|0,3:0|3:0,2:0:0:0:
336,200,24305,2,0,L|280:200,1,56,0|0,2:0|3:0,2:0:0:0:
168,200,24841,1,0,3:0:0:0:
56,200,25198,2,0,B|40:208|40:304|53:308,1,112,0|10,3:0|2:0,2:0:0:0:
168,320,25913,5,4,3:2:0:0:
168,320,26091,2,0,L|168:376,2,56,0|8|0,2:0|2:0|2:0,2:0:0:0:
216,288,26627,2,0,L|216:232,1,56,0|2,3:0|2:0,2:0:0:0:
216,184,26984,1,8,2:0:0:0:
216,184,27163,1,2,2:0:0:0:
208,72,27520,5,0,2:0:0:0:
320,88,27877,2,0,L|384:88,2,56,0|0|2,2:0|3:0|2:0,2:0:0:0:
320,144,28413,2,0,L|248:144,1,56,8|2,2:0|2:0,2:0:0:0:
344,224,28948,6,0,L|400:224,2,56,0|8|0,2:0|2:0|2:0,2:0:0:0:
344,280,29484,2,0,L|288:280,1,56,0|2,3:0|2:0,2:0:0:0:
232,280,29841,1,8,2:0:0:0:
232,280,30020,1,2,2:0:0:0:
128,320,30377,5,2,2:0:0:0:
16,312,30734,2,0,L|16:368,2,56,2|0|8,2:0|3:0|2:0,2:0:0:0:
56,272,31270,2,0,L|56:192,1,56,8|0,2:0|2:0,2:0:0:0:
96,176,31627,5,4,3:2:0:0:
144,72,31984,2,0,B|139:59|43:59|35:75,1,112,8|0,2:0|3:0,2:0:0:0:
8,120,32520,2,0,L|8:192,1,56,2|8,2:0|2:0,2:0:0:0:
8,232,32877,1,2,2:0:0:0:
120,232,33234,5,0,2:0:0:0:
64,328,33591,2,0,L|0:328,2,56,0|0|2,2:0|3:0|2:0,2:0:0:0:
112,360,34127,2,0,L|184:360,1,56,8|2,2:0|2:0,2:0:0:0:
224,360,34484,5,0,3:0:0:0:
336,328,34842,2,0,B|348:323|348:227|332:219,1,112,8|0,2:0|3:0,2:0:0:0:
280,216,35377,2,0,L|280:144,1,56,2|8,2:0|2:0,2:0:0:0:
272,112,35734,1,2,2:0:0:0:
272,112,35913,1,0,3:0:0:0:
272,0,36270,5,8,2:0:0:0:
384,0,36627,2,0,L|440:0,2,56,0|0|8,3:0|2:0|2:0,2:0:0:0:
384,112,37341,1,0,2:0:0:0:
264,368,38770,5,0,3:0:0:0:
168,312,39127,2,0,L|168:248,1,56,8|0,3:1|2:0,2:0:0:0:
200,208,39484,2,0,P|199:166|188:125,2,84,8|8|8,2:1|2:1|2:1,2:0:0:0:
256,224,40198,5,4,3:2:0:0:
256,224,40377,2,0,L|320:224,1,56,8|8,2:1|2:1,2:0:0:0:
368,128,40913,2,0,P|360:86|341:49,2,84,8|8|8,2:1|2:1|2:1,2:0:0:0:
392,184,41627,1,0,3:0:0:0:
392,184,41806,2,0,L|456:184,1,56,8|8,2:1|2:1,2:0:0:0:
496,288,42341,5,8,2:1:0:0:
416,320,42609,1,8,2:1:0:0:
336,304,42877,1,8,2:1:0:0:
232,304,43234,1,8,2:1:0:0:
232,304,43413,2,0,L|232:360,1,56,8|0,2:1|2:0,2:0:0:0:
176,360,43770,6,0,P|137:353|89:361,2,84,8|8|8,2:1|2:1|2:1,2:0:0:0:
132,264,44663,1,8,2:1:0:0:
132,264,44841,1,8,2:1:0:0:
20,264,45198,2,0,L|20:208,1,56,8|0,2:1|3:0,2:0:0:0:
20,152,45556,1,8,2:1:0:0:
136,160,45913,5,4,3:2:0:0:
136,160,46091,2,0,L|136:96,1,56,8|8,2:1|2:1,2:0:0:0:
96,0,46627,2,0,P|48:16|0:8,2,84,8|8|8,2:1|2:1|2:1,2:0:0:0:
152,16,47341,5,0,3:0:0:0:
152,16,47520,2,0,L|208:16,1,56,8|8,2:1|2:1,2:0:0:0:
256,132,48055,5,8,2:1:0:0:
230,219,48323,1,8,2:1:0:0:
252,307,48591,1,8,2:1:0:0:
368,328,48948,1,8,2:1:0:0:
368,328,49127,2,0,L|432:328,1,56,8|0,2:1|2:0,2:0:0:0:
464,288,49484,6,0,P|472:240|496:200,2,84,8|8|8,2:1|2:1|2:1,2:0:0:0:
376,228,50377,1,0,3:0:0:0:
376,228,50556,1,0,3:0:0:0:
420,124,50913,2,0,L|420:60,1,56,8|0,2:1|2:0,2:0:0:0:
416,12,51270,1,0,2:0:0:0:
328,80,51627,6,0,B|320:96|224:96|216:80,1,112,4|8,3:2|2:0,2:0:0:0:
184,48,52163,1,0,2:0:0:0:
184,48,52341,2,0,B|176:32|80:32|72:48,1,112,0|8,3:0|2:0,2:0:0:0:
128,144,53056,1,0,3:0:0:0:
16,152,53413,2,0,L|16:208,1,56,8|0,2:0|2:0,2:0:0:0:
48,256,53770,2,0,L|48:320,2,56,0|10|8,3:0|2:0|2:0,2:0:0:0:
160,252,54484,6,0,B|164:264|260:264|268:248,1,112,0|8,3:0|2:0,2:0:0:0:
276,192,55020,1,2,2:0:0:0:
212,100,55377,1,2,2:0:0:0:
300,32,55734,2,0,L|356:32,2,56,2|0|2,2:0|3:0|2:0,2:0:0:0:
300,88,56270,2,0,L|300:144,1,56,8|2,2:0|2:0,2:0:0:0:
356,144,56627,2,0,L|436:144,2,56,0|8|8,3:0|2:0|2:0,2:0:0:0:
300,240,57341,6,0,B|292:256|196:256|188:240,1,112,4|8,3:2|2:0,2:0:0:0:
180,192,57877,1,0,2:0:0:0:
180,192,58055,2,0,B|172:176|76:176|68:192,1,112,0|8,3:0|2:0,2:0:0:0:
124,288,58770,1,0,3:0:0:0:
232,316,59127,2,0,L|232:260,1,56,8|0,2:0|2:0,2:0:0:0:
280,236,59484,2,0,L|280:172,2,56,0|10|8,3:0|2:0|2:0,2:0:0:0:
364,308,60198,6,0,B|370:322|466:322|471:309,1,112,0|8,3:0|2:0,2:0:0:0:
472,252,60734,1,2,2:0:0:0:
468,140,61091,1,2,2:0:0:0:
356,140,61448,2,0,L|356:76,2,56,2|0|2,2:0|3:0|2:0,2:0:0:0:
340,192,61984,2,0,L|340:248,1,56,8|2,2:0|2:0,2:0:0:0:
344,304,62341,2,0,L|400:304,2,56,0|8|8,3:0|2:0|2:0,2:0:0:0:
236,336,63056,5,4,3:2:0:0:
236,222,64484,5,4,3:2:0:0:
332,276,64841,2,0,L|388:276,1,56,8|0,2:0|2:0,2:0:0:0:
436,248,65198,2,0,L|492:248,2,56,0|0|0,2:0|2:0|2:0,2:0:0:0:
352,172,65913,1,0,2:0:0:0:
416,80,66270,1,0,2:0:0:0:
340,4,66627,1,0,2:0:0:0:
340,4,66805,2,0,L|264:4,2,56,0|0|0,2:0|2:0|2:0,2:0:0:0:
312,52,67341,5,0,2:0:0:0:
212,104,67698,2,0,L|212:160,1,56,0|0,2:0|2:0,2:0:0:0:
256,196,68055,2,0,L|256:252,2,56,0|0|0,2:0|2:0|2:0,2:0:0:0:
356,148,68770,1,0,2:0:0:0:
448,212,69127,1,0,2:0:0:0:
428,324,69484,1,0,2:0:0:0:
428,324,69662,2,0,L|428:384,2,56,0|0|0,2:0|2:0|2:0,2:0:0:0:
388,288,70198,6,0,B|380:272|284:272|276:288,1,112,4|0,3:2|2:0,2:0:0:0:
240,324,70734,1,0,2:0:0:0:
240,324,70912,2,0,L|240:380,2,56,0|0|0,2:0|2:0|2:0,2:0:0:0:
128,336,71627,1,0,2:0:0:0:
48,260,71984,1,0,2:0:0:0:
72,152,72341,2,0,L|128:152,1,56,0|0,2:0|2:0,2:0:0:0:
184,152,72698,1,0,2:0:0:0:
296,172,73056,6,0,B|312:164|312:68|300:64,1,112,0|0,2:0|2:0,2:0:0:0:
284,16,73592,1,0,2:0:0:0:
284,16,73770,2,0,L|340:16,2,56,0|0|0,2:0|2:0|2:0,2:0:0:0:
172,16,74484,1,0,2:0:0:0:
128,120,74841,1,0,2:0:0:0:
192,212,75199,2,0,L|192:267,1,56,0|0,2:0|2:0,2:0:0:0:
192,324,75556,1,0,2:0:0:0:
84,324,75912,5,4,3:2:0:0:
84,324,76091,2,0,L|84:388,2,56,0|8|0,2:0|2:0|2:0,2:0:0:0:
84,268,76627,2,0,B|88:256|188:252|192:264,1,112,0|8,3:0|2:0,2:0:0:0:
192,320,77163,1,2,2:0:0:0:
308,320,77520,1,0,2:0:0:0:
308,320,77699,2,0,L|308:384,1,56,8|0,2:0|2:0,2:0:0:0:
364,368,78056,2,0,B|372:384|468:384|476:368,1,112,0|8,3:0|2:0,2:0:0:0:
500,324,78592,1,2,2:0:0:0:
408,272,78948,5,0,2:0:0:0:
408,272,79127,2,0,L|408:208,1,56,8|0,2:0|2:0,2:0:0:0:
448,176,79484,2,0,L|448:120,1,56,0|2,3:0|2:0,2:0:0:0:
408,80,79841,1,8,2:0:0:0:
296,80,80198,2,0,B|280:84|280:184|296:188,1,112,0|8,3:0|2:0,2:0:0:0:
288,248,80734,1,2,2:0:0:0:
288,248,80913,2,0,L|352:248,2,56,0|8|8,3:0|2:0|2:0,2:0:0:0:
280,304,81448,1,0,2:0:0:0:
168,312,81806,5,0,2:0:0:0:
168,312,81985,2,0,L|168:248,1,56,8|0,2:0|2:0,2:0:0:0:
112,240,82342,2,0,B|100:236|100:135|112:132,1,112,0|8,3:0|2:0,2:0:0:0:
168,128,82878,1,2,2:0:0:0:
280,124,83235,1,0,2:0:0:0:
280,124,83414,2,0,L|280:60,1,56,8|0,2:0|2:0,2:0:0:0:
264,16,83771,2,0,B|260:4|160:4|156:20,1,112,0|8,3:0|2:0,2:0:0:0:
156,76,84307,1,2,2:0:0:0:
140,188,84663,5,0,2:0:0:0:
140,188,84842,2,0,L|140:252,1,56,8|0,2:0|2:0,2:0:0:0:
196,248,85199,2,0,L|196:304,1,56,0|2,3:0|2:0,2:0:0:0:
144,324,85556,2,0,L|144:388,1,56,8|2,2:0|2:0,2:0:0:0:
200,384,85913,1,0,3:0:0:0:
304,344,86270,1,8,2:0:0:0:
416,320,86627,2,0,B|400:304|400:304|408:232,2,84,8|8|8,2:1|2:1|2:1,2:0:0:0:
456,368,87341,5,4,3:2:0:0:
456,368,87520,2,0,L|528:368,1,56,8|8,2:1|2:1,2:0:0:0:
512,256,88056,2,0,P|504:214|485:177,2,84,8|8|8,2:1|2:1|2:1,2:0:0:0:
460,264,88770,1,0,3:0:0:0:
460,264,88949,2,0,L|404:264,1,56,8|8,2:1|2:1,2:0:0:0:
304,312,89484,5,8,2:1:0:0:
292,221,89752,1,8,2:1:0:0:
280,128,90020,1,8,2:1:0:0:
304,24,90377,1,8,2:1:0:0:
304,24,90556,2,0,L|368:24,1,56,8|0,2:1|2:0,2:0:0:0:
416,40,90913,6,0,P|423:79|415:127,2,84,8|8|8,2:1|2:1|2:1,2:0:0:0:
512,108,91806,1,8,2:1:0:0:
512,108,91984,1,8,2:1:0:0:
480,216,92341,2,0,L|416:216,1,56,0|0,2:0|3:0,2:0:0:0:
368,216,92699,1,8,2:1:0:0:
260,220,93056,5,4,3:2:0:0:
260,220,93234,2,0,L|204:220,1,56,8|8,2:1|2:1,2:0:0:0:
92,216,93770,2,0,P|87:190|112:121,2,84,8|8|8,2:1|2:1|2:1,2:0:0:0:
104,276,94484,5,0,3:0:0:0:
104,276,94663,2,0,L|104:352,1,56,8|8,2:1|2:1,2:0:0:0:
216,320,95198,5,8,2:1:0:0:
216,236,95466,1,8,2:1:0:0:
216,152,95734,1,8,2:1:0:0:
220,44,96091,1,8,2:1:0:0:
220,44,96270,2,0,L|284:44,1,56,8|0,2:1|2:0,2:0:0:0:
332,48,96627,6,0,P|336:96|320:140,2,84,8|8|8,2:1|2:1|2:1,2:0:0:0:
428,116,97520,1,0,3:0:0:0:
428,116,97698,1,0,3:0:0:0:
504,196,98056,2,0,L|504:256,1,56,8|0,2:1|2:0,2:0:0:0:
504,308,98413,1,0,2:0:0:0:
392,320,98770,6,0,B|384:336|288:336|280:320,1,112,4|8,3:2|2:0,2:0:0:0:
280,272,99306,1,0,2:0:0:0:
280,272,99484,2,0,B|272:256|176:256|168:272,1,112,0|8,3:0|2:0,2:0:0:0:
80,328,100199,1,0,3:0:0:0:
72,216,100556,2,0,L|72:160,1,56,8|0,2:0|2:0,2:0:0:0:
112,120,100913,2,0,L|112:56,2,56,0|10|8,3:0|2:0|2:0,2:0:0:0:
220,92,101627,6,0,B|224:79|320:79|328:95,1,112,0|8,3:0|2:0,2:0:0:0:
340,148,102163,1,2,2:0:0:0:
416,228,102520,1,2,2:0:0:0:
308,256,102877,2,0,L|236:256,2,56,2|0|2,2:0|3:0|2:0,2:0:0:0:
312,312,103413,2,0,L|312:376,1,56,8|2,2:0|2:0,2:0:0:0:
256,368,103770,2,0,L|184:368,2,56,0|8|8,3:0|2:0|2:0,2:0:0:0:
176,288,104484,6,0,B|171:275|75:275|67:291,1,112,4|8,3:2|2:0,2:0:0:0:
16,296,105020,1,0,2:0:0:0:
16,296,105198,2,0,B|0:288|0:192|16:184,1,112,0|8,3:0|2:0,2:0:0:0:
104,124,105913,1,0,3:0:0:0:
192,196,106270,2,0,L|192:252,1,56,8|0,2:0|2:0,2:0:0:0:
232,292,106627,2,0,L|232:356,2,56,0|10|8,3:0|2:0|2:0,2:0:0:0:
340,324,107341,6,0,B|346:338|442:338|447:325,1,112,0|8,3:0|2:0,2:0:0:0:
448,268,107877,1,2,2:0:0:0:
448,156,108234,1,2,2:0:0:0:
336,160,108591,2,0,L|336:224,2,56,2|0|2,2:0|3:0|2:0,2:0:0:0:
280,160,109127,2,0,L|216:160,1,56,8|2,2:0|2:0,2:0:0:0:
168,160,109484,2,0,L|104:160,2,56,0|8|8,3:0|2:0|2:0,2:0:0:0:
168,48,110199,5,0,3:0:0:0:
496,56,112341,5,4,3:2:0:0:
388,44,112698,1,4,3:2:0:0:
276,32,113056,5,4,3:2:0:0:
164,24,113413,2,0,L|108:24,1,56,8|2,2:0|2:0,2:0:0:0:
104,80,113770,2,0,L|104:148,2,56,0|2|8,3:0|2:0|2:0,2:0:0:0:
200,136,114484,1,0,3:0:0:0:
176,244,114841,1,8,2:0:0:0:
76,280,115199,1,0,3:0:0:0:
76,280,115377,2,0,L|20:280,2,56,8|8|0,2:0|2:0|2:0,2:0:0:0:
88,336,115913,6,0,B|96:352|192:352|196:340,1,112,0|8,3:0|2:0,2:0:0:0:
256,332,116449,1,2,2:0:0:0:
256,332,116627,2,0,L|256:272,2,56,0|2|8,3:0|2:0|2:0,2:0:0:0:
368,336,117341,1,0,3:0:0:0:
368,224,117698,1,8,2:0:0:0:
272,168,118056,2,0,L|272:104,1,56,0|8,3:0|2:0,2:0:0:0:
272,56,118413,1,0,3:0:0:0:
160,56,118770,5,4,3:2:0:0:
48,56,119127,2,0,L|48:120,1,56,8|2,2:0|2:0,2:0:0:0:
12,156,119484,2,0,B|0:160|2:257|15:264,1,112,0|8,3:0|2:0,2:0:0:0:
52,372,120198,1,0,3:0:0:0:
164,380,120555,1,8,2:0:0:0:
212,276,120912,2,0,B|240:276|240:276|276:260,2,56,0|8|8,3:0|2:0|2:0,2:0:0:0:
156,180,121627,5,0,3:0:0:0:
220,88,121984,2,0,L|284:88,1,56,8|2,2:0|2:0,2:0:0:0:
332,96,122341,2,0,B|339:110|435:110|443:94,1,112,0|8,3:0|2:0,2:0:0:0:
492,196,123055,1,0,3:0:0:0:
420,280,123412,1,8,2:0:0:0:
316,240,123769,2,0,B|284:248|284:248|268:272,2,56,0|8|8,3:0|2:0|2:0,2:0:0:0:
312,128,124484,5,0,3:0:0:0:
296,12,124841,2,0,L|160:12,1,112,0|0,3:0|3:0,2:0:0:0:
156,120,125556,2,0,L|20:120,1,112,0|0,3:0|3:0,2:0:0:0:
12,228,126270,1,0,3:0:0:0:
100,296,126627,2,0,B|100:360|100:360|76:376,2,84,0|0|0,3:0|3:0|3:0,2:0:0:0:
