osu file format v14

[General]
AudioFilename: audio.mp3
AudioLeadIn: 0
PreviewTime:189
Countdown: 0
SampleSet: Soft
StackLeniency: 0.5
Mode: 0
LetterboxInBreaks: 0
WidescreenStoryboard: 1

[Editor]
Bookmarks:14484,25913,37341,38770,40198,45913,51627,63056,64484,75913,87341,93056,98770,110198,113056,124484,127341
DistanceSpacing: 0.4
BeatDivisor: 4
GridSize: 4
TimelineZoom: 2.3

[Metadata]
Title:PRINCE
TitleUnicode:PRINCE
Artist:INUMO KUWANEEYO
ArtistUnicode:犬も食わねぇよ。
Creator:Ryuusei Aika
Version:AuroraE's Insane
Source:
Tags:sorairokarasu Astrolis AuroraE sorciere kanor Japanese Pop JPop J-Pop vocaloid ボーカロイド ボカロ flower v-flower vflower KINGっぽい曲 イヌクワ イヌクワチャンネル INUKUWA Channel マンモーニ拓磨 Mammoni Takuma
BeatmapID:3563997
BeatmapSetID:1614553

[Difficulty]
HPDrainRate:5
CircleSize:4.5
OverallDifficulty:7.5
ApproachRate:9
SliderMultiplier:1.79999990463257
SliderTickRate:1

[Events]
//Background and Video events
0,0,"BG.jpg",0,0
//Break Periods
2,64684,75313
//Storyboard Layer 0 (Background)
//Storyboard Layer 1 (Fail)
//Storyboard Layer 2 (Pass)
//Storyboard Layer 3 (Foreground)
//Storyboard Layer 4 (Overlay)
//Storyboard Sound Samples

[TimingPoints]
199,357.142857142857,4,2,1,40,1,0
3056,-100,4,2,1,60,0,0
14484,-166.666666666667,4,2,1,50,0,0
25913,-166.666666666667,4,2,1,60,0,0
26627,-100,4,2,1,60,0,0
39127,-83.3333333333333,4,2,1,60,0,0
40377,-66.6666666666667,4,2,1,60,0,0
51627,-76.9230769230769,4,2,1,60,0,0
51716,-76.9230769230769,4,2,1,70,0,0
53056,-66.6666666666667,4,2,1,70,0,0
54127,-76.9230769230769,4,2,1,70,0,0
58770,-66.6666666666667,4,2,1,70,0,0
59841,-76.9230769230769,4,2,1,70,0,0
63056,-66.6666666666667,4,2,1,50,0,0
64484,-66.6666666666667,4,2,1,60,0,0
76627,-100,4,2,1,60,0,0
87520,-66.6666666666667,4,2,1,60,0,0
98770,-76.9230769230769,4,2,1,70,0,0
100198,-66.6666666666667,4,2,1,70,0,0
101270,-76.9230769230769,4,2,1,70,0,0
105913,-66.6666666666667,4,2,1,70,0,0
106984,-76.9230769230769,4,2,1,70,0,0
110198,-71.4285714285714,4,2,1,70,0,0
111627,-62.5,4,2,1,70,0,0
113056,-83.3333333333333,4,2,1,70,0,0
124484,-250,4,2,1,60,0,0

[Colours]
Combo1 : 159,0,0
Combo2 : 95,95,95

[HitObjects]
256,192,1270,12,0,2877,2:0:0:0:
227,322,3056,6,0,P|222:215|242:118,1,179.999990463257,4|8,3:2|2:0,2:0:0:0:
234,143,3591,1,0,2:0:0:0:
132,182,3770,2,0,P|136:137|155:73,1,89.9999952316285,0|2,3:0|2:0,2:0:0:0:
260,54,4127,2,0,P|256:99|237:163,1,89.9999952316285,8|2,2:0|2:0,2:0:0:0:
222,249,4484,5,0,3:0:0:0:
222,249,4663,1,0,2:0:0:0:
244,142,4841,2,0,P|223:99|179:63,1,89.9999952316285,8|0,2:0|2:0,2:0:0:0:
64,0,5198,5,0,3:0:0:0:
28,116,5377,1,2,2:0:0:0:
83,173,5556,1,8,2:0:0:0:
97,243,5734,1,2,2:0:0:0:
10,304,5913,6,0,P|88:262|181:253,1,179.999990463257,0|8,3:0|2:0,2:0:0:0:
177,252,6448,1,0,2:0:0:0:
192,154,6627,2,0,P|241:180|273:228,1,89.9999952316285,0|2,3:0|2:0,2:0:0:0:
371,228,6984,2,0,P|367:291|345:338,1,89.9999952316285,8|2,2:0|2:0,2:0:0:0:
250,370,7341,5,0,3:0:0:0:
250,370,7520,1,2,2:0:0:0:
189,260,7698,2,0,P|191:210|225:162,1,89.9999952316285,8|2,2:0|2:0,2:0:0:0:
322,186,8056,2,0,B|371:205|371:205|315:206,1,89.9999952316285,0|8,3:0|2:0,2:0:0:0:
210,175,8413,2,0,P|199:104|142:45,1,134.999992847443,8|0,2:0|2:0,2:0:0:0:
140,44,8770,6,0,P|94:127|84:239,1,179.999990463257,4|8,3:2|2:0,2:0:0:0:
81,210,9306,1,0,2:0:0:0:
180,300,9484,2,0,P|176:234|189:188,1,89.9999952316285,0|2,3:0|2:0,2:0:0:0:
283,132,9841,2,0,P|287:198|274:244,1,89.9999952316285,8|2,2:0|2:0,2:0:0:0:
269,339,10198,5,0,3:0:0:0:
269,339,10377,1,0,2:0:0:0:
372,279,10556,2,0,P|401:236|404:192,1,89.9999952316285,8|0,2:0|2:0,2:0:0:0:
441,66,10913,5,0,3:0:0:0:
308,97,11091,1,2,2:0:0:0:
250,37,11270,1,8,2:0:0:0:
179,25,11448,1,2,2:0:0:0:
84,55,11627,6,0,P|110:35|195:125,1,179.999990463257,0|8,3:0|2:0,2:0:0:0:
199,112,12163,1,0,2:0:0:0:
294,176,12341,2,0,P|243:187|201:234,1,89.9999952316285,0|2,3:0|2:0,2:0:0:0:
105,197,12698,2,0,P|94:253|101:305,1,89.9999952316285,8|2,2:0|2:0,2:0:0:0:
176,384,13056,5,0,3:0:0:0:
176,384,13234,1,2,2:0:0:0:
172,258,13413,2,0,P|146:212|82:174,1,89.9999952316285,8|2,2:0|2:0,2:0:0:0:
18,221,13770,2,0,P|2:246|21:227,1,89.9999952316285,0|8,3:0|2:0,2:0:0:0:
117,188,14127,2,0,P|140:111|190:75,1,134.999992847443,8|0,2:0|2:0,2:0:0:0:
207,78,14484,6,0,L|222:190,2,107.999994277954,4|0|0,3:2|3:0|3:0,2:0:0:0:
283,56,15377,1,0,2:0:0:0:
356,38,15734,1,0,2:0:0:0:
430,24,16091,2,0,L|496:43,2,53.999997138977,0|0|0,2:0|3:0|2:0,2:0:0:0:
497,115,16627,2,0,L|488:180,1,53.999997138977,2|0,3:2|2:0,2:0:0:0:
437,262,16984,5,2,3:2:0:0:
437,262,17163,1,0,2:0:0:0:
314,168,17341,6,0,L|299:280,2,107.999994277954,0|0|0,3:0|3:0|3:0,2:0:0:0:
314,168,18234,1,0,2:0:0:0:
243,157,18591,1,0,2:0:0:0:
243,157,18770,1,0,3:0:0:0:
168,143,19127,2,0,L|159:210,2,53.999997138977,0|0|2,3:0|2:0|3:2,2:0:0:0:
93,128,19841,2,0,L|81:228,1,80.9999957084655,2|0,3:2|2:0,2:0:0:0:
35,300,20198,6,0,L|149:282,2,107.999994277954,0|0|0,3:0|3:0|3:0,2:0:0:0:
35,300,21091,1,0,2:0:0:0:
52,226,21448,1,0,2:0:0:0:
66,151,21806,2,0,L|50:85,2,53.999997138977,0|0|0,2:0|3:0|2:0,2:0:0:0:
161,197,22341,2,0,L|228:184,1,53.999997138977,2|0,3:2|2:0,2:0:0:0:
321,226,22698,1,2,3:2:0:0:
321,226,22877,1,0,2:0:0:0:
369,106,23056,6,0,L|475:122,2,107.999994277954,0|0|0,3:0|3:0|3:0,2:0:0:0:
369,106,23948,1,0,2:0:0:0:
299,129,24306,1,0,2:0:0:0:
299,129,24484,1,0,3:0:0:0:
225,148,24841,1,0,3:0:0:0:
225,148,25020,1,0,2:0:0:0:
117,253,25198,2,0,P|116:212|140:165,1,80.9999957084655,0|0,3:0|2:0,2:0:0:0:
144,169,25556,2,0,P|140:126|112:91,1,80.9999957084655,10|0,2:0|2:0,2:0:0:0:
102,90,25913,5,4,3:2:0:0:
203,10,26091,1,0,2:0:0:0:
224,18,26181,1,0,2:0:0:0:
240,24,26270,1,8,2:0:0:0:
265,142,26448,1,0,2:0:0:0:
372,87,26627,2,0,P|358:136|352:203,1,89.9999952316285,0|2,3:0|2:0,2:0:0:0:
284,259,26984,2,0,P|298:308|304:375,1,89.9999952316285,8|2,2:0|2:0,2:0:0:0:
303,346,27341,1,0,3:0:0:0:
426,292,27520,6,0,L|431:233,1,44.9999976158143,0|0,2:0|2:0,2:0:0:0:
443,121,27877,1,0,2:0:0:0:
443,121,28056,5,0,3:0:0:0:
349,21,28234,1,2,2:0:0:0:
277,50,28413,1,8,2:0:0:0:
199,28,28591,2,0,P|192:74|189:144,1,89.9999952316285,2|0,2:0|3:0,2:0:0:0:
46,190,28948,5,0,2:0:0:0:
84,105,29127,1,8,2:0:0:0:
174,130,29306,1,0,2:0:0:0:
280,61,29484,2,0,P|327:75|397:81,1,89.9999952316285,0|2,3:0|2:0,2:0:0:0:
461,38,29841,2,0,P|480:80|492:147,1,89.9999952316285,8|2,2:0|2:0,2:0:0:0:
489,122,30198,1,0,3:0:0:0:
448,253,30377,6,0,L|395:239,1,44.9999976158143,2|0,2:0|2:0,2:0:0:0:
208,248,30734,1,2,2:0:0:0:
247,154,30913,5,0,3:0:0:0:
351,160,31091,1,8,2:0:0:0:
254,170,31270,1,8,2:0:0:0:
340,175,31448,2,0,P|357:233|363:274,1,89.9999952316285,0|4,2:0|3:2,2:0:0:0:
282,339,31806,6,0,P|233:359|201:389,2,89.9999952316285,0|8|0,2:0|2:0|2:0,2:0:0:0:
285,251,32341,1,0,3:0:0:0:
204,187,32520,1,2,2:0:0:0:
186,191,32609,1,0,2:0:0:0:
168,196,32698,1,8,2:0:0:0:
59,168,32877,2,0,P|86:207|106:278,1,89.9999952316285,2|0,2:0|3:0,2:0:0:0:
222,310,33234,6,0,L|165:321,1,44.9999976158143,0|0,2:0|2:0,2:0:0:0:
34,345,33591,1,0,2:0:0:0:
34,345,33770,5,0,3:0:0:0:
68,222,33948,1,2,2:0:0:0:
25,163,34127,1,8,2:0:0:0:
76,110,34306,2,0,P|60:158|59:212,1,89.9999952316285,2|0,2:0|3:0,2:0:0:0:
120,299,34663,6,0,P|80:312|16:353,2,89.9999952316285,0|8|0,2:0|2:0|2:0,2:0:0:0:
260,281,35198,1,0,3:0:0:0:
194,334,35377,1,2,2:0:0:0:
252,270,35556,1,8,2:0:0:0:
124,218,35734,1,2,2:0:0:0:
257,130,35913,6,0,L|240:200,1,44.9999976158143,0|0,3:0|2:0,2:0:0:0:
246,173,36270,2,0,L|270:305,1,134.999992847443,8|0,2:0|2:0,2:0:0:0:
273,319,36627,1,0,3:0:0:0:
336,204,36984,1,8,2:0:0:0:
256,48,37341,1,0,2:0:0:0:
256,192,37431,12,0,38770,3:0:0:0:
248,256,39127,6,0,B|266:127|266:127|290:102,1,161.999991416931,8|0,3:1|2:0,2:0:0:0:
169,39,39484,2,0,B|209:50|209:50|230:77,1,53.9999971389771,8|0,2:1|2:0,2:0:0:0:
328,172,39752,2,0,B|292:195|292:195|281:218,1,53.9999971389771,8|0,2:1|2:0,2:0:0:0:
221,281,40020,2,0,B|244:312|244:312|260:367,1,53.9999971389771,8|0,2:1|2:0,2:0:0:0:
256,339,40198,5,4,3:2:0:0:
141,384,40377,2,0,B|135:349|135:349|148:305,1,67.4999964237214,8|0,2:1|2:0,2:0:0:0:
86,253,40556,2,0,B|105:225|105:225|145:208,1,67.4999964237214,8|0,2:1|2:0,2:0:0:0:
236,135,40913,6,0,B|205:124|205:124|172:131,1,67.4999964237214,8|0,2:1|2:0,2:0:0:0:
135,211,41181,2,0,B|105:225|105:225|86:253,1,67.4999964237214,8|0,2:1|2:0,2:0:0:0:
144,318,41448,2,0,B|135:349|135:349|141:384,1,67.4999964237214,8|0,2:1|2:0,2:0:0:0:
245,203,41806,6,0,B|278:214|278:214|304:252,1,67.4999964237214,8|0,2:1|2:0,2:0:0:0:
373,193,41984,2,0,B|388:223|388:223|383:266,1,67.4999964237214,8|0,2:1|2:0,2:0:0:0:
432,340,42341,6,0,B|456:320|456:320|468:285,1,67.4999964237214,8|0,2:1|2:0,2:0:0:0:
384,256,42609,2,0,B|388:223|388:223|373:193,1,67.4999964237214,8|0,2:1|2:0,2:0:0:0:
296,240,42877,2,0,B|278:214|278:214|245:203,1,67.4999964237214,8|0,2:1|2:0,2:0:0:0:
287,61,43234,6,0,B|261:87|261:87|207:91,1,67.4999964237214,8|0,2:1|2:0,2:0:0:0:
168,146,43413,2,0,B|136:143|136:143|115:112,1,67.4999964237214,8|0,2:1|2:0,2:0:0:0:
24,40,43770,6,0,B|19:74|19:74|34:104,1,67.4999964237214,8|0,2:1|2:0,2:0:0:0:
116,113,44038,2,0,B|136:143|136:143|168:146,1,67.4999964237214,8|0,2:1|2:0,2:0:0:0:
230,89,44306,2,0,B|261:87|261:87|287:61,1,67.4999964237214,8|0,2:1|2:0,2:0:0:0:
357,216,44663,6,0,B|373:248|373:248|369:279,1,67.4999964237214,8|0,2:1|2:0,2:0:0:0:
266,297,44841,2,0,B|250:265|250:265|253:233,1,67.4999964237214,8|0,2:1|2:0,2:0:0:0:
291,135,45198,6,0,P|293:111|286:135,1,67.4999964237214,8|0,2:1|2:0,2:0:0:0:
252,233,45377,1,0,3:0:0:0:
252,233,45466,2,0,B|249:265|249:265|265:297,1,67.4999964237214,0|8,3:0|2:1,2:0:0:0:
369,279,45734,6,0,B|373:248|373:248|357:216,1,67.4999964237214,0|0,3:0|2:0,2:0:0:0:
379,102,45913,5,4,3:2:0:0:
271,83,46091,2,0,B|294:113|294:113|292:164,1,67.4999964237214,8|0,2:1|2:0,2:0:0:0:
355,194,46270,2,0,B|345:233|345:233|300:267,1,67.4999964237214,8|0,2:1|2:0,2:0:0:0:
230,323,46627,6,0,B|266:336|266:336|302:321,1,67.4999964237214,8|0,2:1|2:0,2:0:0:0:
323,249,46806,1,0,2:0:0:0:
323,249,46895,2,0,B|345:233|345:233|355:194,1,67.4999964237214,8|0,2:1|2:0,2:0:0:0:
292,142,47163,2,0,B|294:113|294:113|271:83,2,67.4999964237214,8|0|0,2:1|2:0|3:0,2:0:0:0:
154,149,47520,6,0,B|116:163|116:163|97:200,1,67.4999964237214,8|0,2:1|2:0,2:0:0:0:
17,197,47698,2,0,B|16:242|16:242|45:287,1,67.4999964237214,8|0,2:1|2:0,2:0:0:0:
88,358,48056,6,0,B|51:361|51:361|25:347,1,67.4999964237214,8|0,2:1|2:0,2:0:0:0:
28,260,48234,1,0,2:0:0:0:
28,260,48323,2,0,B|16:242|16:242|17:197,1,67.4999964237214,8|0,2:1|2:0,2:0:0:0:
103,187,48591,2,0,B|116:163|116:163|154:149,2,67.4999964237214,8|0|0,2:1|2:0|3:0,2:0:0:0:
217,293,48948,6,0,B|206:259|206:259|218:185,1,67.4999964237214,8|0,2:1|2:0,2:0:0:0:
285,170,49127,2,0,B|302:132|302:132|370:94,1,67.4999964237214,8|0,2:1|2:0,2:0:0:0:
472,165,49484,6,0,B|433:147|433:147|385:153,1,67.4999964237214,8|0,2:1|2:0,2:0:0:0:
324,119,49663,1,0,2:0:0:0:
324,119,49752,2,0,B|302:132|302:132|285:170,1,67.4999964237214,8|0,2:1|2:0,2:0:0:0:
211,227,50020,2,0,B|206:259|206:259|217:293,1,67.4999964237214,8|0,2:1|2:0,2:0:0:0:
236,305,50198,5,0,3:0:0:0:
340,251,50377,1,0,3:0:0:0:
335,277,50466,1,0,3:0:0:0:
330,303,50556,1,0,3:0:0:0:
403,358,50734,5,0,3:0:0:0:
468,257,50913,2,0,B|464:227|464:227|461:221|461:221|456:182,1,67.4999964237214,8|0,2:1|2:0,2:0:0:0:
189,40,51627,6,0,B|159:61|159:61|148:151,1,116.999993801117,4|0,3:2|2:0,2:0:0:0:
149,140,51895,1,0,2:0:0:0:
149,140,51984,1,8,2:0:0:0:
226,230,52163,1,0,2:0:0:0:
72,324,52341,6,0,P|76:261|133:260,1,116.999993801117,0|2,3:0|2:0,2:0:0:0:
314,140,52698,2,0,P|315:221|237:241,1,175.499990701676,8|0,2:0|2:0,2:0:0:0:
110,173,53056,6,0,B|176:162|176:162|195:147|195:147|319:126,1,202.499989271164,0|0,3:0|2:0,2:0:0:0:
435,53,53413,1,8,2:0:0:0:
457,258,53591,1,0,2:0:0:0:
499,86,53770,1,0,3:0:0:0:
392,223,53948,1,10,2:0:0:0:
362,26,54127,2,0,L|344:155,1,116.999993801117,8|2,2:0|2:0,2:0:0:0:
335,302,54484,6,0,B|266:305|297:251|215:250,1,116.999993801117,0|0,3:0|2:0,2:0:0:0:
234,251,54752,1,0,2:0:0:0:
234,251,54841,1,8,2:0:0:0:
112,160,55020,1,2,2:0:0:0:
112,160,55198,5,0,3:0:0:0:
87,325,55377,1,2,2:0:0:0:
87,325,55556,5,8,2:0:0:0:
188,194,55734,5,2,2:0:0:0:
307,156,55913,1,0,3:0:0:0:
332,37,56091,1,2,2:0:0:0:
309,31,56181,1,0,2:0:0:0:
286,25,56270,5,8,2:0:0:0:
194,104,56448,1,2,2:0:0:0:
75,66,56627,1,0,3:0:0:0:
0,189,56806,1,8,2:0:0:0:
22,184,56895,1,0,2:0:0:0:
45,180,56984,2,0,L|68:44,1,116.999993801117,8|0,2:0|2:0,2:0:0:0:
268,19,57341,6,0,P|217:30|210:107,1,116.999993801117,4|0,3:2|2:0,2:0:0:0:
199,86,57609,1,0,2:0:0:0:
199,86,57698,1,8,2:0:0:0:
306,140,57877,1,0,2:0:0:0:
182,286,58056,2,0,P|173:221|219:203,1,116.999993801117,0|2,3:0|2:0,2:0:0:0:
421,226,58413,2,0,P|421:178|313:147,1,175.499990701676,8|0,2:0|2:0,2:0:0:0:
227,201,58770,6,0,B|245:225|245:225|389:247|389:247|419:219,1,202.499989271164,0|0,3:0|2:0,2:0:0:0:
480,34,59127,1,8,2:0:0:0:
421,226,59306,1,0,2:0:0:0:
411,51,59484,1,0,3:0:0:0:
490,210,59663,1,10,2:0:0:0:
341,70,59841,2,0,L|349:228,1,116.999993801117,8|2,2:0|2:0,2:0:0:0:
383,384,60198,6,0,B|380:326|331:351|332:258,1,116.999993801117,0|0,3:0|2:0,2:0:0:0:
333,281,60466,1,0,2:0:0:0:
333,281,60556,1,8,2:0:0:0:
256,192,60734,1,2,2:0:0:0:
256,192,60913,5,0,3:0:0:0:
296,37,61091,1,2,2:0:0:0:
296,37,61270,5,8,2:0:0:0:
190,158,61448,5,2,2:0:0:0:
327,125,61627,1,0,3:0:0:0:
445,195,61806,1,2,2:0:0:0:
441,218,61895,1,0,2:0:0:0:
436,240,61984,5,8,2:0:0:0:
344,380,62163,1,2,2:0:0:0:
279,243,62341,1,0,3:0:0:0:
173,317,62520,1,8,2:0:0:0:
266,237,62698,6,0,P|260:296|270:358,1,116.999993801117,8|0,2:0|2:0,2:0:0:0:
140,207,63056,6,0,P|128:186|147:202,1,67.4999964237214,4|0,3:2|2:0,2:0:0:0:
218,71,63413,6,0,P|238:54|223:75,1,67.4999964237214,0|0,2:0|2:0,2:0:0:0:
385,105,63770,6,0,P|356:141|323:256,1,134.999992847443,0|0,2:0|2:0,2:0:0:0:
325,223,64127,2,0,P|263:251|255:313,1,134.999992847443,0|0,2:0|2:0,2:0:0:0:
254,311,64484,1,4,3:2:0:0:
218,48,75913,5,4,3:2:0:0:
114,115,76091,1,0,2:0:0:0:
117,132,76181,1,0,2:0:0:0:
121,149,76270,1,8,2:0:0:0:
176,204,76448,1,0,2:0:0:0:
71,267,76627,2,0,P|56:329|143:329,1,134.999992847443,0|0,3:0|2:0,2:0:0:0:
132,340,76984,2,0,P|178:336|221:376,1,89.9999952316285,8|2,2:0|2:0,2:0:0:0:
212,360,77341,1,0,3:0:0:0:
338,328,77520,5,0,2:0:0:0:
342,310,77609,1,0,2:0:0:0:
346,292,77698,1,8,2:0:0:0:
303,222,77877,1,0,2:0:0:0:
377,115,78056,5,0,3:0:0:0:
493,170,78234,1,2,2:0:0:0:
439,233,78413,1,8,2:0:0:0:
508,260,78591,2,0,P|501:312|498:376,1,89.9999952316285,2|0,2:0|3:0,2:0:0:0:
384,384,78948,5,0,2:0:0:0:
367,377,79038,1,0,2:0:0:0:
350,370,79127,1,8,2:0:0:0:
317,296,79306,1,0,2:0:0:0:
228,376,79484,2,0,P|216:320|181:272,1,89.9999952316285,0|2,3:0|2:0,2:0:0:0:
265,210,79841,2,0,P|274:165|310:115,1,89.9999952316285,8|2,2:0|2:0,2:0:0:0:
407,84,80198,6,0,P|426:108|433:134,1,44.9999976158143,0|0,3:0|2:0,2:0:0:0:
337,169,80377,2,0,P|318:145|311:119,1,44.9999976158143,2|0,2:0|2:0,2:0:0:0:
303,11,80556,2,0,P|281:3|240:8,1,44.9999976158143,8|0,2:0|2:0,2:0:0:0:
246,107,80734,2,0,P|268:115|309:110,1,44.9999976158143,2|0,2:0|2:0,2:0:0:0:
407,84,80913,5,0,3:0:0:0:
246,107,81091,1,8,2:0:0:0:
303,11,81270,1,8,2:0:0:0:
337,169,81448,2,0,P|348:224|340:279,1,89.9999952316285,0|0,2:0|3:0,2:0:0:0:
245,333,81806,5,0,2:0:0:0:
227,335,81895,1,0,2:0:0:0:
209,336,81984,1,8,2:0:0:0:
145,384,82163,1,0,2:0:0:0:
59,317,82341,2,0,P|85:240|145:270,1,134.999992847443,0|0,3:0|2:0,2:0:0:0:
146,242,82698,2,0,P|162:200|151:149,1,89.9999952316285,8|2,2:0|2:0,2:0:0:0:
154,156,83056,1,0,3:0:0:0:
209,41,83234,5,0,2:0:0:0:
213,58,83323,1,0,2:0:0:0:
217,75,83413,1,8,2:0:0:0:
284,123,83591,1,0,2:0:0:0:
246,250,83770,5,0,3:0:0:0:
360,186,83948,1,2,2:0:0:0:
412,251,84127,1,8,2:0:0:0:
478,216,84306,2,0,P|487:267|480:321,1,89.9999952316285,2|0,2:0|3:0,2:0:0:0:
366,384,84663,5,0,2:0:0:0:
361,366,84752,1,0,2:0:0:0:
357,348,84841,1,8,2:0:0:0:
292,297,85020,1,0,2:0:0:0:
321,211,85198,1,0,3:0:0:0:
253,162,85377,1,2,2:0:0:0:
330,217,85556,1,8,2:0:0:0:
171,257,85734,1,2,2:0:0:0:
246,155,85913,6,0,L|264:84,1,44.9999976158143,0|0,3:0|2:0,2:0:0:0:
246,155,86270,2,0,L|264:297,1,134.999992847443,8|0,2:0|2:0,2:0:0:0:
262,288,86627,1,8,2:1:0:0:
337,169,86895,1,8,2:1:0:0:
200,55,87163,1,8,2:1:0:0:
258,0,87341,5,4,3:2:0:0:
340,32,87520,2,0,B|333:66|333:66|305:103,1,67.4999964237214,8|0,2:1|2:0,2:0:0:0:
344,174,87698,2,0,B|316:193|316:193|272:194,1,67.4999964237214,8|0,2:1|2:0,2:0:0:0:
162,230,88056,6,0,B|186:251|186:251|220:256,1,67.4999964237214,8|0,2:1|2:0,2:0:0:0:
283,195,88323,2,0,B|316:192|316:192|343:173,1,67.4999964237214,8|0,2:1|2:0,2:0:0:0:
313,92,88591,2,0,B|332:66|332:66|339:31,1,67.4999964237214,8|0,2:1|2:0,2:0:0:0:
204,124,88948,6,0,B|167:125|167:125|127:162,1,67.4999964237214,8|0,2:1|2:0,2:0:0:0:
59,153,89127,2,0,B|39:178|39:178|47:214,1,67.4999964237214,8|0,2:1|2:0,2:0:0:0:
39,330,89484,6,0,B|10:310|10:310|0:279,1,67.4999964237214,8|0,2:1|2:0,2:0:0:0:
49,213,89752,2,0,B|40:177|40:177|60:152,1,67.4999964237214,8|0,2:1|2:0,2:0:0:0:
144,145,90020,2,0,B|166:123|166:123|203:122,1,67.4999964237214,8|0,2:1|2:0,2:0:0:0:
204,246,90377,6,0,B|237:235|237:235|263:197,1,67.4999964237214,8|0,2:1|2:0,2:0:0:0:
332,256,90556,2,0,B|347:226|347:226|342:183,1,67.4999964237214,8|0,2:1|2:0,2:0:0:0:
391,109,90913,6,0,B|415:129|415:129|427:164,1,67.4999964237214,8|0,2:1|2:0,2:0:0:0:
343,193,91181,2,0,B|347:226|347:226|332:256,1,67.4999964237214,8|0,2:1|2:0,2:0:0:0:
255,209,91448,2,0,B|237:235|237:235|204:246,1,67.4999964237214,8|0,2:1|2:0,2:0:0:0:
179,125,91806,6,0,B|163:93|163:93|167:62,1,67.4999964237214,8|0,2:1|2:0,2:0:0:0:
270,44,91984,2,0,B|286:76|286:76|283:108,1,67.4999964237214,8|0,2:1|2:0,2:0:0:0:
245,206,92341,6,0,P|243:230|250:206,1,67.4999964237214,0|0,2:0|2:0,2:0:0:0:
284,108,92520,1,0,3:0:0:0:
284,108,92609,2,0,B|287:76|287:76|271:44,1,67.4999964237214,0|8,3:0|2:1,2:0:0:0:
167,61,92877,6,0,B|163:92|163:92|179:124,1,67.4999964237214,0|0,3:0|2:0,2:0:0:0:
147,226,93056,5,4,3:2:0:0:
181,330,93234,2,0,B|196:295|196:295|242:273,1,67.4999964237214,8|0,2:1|2:0,2:0:0:0:
239,204,93413,2,0,B|278:194|278:194|329:218,1,67.4999964237214,8|0,2:1|2:0,2:0:0:0:
412,254,93770,6,0,B|406:216|406:216|376:191,1,67.4999964237214,8|0,2:1|2:0,2:0:0:0:
303,206,93948,1,0,2:0:0:0:
303,206,94038,2,0,B|278:194|278:194|239:203,1,67.4999964237214,8|0,2:1|2:0,2:0:0:0:
223,284,94306,2,0,B|196:295|196:295|180:330,2,67.4999964237214,8|0|0,2:1|2:0|3:0,2:0:0:0:
137,210,94663,6,0,B|99:196|99:196|80:159,1,67.4999964237214,8|0,2:1|2:0,2:0:0:0:
0,162,94841,2,0,B|-1:117|-1:117|28:72,1,67.4999964237214,8|0,2:1|2:0,2:0:0:0:
71,1,95198,6,0,B|34:-2|34:-2|8:12,1,67.4999964237214,8|0,2:1|2:0,2:0:0:0:
11,99,95377,1,0,2:0:0:0:
11,99,95466,2,0,B|-1:117|-1:117|0:162,1,67.4999964237214,8|0,2:1|2:0,2:0:0:0:
86,172,95734,2,0,B|99:196|99:196|137:210,2,67.4999964237214,8|0|0,2:1|2:0|3:0,2:0:0:0:
253,204,96091,6,0,B|242:170|242:170|254:96,1,67.4999964237214,8|0,2:1|2:0,2:0:0:0:
321,81,96270,2,0,B|338:43|338:43|406:5,1,67.4999964237214,8|0,2:1|2:0,2:0:0:0:
508,76,96627,6,0,B|469:58|469:58|421:64,1,67.4999964237214,8|0,2:1|2:0,2:0:0:0:
360,30,96806,1,0,2:0:0:0:
360,30,96895,2,0,B|338:43|338:43|321:81,1,67.4999964237214,8|0,2:1|2:0,2:0:0:0:
247,138,97163,2,0,B|242:170|242:170|253:204,1,67.4999964237214,8|0,2:1|2:0,2:0:0:0:
260,314,97341,5,0,3:0:0:0:
174,235,97520,1,0,3:0:0:0:
169,261,97609,1,0,3:0:0:0:
164,287,97698,1,0,3:0:0:0:
88,350,97877,5,0,3:0:0:0:
31,248,98056,2,0,B|35:218|35:218|38:212|38:212|43:173,1,67.4999964237214,8|0,2:1|2:0,2:0:0:0:
432,352,98770,6,0,B|422:303|422:303|418:300|418:300|403:204,1,116.999993801117,4|0,3:2|2:0,2:0:0:0:
407,236,99038,1,0,2:0:0:0:
407,236,99127,1,8,2:0:0:0:
299,205,99306,1,0,2:0:0:0:
420,54,99484,6,0,P|425:117|353:130,1,116.999993801117,0|2,3:0|2:0,2:0:0:0:
191,130,99841,2,0,P|275:123|303:209,1,175.499990701676,8|0,2:0|2:0,2:0:0:0:
258,317,100198,6,0,B|214:285|214:285|191:127,1,202.499989271164,0|0,3:0|2:0,2:0:0:0:
79,27,100556,1,8,2:0:0:0:
57,232,100734,1,0,2:0:0:0:
15,60,100913,1,0,3:0:0:0:
122,197,101091,1,10,2:0:0:0:
152,0,101270,2,0,L|170:129,1,116.999993801117,8|2,2:0|2:0,2:0:0:0:
317,173,101627,6,0,B|395:184|342:237|421:238,1,116.999993801117,0|0,3:0|2:0,2:0:0:0:
406,237,101895,1,0,2:0:0:0:
406,237,101984,1,8,2:0:0:0:
490,112,102163,1,2,2:0:0:0:
490,112,102341,5,0,3:0:0:0:
351,50,102520,1,2,2:0:0:0:
351,50,102698,5,8,2:0:0:0:
437,170,102877,5,2,2:0:0:0:
326,231,103056,1,0,3:0:0:0:
266,128,103234,1,2,2:0:0:0:
243,134,103323,1,0,2:0:0:0:
220,140,103413,5,8,2:0:0:0:
103,69,103591,1,2,2:0:0:0:
156,178,103770,1,0,3:0:0:0:
65,271,103948,1,8,2:0:0:0:
87,277,104038,1,0,2:0:0:0:
109,284,104127,2,0,P|148:329|138:383,1,116.999993801117,8|0,2:0|2:0,2:0:0:0:
290,260,104484,6,0,B|315:223|315:223|304:137,1,116.999993801117,4|0,3:2|2:0,2:0:0:0:
307,151,104752,1,0,2:0:0:0:
307,151,104841,1,8,2:0:0:0:
251,71,105020,1,0,2:0:0:0:
426,117,105198,2,0,P|397:54|360:59,1,116.999993801117,0|2,3:0|2:0,2:0:0:0:
149,151,105556,2,0,P|194:53|263:102,1,175.499990701676,8|0,2:0|2:0,2:0:0:0:
346,183,105913,6,0,B|255:170|255:170|241:179|241:179|144:161,1,202.499989271164,0|0,3:0|2:0,2:0:0:0:
24,13,106270,1,8,2:0:0:0:
72,207,106448,1,0,2:0:0:0:
92,33,106627,1,0,3:0:0:0:
4,188,106806,1,10,2:0:0:0:
161,57,106984,2,0,L|144:214,1,116.999993801117,8|2,2:0|2:0,2:0:0:0:
65,332,107341,6,0,B|136:345|110:281|198:304,1,116.999993801117,0|0,3:0|2:0,2:0:0:0:
172,299,107609,1,0,2:0:0:0:
172,299,107698,1,8,2:0:0:0:
299,200,107877,1,2,2:0:0:0:
299,200,108056,5,0,3:0:0:0:
329,354,108234,1,2,2:0:0:0:
329,354,108413,5,8,2:0:0:0:
379,203,108591,5,2,2:0:0:0:
435,98,108770,1,0,3:0:0:0:
349,15,108948,1,2,2:0:0:0:
345,38,109038,1,0,2:0:0:0:
340,60,109127,5,8,2:0:0:0:
194,27,109306,1,2,2:0:0:0:
298,138,109484,1,0,3:0:0:0:
161,179,109663,1,8,2:0:0:0:
285,151,109841,6,0,P|261:218|266:284,1,116.999993801117,8|0,2:0|2:0,2:0:0:0:
413,283,110198,6,0,P|425:304|408:287,1,62.99999666214,0|0,3:0|2:0,2:0:0:0:
450,105,110556,6,0,P|470:88|455:109,1,62.99999666214,0|0,2:0|2:0,2:0:0:0:
280,155,110913,6,0,P|257:111|259:20,1,125.99999332428,0|0,2:0|2:0,2:0:0:0:
255,36,111270,2,0,P|193:64|180:120,1,125.99999332428,0|0,2:0|2:0,2:0:0:0:
92,285,111627,6,0,P|79:307|97:289,1,71.9999961853028,0|0,2:0|2:0,2:0:0:0:
40,101,111984,6,0,P|18:82|34:105,1,71.9999961853028,0|0,2:0|2:0,2:0:0:0:
212,149,112341,6,0,P|236:111|253:-20,1,143.999992370606,4|0,3:2|2:0,2:0:0:0:
257,16,112698,2,0,P|319:44|326:119,1,143.999992370606,4|0,3:2|2:0,2:0:0:0:
328,113,113056,6,0,P|226:164|275:263,1,215.999988555908,4|8,3:2|2:0,2:0:0:0:
247,245,113591,1,2,2:0:0:0:
152,332,113770,2,0,P|162:294|126:226,1,107.999994277954,0|2,3:0|2:0,2:0:0:0:
18,160,114127,2,0,P|8:198|44:266,1,107.999994277954,8|2,2:0|2:0,2:0:0:0:
147,341,114484,5,0,3:0:0:0:
84,384,114663,1,2,2:0:0:0:
135,233,114841,2,0,P|142:184|133:114,1,107.999994277954,8|2,2:0|2:0,2:0:0:0:
64,0,115198,5,0,3:0:0:0:
212,30,115377,1,8,2:0:0:0:
256,111,115556,1,8,2:0:0:0:
332,100,115734,1,0,2:0:0:0:
364,0,115913,6,0,P|298:106|308:210,1,215.999988555908,0|8,3:0|2:0,2:0:0:0:
302,193,116448,1,2,2:0:0:0:
159,196,116627,2,0,P|208:222|241:289,1,107.999994277954,0|2,3:0|2:0,2:0:0:0:
366,272,116984,2,0,P|362:335|310:393,1,107.999994277954,8|2,2:0|2:0,2:0:0:0:
191,334,117341,5,0,3:0:0:0:
253,384,117520,1,2,2:0:0:0:
238,227,117698,2,0,P|234:175|255:104,1,107.999994277954,8|2,2:0|2:0,2:0:0:0:
346,90,118056,2,0,P|380:70|406:77,1,53.9999971389771,0|0,3:0|2:0,2:0:0:0:
416,139,118234,2,0,P|381:158|356:152,1,53.9999971389771,8|0,2:0|2:0,2:0:0:0:
246,121,118413,2,0,P|231:70|122:40,1,161.999991416931,0|0,3:0|2:0,2:0:0:0:
110,46,118770,6,0,P|152:146|144:274,1,215.999988555908,4|8,3:2|2:0,2:0:0:0:
150,251,119306,1,2,2:0:0:0:
47,340,119484,2,0,P|36:273|69:214,1,107.999994277954,0|2,3:0|2:0,2:0:0:0:
152,148,119841,2,0,P|163:215|130:274,1,107.999994277954,8|2,2:0|2:0,2:0:0:0:
124,384,120198,5,0,3:0:0:0:
57,348,120377,1,2,2:0:0:0:
218,328,120556,2,0,P|256:304|305:231,1,107.999994277954,8|2,2:0|2:0,2:0:0:0:
344,109,120913,5,0,3:0:0:0:
452,194,121091,1,8,2:0:0:0:
391,248,121270,1,8,2:0:0:0:
410,322,121448,1,0,2:0:0:0:
306,384,121627,6,0,P|303:276|201:255,1,215.999988555908,0|8,3:0|2:0,2:0:0:0:
212,250,122163,1,2,2:0:0:0:
118,199,122341,2,0,P|150:159|204:144,1,107.999994277954,0|2,3:0|2:0,2:0:0:0:
232,33,122698,2,0,P|287:58|322:119,1,107.999994277954,8|2,2:0|2:0,2:0:0:0:
338,221,123056,5,0,3:0:0:0:
358,296,123234,1,2,2:0:0:0:
206,245,123413,2,0,P|165:207|157:140,1,107.999994277954,8|2,2:0|2:0,2:0:0:0:
52,144,123770,2,0,P|29:149|3:166,1,53.9999971389771,0|0,3:0|2:0,2:0:0:0:
32,231,123948,2,0,P|55:226|81:209,1,53.9999971389771,8|0,2:0|2:0,2:0:0:0:
154,157,124127,2,0,P|167:84|74:14,1,161.999991416931,8|0,2:0|2:0,2:0:0:0:
83,17,124484,6,0,L|89:60,1,35.9999980926514,0|0,3:0|2:0,2:0:0:0:
166,66,124841,1,0,3:0:0:0:
249,87,125020,1,0,2:0:0:0:
252,102,125198,5,0,3:0:0:0:
148,146,125377,1,0,2:0:0:0:
145,160,125556,5,0,3:0:0:0:
254,185,125734,1,0,2:0:0:0:
260,200,125913,6,0,L|248:251,1,35.9999980926514,0|0,3:0|2:0,2:0:0:0:
126,261,126270,2,0,L|138:307,1,35.9999980926514,0|0,3:0|2:0,2:0:0:0:
264,331,126627,5,0,3:0:0:0:
256,192,126895,1,0,3:0:0:0:
248,53,127163,1,0,3:0:0:0:
