osu file format v14

[General]
AudioFilename: audio.mp3
AudioLeadIn: 0
PreviewTime:189
Countdown: 0
SampleSet: Soft
StackLeniency: 1
Mode: 0
LetterboxInBreaks: 0
WidescreenStoryboard: 1

[Editor]
DistanceSpacing: 1.4
BeatDivisor: 4
GridSize: 8
TimelineZoom: 1.6

[Metadata]
Title:PRINCE
TitleUnicode:PRINCE
Artist:INUMO KUWANEEYO
ArtistUnicode:犬も食わねぇよ。
Creator:Ryuusei Aika
Version:Astrolis' Hard
Source:
Tags:sorairokarasu Astrolis AuroraE sorciere kanor Japanese Pop JPop J-Pop vocaloid ボーカロイド ボカロ flower v-flower vflower KINGっぽい曲 イヌクワ イヌクワチャンネル INUKUWA Channel マンモーニ拓磨 Mammoni Takuma
BeatmapID:3303303
BeatmapSetID:1614553

[Difficulty]
HPDrainRate:5
CircleSize:3.3
OverallDifficulty:6.5
ApproachRate:8
SliderMultiplier:1.39999990463257
SliderTickRate:1

[Events]
//Background and Video events
0,0,"BG.jpg",0,0
//Break Periods
2,65913,68770
2,71627,74484
//Storyboard Layer 0 (Background)
//Storyboard Layer 1 (Fail)
//Storyboard Layer 2 (Pass)
//Storyboard Layer 3 (Foreground)
//Storyboard Layer 4 (Overlay)
//Storyboard Sound Samples

[TimingPoints]
199,357.142857142857,4,2,1,40,1,0
3056,-100,4,2,1,60,0,0
14484,-117.647058823529,4,2,1,50,0,0
25913,-117.647058823529,4,2,1,60,0,0
26091,-100,4,2,1,60,0,0
51627,-86.9565217391304,4,2,1,60,0,1
51716,-86.9565217391304,4,2,1,70,0,1
63056,-86.9565217391304,4,2,1,50,0,0
64484,-86.9565217391304,4,2,1,60,0,0
76270,-100,4,2,1,60,0,0
98770,-86.9565217391304,4,2,1,70,0,1
113056,-100,4,2,1,70,0,0
124484,-100,4,2,1,60,0,0

[Colours]
Combo1 : 159,0,0
Combo2 : 95,95,95

[HitObjects]
256,192,1270,12,0,2698,2:0:0:0:
256,194,3056,6,0,P|206:171|130:166,1,104.99999284744275,4|0,3:2|2:0,2:0:0:0:
156,164,3413,2,0,P|176:140|203:95,1,69.99999523162849,8|0,2:0|2:0,2:0:0:0:
135,30,3770,2,0,L|48:33,2,69.99999523162849,0|2|8,3:0|2:0|2:0,2:0:0:0:
235,14,4306,1,2,2:0:0:0:
235,14,4484,6,0,B|283:9|283:9|296:17|296:17|388:6,1,139.99999046325698,0|8,3:0|2:0,2:0:0:0:
456,58,5020,1,0,2:0:0:0:
423,150,5198,2,0,B|375:145|375:145|362:153|362:153|270:142,1,139.99999046325698,0|8,3:0|2:0,2:0:0:0:
233,228,5734,1,2,2:0:0:0:
186,316,5913,6,0,P|133:322|83:336,1,104.99999284744275,0|0,3:0|2:0,2:0:0:0:
84,336,6270,2,0,P|53:358|6:360,1,69.99999523162849,8|0,2:0|2:0,2:0:0:0:
14,265,6627,2,0,L|10:182,2,69.99999523162849,0|2|8,3:0|2:0|2:0,2:0:0:0:
103,220,7163,1,2,2:0:0:0:
103,220,7341,6,0,P|174:221|251:232,1,139.99999046325698,0|8,3:0|2:0,2:0:0:0:
307,303,7877,1,2,2:0:0:0:
373,375,8056,2,0,P|442:365|470:362,1,69.99999523162849,0|8,3:0|2:0,2:0:0:0:
509,295,8413,2,0,L|499:175,1,104.99999284744275,8|0,2:0|2:0,2:0:0:0:
501,190,8770,6,0,P|460:159|398:195,1,104.99999284744275,4|0,3:2|2:0,2:0:0:0:
412,173,9127,2,0,L|317:169,1,69.99999523162849,8|0,2:0|2:0,2:0:0:0:
258,224,9484,2,0,P|267:264|273:304,2,69.99999523162849,0|2|8,3:0|2:0|2:0,2:0:0:0:
181,162,10020,1,2,2:0:0:0:
181,162,10198,6,0,B|141:140|99:151|111:167|66:174|19:152,1,139.99999046325698,0|8,3:0|2:0,2:0:0:0:
1,72,10734,1,0,2:0:0:0:
79,13,10913,2,0,B|119:-9|161:2|149:18|194:25|241:3,1,139.99999046325698,0|8,3:0|2:0,2:0:0:0:
294,69,11448,1,2,2:0:0:0:
378,17,11627,6,0,L|507:23,1,104.99999284744275,0|0,3:0|2:0,2:0:0:0:
482,21,11984,2,0,L|490:96,1,69.99999523162849,8|0,2:0|2:0,2:0:0:0:
430,169,12341,2,0,L|340:160,2,69.99999523162849,0|2|8,3:0|2:0|2:0,2:0:0:0:
494,242,12877,1,2,2:0:0:0:
494,242,13056,6,0,B|464:282|464:282|349:270,1,139.99999046325698,0|8,3:0|2:0,2:0:0:0:
282,305,13591,1,2,2:0:0:0:
213,374,13770,2,0,P|175:368|131:370,1,69.99999523162849,0|8,3:0|2:0,2:0:0:0:
45,379,14127,2,0,L|39:253,1,104.99999284744275,8|0,2:0|2:0,2:0:0:0:
40,274,14484,6,0,B|41:223|41:223|45:219|45:219|50:171,1,89.24999392032666,4|0,3:2|2:0,2:0:0:0:
48,186,14841,2,0,P|22:152|4:144,1,59.49999594688445,0|0,3:0|2:0,2:0:0:0:
18,62,15198,2,0,P|66:83|141:104,1,118.99999189376888,0|0,3:0|3:0,2:0:0:0:
164,177,15734,1,0,2:0:0:0:
328,204,16091,1,0,2:0:0:0:
328,204,16270,2,0,P|337:162|356:131,1,59.49999594688445,0|0,3:0|2:0,2:0:0:0:
421,115,16627,1,2,3:2:0:0:
293,8,16984,1,2,3:2:0:0:
213,17,17163,1,0,2:0:0:0:
213,17,17341,6,0,B|167:16|167:16|161:20|161:20|106:17,1,89.24999392032666,0|0,3:0|2:0,2:0:0:0:
125,18,17698,2,0,B|103:39|103:39|63:33,1,59.49999594688445,0|0,3:0|2:0,2:0:0:0:
17,96,18056,2,0,P|22:155|17:219,1,118.99999189376888,0|0,3:0|3:0,2:0:0:0:
18,297,18591,1,0,2:0:0:0:
66,365,18770,2,0,L|148:356,1,59.49999594688445,0|0,3:0|2:0,2:0:0:0:
213,384,19127,2,0,P|219:338|231:303,1,59.49999594688445,0|0,3:0|2:0,2:0:0:0:
222,325,19395,1,0,2:0:0:0:
222,325,19484,2,0,P|254:289|253:212,1,118.99999189376888,2|2,3:2|3:2,2:0:0:0:
178,248,20020,1,0,2:0:0:0:
122,194,20198,6,0,B|106:175|106:175|116:101,1,89.24999392032666,0|0,3:0|2:0,2:0:0:0:
114,111,20556,2,0,L|173:105,1,59.49999594688445,0|0,3:0|2:0,2:0:0:0:
218,35,20913,2,0,L|342:46,1,118.99999189376888,0|0,3:0|3:0,2:0:0:0:
419,53,21448,1,0,2:0:0:0:
509,193,21806,1,0,2:0:0:0:
509,193,21984,2,0,P|498:155|499:119,1,59.49999594688445,0|0,3:0|2:0,2:0:0:0:
413,131,22341,2,0,P|418:188|411:266,1,118.99999189376888,2|2,3:2|3:2,2:0:0:0:
469,311,22877,1,0,2:0:0:0:
412,372,23056,6,0,L|305:368,1,89.24999392032666,0|0,3:0|2:0,2:0:0:0:
322,368,23413,2,0,B|316:338|316:338|322:333|322:333|314:305,1,59.49999594688445,0|0,3:0|2:0,2:0:0:0:
242,274,23770,2,0,P|246:228|243:152,1,118.99999189376888,0|0,3:0|3:0,2:0:0:0:
269,75,24306,1,0,2:0:0:0:
206,20,24484,2,0,B|127:17,1,59.49999594688445,0|0,3:0|2:0,2:0:0:0:
72,42,24841,2,0,P|74:81|94:112,1,59.49999594688445,0|0,3:0|2:0,2:0:0:0:
83,98,25109,1,0,2:0:0:0:
83,98,25198,2,0,P|108:142|84:217,1,118.99999189376888,0|10,3:0|2:0,2:0:0:0:
31,261,25734,1,0,2:0:0:0:
9,356,25913,5,4,3:2:0:0:
9,356,26091,2,0,L|90:366,1,69.99999523162849,0|8,2:0|2:0,2:0:0:0:
163,316,26448,1,0,2:0:0:0:
252,368,26627,1,0,3:0:0:0:
252,368,26806,2,0,L|248:280,2,69.99999523162849,2|8|2,2:0|2:0|2:0,2:0:0:0:
447,373,27520,1,0,2:0:0:0:
502,184,27877,1,0,2:0:0:0:
502,184,28056,2,0,P|451:192|424:191,1,69.99999523162849,0|2,3:0|2:0,2:0:0:0:
395,282,28413,2,0,P|446:274|473:275,1,69.99999523162849,8|2,2:0|2:0,2:0:0:0:
497,366,28770,5,0,3:0:0:0:
399,377,28948,1,0,2:0:0:0:
399,377,29127,2,0,L|319:370,1,69.99999523162849,8|0,2:0|2:0,2:0:0:0:
260,301,29484,1,0,3:0:0:0:
304,213,29663,2,0,P|286:155|283:127,2,69.99999523162849,2|8|2,2:0|2:0|2:0,2:0:0:0:
497,180,30377,1,2,2:0:0:0:
401,8,30734,1,2,2:0:0:0:
401,8,30913,2,0,L|483:10,1,69.99999523162849,0|8,3:0|2:0,2:0:0:0:
444,104,31270,2,0,L|374:105,1,69.99999523162849,8|0,2:0|2:0,2:0:0:0:
286,61,31627,5,4,3:2:0:0:
238,147,31806,1,0,2:0:0:0:
238,147,31984,2,0,L|247:234,1,69.99999523162849,8|0,2:0|2:0,2:0:0:0:
308,291,32341,1,0,3:0:0:0:
259,376,32520,2,0,P|300:379|337:385,2,69.99999523162849,2|8|2,2:0|2:0|2:0,2:0:0:0:
63,377,33234,1,0,2:0:0:0:
139,196,33591,1,0,2:0:0:0:
139,196,33770,2,0,L|145:268,1,69.99999523162849,0|2,3:0|2:0,2:0:0:0:
51,296,34127,2,0,L|56:226,1,69.99999523162849,8|2,2:0|2:0,2:0:0:0:
11,139,34484,5,0,3:0:0:0:
43,48,34663,1,0,2:0:0:0:
43,48,34841,2,0,P|83:56|118:54,1,69.99999523162849,8|0,2:0|2:0,2:0:0:0:
200,12,35198,2,0,L|205:93,1,69.99999523162849,0|2,3:0|2:0,2:0:0:0:
285,138,35556,2,0,L|280:207,1,69.99999523162849,8|2,2:0|2:0,2:0:0:0:
274,305,35913,1,0,3:0:0:0:
460,245,36270,2,0,B|457:304|457:304|462:312|462:312|458:394,3,139.99999046325698,8|0|8|0,2:0|3:0|2:0|2:0,2:0:0:0:
458,383,38770,5,0,3:0:0:0:
272,337,39127,2,0,P|229:316|184:363,1,104.99999284744275,8|0,3:1|2:0,2:0:0:0:
187,347,39484,2,0,B|141:380|141:380|74:347,2,104.99999284744275,8|8|8,2:1|2:1|2:1,2:0:0:0:
166,250,40198,6,0,L|172:180,1,69.99999523162849,4|8,3:2|2:1,2:0:0:0:
223,96,40556,1,8,2:1:0:0:
35,39,40913,2,0,B|31:70|31:70|42:75|42:75|47:128|47:128|40:155,2,104.99999284744275,8|8|8,2:1|2:1|2:1,2:0:0:0:
229,10,41806,1,8,2:1:0:0:
229,10,41984,1,8,2:1:0:0:
414,72,42341,2,0,B|406:44|434:13|434:13|439:21|439:21|487:23,2,104.99999284744275,8|8|8,2:1|2:1|2:1,2:0:0:0:
496,250,43234,1,8,2:1:0:0:
496,250,43413,1,8,2:1:0:0:
310,188,43770,2,0,B|322:196|322:196|356:188|397:172|397:172|404:180|404:180|439:177,2,104.99999284744275,8|8|8,2:1|2:1|2:1,2:0:0:0:
137,94,44663,1,8,2:1:0:0:
137,94,44841,1,8,2:1:0:0:
316,14,45198,1,8,2:1:0:0:
244,79,45377,1,0,3:0:0:0:
244,79,45466,1,0,3:0:0:0:
244,79,45556,2,0,L|240:162,1,69.99999523162849,8|0,2:1|3:0,2:0:0:0:
206,241,45913,6,0,P|172:244|133:256,1,69.99999523162849,4|8,3:2|2:1,2:0:0:0:
51,300,46270,1,8,2:1:0:0:
233,370,46627,2,0,B|258:374|258:374|270:351|270:351|296:347|296:347|326:378,2,104.99999284744275,8|8|8,2:1|2:1|2:1,2:0:0:0:
160,303,47341,2,0,P|117:293|78:293,1,69.99999523162849,0|8,3:0|2:1,2:0:0:0:
17,226,47698,1,8,2:1:0:0:
209,181,48056,2,0,B|194:196|241:231|212:235|212:235|214:238|214:238|203:242|203:242|207:291,2,104.99999284744275,8|8|8,2:1|2:1|2:1,2:0:0:0:
240,87,48770,2,0,P|287:83|330:68,1,69.99999523162849,0|8,3:0|2:1,2:0:0:0:
307,175,49127,1,8,2:1:0:0:
493,113,49484,2,0,B|478:62|486:26|486:26|503:40|503:40|493:46,2,104.99999284744275,8|8|8,2:1|2:1|2:1,2:0:0:0:
444,198,50198,1,0,3:0:0:0:
496,293,50377,1,0,3:0:0:0:
496,293,50466,1,0,3:0:0:0:
496,293,50556,2,0,L|501:371,2,69.99999523162849,0|0|8,3:0|3:0|2:1,2:0:0:0:
321,382,51270,1,0,2:0:0:0:
144,242,51627,6,0,P|191:222|266:256,1,120.7499917745592,4|0,3:2|2:0,2:0:0:0:
254,243,51984,1,8,2:0:0:0:
355,293,52163,1,0,2:0:0:0:
390,186,52341,2,0,L|374:88,1,80.49999451637282,0|2,3:0|2:0,2:0:0:0:
297,26,52698,2,0,L|284:105,1,80.49999451637282,8|2,2:0|2:0,2:0:0:0:
172,127,53056,6,0,B|102:134|102:134|99:139|99:139|50:147,1,120.7499917745592,0|0,3:0|2:0,2:0:0:0:
55,146,53413,2,0,B|21:122|21:122|29:67,1,80.49999451637282,8|0,2:0|2:0,2:0:0:0:
116,14,53770,1,0,3:0:0:0:
116,14,53948,1,10,2:0:0:0:
170,112,54127,2,0,L|167:196,1,80.49999451637282,8|2,2:0|2:0,2:0:0:0:
61,231,54484,6,0,P|82:257|109:388,1,160.9999890327456,0|8,3:0|2:0,2:0:0:0:
209,323,55020,1,2,2:0:0:0:
428,372,55377,1,2,2:0:0:0:
331,168,55734,1,2,2:0:0:0:
352,278,55913,6,0,L|443:267,1,80.49999451637282,0|2,3:0|2:0,2:0:0:0:
493,173,56270,2,0,L|402:162,1,80.49999451637282,8|2,2:0|2:0,2:0:0:0:
327,89,56627,1,0,3:0:0:0:
327,89,56806,1,8,2:0:0:0:
233,151,56984,2,0,P|176:165|133:133,1,80.49999451637282,8|0,2:0|2:0,2:0:0:0:
51,197,57341,6,0,L|39:46,1,120.7499917745592,4|0,3:2|2:0,2:0:0:0:
41,76,57698,1,8,2:0:0:0:
135,14,57877,1,0,2:0:0:0:
239,57,58056,2,0,P|275:76|329:66,1,80.49999451637282,0|2,3:0|2:0,2:0:0:0:
417,28,58413,2,0,P|453:9|507:19,1,80.49999451637282,8|2,2:0|2:0,2:0:0:0:
507,123,58770,6,0,L|508:251,1,120.7499917745592,0|0,3:0|2:0,2:0:0:0:
507,243,59127,2,0,P|470:227|468:260,1,80.49999451637282,8|0,2:0|2:0,2:0:0:0:
503,364,59484,1,0,3:0:0:0:
503,364,59663,1,10,2:0:0:0:
391,376,59841,2,0,P|381:330|380:292,1,80.49999451637282,8|2,2:0|2:0,2:0:0:0:
267,290,60198,6,0,P|283:233|265:106,1,160.9999890327456,0|8,3:0|2:0,2:0:0:0:
233,27,60734,1,2,2:0:0:0:
368,207,61091,1,2,2:0:0:0:
156,127,61448,1,2,2:0:0:0:
100,225,61627,6,0,P|132:237|193:229,1,80.49999451637282,0|2,3:0|2:0,2:0:0:0:
217,340,61984,2,0,P|177:336|139:349,1,80.49999451637282,8|2,2:0|2:0,2:0:0:0:
34,383,62341,1,0,3:0:0:0:
34,383,62520,1,8,2:0:0:0:
8,273,62698,2,0,L|13:173,1,80.49999451637282,8|0,2:0|2:0,2:0:0:0:
20,79,63056,5,4,3:2:0:0:
20,79,63413,1,0,2:0:0:0:
236,7,63770,5,0,2:0:0:0:
236,7,64127,1,0,2:0:0:0:
424,130,64484,5,4,3:2:0:0:
424,130,70198,5,4,3:2:0:0:
424,130,75913,5,4,3:2:0:0:
499,46,76091,1,0,2:0:0:0:
499,46,76181,1,0,2:0:0:0:
499,46,76270,2,0,P|450:28|416:39,1,69.99999523162849,8|0,2:0|2:0,2:0:0:0:
336,14,76627,2,0,L|261:12,1,69.99999523162849,0|2,3:0|2:0,2:0:0:0:
186,68,76984,1,8,2:0:0:0:
186,68,77163,1,2,2:0:0:0:
356,184,77520,5,0,2:0:0:0:
356,184,77609,1,0,2:0:0:0:
356,184,77698,2,0,L|267:191,1,69.99999523162849,8|0,2:0|2:0,2:0:0:0:
187,196,78056,2,0,P|209:237|215:279,1,69.99999523162849,0|2,3:0|2:0,2:0:0:0:
222,361,78413,1,8,2:0:0:0:
222,361,78591,1,2,2:0:0:0:
419,317,78948,5,0,2:0:0:0:
419,317,79038,1,0,2:0:0:0:
419,317,79127,2,0,B|388:334|388:334|339:314,1,69.99999523162849,8|0,2:0|2:0,2:0:0:0:
269,273,79484,2,0,P|235:261|191:262,1,69.99999523162849,0|2,3:0|2:0,2:0:0:0:
108,292,79841,2,0,L|116:380,1,69.99999523162849,8|2,2:0|2:0,2:0:0:0:
211,376,80198,2,0,L|299:383,1,69.99999523162849,0|2,3:0|2:0,2:0:0:0:
367,308,80556,2,0,L|372:237,1,69.99999523162849,8|2,2:0|2:0,2:0:0:0:
376,143,80913,1,0,3:0:0:0:
376,143,81091,1,8,2:0:0:0:
471,182,81270,1,8,2:0:0:0:
471,182,81448,1,0,2:0:0:0:
345,45,81806,5,0,2:0:0:0:
345,45,81895,1,0,2:0:0:0:
345,45,81984,2,0,P|401:47|439:42,1,69.99999523162849,8|0,2:0|2:0,2:0:0:0:
510,22,82341,2,0,P|495:80|498:107,1,69.99999523162849,0|2,3:0|2:0,2:0:0:0:
508,191,82698,1,8,2:0:0:0:
508,191,82877,1,2,2:0:0:0:
321,172,83234,5,0,2:0:0:0:
321,172,83323,1,0,2:0:0:0:
321,172,83413,2,0,L|413:165,1,69.99999523162849,8|0,2:0|2:0,2:0:0:0:
445,254,83770,1,0,3:0:0:0:
445,254,83948,1,2,2:0:0:0:
375,323,84127,2,0,P|351:290|345:249,1,69.99999523162849,8|2,2:0|2:0,2:0:0:0:
156,258,84663,5,0,2:0:0:0:
156,258,84752,1,0,2:0:0:0:
156,258,84841,2,0,B|188:255|188:255|192:259|192:259|238:254,1,69.99999523162849,8|0,2:0|2:0,2:0:0:0:
261,164,85198,2,0,L|255:87,1,69.99999523162849,0|2,3:0|2:0,2:0:0:0:
326,24,85556,2,0,L|403:19,1,69.99999523162849,8|2,2:0|2:0,2:0:0:0:
480,68,85913,1,0,3:0:0:0:
503,262,86270,2,0,P|442:263|397:273,1,104.99999284744275,8|0,2:0|2:0,2:0:0:0:
399,272,86627,2,0,P|402:219|374:160,2,104.99999284744275,8|8|8,2:1|2:1|2:1,2:0:0:0:
450,355,87341,6,0,P|401:366|370:377,1,69.99999523162849,4|8,3:2|2:1,2:0:0:0:
285,354,87698,1,8,2:1:0:0:
108,267,88056,2,0,B|81:276|81:276|74:279|79:319|79:319|43:317,2,104.99999284744275,8|8|8,2:1|2:1|2:1,2:0:0:0:
19,91,88948,1,8,2:1:0:0:
19,91,89127,1,8,2:1:0:0:
212,124,89484,2,0,B|185:130|185:130|164:96|133:80|133:80|122:80,2,104.99999284744275,8|8|8,2:1|2:1|2:1,2:0:0:0:
408,124,90377,1,8,2:1:0:0:
408,124,90556,1,8,2:1:0:0:
254,2,90913,2,0,B|283:34|283:34|301:15|307:71|307:71|287:98,2,104.99999284744275,8|8|8,2:1|2:1|2:1,2:0:0:0:
253,198,91806,1,8,2:1:0:0:
253,198,91984,1,8,2:1:0:0:
57,182,92341,1,0,2:0:0:0:
114,274,92520,1,0,3:0:0:0:
114,274,92609,1,0,3:0:0:0:
114,274,92698,2,0,P|163:273|189:280,1,69.99999523162849,8|0,2:1|3:0,2:0:0:0:
232,363,93056,6,0,L|325:371,1,69.99999523162849,4|8,3:2|2:1,2:0:0:0:
399,382,93413,1,8,2:1:0:0:
507,219,93770,2,0,B|465:228|465:257|465:257|476:265|476:265|478:308,2,104.99999284744275,8|8|8,2:1|2:1|2:1,2:0:0:0:
509,120,94484,2,0,P|505:69|509:40,1,69.99999523162849,0|8,3:0|2:1,2:0:0:0:
415,13,94841,1,8,2:1:0:0:
244,108,95198,2,0,B|232:79|256:71|256:71|236:39|236:39|246:3,2,104.99999284744275,8|8|8,2:1|2:1|2:1,2:0:0:0:
197,195,95913,2,0,P|144:181|119:179,1,69.99999523162849,0|8,3:0|2:1,2:0:0:0:
55,113,96270,1,8,2:1:0:0:
11,303,96627,2,0,B|4:254|4:254|31:259|37:232|37:232|76:221,2,104.99999284744275,8|8|8,2:1|2:1|2:1,2:0:0:0:
80,371,97341,1,0,3:0:0:0:
164,321,97520,1,0,3:0:0:0:
164,321,97609,1,0,3:0:0:0:
164,321,97698,2,0,P|166:274|175:238,1,69.99999523162849,0|0,3:0|3:0,2:0:0:0:
134,159,98056,1,8,2:1:0:0:
8,8,98413,1,0,2:0:0:0:
233,13,98770,6,0,P|221:60|288:102,1,120.7499917745592,4|0,3:2|2:0,2:0:0:0:
270,103,99127,1,8,2:0:0:0:
378,67,99306,1,0,2:0:0:0:
477,118,99484,2,0,L|467:209,1,80.49999451637282,0|2,3:0|2:0,2:0:0:0:
357,175,99841,2,0,L|369:263,1,80.49999451637282,8|2,2:0|2:0,2:0:0:0:
306,350,100198,6,0,P|384:361|460:385,1,120.7499917745592,0|0,3:0|2:0,2:0:0:0:
424,372,100556,2,0,P|438:332|465:296,1,80.49999451637282,8|0,2:0|2:0,2:0:0:0:
502,196,100913,1,0,3:0:0:0:
502,196,101091,1,10,2:0:0:0:
471,87,101270,2,0,L|383:86,1,80.49999451637282,8|2,2:0|2:0,2:0:0:0:
298,21,101627,6,0,L|286:190,1,160.9999890327456,0|8,3:0|2:0,2:0:0:0:
274,292,102163,1,2,2:0:0:0:
471,183,102520,1,2,2:0:0:0:
352,374,102877,1,2,2:0:0:0:
274,292,103056,6,0,L|186:293,1,80.49999451637282,0|2,3:0|2:0,2:0:0:0:
107,366,103413,2,0,P|45:344|13:338,1,80.49999451637282,8|2,2:0|2:0,2:0:0:0:
20,232,103770,1,0,3:0:0:0:
20,232,103948,1,8,2:0:0:0:
91,144,104127,2,0,P|128:158|167:169,1,80.49999451637282,8|0,2:0|2:0,2:0:0:0:
234,78,104484,6,0,L|115:43,1,120.7499917745592,4|0,3:2|2:0,2:0:0:0:
118,43,104841,1,8,2:0:0:0:
10,10,105020,1,0,2:0:0:0:
8,122,105198,2,0,P|45:126|92:137,1,80.49999451637282,0|2,3:0|2:0,2:0:0:0:
185,192,105556,2,0,P|222:188|269:177,1,80.49999451637282,8|2,2:0|2:0,2:0:0:0:
293,69,105913,6,0,P|343:43|418:73,1,120.7499917745592,0|0,3:0|2:0,2:0:0:0:
402,58,106270,2,0,B|444:59|444:59|465:93,1,80.49999451637282,8|0,2:0|2:0,2:0:0:0:
411,192,106627,1,0,3:0:0:0:
411,192,106806,1,10,2:0:0:0:
298,189,106984,2,0,L|295:277,1,80.49999451637282,8|2,2:0|2:0,2:0:0:0:
402,304,107341,6,0,P|381:341|245:363,1,160.9999890327456,0|8,3:0|2:0,2:0:0:0:
183,307,107877,1,2,2:0:0:0:
174,81,108234,1,2,2:0:0:0:
399,74,108591,1,2,2:0:0:0:
492,11,108770,6,0,L|486:97,1,80.49999451637282,0|2,3:0|2:0,2:0:0:0:
401,166,109127,2,0,L|406:246,1,80.49999451637282,8|2,2:0|2:0,2:0:0:0:
306,193,109484,1,0,3:0:0:0:
306,193,109663,1,8,2:0:0:0:
199,229,109841,2,0,P|141:232|97:215,1,80.49999451637282,8|0,2:0|2:0,2:0:0:0:
27,161,110198,5,0,3:0:0:0:
27,161,110556,1,0,2:0:0:0:
215,35,110913,5,0,2:0:0:0:
215,35,111270,1,0,2:0:0:0:
343,226,111627,5,0,2:0:0:0:
343,226,111984,1,0,2:0:0:0:
474,43,112341,5,4,3:2:0:0:
271,141,112698,1,4,3:2:0:0:
100,236,113056,6,0,P|142:257|197:296,1,104.99999284744275,4|0,3:2|2:0,2:0:0:0:
189,289,113413,2,0,B|225:283|225:283|233:288|233:288|280:283,1,69.99999523162849,8|2,2:0|2:0,2:0:0:0:
350,315,113770,2,0,L|366:397,2,69.99999523162849,0|2|8,3:0|2:0|2:0,2:0:0:0:
442,277,114306,1,2,2:0:0:0:
442,277,114484,6,0,P|483:257|491:157,1,139.99999046325698,0|8,3:0|2:0,2:0:0:0:
440,92,115020,1,2,2:0:0:0:
342,96,115198,2,0,P|286:134|284:202,1,139.99999046325698,0|8,3:0|2:0,2:0:0:0:
343,280,115734,1,0,2:0:0:0:
277,352,115913,6,0,B|216:357|216:357|210:364|210:364|151:368,1,104.99999284744275,0|0,3:0|2:0,2:0:0:0:
175,366,116270,2,0,P|126:363|106:324,1,69.99999523162849,8|2,2:0|2:0,2:0:0:0:
19,322,116627,2,0,B|8:288|8:288|21:255,2,69.99999523162849,0|2|8,3:0|2:0|2:0,2:0:0:0:
104,270,117163,1,2,2:0:0:0:
104,270,117341,6,0,P|168:252|252:251,1,139.99999046325698,0|8,3:0|2:0,2:0:0:0:
290,164,117877,1,2,2:0:0:0:
221,93,118056,2,0,P|157:111|131:112,1,69.99999523162849,0|8,3:0|2:0,2:0:0:0:
66,156,118413,2,0,P|28:120|47:52,1,104.99999284744275,0|0,3:0|2:0,2:0:0:0:
31,70,118770,6,0,B|46:36|46:36|118:29,1,104.99999284744275,4|0,3:2|2:0,2:0:0:0:
112,29,119127,2,0,L|187:24,1,69.99999523162849,8|2,2:0|2:0,2:0:0:0:
280,33,119484,2,0,P|312:6|355:-1,2,69.99999523162849,0|2|8,3:0|2:0|2:0,2:0:0:0:
320,122,120020,1,2,2:0:0:0:
320,122,120198,6,0,L|316:270,1,139.99999046325698,0|8,3:0|2:0,2:0:0:0:
388,328,120734,1,2,2:0:0:0:
473,279,120913,2,0,L|476:139,1,139.99999046325698,0|8,3:0|2:0,2:0:0:0:
403,74,121448,1,0,2:0:0:0:
315,119,121627,6,0,P|268:132|197:127,1,104.99999284744275,0|0,3:0|2:0,2:0:0:0:
212,130,121984,2,0,B|182:105|182:105|161:132,1,69.99999523162849,8|2,2:0|2:0,2:0:0:0:
74,87,122341,2,0,L|69:14,2,69.99999523162849,0|2|8,3:0|2:0|2:0,2:0:0:0:
16,166,122877,1,2,2:0:0:0:
16,166,123056,6,0,B|80:172|114:217|114:217|166:213,1,139.99999046325698,0|8,3:0|2:0,2:0:0:0:
231,248,123591,1,2,2:0:0:0:
282,331,123770,2,0,B|311:334|330:357|330:357|366:351,1,69.99999523162849,0|8,3:0|2:0,2:0:0:0:
440,370,124127,2,0,L|442:240,1,104.99999284744275,8|0,2:0|2:0,2:0:0:0:
441,265,124484,5,0,3:0:0:0:
467,70,124841,1,0,3:0:0:0:
467,70,125020,2,0,L|391:64,1,69.99999523162849,0|0,2:0|3:0,2:0:0:0:
299,51,125377,2,0,L|223:45,1,69.99999523162849,0|0,2:0|3:0,2:0:0:0:
131,32,125734,1,0,2:0:0:0:
43,77,125913,6,0,L|37:146,1,69.99999523162849,0|0,3:0|2:0,2:0:0:0:
25,244,126270,2,0,L|19:313,1,69.99999523162849,0|0,3:0|2:0,2:0:0:0:
99,369,126627,2,0,L|108:239,2,104.99999284744275,0|0|0,3:0|3:0|3:0,2:0:0:0:
