osu file format v14

[General]
AudioFilename: INTERNET CLUB - Unregistered HyperCam 420 (August 2012 Loops Etc.) - 07 SEVEN.mp3
AudioLeadIn: 0
PreviewTime: -1
Countdown: 0
SampleSet: Soft
StackLeniency: 0.7
Mode: 3
LetterboxInBreaks: 0
SpecialStyle: 0
WidescreenStoryboard: 0

[Editor]
DistanceSpacing: 0.8
BeatDivisor: 2
GridSize: 32
TimelineZoom: 1

[Metadata]
Title:SEVEN
TitleUnicode:SEVEN
Artist:INTERNET CLUB
ArtistUnicode:INTERNET CLUB
Creator:Xay
Version:||||||||||
Source:
Tags:vaporwave
BeatmapID:1240545
BeatmapSetID:585669

[Difficulty]
HPDrainRate:7
CircleSize:4
OverallDifficulty:8
ApproachRate:5
SliderMultiplier:1.4
SliderTickRate:1

[Events]
//Background and Video events
0,0,"seven.jpg",0,0
//Break Periods
//Storyboard Layer 0 (Background)
//Storyboard Layer 1 (Fail)
//Storyboard Layer 2 (Pass)
//Storyboard Layer 3 (Foreground)
//Storyboard Sound Samples

[TimingPoints]
160,631.911532385466,4,2,0,15,1,0

[HitObjects]
320,192,1423,5,0,0:0:0:0:
448,192,1423,128,0,1581:0:0:0:0:
64,192,1950,1,0,0:0:0:0:
192,192,1950,1,0,0:0:0:0:
320,192,2055,1,0,0:0:0:0:
448,192,2055,128,0,2213:0:0:0:0:
64,192,2371,1,0,0:0:0:0:
192,192,2371,1,0,0:0:0:0:
320,192,2687,1,0,0:0:0:0:
448,192,2687,128,0,2845:0:0:0:0:
64,192,3003,1,0,0:0:0:0:
192,192,3003,1,0,0:0:0:0:
320,192,3319,1,0,0:0:0:0:
448,192,3319,128,0,3477:0:0:0:0:
320,192,3951,1,0,0:0:0:0:
448,192,3951,128,0,4109:0:0:0:0:
320,192,4478,1,0,0:0:0:0:
448,192,4478,1,0,0:0:0:0:
64,192,4583,1,0,0:0:0:0:
192,192,4583,1,0,0:0:0:0:
320,192,4636,1,0,0:0:0:0:
448,192,4688,1,0,0:0:0:0:
192,192,4741,1,0,0:0:0:0:
320,192,4794,1,0,0:0:0:0:
448,192,4846,1,0,0:0:0:0:
64,192,4899,1,0,0:0:0:0:
192,192,4951,1,0,0:0:0:0:
320,192,5004,1,0,0:0:0:0:
448,192,5057,1,0,0:0:0:0:
320,192,5109,1,0,0:0:0:0:
192,192,5162,1,0,0:0:0:0:
64,192,5215,1,0,0:0:0:0:
448,192,5267,1,0,0:0:0:0:
192,192,5320,1,0,0:0:0:0:
448,192,5373,1,0,0:0:0:0:
64,192,5425,1,0,0:0:0:0:
320,192,5478,1,0,0:0:0:0:
192,192,5531,1,0,0:0:0:0:
320,192,5583,1,0,0:0:0:0:
64,192,5636,1,0,0:0:0:0:
448,192,5689,1,0,0:0:0:0:
192,192,5741,1,0,0:0:0:0:
320,192,5794,1,0,0:0:0:0:
64,192,5847,1,0,0:0:0:0:
448,192,5847,1,0,0:0:0:0:
320,192,5899,1,0,0:0:0:0:
192,192,5952,1,0,0:0:0:0:
64,192,6005,1,0,0:0:0:0:
448,192,6057,1,0,0:0:0:0:
192,192,6110,1,0,0:0:0:0:
448,192,6163,1,0,0:0:0:0:
64,192,6215,1,0,0:0:0:0:
320,192,6268,1,0,0:0:0:0:
192,192,6321,1,0,0:0:0:0:
448,192,6373,1,0,0:0:0:0:
320,192,6426,1,0,0:0:0:0:
192,192,6479,1,0,0:0:0:0:
64,192,6531,1,0,0:0:0:0:
320,192,6584,1,0,0:0:0:0:
192,192,6637,1,0,0:0:0:0:
448,192,6689,1,0,0:0:0:0:
320,192,6742,1,0,0:0:0:0:
448,192,6795,1,0,0:0:0:0:
64,192,6847,1,0,0:0:0:0:
192,192,6900,1,0,0:0:0:0:
320,192,6953,1,0,0:0:0:0:
192,192,7005,1,0,0:0:0:0:
320,192,7058,1,0,0:0:0:0:
64,192,7111,1,0,0:0:0:0:
448,192,7111,1,0,0:0:0:0:
192,192,7163,1,0,0:0:0:0:
320,192,7216,1,0,0:0:0:0:
64,192,7269,1,0,0:0:0:0:
192,192,7321,1,0,0:0:0:0:
448,192,7374,1,0,0:0:0:0:
320,192,7426,1,0,0:0:0:0:
448,192,7479,1,0,0:0:0:0:
320,192,7532,1,0,0:0:0:0:
192,192,7584,1,0,0:0:0:0:
64,192,7637,1,0,0:0:0:0:
192,192,7690,1,0,0:0:0:0:
320,192,7742,1,0,0:0:0:0:
448,192,7795,1,0,0:0:0:0:
320,192,7848,1,0,0:0:0:0:
192,192,7900,1,0,0:0:0:0:
64,192,7953,1,0,0:0:0:0:
320,192,8006,1,0,0:0:0:0:
192,192,8058,1,0,0:0:0:0:
448,192,8111,1,0,0:0:0:0:
320,192,8164,1,0,0:0:0:0:
448,192,8216,1,0,0:0:0:0:
64,192,8269,1,0,0:0:0:0:
192,192,8322,1,0,0:0:0:0:
320,192,8374,1,0,0:0:0:0:
448,192,8374,1,0,0:0:0:0:
192,192,8427,1,0,0:0:0:0:
64,192,8480,1,0,0:0:0:0:
448,192,8532,1,0,0:0:0:0:
320,192,8585,1,0,0:0:0:0:
192,192,8638,1,0,0:0:0:0:
64,192,8690,1,0,0:0:0:0:
448,192,8743,1,0,0:0:0:0:
192,192,8796,1,0,0:0:0:0:
320,192,8848,1,0,0:0:0:0:
64,192,8901,1,0,0:0:0:0:
448,192,8954,1,0,0:0:0:0:
320,192,9006,1,0,0:0:0:0:
192,192,9059,1,0,0:0:0:0:
448,192,9112,1,0,0:0:0:0:
320,192,9164,1,0,0:0:0:0:
192,192,9217,1,0,0:0:0:0:
448,192,9270,1,0,0:0:0:0:
320,192,9322,1,0,0:0:0:0:
64,192,9375,1,0,0:0:0:0:
448,192,9428,1,0,0:0:0:0:
320,192,9480,1,0,0:0:0:0:
64,192,9533,1,0,0:0:0:0:
192,192,9586,1,0,0:0:0:0:
320,192,9638,1,0,0:0:0:0:
448,192,9638,1,0,0:0:0:0:
64,192,9691,1,0,0:0:0:0:
192,192,9743,1,0,0:0:0:0:
320,192,9796,1,0,0:0:0:0:
448,192,9849,1,0,0:0:0:0:
64,192,9901,1,0,0:0:0:0:
320,192,9954,1,0,0:0:0:0:
448,192,10007,1,0,0:0:0:0:
64,192,10059,1,0,0:0:0:0:
320,192,10112,1,0,0:0:0:0:
448,192,10165,1,0,0:0:0:0:
192,192,10217,1,0,0:0:0:0:
320,192,10270,1,0,0:0:0:0:
448,192,10323,1,0,0:0:0:0:
64,192,10375,1,0,0:0:0:0:
192,192,10428,1,0,0:0:0:0:
320,192,10481,1,0,0:0:0:0:
448,192,10533,1,0,0:0:0:0:
320,192,10586,1,0,0:0:0:0:
192,192,10639,1,0,0:0:0:0:
64,192,10691,1,0,0:0:0:0:
448,192,10744,1,0,0:0:0:0:
320,192,10797,1,0,0:0:0:0:
192,192,10849,1,0,0:0:0:0:
64,192,10902,1,0,0:0:0:0:
448,192,10902,1,0,0:0:0:0:
320,192,10955,1,0,0:0:0:0:
192,192,11007,1,0,0:0:0:0:
448,192,11060,1,0,0:0:0:0:
320,192,11113,1,0,0:0:0:0:
64,192,11165,1,0,0:0:0:0:
192,192,11218,1,0,0:0:0:0:
448,192,11271,1,0,0:0:0:0:
320,192,11323,1,0,0:0:0:0:
64,192,11376,1,0,0:0:0:0:
192,192,11429,1,0,0:0:0:0:
448,192,11481,1,0,0:0:0:0:
64,192,11534,1,0,0:0:0:0:
448,192,11587,1,0,0:0:0:0:
320,192,11639,1,0,0:0:0:0:
192,192,11692,1,0,0:0:0:0:
64,192,11745,1,0,0:0:0:0:
192,192,11797,1,0,0:0:0:0:
320,192,11850,1,0,0:0:0:0:
192,192,11903,1,0,0:0:0:0:
448,192,11955,1,0,0:0:0:0:
320,192,12008,1,0,0:0:0:0:
64,192,12061,1,0,0:0:0:0:
192,192,12113,1,0,0:0:0:0:
320,192,12166,1,0,0:0:0:0:
448,192,12166,1,0,0:0:0:0:
64,192,12218,1,0,0:0:0:0:
320,192,12271,1,0,0:0:0:0:
192,192,12324,1,0,0:0:0:0:
448,192,12376,1,0,0:0:0:0:
320,192,12429,1,0,0:0:0:0:
192,192,12482,1,0,0:0:0:0:
64,192,12534,1,0,0:0:0:0:
320,192,12587,1,0,0:0:0:0:
64,192,12640,1,0,0:0:0:0:
192,192,12692,1,0,0:0:0:0:
320,192,12745,1,0,0:0:0:0:
448,192,12798,1,0,0:0:0:0:
64,192,12850,1,0,0:0:0:0:
192,192,12903,1,0,0:0:0:0:
320,192,12956,1,0,0:0:0:0:
448,192,13008,1,0,0:0:0:0:
320,192,13061,1,0,0:0:0:0:
192,192,13114,1,0,0:0:0:0:
64,192,13166,1,0,0:0:0:0:
192,192,13219,1,0,0:0:0:0:
448,192,13272,1,0,0:0:0:0:
192,192,13324,1,0,0:0:0:0:
320,192,13377,1,0,0:0:0:0:
64,192,13430,1,0,0:0:0:0:
448,192,13430,1,0,0:0:0:0:
320,192,13482,1,0,0:0:0:0:
192,192,13535,1,0,0:0:0:0:
320,192,13588,1,0,0:0:0:0:
64,192,13640,1,0,0:0:0:0:
448,192,13693,1,0,0:0:0:0:
320,192,13746,1,0,0:0:0:0:
448,192,13798,1,0,0:0:0:0:
192,192,13851,1,0,0:0:0:0:
320,192,13904,1,0,0:0:0:0:
64,192,13956,1,0,0:0:0:0:
192,192,14009,1,0,0:0:0:0:
320,192,14062,1,0,0:0:0:0:
448,192,14114,1,0,0:0:0:0:
192,192,14167,1,0,0:0:0:0:
320,192,14220,1,0,0:0:0:0:
64,192,14272,1,0,0:0:0:0:
448,192,14325,1,0,0:0:0:0:
320,192,14378,1,0,0:0:0:0:
192,192,14430,1,0,0:0:0:0:
64,192,14483,1,0,0:0:0:0:
448,192,14535,1,0,0:0:0:0:
320,192,14588,1,0,0:0:0:0:
192,192,14641,1,0,0:0:0:0:
64,192,14693,1,0,0:0:0:0:
448,192,14693,1,0,0:0:0:0:
320,192,14746,1,0,0:0:0:0:
192,192,14799,1,0,0:0:0:0:
448,192,14851,1,0,0:0:0:0:
320,192,14904,1,0,0:0:0:0:
448,192,14957,1,0,0:0:0:0:
192,192,15009,1,0,0:0:0:0:
320,192,15062,1,0,0:0:0:0:
192,192,15115,1,0,0:0:0:0:
64,192,15167,1,0,0:0:0:0:
448,192,15220,1,0,0:0:0:0:
320,192,15273,1,0,0:0:0:0:
192,192,15325,1,0,0:0:0:0:
64,192,15378,1,0,0:0:0:0:
448,192,15431,1,0,0:0:0:0:
320,192,15483,1,0,0:0:0:0:
192,192,15536,1,0,0:0:0:0:
64,192,15589,1,0,0:0:0:0:
192,192,15641,1,0,0:0:0:0:
320,192,15694,1,0,0:0:0:0:
448,192,15747,1,0,0:0:0:0:
320,192,15799,1,0,0:0:0:0:
64,192,15852,1,0,0:0:0:0:
192,192,15905,1,0,0:0:0:0:
320,192,15957,1,0,0:0:0:0:
448,192,15957,1,0,0:0:0:0:
64,192,16010,1,0,0:0:0:0:
192,192,16063,1,0,0:0:0:0:
320,192,16115,1,0,0:0:0:0:
192,192,16168,1,0,0:0:0:0:
64,192,16221,1,0,0:0:0:0:
448,192,16273,1,0,0:0:0:0:
320,192,16326,1,0,0:0:0:0:
192,192,16379,1,0,0:0:0:0:
448,192,16431,1,0,0:0:0:0:
320,192,16484,1,0,0:0:0:0:
192,192,16537,1,0,0:0:0:0:
64,192,16589,1,0,0:0:0:0:
320,192,16642,1,0,0:0:0:0:
448,192,16695,1,0,0:0:0:0:
64,192,16747,1,0,0:0:0:0:
192,192,16800,1,0,0:0:0:0:
448,192,16852,1,0,0:0:0:0:
320,192,16905,1,0,0:0:0:0:
192,192,16958,1,0,0:0:0:0:
448,192,17010,1,0,0:0:0:0:
320,192,17063,1,0,0:0:0:0:
192,192,17116,1,0,0:0:0:0:
320,192,17168,1,0,0:0:0:0:
64,192,17221,1,0,0:0:0:0:
448,192,17221,1,0,0:0:0:0:
192,192,17274,1,0,0:0:0:0:
320,192,17326,1,0,0:0:0:0:
64,192,17379,1,0,0:0:0:0:
192,192,17432,1,0,0:0:0:0:
320,192,17484,1,0,0:0:0:0:
448,192,17537,1,0,0:0:0:0:
64,192,17590,1,0,0:0:0:0:
192,192,17642,1,0,0:0:0:0:
320,192,17695,1,0,0:0:0:0:
448,192,17748,1,0,0:0:0:0:
320,192,17800,1,0,0:0:0:0:
192,192,17853,1,0,0:0:0:0:
448,192,17906,1,0,0:0:0:0:
320,192,17958,1,0,0:0:0:0:
192,192,18011,1,0,0:0:0:0:
64,192,18064,1,0,0:0:0:0:
448,192,18116,1,0,0:0:0:0:
320,192,18169,1,0,0:0:0:0:
192,192,18222,1,0,0:0:0:0:
64,192,18274,1,0,0:0:0:0:
448,192,18327,1,0,0:0:0:0:
320,192,18380,1,0,0:0:0:0:
192,192,18432,1,0,0:0:0:0:
320,192,18485,1,0,0:0:0:0:
448,192,18485,1,0,0:0:0:0:
64,192,18538,1,0,0:0:0:0:
448,192,18590,1,0,0:0:0:0:
192,192,18643,1,0,0:0:0:0:
320,192,18696,1,0,0:0:0:0:
192,192,18748,1,0,0:0:0:0:
64,192,18801,1,0,0:0:0:0:
320,192,18854,1,0,0:0:0:0:
192,192,18906,1,0,0:0:0:0:
448,192,18959,1,0,0:0:0:0:
320,192,19012,1,0,0:0:0:0:
192,192,19064,1,0,0:0:0:0:
64,192,19117,1,0,0:0:0:0:
448,192,19117,1,0,0:0:0:0:
192,192,19433,1,0,0:0:0:0:
448,192,19433,1,0,0:0:0:0:
64,192,20065,128,0,20223:0:0:0:0:
192,192,20065,1,0,0:0:0:0:
320,192,20591,1,0,0:0:0:0:
448,192,20591,1,0,0:0:0:0:
64,192,20697,128,0,20855:0:0:0:0:
192,192,20697,1,0,0:0:0:0:
320,192,21013,1,0,0:0:0:0:
448,192,21013,1,0,0:0:0:0:
64,192,21329,128,0,21487:0:0:0:0:
192,192,21329,1,0,0:0:0:0:
320,192,21644,1,0,0:0:0:0:
448,192,21644,1,0,0:0:0:0:
64,192,21960,128,0,22118:0:0:0:0:
192,192,21960,1,0,0:0:0:0:
64,192,22592,128,0,22750:0:0:0:0:
192,192,22592,1,0,0:0:0:0:
64,192,23119,1,0,0:0:0:0:
192,192,23119,1,0,0:0:0:0:
320,192,23224,1,0,0:0:0:0:
448,192,23224,1,0,0:0:0:0:
192,192,23277,1,0,0:0:0:0:
64,192,23330,1,0,0:0:0:0:
320,192,23382,1,0,0:0:0:0:
192,192,23435,1,0,0:0:0:0:
64,192,23488,1,0,0:0:0:0:
448,192,23540,1,0,0:0:0:0:
320,192,23593,1,0,0:0:0:0:
192,192,23646,1,0,0:0:0:0:
64,192,23698,1,0,0:0:0:0:
192,192,23751,1,0,0:0:0:0:
320,192,23804,1,0,0:0:0:0:
448,192,23856,1,0,0:0:0:0:
64,192,23909,1,0,0:0:0:0:
320,192,23962,1,0,0:0:0:0:
64,192,24014,1,0,0:0:0:0:
448,192,24067,1,0,0:0:0:0:
192,192,24119,1,0,0:0:0:0:
320,192,24172,1,0,0:0:0:0:
192,192,24225,1,0,0:0:0:0:
64,192,24277,1,0,0:0:0:0:
448,192,24330,1,0,0:0:0:0:
320,192,24383,1,0,0:0:0:0:
192,192,24435,1,0,0:0:0:0:
64,192,24488,1,0,0:0:0:0:
448,192,24488,1,0,0:0:0:0:
192,192,24541,1,0,0:0:0:0:
320,192,24593,1,0,0:0:0:0:
448,192,24646,1,0,0:0:0:0:
320,192,24699,1,0,0:0:0:0:
64,192,24751,1,0,0:0:0:0:
192,192,24804,1,0,0:0:0:0:
448,192,24857,1,0,0:0:0:0:
320,192,24909,1,0,0:0:0:0:
192,192,24962,1,0,0:0:0:0:
64,192,25015,1,0,0:0:0:0:
448,192,25067,1,0,0:0:0:0:
320,192,25120,1,0,0:0:0:0:
192,192,25173,1,0,0:0:0:0:
448,192,25225,1,0,0:0:0:0:
320,192,25278,1,0,0:0:0:0:
64,192,25331,1,0,0:0:0:0:
192,192,25383,1,0,0:0:0:0:
64,192,25436,1,0,0:0:0:0:
448,192,25489,1,0,0:0:0:0:
320,192,25541,1,0,0:0:0:0:
192,192,25594,1,0,0:0:0:0:
320,192,25647,1,0,0:0:0:0:
64,192,25699,1,0,0:0:0:0:
320,192,25752,1,0,0:0:0:0:
448,192,25752,1,0,0:0:0:0:
192,192,25805,1,0,0:0:0:0:
64,192,25857,1,0,0:0:0:0:
448,192,25910,1,0,0:0:0:0:
320,192,25963,1,0,0:0:0:0:
192,192,26015,1,0,0:0:0:0:
64,192,26068,1,0,0:0:0:0:
192,192,26121,1,0,0:0:0:0:
64,192,26173,1,0,0:0:0:0:
320,192,26226,1,0,0:0:0:0:
448,192,26279,1,0,0:0:0:0:
320,192,26331,1,0,0:0:0:0:
192,192,26384,1,0,0:0:0:0:
64,192,26436,1,0,0:0:0:0:
192,192,26489,1,0,0:0:0:0:
320,192,26542,1,0,0:0:0:0:
448,192,26594,1,0,0:0:0:0:
192,192,26647,1,0,0:0:0:0:
320,192,26700,1,0,0:0:0:0:
64,192,26752,1,0,0:0:0:0:
192,192,26805,1,0,0:0:0:0:
64,192,26858,1,0,0:0:0:0:
448,192,26910,1,0,0:0:0:0:
320,192,26963,1,0,0:0:0:0:
192,192,27016,1,0,0:0:0:0:
448,192,27016,1,0,0:0:0:0:
320,192,27068,1,0,0:0:0:0:
64,192,27121,1,0,0:0:0:0:
192,192,27174,1,0,0:0:0:0:
320,192,27226,1,0,0:0:0:0:
448,192,27279,1,0,0:0:0:0:
320,192,27332,1,0,0:0:0:0:
64,192,27384,1,0,0:0:0:0:
192,192,27437,1,0,0:0:0:0:
320,192,27490,1,0,0:0:0:0:
448,192,27542,1,0,0:0:0:0:
192,192,27595,1,0,0:0:0:0:
320,192,27648,1,0,0:0:0:0:
448,192,27700,1,0,0:0:0:0:
64,192,27753,1,0,0:0:0:0:
192,192,27806,1,0,0:0:0:0:
320,192,27858,1,0,0:0:0:0:
64,192,27911,1,0,0:0:0:0:
192,192,27964,1,0,0:0:0:0:
448,192,28016,1,0,0:0:0:0:
64,192,28069,1,0,0:0:0:0:
192,192,28122,1,0,0:0:0:0:
320,192,28174,1,0,0:0:0:0:
192,192,28227,1,0,0:0:0:0:
64,192,28280,1,0,0:0:0:0:
448,192,28280,1,0,0:0:0:0:
320,192,28332,1,0,0:0:0:0:
192,192,28385,1,0,0:0:0:0:
448,192,28438,1,0,0:0:0:0:
320,192,28490,1,0,0:0:0:0:
192,192,28543,1,0,0:0:0:0:
64,192,28596,1,0,0:0:0:0:
448,192,28648,1,0,0:0:0:0:
320,192,28701,1,0,0:0:0:0:
64,192,28753,1,0,0:0:0:0:
192,192,28806,1,0,0:0:0:0:
320,192,28859,1,0,0:0:0:0:
192,192,28911,1,0,0:0:0:0:
448,192,28964,1,0,0:0:0:0:
320,192,29017,1,0,0:0:0:0:
64,192,29069,1,0,0:0:0:0:
192,192,29122,1,0,0:0:0:0:
320,192,29175,1,0,0:0:0:0:
192,192,29227,1,0,0:0:0:0:
320,192,29280,1,0,0:0:0:0:
448,192,29333,1,0,0:0:0:0:
64,192,29385,1,0,0:0:0:0:
192,192,29438,1,0,0:0:0:0:
320,192,29491,1,0,0:0:0:0:
64,192,29543,1,0,0:0:0:0:
448,192,29543,1,0,0:0:0:0:
192,192,29596,1,0,0:0:0:0:
320,192,29649,1,0,0:0:0:0:
64,192,29701,1,0,0:0:0:0:
192,192,29754,1,0,0:0:0:0:
448,192,29807,1,0,0:0:0:0:
320,192,29859,1,0,0:0:0:0:
64,192,29912,1,0,0:0:0:0:
192,192,29965,1,0,0:0:0:0:
448,192,30017,1,0,0:0:0:0:
320,192,30070,1,0,0:0:0:0:
64,192,30123,1,0,0:0:0:0:
448,192,30175,1,0,0:0:0:0:
64,192,30228,1,0,0:0:0:0:
192,192,30281,1,0,0:0:0:0:
320,192,30333,1,0,0:0:0:0:
448,192,30386,1,0,0:0:0:0:
320,192,30439,1,0,0:0:0:0:
192,192,30491,1,0,0:0:0:0:
320,192,30544,1,0,0:0:0:0:
64,192,30597,1,0,0:0:0:0:
448,192,30649,1,0,0:0:0:0:
320,192,30702,1,0,0:0:0:0:
192,192,30755,1,0,0:0:0:0:
64,192,30807,1,0,0:0:0:0:
448,192,30807,1,0,0:0:0:0:
192,192,30860,1,0,0:0:0:0:
320,192,30913,1,0,0:0:0:0:
448,192,30965,1,0,0:0:0:0:
64,192,31018,1,0,0:0:0:0:
192,192,31071,1,0,0:0:0:0:
64,192,31123,1,0,0:0:0:0:
448,192,31176,1,0,0:0:0:0:
192,192,31228,1,0,0:0:0:0:
448,192,31281,1,0,0:0:0:0:
320,192,31334,1,0,0:0:0:0:
192,192,31386,1,0,0:0:0:0:
64,192,31439,1,0,0:0:0:0:
448,192,31492,1,0,0:0:0:0:
320,192,31544,1,0,0:0:0:0:
192,192,31597,1,0,0:0:0:0:
64,192,31650,1,0,0:0:0:0:
192,192,31702,1,0,0:0:0:0:
320,192,31755,1,0,0:0:0:0:
448,192,31808,1,0,0:0:0:0:
320,192,31860,1,0,0:0:0:0:
64,192,31913,1,0,0:0:0:0:
320,192,31966,1,0,0:0:0:0:
192,192,32018,1,0,0:0:0:0:
64,192,32071,1,0,0:0:0:0:
320,192,32071,1,0,0:0:0:0:
448,192,32124,1,0,0:0:0:0:
192,192,32176,1,0,0:0:0:0:
320,192,32229,1,0,0:0:0:0:
448,192,32282,1,0,0:0:0:0:
320,192,32334,1,0,0:0:0:0:
192,192,32387,1,0,0:0:0:0:
64,192,32440,1,0,0:0:0:0:
192,192,32492,1,0,0:0:0:0:
320,192,32545,1,0,0:0:0:0:
448,192,32598,1,0,0:0:0:0:
320,192,32650,1,0,0:0:0:0:
192,192,32703,1,0,0:0:0:0:
64,192,32756,1,0,0:0:0:0:
320,192,32808,1,0,0:0:0:0:
192,192,32861,1,0,0:0:0:0:
448,192,32914,1,0,0:0:0:0:
64,192,32966,1,0,0:0:0:0:
192,192,33019,1,0,0:0:0:0:
320,192,33072,1,0,0:0:0:0:
448,192,33124,1,0,0:0:0:0:
64,192,33177,1,0,0:0:0:0:
192,192,33230,1,0,0:0:0:0:
320,192,33282,1,0,0:0:0:0:
64,192,33335,1,0,0:0:0:0:
448,192,33335,1,0,0:0:0:0:
192,192,33388,1,0,0:0:0:0:
320,192,33440,1,0,0:0:0:0:
64,192,33493,1,0,0:0:0:0:
192,192,33545,1,0,0:0:0:0:
64,192,33598,1,0,0:0:0:0:
320,192,33651,1,0,0:0:0:0:
192,192,33703,1,0,0:0:0:0:
320,192,33756,1,0,0:0:0:0:
448,192,33809,1,0,0:0:0:0:
64,192,33861,1,0,0:0:0:0:
192,192,33914,1,0,0:0:0:0:
320,192,33967,1,0,0:0:0:0:
448,192,34019,1,0,0:0:0:0:
192,192,34072,1,0,0:0:0:0:
320,192,34125,1,0,0:0:0:0:
64,192,34177,1,0,0:0:0:0:
448,192,34230,1,0,0:0:0:0:
320,192,34283,1,0,0:0:0:0:
64,192,34335,1,0,0:0:0:0:
192,192,34388,1,0,0:0:0:0:
320,192,34441,1,0,0:0:0:0:
64,192,34493,1,0,0:0:0:0:
448,192,34546,1,0,0:0:0:0:
192,192,34599,1,0,0:0:0:0:
320,192,34599,1,0,0:0:0:0:
64,192,34651,1,0,0:0:0:0:
448,192,34704,1,0,0:0:0:0:
320,192,34757,1,0,0:0:0:0:
192,192,34809,1,0,0:0:0:0:
64,192,34862,1,0,0:0:0:0:
320,192,34915,1,0,0:0:0:0:
192,192,34967,1,0,0:0:0:0:
448,192,35020,1,0,0:0:0:0:
64,192,35073,1,0,0:0:0:0:
192,192,35125,1,0,0:0:0:0:
320,192,35178,1,0,0:0:0:0:
448,192,35231,1,0,0:0:0:0:
192,192,35283,1,0,0:0:0:0:
64,192,35336,1,0,0:0:0:0:
448,192,35389,1,0,0:0:0:0:
320,192,35441,1,0,0:0:0:0:
64,192,35494,1,0,0:0:0:0:
320,192,35547,1,0,0:0:0:0:
192,192,35599,1,0,0:0:0:0:
64,192,35652,1,0,0:0:0:0:
448,192,35705,1,0,0:0:0:0:
320,192,35757,1,0,0:0:0:0:
192,192,35810,1,0,0:0:0:0:
64,192,35863,1,0,0:0:0:0:
448,192,35863,1,0,0:0:0:0:
192,192,35915,1,0,0:0:0:0:
320,192,35968,1,0,0:0:0:0:
448,192,36020,1,0,0:0:0:0:
320,192,36073,1,0,0:0:0:0:
192,192,36126,1,0,0:0:0:0:
64,192,36178,1,0,0:0:0:0:
320,192,36231,1,0,0:0:0:0:
448,192,36284,1,0,0:0:0:0:
320,192,36336,1,0,0:0:0:0:
192,192,36389,1,0,0:0:0:0:
64,192,36442,1,0,0:0:0:0:
320,192,36494,1,0,0:0:0:0:
448,192,36547,1,0,0:0:0:0:
64,192,36600,1,0,0:0:0:0:
192,192,36652,1,0,0:0:0:0:
448,192,36705,1,0,0:0:0:0:
64,192,36758,1,0,0:0:0:0:
192,192,36810,1,0,0:0:0:0:
320,192,36863,1,0,0:0:0:0:
448,192,36916,1,0,0:0:0:0:
64,192,36968,1,0,0:0:0:0:
192,192,37021,1,0,0:0:0:0:
320,192,37074,1,0,0:0:0:0:
64,192,37126,1,0,0:0:0:0:
192,192,37126,1,0,0:0:0:0:
448,192,37179,1,0,0:0:0:0:
320,192,37232,1,0,0:0:0:0:
192,192,37284,1,0,0:0:0:0:
320,192,37337,1,0,0:0:0:0:
64,192,37390,1,0,0:0:0:0:
448,192,37442,1,0,0:0:0:0:
192,192,37495,1,0,0:0:0:0:
320,192,37548,1,0,0:0:0:0:
448,192,37600,1,0,0:0:0:0:
320,192,37653,1,0,0:0:0:0:
192,192,37706,1,0,0:0:0:0:
64,192,37758,1,0,0:0:0:0:
448,192,37758,1,0,0:0:0:0:
64,192,38074,1,0,0:0:0:0:
320,192,38074,1,0,0:0:0:0:
192,192,38706,128,0,38864:0:0:0:0:
448,192,38706,1,0,0:0:0:0:
64,192,39233,1,0,0:0:0:0:
320,192,39233,1,0,0:0:0:0:
192,192,39338,128,0,39496:0:0:0:0:
448,192,39338,1,0,0:0:0:0:
64,192,39654,1,0,0:0:0:0:
320,192,39654,1,0,0:0:0:0:
192,192,39970,128,0,40128:0:0:0:0:
448,192,39970,1,0,0:0:0:0:
64,192,40286,1,0,0:0:0:0:
320,192,40286,1,0,0:0:0:0:
192,192,40602,128,0,40760:0:0:0:0:
448,192,40602,1,0,0:0:0:0:
192,192,41234,128,0,41392:0:0:0:0:
448,192,41234,1,0,0:0:0:0:
192,192,41760,1,0,0:0:0:0:
448,192,41760,1,0,0:0:0:0:
64,192,41866,1,0,0:0:0:0:
320,192,41866,1,0,0:0:0:0:
448,192,41918,1,0,0:0:0:0:
192,192,41971,1,0,0:0:0:0:
64,192,42024,1,0,0:0:0:0:
448,192,42076,1,0,0:0:0:0:
320,192,42129,1,0,0:0:0:0:
192,192,42182,1,0,0:0:0:0:
64,192,42234,1,0,0:0:0:0:
448,192,42287,1,0,0:0:0:0:
192,192,42340,1,0,0:0:0:0:
448,192,42392,1,0,0:0:0:0:
64,192,42445,1,0,0:0:0:0:
320,192,42498,1,0,0:0:0:0:
192,192,42550,1,0,0:0:0:0:
64,192,42603,1,0,0:0:0:0:
320,192,42656,1,0,0:0:0:0:
192,192,42708,1,0,0:0:0:0:
448,192,42761,1,0,0:0:0:0:
64,192,42814,1,0,0:0:0:0:
448,192,42866,1,0,0:0:0:0:
320,192,42919,1,0,0:0:0:0:
192,192,42972,1,0,0:0:0:0:
64,192,43024,1,0,0:0:0:0:
448,192,43077,1,0,0:0:0:0:
192,192,43129,1,0,0:0:0:0:
320,192,43129,1,0,0:0:0:0:
64,192,43182,1,0,0:0:0:0:
448,192,43235,1,0,0:0:0:0:
192,192,43287,1,0,0:0:0:0:
320,192,43340,1,0,0:0:0:0:
192,192,43393,1,0,0:0:0:0:
64,192,43445,1,0,0:0:0:0:
320,192,43498,1,0,0:0:0:0:
448,192,43551,1,0,0:0:0:0:
64,192,43603,1,0,0:0:0:0:
192,192,43656,1,0,0:0:0:0:
448,192,43709,1,0,0:0:0:0:
192,192,43761,1,0,0:0:0:0:
320,192,43814,1,0,0:0:0:0:
448,192,43867,1,0,0:0:0:0:
192,192,43919,1,0,0:0:0:0:
64,192,43972,1,0,0:0:0:0:
192,192,44025,1,0,0:0:0:0:
320,192,44077,1,0,0:0:0:0:
448,192,44130,1,0,0:0:0:0:
192,192,44183,1,0,0:0:0:0:
64,192,44235,1,0,0:0:0:0:
192,192,44288,1,0,0:0:0:0:
320,192,44341,1,0,0:0:0:0:
64,192,44393,1,0,0:0:0:0:
448,192,44393,1,0,0:0:0:0:
192,192,44446,1,0,0:0:0:0:
320,192,44499,1,0,0:0:0:0:
448,192,44551,1,0,0:0:0:0:
64,192,44604,1,0,0:0:0:0:
192,192,44657,1,0,0:0:0:0:
320,192,44709,1,0,0:0:0:0:
64,192,44762,1,0,0:0:0:0:
448,192,44815,1,0,0:0:0:0:
320,192,44867,1,0,0:0:0:0:
192,192,44920,1,0,0:0:0:0:
64,192,44973,1,0,0:0:0:0:
192,192,45025,1,0,0:0:0:0:
320,192,45078,1,0,0:0:0:0:
448,192,45131,1,0,0:0:0:0:
64,192,45183,1,0,0:0:0:0:
192,192,45236,1,0,0:0:0:0:
320,192,45289,1,0,0:0:0:0:
64,192,45341,1,0,0:0:0:0:
192,192,45394,1,0,0:0:0:0:
320,192,45446,1,0,0:0:0:0:
192,192,45499,1,0,0:0:0:0:
320,192,45552,1,0,0:0:0:0:
64,192,45604,1,0,0:0:0:0:
192,192,45657,1,0,0:0:0:0:
448,192,45657,1,0,0:0:0:0:
64,192,45710,1,0,0:0:0:0:
320,192,45762,1,0,0:0:0:0:
192,192,45815,1,0,0:0:0:0:
448,192,45868,1,0,0:0:0:0:
64,192,45920,1,0,0:0:0:0:
320,192,45973,1,0,0:0:0:0:
192,192,46026,1,0,0:0:0:0:
64,192,46078,1,0,0:0:0:0:
448,192,46131,1,0,0:0:0:0:
320,192,46184,1,0,0:0:0:0:
192,192,46236,1,0,0:0:0:0:
448,192,46289,1,0,0:0:0:0:
320,192,46342,1,0,0:0:0:0:
192,192,46394,1,0,0:0:0:0:
448,192,46447,1,0,0:0:0:0:
64,192,46500,1,0,0:0:0:0:
192,192,46552,1,0,0:0:0:0:
448,192,46605,1,0,0:0:0:0:
320,192,46658,1,0,0:0:0:0:
192,192,46710,1,0,0:0:0:0:
448,192,46763,1,0,0:0:0:0:
320,192,46816,1,0,0:0:0:0:
64,192,46868,1,0,0:0:0:0:
192,192,46921,1,0,0:0:0:0:
448,192,46921,1,0,0:0:0:0:
320,192,46974,1,0,0:0:0:0:
64,192,47026,1,0,0:0:0:0:
448,192,47079,1,0,0:0:0:0:
320,192,47132,1,0,0:0:0:0:
192,192,47184,1,0,0:0:0:0:
448,192,47237,1,0,0:0:0:0:
320,192,47290,1,0,0:0:0:0:
192,192,47342,1,0,0:0:0:0:
448,192,47395,1,0,0:0:0:0:
320,192,47448,1,0,0:0:0:0:
64,192,47500,1,0,0:0:0:0:
448,192,47553,1,0,0:0:0:0:
320,192,47606,1,0,0:0:0:0:
192,192,47658,1,0,0:0:0:0:
64,192,47711,1,0,0:0:0:0:
448,192,47764,1,0,0:0:0:0:
192,192,47816,1,0,0:0:0:0:
448,192,47869,1,0,0:0:0:0:
320,192,47921,1,0,0:0:0:0:
64,192,47974,1,0,0:0:0:0:
192,192,48027,1,0,0:0:0:0:
448,192,48079,1,0,0:0:0:0:
192,192,48132,1,0,0:0:0:0:
64,192,48185,1,0,0:0:0:0:
320,192,48185,1,0,0:0:0:0:
448,192,48237,1,0,0:0:0:0:
192,192,48290,1,0,0:0:0:0:
320,192,48343,1,0,0:0:0:0:
448,192,48395,1,0,0:0:0:0:
64,192,48448,1,0,0:0:0:0:
192,192,48501,1,0,0:0:0:0:
320,192,48553,1,0,0:0:0:0:
192,192,48606,1,0,0:0:0:0:
448,192,48659,1,0,0:0:0:0:
64,192,48711,1,0,0:0:0:0:
192,192,48764,1,0,0:0:0:0:
320,192,48817,1,0,0:0:0:0:
192,192,48869,1,0,0:0:0:0:
64,192,48922,1,0,0:0:0:0:
448,192,48975,1,0,0:0:0:0:
320,192,49027,1,0,0:0:0:0:
64,192,49080,1,0,0:0:0:0:
448,192,49133,1,0,0:0:0:0:
320,192,49185,1,0,0:0:0:0:
192,192,49238,1,0,0:0:0:0:
64,192,49291,1,0,0:0:0:0:
448,192,49343,1,0,0:0:0:0:
320,192,49396,1,0,0:0:0:0:
64,192,49449,1,0,0:0:0:0:
192,192,49449,1,0,0:0:0:0:
448,192,49501,1,0,0:0:0:0:
64,192,49554,1,0,0:0:0:0:
320,192,49607,1,0,0:0:0:0:
192,192,49659,1,0,0:0:0:0:
448,192,49712,1,0,0:0:0:0:
320,192,49765,1,0,0:0:0:0:
192,192,49817,1,0,0:0:0:0:
448,192,49870,1,0,0:0:0:0:
320,192,49923,1,0,0:0:0:0:
64,192,49975,1,0,0:0:0:0:
448,192,50028,1,0,0:0:0:0:
320,192,50081,1,0,0:0:0:0:
192,192,50133,1,0,0:0:0:0:
64,192,50186,1,0,0:0:0:0:
320,192,50238,1,0,0:0:0:0:
192,192,50291,1,0,0:0:0:0:
448,192,50344,1,0,0:0:0:0:
320,192,50396,1,0,0:0:0:0:
448,192,50449,1,0,0:0:0:0:
64,192,50502,1,0,0:0:0:0:
192,192,50554,1,0,0:0:0:0:
64,192,50607,1,0,0:0:0:0:
448,192,50660,1,0,0:0:0:0:
192,192,50712,1,0,0:0:0:0:
320,192,50712,1,0,0:0:0:0:
64,192,50765,1,0,0:0:0:0:
448,192,50818,1,0,0:0:0:0:
320,192,50870,1,0,0:0:0:0:
64,192,50923,1,0,0:0:0:0:
192,192,50976,1,0,0:0:0:0:
448,192,51028,1,0,0:0:0:0:
320,192,51081,1,0,0:0:0:0:
64,192,51134,1,0,0:0:0:0:
192,192,51186,1,0,0:0:0:0:
320,192,51239,1,0,0:0:0:0:
448,192,51292,1,0,0:0:0:0:
320,192,51344,1,0,0:0:0:0:
192,192,51397,1,0,0:0:0:0:
64,192,51450,1,0,0:0:0:0:
448,192,51502,1,0,0:0:0:0:
320,192,51555,1,0,0:0:0:0:
192,192,51608,1,0,0:0:0:0:
64,192,51660,1,0,0:0:0:0:
448,192,51713,1,0,0:0:0:0:
320,192,51766,1,0,0:0:0:0:
192,192,51818,1,0,0:0:0:0:
64,192,51871,1,0,0:0:0:0:
448,192,51924,1,0,0:0:0:0:
192,192,51976,1,0,0:0:0:0:
320,192,51976,1,0,0:0:0:0:
64,192,52029,1,0,0:0:0:0:
448,192,52082,1,0,0:0:0:0:
320,192,52134,1,0,0:0:0:0:
192,192,52187,1,0,0:0:0:0:
448,192,52240,1,0,0:0:0:0:
320,192,52292,1,0,0:0:0:0:
64,192,52345,1,0,0:0:0:0:
192,192,52398,1,0,0:0:0:0:
448,192,52450,1,0,0:0:0:0:
192,192,52503,1,0,0:0:0:0:
64,192,52555,1,0,0:0:0:0:
320,192,52608,1,0,0:0:0:0:
192,192,52661,1,0,0:0:0:0:
448,192,52713,1,0,0:0:0:0:
320,192,52766,1,0,0:0:0:0:
64,192,52819,1,0,0:0:0:0:
192,192,52871,1,0,0:0:0:0:
448,192,52924,1,0,0:0:0:0:
320,192,52977,1,0,0:0:0:0:
64,192,53029,1,0,0:0:0:0:
192,192,53082,1,0,0:0:0:0:
320,192,53135,1,0,0:0:0:0:
64,192,53187,1,0,0:0:0:0:
320,192,53240,1,0,0:0:0:0:
448,192,53240,1,0,0:0:0:0:
192,192,53293,1,0,0:0:0:0:
320,192,53345,1,0,0:0:0:0:
64,192,53398,1,0,0:0:0:0:
192,192,53451,1,0,0:0:0:0:
320,192,53503,1,0,0:0:0:0:
448,192,53556,1,0,0:0:0:0:
64,192,53609,1,0,0:0:0:0:
320,192,53661,1,0,0:0:0:0:
192,192,53714,1,0,0:0:0:0:
448,192,53767,1,0,0:0:0:0:
64,192,53819,1,0,0:0:0:0:
448,192,53872,1,0,0:0:0:0:
320,192,53925,1,0,0:0:0:0:
192,192,53977,1,0,0:0:0:0:
64,192,54030,1,0,0:0:0:0:
192,192,54083,1,0,0:0:0:0:
320,192,54135,1,0,0:0:0:0:
448,192,54188,1,0,0:0:0:0:
64,192,54241,1,0,0:0:0:0:
192,192,54293,1,0,0:0:0:0:
448,192,54346,1,0,0:0:0:0:
320,192,54399,1,0,0:0:0:0:
192,192,54451,1,0,0:0:0:0:
64,192,54504,1,0,0:0:0:0:
448,192,54504,1,0,0:0:0:0:
192,192,54557,1,0,0:0:0:0:
320,192,54609,1,0,0:0:0:0:
448,192,54662,1,0,0:0:0:0:
64,192,54715,1,0,0:0:0:0:
448,192,54767,1,0,0:0:0:0:
192,192,54820,1,0,0:0:0:0:
320,192,54873,1,0,0:0:0:0:
64,192,54925,1,0,0:0:0:0:
192,192,54978,1,0,0:0:0:0:
320,192,55030,1,0,0:0:0:0:
192,192,55083,1,0,0:0:0:0:
448,192,55136,1,0,0:0:0:0:
320,192,55188,1,0,0:0:0:0:
64,192,55241,1,0,0:0:0:0:
192,192,55294,1,0,0:0:0:0:
320,192,55346,1,0,0:0:0:0:
192,192,55399,1,0,0:0:0:0:
320,192,55452,1,0,0:0:0:0:
64,192,55504,1,0,0:0:0:0:
448,192,55557,1,0,0:0:0:0:
192,192,55610,1,0,0:0:0:0:
320,192,55662,1,0,0:0:0:0:
192,192,55715,1,0,0:0:0:0:
64,192,55768,1,0,0:0:0:0:
448,192,55768,1,0,0:0:0:0:
320,192,55820,1,0,0:0:0:0:
192,192,55873,1,0,0:0:0:0:
64,192,55926,1,0,0:0:0:0:
448,192,55978,1,0,0:0:0:0:
192,192,56031,1,0,0:0:0:0:
320,192,56084,1,0,0:0:0:0:
448,192,56136,1,0,0:0:0:0:
192,192,56189,1,0,0:0:0:0:
320,192,56242,1,0,0:0:0:0:
448,192,56294,1,0,0:0:0:0:
64,192,56347,1,0,0:0:0:0:
192,192,56400,1,0,0:0:0:0:
320,192,56400,1,0,0:0:0:0:
64,192,56716,1,0,0:0:0:0:
192,192,56716,1,0,0:0:0:0:
320,192,57347,1,0,0:0:0:0:
448,192,57347,128,0,57505:0:0:0:0:
64,192,57874,1,0,0:0:0:0:
192,192,57874,1,0,0:0:0:0:
320,192,57979,1,0,0:0:0:0:
448,192,57979,128,0,58137:0:0:0:0:
64,192,58295,1,0,0:0:0:0:
192,192,58295,1,0,0:0:0:0:
320,192,58611,1,0,0:0:0:0:
448,192,58611,128,0,58769:0:0:0:0:
64,192,58927,1,0,0:0:0:0:
192,192,58927,1,0,0:0:0:0:
320,192,59243,1,0,0:0:0:0:
448,192,59243,128,0,59401:0:0:0:0:
320,192,59875,1,0,0:0:0:0:
448,192,59875,128,0,60033:0:0:0:0:
320,192,60402,1,0,0:0:0:0:
448,192,60402,1,0,0:0:0:0:
64,192,60507,1,0,0:0:0:0:
192,192,60507,1,0,0:0:0:0:
320,192,60560,1,0,0:0:0:0:
448,192,60612,1,0,0:0:0:0:
192,192,60665,1,0,0:0:0:0:
320,192,60718,1,0,0:0:0:0:
448,192,60770,1,0,0:0:0:0:
64,192,60823,1,0,0:0:0:0:
192,192,60876,1,0,0:0:0:0:
320,192,60928,1,0,0:0:0:0:
64,192,60981,1,0,0:0:0:0:
320,192,61034,1,0,0:0:0:0:
192,192,61086,1,0,0:0:0:0:
64,192,61139,1,0,0:0:0:0:
320,192,61192,1,0,0:0:0:0:
192,192,61244,1,0,0:0:0:0:
320,192,61297,1,0,0:0:0:0:
64,192,61350,1,0,0:0:0:0:
448,192,61402,1,0,0:0:0:0:
192,192,61455,1,0,0:0:0:0:
320,192,61508,1,0,0:0:0:0:
64,192,61560,1,0,0:0:0:0:
448,192,61613,1,0,0:0:0:0:
192,192,61666,1,0,0:0:0:0:
320,192,61718,1,0,0:0:0:0:
64,192,61771,1,0,0:0:0:0:
448,192,61771,1,0,0:0:0:0:
320,192,61824,1,0,0:0:0:0:
192,192,61876,1,0,0:0:0:0:
64,192,61929,1,0,0:0:0:0:
448,192,61982,1,0,0:0:0:0:
192,192,62034,1,0,0:0:0:0:
448,192,62087,1,0,0:0:0:0:
64,192,62139,1,0,0:0:0:0:
320,192,62192,1,0,0:0:0:0:
192,192,62245,1,0,0:0:0:0:
448,192,62297,1,0,0:0:0:0:
320,192,62350,1,0,0:0:0:0:
192,192,62403,1,0,0:0:0:0:
64,192,62455,1,0,0:0:0:0:
320,192,62508,1,0,0:0:0:0:
192,192,62561,1,0,0:0:0:0:
448,192,62613,1,0,0:0:0:0:
320,192,62666,1,0,0:0:0:0:
448,192,62719,1,0,0:0:0:0:
64,192,62771,1,0,0:0:0:0:
192,192,62824,1,0,0:0:0:0:
320,192,62877,1,0,0:0:0:0:
192,192,62929,1,0,0:0:0:0:
448,192,62982,1,0,0:0:0:0:
64,192,63035,1,0,0:0:0:0:
320,192,63035,1,0,0:0:0:0:
192,192,63087,1,0,0:0:0:0:
320,192,63140,1,0,0:0:0:0:
192,192,63193,1,0,0:0:0:0:
448,192,63245,1,0,0:0:0:0:
320,192,63298,1,0,0:0:0:0:
64,192,63351,1,0,0:0:0:0:
448,192,63403,1,0,0:0:0:0:
320,192,63456,1,0,0:0:0:0:
192,192,63509,1,0,0:0:0:0:
64,192,63561,1,0,0:0:0:0:
192,192,63614,1,0,0:0:0:0:
320,192,63667,1,0,0:0:0:0:
448,192,63719,1,0,0:0:0:0:
320,192,63772,1,0,0:0:0:0:
192,192,63825,1,0,0:0:0:0:
64,192,63877,1,0,0:0:0:0:
320,192,63930,1,0,0:0:0:0:
192,192,63983,1,0,0:0:0:0:
320,192,64035,1,0,0:0:0:0:
448,192,64088,1,0,0:0:0:0:
192,192,64141,1,0,0:0:0:0:
64,192,64193,1,0,0:0:0:0:
192,192,64246,1,0,0:0:0:0:
320,192,64299,1,0,0:0:0:0:
448,192,64299,1,0,0:0:0:0:
64,192,64351,1,0,0:0:0:0:
192,192,64404,1,0,0:0:0:0:
448,192,64456,1,0,0:0:0:0:
320,192,64509,1,0,0:0:0:0:
192,192,64562,1,0,0:0:0:0:
64,192,64614,1,0,0:0:0:0:
448,192,64667,1,0,0:0:0:0:
192,192,64720,1,0,0:0:0:0:
320,192,64772,1,0,0:0:0:0:
64,192,64825,1,0,0:0:0:0:
448,192,64878,1,0,0:0:0:0:
320,192,64930,1,0,0:0:0:0:
192,192,64983,1,0,0:0:0:0:
448,192,65036,1,0,0:0:0:0:
320,192,65088,1,0,0:0:0:0:
192,192,65141,1,0,0:0:0:0:
448,192,65194,1,0,0:0:0:0:
320,192,65246,1,0,0:0:0:0:
64,192,65299,1,0,0:0:0:0:
448,192,65352,1,0,0:0:0:0:
320,192,65404,1,0,0:0:0:0:
64,192,65457,1,0,0:0:0:0:
192,192,65510,1,0,0:0:0:0:
320,192,65562,1,0,0:0:0:0:
448,192,65562,1,0,0:0:0:0:
64,192,65615,1,0,0:0:0:0:
192,192,65668,1,0,0:0:0:0:
320,192,65720,1,0,0:0:0:0:
448,192,65773,1,0,0:0:0:0:
64,192,65826,1,0,0:0:0:0:
320,192,65878,1,0,0:0:0:0:
448,192,65931,1,0,0:0:0:0:
64,192,65984,1,0,0:0:0:0:
320,192,66036,1,0,0:0:0:0:
448,192,66089,1,0,0:0:0:0:
192,192,66142,1,0,0:0:0:0:
320,192,66194,1,0,0:0:0:0:
448,192,66247,1,0,0:0:0:0:
64,192,66300,1,0,0:0:0:0:
192,192,66352,1,0,0:0:0:0:
320,192,66405,1,0,0:0:0:0:
448,192,66458,1,0,0:0:0:0:
320,192,66510,1,0,0:0:0:0:
192,192,66563,1,0,0:0:0:0:
64,192,66616,1,0,0:0:0:0:
448,192,66668,1,0,0:0:0:0:
320,192,66721,1,0,0:0:0:0:
192,192,66774,1,0,0:0:0:0:
64,192,66826,1,0,0:0:0:0:
448,192,66826,1,0,0:0:0:0:
320,192,66879,1,0,0:0:0:0:
192,192,66931,1,0,0:0:0:0:
448,192,66984,1,0,0:0:0:0:
320,192,67037,1,0,0:0:0:0:
64,192,67089,1,0,0:0:0:0:
192,192,67142,1,0,0:0:0:0:
448,192,67195,1,0,0:0:0:0:
320,192,67247,1,0,0:0:0:0:
64,192,67300,1,0,0:0:0:0:
192,192,67353,1,0,0:0:0:0:
448,192,67405,1,0,0:0:0:0:
64,192,67458,1,0,0:0:0:0:
448,192,67511,1,0,0:0:0:0:
320,192,67563,1,0,0:0:0:0:
192,192,67616,1,0,0:0:0:0:
64,192,67669,1,0,0:0:0:0:
448,192,67721,1,0,0:0:0:0:
320,192,67774,1,0,0:0:0:0:
192,192,67827,1,0,0:0:0:0:
448,192,67879,1,0,0:0:0:0:
192,192,67932,1,0,0:0:0:0:
320,192,67985,1,0,0:0:0:0:
64,192,68037,1,0,0:0:0:0:
192,192,68090,1,0,0:0:0:0:
448,192,68090,1,0,0:0:0:0:
320,192,68143,1,0,0:0:0:0:
192,192,68195,1,0,0:0:0:0:
448,192,68248,1,0,0:0:0:0:
320,192,68301,1,0,0:0:0:0:
64,192,68353,1,0,0:0:0:0:
192,192,68406,1,0,0:0:0:0:
320,192,68459,1,0,0:0:0:0:
192,192,68511,1,0,0:0:0:0:
64,192,68564,1,0,0:0:0:0:
448,192,68617,1,0,0:0:0:0:
192,192,68669,1,0,0:0:0:0:
320,192,68722,1,0,0:0:0:0:
64,192,68775,1,0,0:0:0:0:
192,192,68827,1,0,0:0:0:0:
320,192,68880,1,0,0:0:0:0:
448,192,68933,1,0,0:0:0:0:
320,192,68985,1,0,0:0:0:0:
192,192,69038,1,0,0:0:0:0:
64,192,69091,1,0,0:0:0:0:
192,192,69143,1,0,0:0:0:0:
448,192,69196,1,0,0:0:0:0:
320,192,69248,1,0,0:0:0:0:
192,192,69301,1,0,0:0:0:0:
64,192,69354,1,0,0:0:0:0:
448,192,69354,1,0,0:0:0:0:
320,192,69406,1,0,0:0:0:0:
192,192,69459,1,0,0:0:0:0:
320,192,69512,1,0,0:0:0:0:
64,192,69564,1,0,0:0:0:0:
192,192,69617,1,0,0:0:0:0:
320,192,69670,1,0,0:0:0:0:
448,192,69722,1,0,0:0:0:0:
192,192,69775,1,0,0:0:0:0:
320,192,69828,1,0,0:0:0:0:
192,192,69880,1,0,0:0:0:0:
64,192,69933,1,0,0:0:0:0:
320,192,69986,1,0,0:0:0:0:
448,192,70038,1,0,0:0:0:0:
320,192,70091,1,0,0:0:0:0:
192,192,70144,1,0,0:0:0:0:
64,192,70196,1,0,0:0:0:0:
448,192,70249,1,0,0:0:0:0:
320,192,70302,1,0,0:0:0:0:
64,192,70354,1,0,0:0:0:0:
192,192,70407,1,0,0:0:0:0:
448,192,70460,1,0,0:0:0:0:
320,192,70512,1,0,0:0:0:0:
192,192,70565,1,0,0:0:0:0:
64,192,70618,1,0,0:0:0:0:
448,192,70618,1,0,0:0:0:0:
320,192,70670,1,0,0:0:0:0:
192,192,70723,1,0,0:0:0:0:
448,192,70776,1,0,0:0:0:0:
320,192,70828,1,0,0:0:0:0:
448,192,70881,1,0,0:0:0:0:
192,192,70934,1,0,0:0:0:0:
320,192,70986,1,0,0:0:0:0:
192,192,71039,1,0,0:0:0:0:
64,192,71092,1,0,0:0:0:0:
448,192,71144,1,0,0:0:0:0:
320,192,71197,1,0,0:0:0:0:
192,192,71250,1,0,0:0:0:0:
64,192,71302,1,0,0:0:0:0:
320,192,71355,1,0,0:0:0:0:
192,192,71408,1,0,0:0:0:0:
448,192,71460,1,0,0:0:0:0:
192,192,71513,1,0,0:0:0:0:
320,192,71566,1,0,0:0:0:0:
64,192,71618,1,0,0:0:0:0:
320,192,71671,1,0,0:0:0:0:
448,192,71723,1,0,0:0:0:0:
64,192,71776,1,0,0:0:0:0:
192,192,71829,1,0,0:0:0:0:
320,192,71881,1,0,0:0:0:0:
448,192,71881,1,0,0:0:0:0:
64,192,71934,1,0,0:0:0:0:
192,192,71987,1,0,0:0:0:0:
320,192,72039,1,0,0:0:0:0:
448,192,72092,1,0,0:0:0:0:
64,192,72145,1,0,0:0:0:0:
192,192,72197,1,0,0:0:0:0:
320,192,72250,1,0,0:0:0:0:
64,192,72303,1,0,0:0:0:0:
448,192,72355,1,0,0:0:0:0:
320,192,72408,1,0,0:0:0:0:
192,192,72461,1,0,0:0:0:0:
64,192,72513,1,0,0:0:0:0:
448,192,72566,1,0,0:0:0:0:
320,192,72619,1,0,0:0:0:0:
64,192,72671,1,0,0:0:0:0:
192,192,72724,1,0,0:0:0:0:
320,192,72777,1,0,0:0:0:0:
192,192,72829,1,0,0:0:0:0:
320,192,72882,1,0,0:0:0:0:
448,192,72935,1,0,0:0:0:0:
64,192,72987,1,0,0:0:0:0:
192,192,73040,1,0,0:0:0:0:
320,192,73093,1,0,0:0:0:0:
64,192,73145,1,0,0:0:0:0:
448,192,73145,1,0,0:0:0:0:
320,192,73198,1,0,0:0:0:0:
192,192,73251,1,0,0:0:0:0:
64,192,73303,1,0,0:0:0:0:
192,192,73356,1,0,0:0:0:0:
320,192,73409,1,0,0:0:0:0:
192,192,73461,1,0,0:0:0:0:
448,192,73514,1,0,0:0:0:0:
320,192,73567,1,0,0:0:0:0:
192,192,73619,1,0,0:0:0:0:
64,192,73672,1,0,0:0:0:0:
320,192,73725,1,0,0:0:0:0:
192,192,73777,1,0,0:0:0:0:
448,192,73830,1,0,0:0:0:0:
320,192,73883,1,0,0:0:0:0:
64,192,73935,1,0,0:0:0:0:
192,192,73988,1,0,0:0:0:0:
448,192,74040,1,0,0:0:0:0:
320,192,74093,1,0,0:0:0:0:
192,192,74146,1,0,0:0:0:0:
64,192,74198,1,0,0:0:0:0:
448,192,74251,1,0,0:0:0:0:
320,192,74304,1,0,0:0:0:0:
192,192,74356,1,0,0:0:0:0:
64,192,74409,1,0,0:0:0:0:
320,192,74409,1,0,0:0:0:0:
448,192,74462,1,0,0:0:0:0:
192,192,74514,1,0,0:0:0:0:
320,192,74567,1,0,0:0:0:0:
448,192,74620,1,0,0:0:0:0:
192,192,74672,1,0,0:0:0:0:
64,192,74725,1,0,0:0:0:0:
320,192,74778,1,0,0:0:0:0:
192,192,74830,1,0,0:0:0:0:
448,192,74883,1,0,0:0:0:0:
320,192,74936,1,0,0:0:0:0:
192,192,74988,1,0,0:0:0:0:
64,192,75041,1,0,0:0:0:0:
448,192,75041,1,0,0:0:0:0:
192,192,75357,1,0,0:0:0:0:
448,192,75357,1,0,0:0:0:0:
64,192,75989,128,0,76147:0:0:0:0:
192,192,75989,1,0,0:0:0:0:
320,192,76515,1,0,0:0:0:0:
448,192,76515,1,0,0:0:0:0:
64,192,76621,128,0,76779:0:0:0:0:
192,192,76621,1,0,0:0:0:0:
320,192,76937,1,0,0:0:0:0:
448,192,76937,1,0,0:0:0:0:
64,192,77253,128,0,77411:0:0:0:0:
192,192,77253,1,0,0:0:0:0:
320,192,77569,1,0,0:0:0:0:
448,192,77569,1,0,0:0:0:0:
64,192,77885,128,0,78043:0:0:0:0:
192,192,77885,1,0,0:0:0:0:
64,192,78517,128,0,78675:0:0:0:0:
192,192,78517,1,0,0:0:0:0:
64,192,79043,1,0,0:0:0:0:
192,192,79043,1,0,0:0:0:0:
320,192,79148,1,0,0:0:0:0:
448,192,79148,1,0,0:0:0:0:
192,192,79201,1,0,0:0:0:0:
64,192,79254,1,0,0:0:0:0:
320,192,79306,1,0,0:0:0:0:
192,192,79359,1,0,0:0:0:0:
64,192,79412,1,0,0:0:0:0:
448,192,79464,1,0,0:0:0:0:
320,192,79517,1,0,0:0:0:0:
192,192,79570,1,0,0:0:0:0:
64,192,79622,1,0,0:0:0:0:
192,192,79675,1,0,0:0:0:0:
320,192,79728,1,0,0:0:0:0:
448,192,79780,1,0,0:0:0:0:
64,192,79833,1,0,0:0:0:0:
320,192,79886,1,0,0:0:0:0:
192,192,79938,1,0,0:0:0:0:
448,192,79991,1,0,0:0:0:0:
64,192,80044,1,0,0:0:0:0:
192,192,80096,1,0,0:0:0:0:
320,192,80149,1,0,0:0:0:0:
448,192,80202,1,0,0:0:0:0:
192,192,80254,1,0,0:0:0:0:
320,192,80307,1,0,0:0:0:0:
192,192,80360,1,0,0:0:0:0:
64,192,80412,1,0,0:0:0:0:
448,192,80412,1,0,0:0:0:0:
320,192,80465,1,0,0:0:0:0:
192,192,80518,1,0,0:0:0:0:
448,192,80570,1,0,0:0:0:0:
320,192,80623,1,0,0:0:0:0:
64,192,80676,1,0,0:0:0:0:
192,192,80728,1,0,0:0:0:0:
448,192,80781,1,0,0:0:0:0:
320,192,80834,1,0,0:0:0:0:
192,192,80886,1,0,0:0:0:0:
64,192,80939,1,0,0:0:0:0:
192,192,80992,1,0,0:0:0:0:
448,192,81044,1,0,0:0:0:0:
320,192,81097,1,0,0:0:0:0:
448,192,81149,1,0,0:0:0:0:
320,192,81202,1,0,0:0:0:0:
192,192,81255,1,0,0:0:0:0:
64,192,81307,1,0,0:0:0:0:
320,192,81360,1,0,0:0:0:0:
192,192,81413,1,0,0:0:0:0:
448,192,81465,1,0,0:0:0:0:
192,192,81518,1,0,0:0:0:0:
320,192,81571,1,0,0:0:0:0:
64,192,81623,1,0,0:0:0:0:
320,192,81676,1,0,0:0:0:0:
448,192,81676,1,0,0:0:0:0:
192,192,81729,1,0,0:0:0:0:
64,192,81781,1,0,0:0:0:0:
320,192,81834,1,0,0:0:0:0:
192,192,81887,1,0,0:0:0:0:
448,192,81939,1,0,0:0:0:0:
320,192,81992,1,0,0:0:0:0:
64,192,82045,1,0,0:0:0:0:
192,192,82097,1,0,0:0:0:0:
320,192,82150,1,0,0:0:0:0:
448,192,82203,1,0,0:0:0:0:
320,192,82255,1,0,0:0:0:0:
192,192,82308,1,0,0:0:0:0:
64,192,82361,1,0,0:0:0:0:
192,192,82413,1,0,0:0:0:0:
320,192,82466,1,0,0:0:0:0:
448,192,82519,1,0,0:0:0:0:
192,192,82571,1,0,0:0:0:0:
320,192,82624,1,0,0:0:0:0:
64,192,82677,1,0,0:0:0:0:
192,192,82729,1,0,0:0:0:0:
64,192,82782,1,0,0:0:0:0:
448,192,82835,1,0,0:0:0:0:
320,192,82887,1,0,0:0:0:0:
192,192,82940,1,0,0:0:0:0:
448,192,82940,1,0,0:0:0:0:
320,192,82993,1,0,0:0:0:0:
64,192,83045,1,0,0:0:0:0:
448,192,83098,1,0,0:0:0:0:
320,192,83151,1,0,0:0:0:0:
192,192,83203,1,0,0:0:0:0:
64,192,83256,1,0,0:0:0:0:
192,192,83309,1,0,0:0:0:0:
320,192,83361,1,0,0:0:0:0:
448,192,83414,1,0,0:0:0:0:
320,192,83467,1,0,0:0:0:0:
64,192,83519,1,0,0:0:0:0:
192,192,83572,1,0,0:0:0:0:
320,192,83624,1,0,0:0:0:0:
64,192,83677,1,0,0:0:0:0:
192,192,83730,1,0,0:0:0:0:
320,192,83782,1,0,0:0:0:0:
64,192,83835,1,0,0:0:0:0:
192,192,83888,1,0,0:0:0:0:
448,192,83940,1,0,0:0:0:0:
64,192,83993,1,0,0:0:0:0:
192,192,84046,1,0,0:0:0:0:
320,192,84098,1,0,0:0:0:0:
448,192,84151,1,0,0:0:0:0:
64,192,84204,1,0,0:0:0:0:
192,192,84204,1,0,0:0:0:0:
320,192,84256,1,0,0:0:0:0:
448,192,84309,1,0,0:0:0:0:
64,192,84362,1,0,0:0:0:0:
192,192,84414,1,0,0:0:0:0:
320,192,84467,1,0,0:0:0:0:
64,192,84520,1,0,0:0:0:0:
192,192,84572,1,0,0:0:0:0:
320,192,84625,1,0,0:0:0:0:
448,192,84678,1,0,0:0:0:0:
64,192,84730,1,0,0:0:0:0:
192,192,84783,1,0,0:0:0:0:
320,192,84836,1,0,0:0:0:0:
448,192,84888,1,0,0:0:0:0:
192,192,84941,1,0,0:0:0:0:
320,192,84994,1,0,0:0:0:0:
192,192,85046,1,0,0:0:0:0:
64,192,85099,1,0,0:0:0:0:
448,192,85152,1,0,0:0:0:0:
320,192,85204,1,0,0:0:0:0:
448,192,85257,1,0,0:0:0:0:
64,192,85310,1,0,0:0:0:0:
192,192,85362,1,0,0:0:0:0:
320,192,85415,1,0,0:0:0:0:
64,192,85468,1,0,0:0:0:0:
448,192,85468,1,0,0:0:0:0:
192,192,85520,1,0,0:0:0:0:
320,192,85573,1,0,0:0:0:0:
64,192,85626,1,0,0:0:0:0:
192,192,85678,1,0,0:0:0:0:
448,192,85731,1,0,0:0:0:0:
320,192,85784,1,0,0:0:0:0:
64,192,85836,1,0,0:0:0:0:
192,192,85889,1,0,0:0:0:0:
448,192,85941,1,0,0:0:0:0:
320,192,85994,1,0,0:0:0:0:
64,192,86047,1,0,0:0:0:0:
448,192,86099,1,0,0:0:0:0:
64,192,86152,1,0,0:0:0:0:
192,192,86205,1,0,0:0:0:0:
320,192,86257,1,0,0:0:0:0:
64,192,86310,1,0,0:0:0:0:
448,192,86363,1,0,0:0:0:0:
64,192,86415,1,0,0:0:0:0:
320,192,86468,1,0,0:0:0:0:
192,192,86521,1,0,0:0:0:0:
320,192,86573,1,0,0:0:0:0:
448,192,86626,1,0,0:0:0:0:
64,192,86679,1,0,0:0:0:0:
192,192,86731,1,0,0:0:0:0:
320,192,86731,1,0,0:0:0:0:
448,192,86784,1,0,0:0:0:0:
192,192,86837,1,0,0:0:0:0:
320,192,86889,1,0,0:0:0:0:
64,192,86942,1,0,0:0:0:0:
192,192,86995,1,0,0:0:0:0:
64,192,87047,1,0,0:0:0:0:
448,192,87100,1,0,0:0:0:0:
192,192,87153,1,0,0:0:0:0:
448,192,87205,1,0,0:0:0:0:
320,192,87258,1,0,0:0:0:0:
192,192,87311,1,0,0:0:0:0:
64,192,87363,1,0,0:0:0:0:
448,192,87416,1,0,0:0:0:0:
320,192,87469,1,0,0:0:0:0:
192,192,87521,1,0,0:0:0:0:
64,192,87574,1,0,0:0:0:0:
192,192,87627,1,0,0:0:0:0:
320,192,87679,1,0,0:0:0:0:
448,192,87732,1,0,0:0:0:0:
320,192,87785,1,0,0:0:0:0:
64,192,87837,1,0,0:0:0:0:
320,192,87890,1,0,0:0:0:0:
192,192,87943,1,0,0:0:0:0:
64,192,87995,1,0,0:0:0:0:
448,192,87995,1,0,0:0:0:0:
192,192,88048,1,0,0:0:0:0:
320,192,88101,1,0,0:0:0:0:
192,192,88153,1,0,0:0:0:0:
448,192,88206,1,0,0:0:0:0:
320,192,88258,1,0,0:0:0:0:
192,192,88311,1,0,0:0:0:0:
64,192,88364,1,0,0:0:0:0:
320,192,88416,1,0,0:0:0:0:
192,192,88469,1,0,0:0:0:0:
448,192,88522,1,0,0:0:0:0:
320,192,88574,1,0,0:0:0:0:
192,192,88627,1,0,0:0:0:0:
64,192,88680,1,0,0:0:0:0:
320,192,88732,1,0,0:0:0:0:
192,192,88785,1,0,0:0:0:0:
448,192,88838,1,0,0:0:0:0:
64,192,88890,1,0,0:0:0:0:
192,192,88943,1,0,0:0:0:0:
320,192,88996,1,0,0:0:0:0:
448,192,89048,1,0,0:0:0:0:
64,192,89101,1,0,0:0:0:0:
192,192,89154,1,0,0:0:0:0:
320,192,89206,1,0,0:0:0:0:
64,192,89259,1,0,0:0:0:0:
448,192,89259,1,0,0:0:0:0:
192,192,89312,1,0,0:0:0:0:
320,192,89364,1,0,0:0:0:0:
64,192,89417,1,0,0:0:0:0:
192,192,89470,1,0,0:0:0:0:
64,192,89522,1,0,0:0:0:0:
320,192,89575,1,0,0:0:0:0:
192,192,89628,1,0,0:0:0:0:
320,192,89680,1,0,0:0:0:0:
448,192,89733,1,0,0:0:0:0:
64,192,89786,1,0,0:0:0:0:
192,192,89838,1,0,0:0:0:0:
320,192,89891,1,0,0:0:0:0:
448,192,89944,1,0,0:0:0:0:
320,192,89996,1,0,0:0:0:0:
192,192,90049,1,0,0:0:0:0:
64,192,90102,1,0,0:0:0:0:
448,192,90154,1,0,0:0:0:0:
320,192,90207,1,0,0:0:0:0:
192,192,90260,1,0,0:0:0:0:
320,192,90312,1,0,0:0:0:0:
64,192,90365,1,0,0:0:0:0:
192,192,90418,1,0,0:0:0:0:
320,192,90470,1,0,0:0:0:0:
64,192,90523,1,0,0:0:0:0:
448,192,90523,1,0,0:0:0:0:
320,192,90576,1,0,0:0:0:0:
192,192,90628,1,0,0:0:0:0:
64,192,90681,1,0,0:0:0:0:
192,192,90733,1,0,0:0:0:0:
448,192,90786,1,0,0:0:0:0:
320,192,90839,1,0,0:0:0:0:
192,192,90891,1,0,0:0:0:0:
448,192,90944,1,0,0:0:0:0:
64,192,90997,1,0,0:0:0:0:
192,192,91049,1,0,0:0:0:0:
320,192,91102,1,0,0:0:0:0:
448,192,91155,1,0,0:0:0:0:
192,192,91207,1,0,0:0:0:0:
64,192,91260,1,0,0:0:0:0:
320,192,91313,1,0,0:0:0:0:
448,192,91365,1,0,0:0:0:0:
64,192,91418,1,0,0:0:0:0:
192,192,91471,1,0,0:0:0:0:
320,192,91523,1,0,0:0:0:0:
64,192,91576,1,0,0:0:0:0:
448,192,91629,1,0,0:0:0:0:
320,192,91681,1,0,0:0:0:0:
192,192,91734,1,0,0:0:0:0:
64,192,91787,1,0,0:0:0:0:
448,192,91787,1,0,0:0:0:0:
192,192,91839,1,0,0:0:0:0:
320,192,91892,1,0,0:0:0:0:
448,192,91945,1,0,0:0:0:0:
320,192,91997,1,0,0:0:0:0:
192,192,92050,1,0,0:0:0:0:
320,192,92103,1,0,0:0:0:0:
64,192,92155,1,0,0:0:0:0:
192,192,92208,1,0,0:0:0:0:
320,192,92261,1,0,0:0:0:0:
448,192,92313,1,0,0:0:0:0:
192,192,92366,1,0,0:0:0:0:
320,192,92419,1,0,0:0:0:0:
448,192,92471,1,0,0:0:0:0:
64,192,92524,1,0,0:0:0:0:
192,192,92577,1,0,0:0:0:0:
448,192,92629,1,0,0:0:0:0:
64,192,92682,1,0,0:0:0:0:
192,192,92735,1,0,0:0:0:0:
320,192,92787,1,0,0:0:0:0:
448,192,92840,1,0,0:0:0:0:
64,192,92893,1,0,0:0:0:0:
192,192,92945,1,0,0:0:0:0:
320,192,92998,1,0,0:0:0:0:
64,192,93050,1,0,0:0:0:0:
448,192,93050,1,0,0:0:0:0:
192,192,93103,1,0,0:0:0:0:
448,192,93156,1,0,0:0:0:0:
320,192,93208,1,0,0:0:0:0:
192,192,93261,1,0,0:0:0:0:
64,192,93314,1,0,0:0:0:0:
448,192,93366,1,0,0:0:0:0:
320,192,93419,1,0,0:0:0:0:
192,192,93472,1,0,0:0:0:0:
64,192,93524,1,0,0:0:0:0:
320,192,93577,1,0,0:0:0:0:
192,192,93630,1,0,0:0:0:0:
64,192,93682,1,0,0:0:0:0:
448,192,93682,1,0,0:0:0:0:
64,192,93998,1,0,0:0:0:0:
320,192,93998,1,0,0:0:0:0:
192,192,94630,128,0,94788:0:0:0:0:
448,192,94630,1,0,0:0:0:0:
64,192,95157,1,0,0:0:0:0:
320,192,95157,1,0,0:0:0:0:
192,192,95262,128,0,95420:0:0:0:0:
448,192,95262,1,0,0:0:0:0:
64,192,95578,1,0,0:0:0:0:
320,192,95578,1,0,0:0:0:0:
192,192,95894,128,0,96052:0:0:0:0:
448,192,95894,1,0,0:0:0:0:
64,192,96210,1,0,0:0:0:0:
320,192,96210,1,0,0:0:0:0:
192,192,96526,128,0,96684:0:0:0:0:
448,192,96526,1,0,0:0:0:0:
192,192,97158,128,0,97316:0:0:0:0:
448,192,97158,1,0,0:0:0:0:
192,192,97685,1,0,0:0:0:0:
448,192,97685,1,0,0:0:0:0:
64,192,97790,1,0,0:0:0:0:
320,192,97790,1,0,0:0:0:0:
448,192,97842,1,0,0:0:0:0:
320,192,97895,1,0,0:0:0:0:
192,192,97948,1,0,0:0:0:0:
64,192,98000,1,0,0:0:0:0:
320,192,98053,1,0,0:0:0:0:
192,192,98106,1,0,0:0:0:0:
448,192,98158,1,0,0:0:0:0:
192,192,98211,1,0,0:0:0:0:
320,192,98264,1,0,0:0:0:0:
64,192,98316,1,0,0:0:0:0:
320,192,98369,1,0,0:0:0:0:
192,192,98422,1,0,0:0:0:0:
448,192,98474,1,0,0:0:0:0:
64,192,98527,1,0,0:0:0:0:
192,192,98580,1,0,0:0:0:0:
320,192,98632,1,0,0:0:0:0:
448,192,98685,1,0,0:0:0:0:
64,192,98738,1,0,0:0:0:0:
448,192,98790,1,0,0:0:0:0:
320,192,98843,1,0,0:0:0:0:
192,192,98896,1,0,0:0:0:0:
64,192,98948,1,0,0:0:0:0:
448,192,99001,1,0,0:0:0:0:
192,192,99054,1,0,0:0:0:0:
320,192,99054,1,0,0:0:0:0:
448,192,99106,1,0,0:0:0:0:
64,192,99159,1,0,0:0:0:0:
320,192,99212,1,0,0:0:0:0:
192,192,99264,1,0,0:0:0:0:
64,192,99317,1,0,0:0:0:0:
448,192,99370,1,0,0:0:0:0:
320,192,99422,1,0,0:0:0:0:
448,192,99475,1,0,0:0:0:0:
64,192,99528,1,0,0:0:0:0:
192,192,99580,1,0,0:0:0:0:
448,192,99633,1,0,0:0:0:0:
320,192,99686,1,0,0:0:0:0:
192,192,99738,1,0,0:0:0:0:
448,192,99791,1,0,0:0:0:0:
64,192,99844,1,0,0:0:0:0:
192,192,99896,1,0,0:0:0:0:
448,192,99949,1,0,0:0:0:0:
192,192,100002,1,0,0:0:0:0:
320,192,100054,1,0,0:0:0:0:
64,192,100107,1,0,0:0:0:0:
448,192,100160,1,0,0:0:0:0:
64,192,100212,1,0,0:0:0:0:
320,192,100265,1,0,0:0:0:0:
192,192,100317,1,0,0:0:0:0:
448,192,100317,1,0,0:0:0:0:
320,192,100370,1,0,0:0:0:0:
64,192,100423,1,0,0:0:0:0:
192,192,100475,1,0,0:0:0:0:
320,192,100528,1,0,0:0:0:0:
448,192,100581,1,0,0:0:0:0:
320,192,100633,1,0,0:0:0:0:
192,192,100686,1,0,0:0:0:0:
448,192,100739,1,0,0:0:0:0:
64,192,100791,1,0,0:0:0:0:
320,192,100844,1,0,0:0:0:0:
64,192,100897,1,0,0:0:0:0:
448,192,100949,1,0,0:0:0:0:
192,192,101002,1,0,0:0:0:0:
448,192,101055,1,0,0:0:0:0:
64,192,101107,1,0,0:0:0:0:
192,192,101160,1,0,0:0:0:0:
320,192,101213,1,0,0:0:0:0:
448,192,101265,1,0,0:0:0:0:
192,192,101318,1,0,0:0:0:0:
64,192,101371,1,0,0:0:0:0:
192,192,101423,1,0,0:0:0:0:
320,192,101476,1,0,0:0:0:0:
64,192,101529,1,0,0:0:0:0:
320,192,101581,1,0,0:0:0:0:
448,192,101581,1,0,0:0:0:0:
192,192,101634,1,0,0:0:0:0:
64,192,101687,1,0,0:0:0:0:
320,192,101739,1,0,0:0:0:0:
448,192,101792,1,0,0:0:0:0:
192,192,101845,1,0,0:0:0:0:
320,192,101897,1,0,0:0:0:0:
192,192,101950,1,0,0:0:0:0:
64,192,102003,1,0,0:0:0:0:
320,192,102055,1,0,0:0:0:0:
448,192,102108,1,0,0:0:0:0:
192,192,102161,1,0,0:0:0:0:
320,192,102213,1,0,0:0:0:0:
64,192,102266,1,0,0:0:0:0:
192,192,102319,1,0,0:0:0:0:
448,192,102371,1,0,0:0:0:0:
320,192,102424,1,0,0:0:0:0:
64,192,102477,1,0,0:0:0:0:
192,192,102529,1,0,0:0:0:0:
64,192,102582,1,0,0:0:0:0:
320,192,102634,1,0,0:0:0:0:
448,192,102687,1,0,0:0:0:0:
320,192,102740,1,0,0:0:0:0:
64,192,102792,1,0,0:0:0:0:
192,192,102845,1,0,0:0:0:0:
448,192,102845,1,0,0:0:0:0:
320,192,102898,1,0,0:0:0:0:
64,192,102950,1,0,0:0:0:0:
448,192,103003,1,0,0:0:0:0:
192,192,103056,1,0,0:0:0:0:
320,192,103108,1,0,0:0:0:0:
448,192,103161,1,0,0:0:0:0:
192,192,103214,1,0,0:0:0:0:
320,192,103266,1,0,0:0:0:0:
448,192,103319,1,0,0:0:0:0:
192,192,103372,1,0,0:0:0:0:
64,192,103424,1,0,0:0:0:0:
448,192,103477,1,0,0:0:0:0:
192,192,103530,1,0,0:0:0:0:
320,192,103582,1,0,0:0:0:0:
64,192,103635,1,0,0:0:0:0:
448,192,103688,1,0,0:0:0:0:
192,192,103740,1,0,0:0:0:0:
448,192,103793,1,0,0:0:0:0:
64,192,103846,1,0,0:0:0:0:
192,192,103898,1,0,0:0:0:0:
320,192,103951,1,0,0:0:0:0:
448,192,104004,1,0,0:0:0:0:
320,192,104056,1,0,0:0:0:0:
64,192,104109,1,0,0:0:0:0:
192,192,104109,1,0,0:0:0:0:
448,192,104162,1,0,0:0:0:0:
320,192,104214,1,0,0:0:0:0:
192,192,104267,1,0,0:0:0:0:
448,192,104320,1,0,0:0:0:0:
320,192,104372,1,0,0:0:0:0:
192,192,104425,1,0,0:0:0:0:
448,192,104478,1,0,0:0:0:0:
64,192,104530,1,0,0:0:0:0:
320,192,104583,1,0,0:0:0:0:
64,192,104636,1,0,0:0:0:0:
448,192,104688,1,0,0:0:0:0:
192,192,104741,1,0,0:0:0:0:
320,192,104794,1,0,0:0:0:0:
192,192,104846,1,0,0:0:0:0:
448,192,104899,1,0,0:0:0:0:
320,192,104951,1,0,0:0:0:0:
64,192,105004,1,0,0:0:0:0:
192,192,105057,1,0,0:0:0:0:
320,192,105109,1,0,0:0:0:0:
192,192,105162,1,0,0:0:0:0:
64,192,105215,1,0,0:0:0:0:
448,192,105267,1,0,0:0:0:0:
320,192,105320,1,0,0:0:0:0:
64,192,105373,1,0,0:0:0:0:
192,192,105373,1,0,0:0:0:0:
448,192,105425,1,0,0:0:0:0:
320,192,105478,1,0,0:0:0:0:
192,192,105531,1,0,0:0:0:0:
320,192,105583,1,0,0:0:0:0:
448,192,105636,1,0,0:0:0:0:
192,192,105689,1,0,0:0:0:0:
320,192,105741,1,0,0:0:0:0:
64,192,105794,1,0,0:0:0:0:
320,192,105847,1,0,0:0:0:0:
192,192,105899,1,0,0:0:0:0:
448,192,105952,1,0,0:0:0:0:
192,192,106005,1,0,0:0:0:0:
320,192,106057,1,0,0:0:0:0:
64,192,106110,1,0,0:0:0:0:
448,192,106163,1,0,0:0:0:0:
192,192,106215,1,0,0:0:0:0:
448,192,106268,1,0,0:0:0:0:
64,192,106321,1,0,0:0:0:0:
192,192,106373,1,0,0:0:0:0:
320,192,106426,1,0,0:0:0:0:
64,192,106479,1,0,0:0:0:0:
320,192,106531,1,0,0:0:0:0:
192,192,106584,1,0,0:0:0:0:
320,192,106637,1,0,0:0:0:0:
448,192,106637,1,0,0:0:0:0:
192,192,106689,1,0,0:0:0:0:
64,192,106742,1,0,0:0:0:0:
448,192,106795,1,0,0:0:0:0:
320,192,106847,1,0,0:0:0:0:
64,192,106900,1,0,0:0:0:0:
448,192,106953,1,0,0:0:0:0:
320,192,107005,1,0,0:0:0:0:
192,192,107058,1,0,0:0:0:0:
448,192,107111,1,0,0:0:0:0:
320,192,107163,1,0,0:0:0:0:
192,192,107216,1,0,0:0:0:0:
448,192,107269,1,0,0:0:0:0:
64,192,107321,1,0,0:0:0:0:
192,192,107374,1,0,0:0:0:0:
448,192,107426,1,0,0:0:0:0:
320,192,107479,1,0,0:0:0:0:
192,192,107532,1,0,0:0:0:0:
448,192,107584,1,0,0:0:0:0:
64,192,107637,1,0,0:0:0:0:
192,192,107690,1,0,0:0:0:0:
320,192,107742,1,0,0:0:0:0:
448,192,107795,1,0,0:0:0:0:
64,192,107848,1,0,0:0:0:0:
192,192,107900,1,0,0:0:0:0:
320,192,107900,1,0,0:0:0:0:
64,192,107953,1,0,0:0:0:0:
320,192,108006,1,0,0:0:0:0:
192,192,108058,1,0,0:0:0:0:
448,192,108111,1,0,0:0:0:0:
192,192,108164,1,0,0:0:0:0:
320,192,108216,1,0,0:0:0:0:
448,192,108269,1,0,0:0:0:0:
64,192,108322,1,0,0:0:0:0:
320,192,108374,1,0,0:0:0:0:
192,192,108427,1,0,0:0:0:0:
448,192,108480,1,0,0:0:0:0:
64,192,108532,1,0,0:0:0:0:
192,192,108585,1,0,0:0:0:0:
320,192,108638,1,0,0:0:0:0:
448,192,108690,1,0,0:0:0:0:
320,192,108743,1,0,0:0:0:0:
192,192,108796,1,0,0:0:0:0:
64,192,108848,1,0,0:0:0:0:
192,192,108901,1,0,0:0:0:0:
320,192,108954,1,0,0:0:0:0:
448,192,109006,1,0,0:0:0:0:
192,192,109059,1,0,0:0:0:0:
320,192,109112,1,0,0:0:0:0:
64,192,109164,1,0,0:0:0:0:
448,192,109164,1,0,0:0:0:0:
192,192,109217,1,0,0:0:0:0:
320,192,109270,1,0,0:0:0:0:
192,192,109322,1,0,0:0:0:0:
448,192,109375,1,0,0:0:0:0:
320,192,109428,1,0,0:0:0:0:
192,192,109480,1,0,0:0:0:0:
64,192,109533,1,0,0:0:0:0:
192,192,109586,1,0,0:0:0:0:
320,192,109638,1,0,0:0:0:0:
448,192,109691,1,0,0:0:0:0:
320,192,109743,1,0,0:0:0:0:
192,192,109796,1,0,0:0:0:0:
64,192,109849,1,0,0:0:0:0:
320,192,109901,1,0,0:0:0:0:
192,192,109954,1,0,0:0:0:0:
448,192,110007,1,0,0:0:0:0:
192,192,110059,1,0,0:0:0:0:
320,192,110112,1,0,0:0:0:0:
64,192,110165,1,0,0:0:0:0:
192,192,110217,1,0,0:0:0:0:
320,192,110270,1,0,0:0:0:0:
64,192,110323,1,0,0:0:0:0:
448,192,110375,1,0,0:0:0:0:
192,192,110428,1,0,0:0:0:0:
320,192,110428,1,0,0:0:0:0:
448,192,110481,1,0,0:0:0:0:
64,192,110533,1,0,0:0:0:0:
320,192,110586,1,0,0:0:0:0:
64,192,110639,1,0,0:0:0:0:
448,192,110691,1,0,0:0:0:0:
320,192,110744,1,0,0:0:0:0:
192,192,110797,1,0,0:0:0:0:
448,192,110849,1,0,0:0:0:0:
64,192,110902,1,0,0:0:0:0:
320,192,110955,1,0,0:0:0:0:
192,192,111007,1,0,0:0:0:0:
448,192,111060,1,0,0:0:0:0:
320,192,111113,1,0,0:0:0:0:
192,192,111165,1,0,0:0:0:0:
448,192,111218,1,0,0:0:0:0:
320,192,111271,1,0,0:0:0:0:
192,192,111323,1,0,0:0:0:0:
448,192,111376,1,0,0:0:0:0:
64,192,111429,1,0,0:0:0:0:
320,192,111481,1,0,0:0:0:0:
192,192,111534,1,0,0:0:0:0:
320,192,111587,1,0,0:0:0:0:
64,192,111639,1,0,0:0:0:0:
192,192,111692,1,0,0:0:0:0:
448,192,111692,1,0,0:0:0:0:
320,192,111745,1,0,0:0:0:0:
192,192,111797,1,0,0:0:0:0:
64,192,111850,1,0,0:0:0:0:
448,192,111903,1,0,0:0:0:0:
64,192,111955,1,0,0:0:0:0:
320,192,112008,1,0,0:0:0:0:
448,192,112061,1,0,0:0:0:0:
192,192,112113,1,0,0:0:0:0:
320,192,112166,1,0,0:0:0:0:
64,192,112218,1,0,0:0:0:0:
448,192,112271,1,0,0:0:0:0:
192,192,112324,1,0,0:0:0:0:
320,192,112324,1,0,0:0:0:0:
64,192,112640,1,0,0:0:0:0:
192,192,112640,1,0,0:0:0:0:
320,192,113272,1,0,0:0:0:0:
448,192,113272,128,0,113430:0:0:0:0:
64,192,113798,1,0,0:0:0:0:
192,192,113798,1,0,0:0:0:0:
320,192,113904,1,0,0:0:0:0:
448,192,113904,128,0,114062:0:0:0:0:
64,192,114220,1,0,0:0:0:0:
192,192,114220,1,0,0:0:0:0:
320,192,114535,1,0,0:0:0:0:
448,192,114535,128,0,114693:0:0:0:0:
64,192,114851,1,0,0:0:0:0:
192,192,114851,1,0,0:0:0:0:
320,192,115167,1,0,0:0:0:0:
448,192,115167,128,0,115325:0:0:0:0:
320,192,115799,1,0,0:0:0:0:
448,192,115799,128,0,115957:0:0:0:0:
320,192,116326,1,0,0:0:0:0:
448,192,116326,1,0,0:0:0:0:
64,192,116431,1,0,0:0:0:0:
192,192,116431,1,0,0:0:0:0:
320,192,116484,1,0,0:0:0:0:
448,192,116537,1,0,0:0:0:0:
192,192,116589,1,0,0:0:0:0:
320,192,116642,1,0,0:0:0:0:
448,192,116695,1,0,0:0:0:0:
64,192,116747,1,0,0:0:0:0:
192,192,116800,1,0,0:0:0:0:
320,192,116852,1,0,0:0:0:0:
448,192,116905,1,0,0:0:0:0:
320,192,116958,1,0,0:0:0:0:
192,192,117010,1,0,0:0:0:0:
64,192,117063,1,0,0:0:0:0:
448,192,117116,1,0,0:0:0:0:
320,192,117168,1,0,0:0:0:0:
448,192,117221,1,0,0:0:0:0:
64,192,117274,1,0,0:0:0:0:
320,192,117326,1,0,0:0:0:0:
64,192,117379,1,0,0:0:0:0:
320,192,117432,1,0,0:0:0:0:
192,192,117484,1,0,0:0:0:0:
448,192,117537,1,0,0:0:0:0:
320,192,117590,1,0,0:0:0:0:
192,192,117642,1,0,0:0:0:0:
64,192,117695,1,0,0:0:0:0:
448,192,117695,1,0,0:0:0:0:
192,192,117748,1,0,0:0:0:0:
320,192,117800,1,0,0:0:0:0:
448,192,117853,1,0,0:0:0:0:
64,192,117906,1,0,0:0:0:0:
192,192,117958,1,0,0:0:0:0:
320,192,118011,1,0,0:0:0:0:
448,192,118064,1,0,0:0:0:0:
320,192,118116,1,0,0:0:0:0:
192,192,118169,1,0,0:0:0:0:
64,192,118222,1,0,0:0:0:0:
192,192,118274,1,0,0:0:0:0:
448,192,118327,1,0,0:0:0:0:
320,192,118380,1,0,0:0:0:0:
192,192,118432,1,0,0:0:0:0:
64,192,118485,1,0,0:0:0:0:
448,192,118538,1,0,0:0:0:0:
320,192,118590,1,0,0:0:0:0:
448,192,118643,1,0,0:0:0:0:
64,192,118696,1,0,0:0:0:0:
192,192,118748,1,0,0:0:0:0:
320,192,118801,1,0,0:0:0:0:
192,192,118854,1,0,0:0:0:0:
448,192,118906,1,0,0:0:0:0:
64,192,118959,1,0,0:0:0:0:
320,192,118959,1,0,0:0:0:0:
192,192,119012,1,0,0:0:0:0:
320,192,119064,1,0,0:0:0:0:
64,192,119117,1,0,0:0:0:0:
192,192,119170,1,0,0:0:0:0:
320,192,119222,1,0,0:0:0:0:
448,192,119275,1,0,0:0:0:0:
320,192,119327,1,0,0:0:0:0:
192,192,119380,1,0,0:0:0:0:
64,192,119433,1,0,0:0:0:0:
192,192,119485,1,0,0:0:0:0:
448,192,119538,1,0,0:0:0:0:
320,192,119591,1,0,0:0:0:0:
192,192,119643,1,0,0:0:0:0:
320,192,119696,1,0,0:0:0:0:
192,192,119749,1,0,0:0:0:0:
64,192,119801,1,0,0:0:0:0:
320,192,119854,1,0,0:0:0:0:
192,192,119907,1,0,0:0:0:0:
448,192,119959,1,0,0:0:0:0:
320,192,120012,1,0,0:0:0:0:
448,192,120065,1,0,0:0:0:0:
64,192,120117,1,0,0:0:0:0:
192,192,120170,1,0,0:0:0:0:
320,192,120223,1,0,0:0:0:0:
448,192,120223,1,0,0:0:0:0:
192,192,120275,1,0,0:0:0:0:
64,192,120328,1,0,0:0:0:0:
448,192,120381,1,0,0:0:0:0:
320,192,120433,1,0,0:0:0:0:
192,192,120486,1,0,0:0:0:0:
64,192,120539,1,0,0:0:0:0:
448,192,120591,1,0,0:0:0:0:
192,192,120644,1,0,0:0:0:0:
320,192,120697,1,0,0:0:0:0:
64,192,120749,1,0,0:0:0:0:
448,192,120802,1,0,0:0:0:0:
320,192,120855,1,0,0:0:0:0:
192,192,120907,1,0,0:0:0:0:
448,192,120960,1,0,0:0:0:0:
320,192,121013,1,0,0:0:0:0:
192,192,121065,1,0,0:0:0:0:
448,192,121118,1,0,0:0:0:0:
320,192,121171,1,0,0:0:0:0:
64,192,121223,1,0,0:0:0:0:
448,192,121276,1,0,0:0:0:0:
320,192,121329,1,0,0:0:0:0:
64,192,121381,1,0,0:0:0:0:
192,192,121434,1,0,0:0:0:0:
320,192,121487,1,0,0:0:0:0:
448,192,121487,1,0,0:0:0:0:
64,192,121539,1,0,0:0:0:0:
192,192,121592,1,0,0:0:0:0:
320,192,121644,1,0,0:0:0:0:
448,192,121697,1,0,0:0:0:0:
64,192,121750,1,0,0:0:0:0:
320,192,121802,1,0,0:0:0:0:
448,192,121855,1,0,0:0:0:0:
64,192,121908,1,0,0:0:0:0:
320,192,121960,1,0,0:0:0:0:
448,192,122013,1,0,0:0:0:0:
192,192,122066,1,0,0:0:0:0:
320,192,122118,1,0,0:0:0:0:
448,192,122171,1,0,0:0:0:0:
64,192,122224,1,0,0:0:0:0:
192,192,122276,1,0,0:0:0:0:
320,192,122329,1,0,0:0:0:0:
448,192,122382,1,0,0:0:0:0:
320,192,122434,1,0,0:0:0:0:
192,192,122487,1,0,0:0:0:0:
64,192,122540,1,0,0:0:0:0:
448,192,122592,1,0,0:0:0:0:
320,192,122645,1,0,0:0:0:0:
192,192,122698,1,0,0:0:0:0:
64,192,122750,1,0,0:0:0:0:
448,192,122750,1,0,0:0:0:0:
320,192,122803,1,0,0:0:0:0:
192,192,122856,1,0,0:0:0:0:
448,192,122908,1,0,0:0:0:0:
320,192,122961,1,0,0:0:0:0:
64,192,123014,1,0,0:0:0:0:
192,192,123066,1,0,0:0:0:0:
448,192,123119,1,0,0:0:0:0:
320,192,123172,1,0,0:0:0:0:
64,192,123224,1,0,0:0:0:0:
192,192,123277,1,0,0:0:0:0:
448,192,123330,1,0,0:0:0:0:
64,192,123382,1,0,0:0:0:0:
448,192,123435,1,0,0:0:0:0:
320,192,123488,1,0,0:0:0:0:
192,192,123540,1,0,0:0:0:0:
64,192,123593,1,0,0:0:0:0:
192,192,123646,1,0,0:0:0:0:
320,192,123698,1,0,0:0:0:0:
448,192,123751,1,0,0:0:0:0:
64,192,123804,1,0,0:0:0:0:
448,192,123856,1,0,0:0:0:0:
64,192,123909,1,0,0:0:0:0:
192,192,123962,1,0,0:0:0:0:
320,192,124014,1,0,0:0:0:0:
448,192,124014,1,0,0:0:0:0:
64,192,124067,1,0,0:0:0:0:
192,192,124119,1,0,0:0:0:0:
64,192,124172,1,0,0:0:0:0:
448,192,124225,1,0,0:0:0:0:
320,192,124277,1,0,0:0:0:0:
448,192,124330,1,0,0:0:0:0:
64,192,124383,1,0,0:0:0:0:
192,192,124435,1,0,0:0:0:0:
64,192,124488,1,0,0:0:0:0:
320,192,124541,1,0,0:0:0:0:
192,192,124593,1,0,0:0:0:0:
448,192,124646,1,0,0:0:0:0:
64,192,124699,1,0,0:0:0:0:
192,192,124751,1,0,0:0:0:0:
320,192,124804,1,0,0:0:0:0:
448,192,124857,1,0,0:0:0:0:
320,192,124909,1,0,0:0:0:0:
192,192,124962,1,0,0:0:0:0:
64,192,125015,1,0,0:0:0:0:
192,192,125067,1,0,0:0:0:0:
448,192,125120,1,0,0:0:0:0:
320,192,125173,1,0,0:0:0:0:
64,192,125225,1,0,0:0:0:0:
192,192,125278,1,0,0:0:0:0:
320,192,125278,1,0,0:0:0:0:
448,192,125331,1,0,0:0:0:0:
320,192,125383,1,0,0:0:0:0:
192,192,125436,1,0,0:0:0:0:
64,192,125489,1,0,0:0:0:0:
448,192,125541,1,0,0:0:0:0:
320,192,125594,1,0,0:0:0:0:
448,192,125647,1,0,0:0:0:0:
192,192,125699,1,0,0:0:0:0:
320,192,125752,1,0,0:0:0:0:
64,192,125805,1,0,0:0:0:0:
192,192,125857,1,0,0:0:0:0:
320,192,125910,1,0,0:0:0:0:
448,192,125963,1,0,0:0:0:0:
64,192,126015,1,0,0:0:0:0:
320,192,126068,1,0,0:0:0:0:
192,192,126121,1,0,0:0:0:0:
448,192,126173,1,0,0:0:0:0:
320,192,126226,1,0,0:0:0:0:
64,192,126279,1,0,0:0:0:0:
192,192,126331,1,0,0:0:0:0:
448,192,126384,1,0,0:0:0:0:
320,192,126436,1,0,0:0:0:0:
192,192,126489,1,0,0:0:0:0:
64,192,126542,1,0,0:0:0:0:
448,192,126542,1,0,0:0:0:0:
320,192,126594,1,0,0:0:0:0:
192,192,126647,1,0,0:0:0:0:
448,192,126700,1,0,0:0:0:0:
320,192,126752,1,0,0:0:0:0:
192,192,126805,1,0,0:0:0:0:
64,192,126858,1,0,0:0:0:0:
192,192,126910,1,0,0:0:0:0:
320,192,126963,1,0,0:0:0:0:
448,192,127016,1,0,0:0:0:0:
320,192,127068,1,0,0:0:0:0:
64,192,127121,1,0,0:0:0:0:
192,192,127174,1,0,0:0:0:0:
64,192,127226,1,0,0:0:0:0:
320,192,127279,1,0,0:0:0:0:
192,192,127332,1,0,0:0:0:0:
448,192,127384,1,0,0:0:0:0:
320,192,127437,1,0,0:0:0:0:
64,192,127490,1,0,0:0:0:0:
192,192,127542,1,0,0:0:0:0:
320,192,127595,1,0,0:0:0:0:
448,192,127648,1,0,0:0:0:0:
64,192,127700,1,0,0:0:0:0:
192,192,127753,1,0,0:0:0:0:
320,192,127806,1,0,0:0:0:0:
448,192,127806,1,0,0:0:0:0:
64,192,127858,1,0,0:0:0:0:
192,192,127911,1,0,0:0:0:0:
320,192,127964,1,0,0:0:0:0:
448,192,128016,1,0,0:0:0:0:
64,192,128069,1,0,0:0:0:0:
192,192,128122,1,0,0:0:0:0:
320,192,128174,1,0,0:0:0:0:
64,192,128227,1,0,0:0:0:0:
448,192,128280,1,0,0:0:0:0:
320,192,128332,1,0,0:0:0:0:
192,192,128385,1,0,0:0:0:0:
64,192,128438,1,0,0:0:0:0:
320,192,128490,1,0,0:0:0:0:
448,192,128543,1,0,0:0:0:0:
320,192,128596,1,0,0:0:0:0:
192,192,128648,1,0,0:0:0:0:
64,192,128701,1,0,0:0:0:0:
192,192,128753,1,0,0:0:0:0:
320,192,128806,1,0,0:0:0:0:
448,192,128859,1,0,0:0:0:0:
64,192,128911,1,0,0:0:0:0:
192,192,128964,1,0,0:0:0:0:
320,192,129017,1,0,0:0:0:0:
64,192,129069,1,0,0:0:0:0:
448,192,129069,1,0,0:0:0:0:
320,192,129122,1,0,0:0:0:0:
192,192,129175,1,0,0:0:0:0:
64,192,129227,1,0,0:0:0:0:
320,192,129280,1,0,0:0:0:0:
192,192,129333,1,0,0:0:0:0:
320,192,129385,1,0,0:0:0:0:
64,192,129438,1,0,0:0:0:0:
448,192,129491,1,0,0:0:0:0:
320,192,129543,1,0,0:0:0:0:
192,192,129596,1,0,0:0:0:0:
64,192,129649,1,0,0:0:0:0:
192,192,129701,1,0,0:0:0:0:
448,192,129754,1,0,0:0:0:0:
320,192,129807,1,0,0:0:0:0:
192,192,129859,1,0,0:0:0:0:
64,192,129912,1,0,0:0:0:0:
448,192,129965,1,0,0:0:0:0:
320,192,130017,1,0,0:0:0:0:
192,192,130070,1,0,0:0:0:0:
64,192,130123,1,0,0:0:0:0:
448,192,130175,1,0,0:0:0:0:
320,192,130228,1,0,0:0:0:0:
192,192,130281,1,0,0:0:0:0:
320,192,130333,1,0,0:0:0:0:
448,192,130386,1,0,0:0:0:0:
64,192,130439,1,0,0:0:0:0:
192,192,130491,1,0,0:0:0:0:
320,192,130544,1,0,0:0:0:0:
448,192,130597,1,0,0:0:0:0:
64,192,130649,1,0,0:0:0:0:
320,192,130702,1,0,0:0:0:0:
192,192,130755,1,0,0:0:0:0:
448,192,130807,1,0,0:0:0:0:
320,192,130860,1,0,0:0:0:0:
192,192,130913,1,0,0:0:0:0:
64,192,130965,1,0,0:0:0:0:
448,192,130965,1,0,0:0:0:0:
192,192,131281,1,0,0:0:0:0:
448,192,131281,1,0,0:0:0:0:
64,192,131913,128,0,132071:0:0:0:0:
192,192,131913,1,0,0:0:0:0:
320,192,132440,1,0,0:0:0:0:
448,192,132440,1,0,0:0:0:0:
64,192,132545,128,0,132703:0:0:0:0:
192,192,132545,1,0,0:0:0:0:
320,192,132861,1,0,0:0:0:0:
448,192,132861,1,0,0:0:0:0:
64,192,133177,128,0,133335:0:0:0:0:
192,192,133177,1,0,0:0:0:0:
320,192,133493,1,0,0:0:0:0:
448,192,133493,1,0,0:0:0:0:
64,192,133809,128,0,133967:0:0:0:0:
192,192,133809,1,0,0:0:0:0:
64,192,134441,128,0,134599:0:0:0:0:
192,192,134441,1,0,0:0:0:0:
64,192,134967,1,0,0:0:0:0:
192,192,134967,1,0,0:0:0:0:
320,192,135073,1,0,0:0:0:0:
448,192,135073,1,0,0:0:0:0:
192,192,135125,1,0,0:0:0:0:
64,192,135178,1,0,0:0:0:0:
320,192,135231,1,0,0:0:0:0:
192,192,135283,1,0,0:0:0:0:
64,192,135336,1,0,0:0:0:0:
448,192,135389,1,0,0:0:0:0:
320,192,135441,1,0,0:0:0:0:
192,192,135494,1,0,0:0:0:0:
64,192,135547,1,0,0:0:0:0:
320,192,135599,1,0,0:0:0:0:
192,192,135652,1,0,0:0:0:0:
448,192,135705,1,0,0:0:0:0:
192,192,135757,1,0,0:0:0:0:
320,192,135810,1,0,0:0:0:0:
448,192,135863,1,0,0:0:0:0:
64,192,135915,1,0,0:0:0:0:
192,192,135968,1,0,0:0:0:0:
320,192,136020,1,0,0:0:0:0:
192,192,136073,1,0,0:0:0:0:
448,192,136126,1,0,0:0:0:0:
320,192,136178,1,0,0:0:0:0:
64,192,136231,1,0,0:0:0:0:
192,192,136284,1,0,0:0:0:0:
320,192,136336,1,0,0:0:0:0:
448,192,136336,1,0,0:0:0:0:
64,192,136389,1,0,0:0:0:0:
192,192,136442,1,0,0:0:0:0:
320,192,136494,1,0,0:0:0:0:
448,192,136547,1,0,0:0:0:0:
320,192,136600,1,0,0:0:0:0:
192,192,136652,1,0,0:0:0:0:
64,192,136705,1,0,0:0:0:0:
192,192,136758,1,0,0:0:0:0:
320,192,136810,1,0,0:0:0:0:
192,192,136863,1,0,0:0:0:0:
320,192,136916,1,0,0:0:0:0:
448,192,136968,1,0,0:0:0:0:
64,192,137021,1,0,0:0:0:0:
192,192,137074,1,0,0:0:0:0:
320,192,137126,1,0,0:0:0:0:
64,192,137179,1,0,0:0:0:0:
448,192,137232,1,0,0:0:0:0:
64,192,137284,1,0,0:0:0:0:
448,192,137337,1,0,0:0:0:0:
320,192,137390,1,0,0:0:0:0:
192,192,137442,1,0,0:0:0:0:
320,192,137495,1,0,0:0:0:0:
64,192,137548,1,0,0:0:0:0:
192,192,137600,1,0,0:0:0:0:
448,192,137600,1,0,0:0:0:0:
320,192,137653,1,0,0:0:0:0:
64,192,137706,1,0,0:0:0:0:
448,192,137758,1,0,0:0:0:0:
320,192,137811,1,0,0:0:0:0:
192,192,137864,1,0,0:0:0:0:
448,192,137916,1,0,0:0:0:0:
64,192,137969,1,0,0:0:0:0:
192,192,138022,1,0,0:0:0:0:
320,192,138074,1,0,0:0:0:0:
448,192,138127,1,0,0:0:0:0:
320,192,138180,1,0,0:0:0:0:
192,192,138232,1,0,0:0:0:0:
64,192,138285,1,0,0:0:0:0:
192,192,138337,1,0,0:0:0:0:
320,192,138390,1,0,0:0:0:0:
448,192,138443,1,0,0:0:0:0:
192,192,138495,1,0,0:0:0:0:
320,192,138548,1,0,0:0:0:0:
64,192,138601,1,0,0:0:0:0:
192,192,138653,1,0,0:0:0:0:
64,192,138706,1,0,0:0:0:0:
448,192,138759,1,0,0:0:0:0:
320,192,138811,1,0,0:0:0:0:
64,192,138864,1,0,0:0:0:0:
192,192,138864,1,0,0:0:0:0:
320,192,138917,1,0,0:0:0:0:
448,192,138969,1,0,0:0:0:0:
192,192,139022,1,0,0:0:0:0:
320,192,139075,1,0,0:0:0:0:
64,192,139127,1,0,0:0:0:0:
192,192,139180,1,0,0:0:0:0:
320,192,139233,1,0,0:0:0:0:
448,192,139285,1,0,0:0:0:0:
320,192,139338,1,0,0:0:0:0:
192,192,139391,1,0,0:0:0:0:
64,192,139443,1,0,0:0:0:0:
320,192,139496,1,0,0:0:0:0:
448,192,139549,1,0,0:0:0:0:
64,192,139601,1,0,0:0:0:0:
192,192,139654,1,0,0:0:0:0:
320,192,139707,1,0,0:0:0:0:
64,192,139759,1,0,0:0:0:0:
192,192,139812,1,0,0:0:0:0:
448,192,139865,1,0,0:0:0:0:
64,192,139917,1,0,0:0:0:0:
192,192,139970,1,0,0:0:0:0:
448,192,140023,1,0,0:0:0:0:
320,192,140075,1,0,0:0:0:0:
64,192,140128,1,0,0:0:0:0:
192,192,140128,1,0,0:0:0:0:
448,192,140181,1,0,0:0:0:0:
320,192,140233,1,0,0:0:0:0:
192,192,140286,1,0,0:0:0:0:
64,192,140339,1,0,0:0:0:0:
448,192,140391,1,0,0:0:0:0:
192,192,140444,1,0,0:0:0:0:
64,192,140497,1,0,0:0:0:0:
448,192,140549,1,0,0:0:0:0:
192,192,140602,1,0,0:0:0:0:
64,192,140654,1,0,0:0:0:0:
320,192,140707,1,0,0:0:0:0:
192,192,140760,1,0,0:0:0:0:
64,192,140812,1,0,0:0:0:0:
448,192,140865,1,0,0:0:0:0:
320,192,140918,1,0,0:0:0:0:
192,192,140970,1,0,0:0:0:0:
64,192,141023,1,0,0:0:0:0:
192,192,141076,1,0,0:0:0:0:
320,192,141128,1,0,0:0:0:0:
448,192,141181,1,0,0:0:0:0:
64,192,141234,1,0,0:0:0:0:
192,192,141286,1,0,0:0:0:0:
320,192,141339,1,0,0:0:0:0:
64,192,141392,1,0,0:0:0:0:
448,192,141392,1,0,0:0:0:0:
192,192,141444,1,0,0:0:0:0:
320,192,141497,1,0,0:0:0:0:
448,192,141550,1,0,0:0:0:0:
64,192,141602,1,0,0:0:0:0:
192,192,141655,1,0,0:0:0:0:
320,192,141708,1,0,0:0:0:0:
448,192,141760,1,0,0:0:0:0:
320,192,141813,1,0,0:0:0:0:
192,192,141866,1,0,0:0:0:0:
64,192,141918,1,0,0:0:0:0:
320,192,141971,1,0,0:0:0:0:
448,192,142024,1,0,0:0:0:0:
192,192,142076,1,0,0:0:0:0:
320,192,142129,1,0,0:0:0:0:
192,192,142182,1,0,0:0:0:0:
448,192,142234,1,0,0:0:0:0:
64,192,142287,1,0,0:0:0:0:
192,192,142340,1,0,0:0:0:0:
320,192,142392,1,0,0:0:0:0:
64,192,142445,1,0,0:0:0:0:
448,192,142498,1,0,0:0:0:0:
320,192,142550,1,0,0:0:0:0:
192,192,142603,1,0,0:0:0:0:
64,192,142656,1,0,0:0:0:0:
448,192,142656,1,0,0:0:0:0:
320,192,142708,1,0,0:0:0:0:
192,192,142761,1,0,0:0:0:0:
64,192,142814,1,0,0:0:0:0:
320,192,142866,1,0,0:0:0:0:
192,192,142919,1,0,0:0:0:0:
448,192,142972,1,0,0:0:0:0:
320,192,143024,1,0,0:0:0:0:
192,192,143077,1,0,0:0:0:0:
64,192,143129,1,0,0:0:0:0:
192,192,143182,1,0,0:0:0:0:
320,192,143235,1,0,0:0:0:0:
448,192,143287,1,0,0:0:0:0:
320,192,143340,1,0,0:0:0:0:
192,192,143393,1,0,0:0:0:0:
64,192,143445,1,0,0:0:0:0:
320,192,143498,1,0,0:0:0:0:
192,192,143551,1,0,0:0:0:0:
320,192,143603,1,0,0:0:0:0:
448,192,143656,1,0,0:0:0:0:
64,192,143709,1,0,0:0:0:0:
192,192,143761,1,0,0:0:0:0:
320,192,143814,1,0,0:0:0:0:
192,192,143867,1,0,0:0:0:0:
64,192,143919,1,0,0:0:0:0:
448,192,143919,1,0,0:0:0:0:
320,192,143972,1,0,0:0:0:0:
192,192,144025,1,0,0:0:0:0:
64,192,144077,1,0,0:0:0:0:
192,192,144130,1,0,0:0:0:0:
320,192,144183,1,0,0:0:0:0:
448,192,144235,1,0,0:0:0:0:
320,192,144288,1,0,0:0:0:0:
64,192,144341,1,0,0:0:0:0:
320,192,144393,1,0,0:0:0:0:
192,192,144446,1,0,0:0:0:0:
448,192,144499,1,0,0:0:0:0:
192,192,144551,1,0,0:0:0:0:
320,192,144604,1,0,0:0:0:0:
64,192,144657,1,0,0:0:0:0:
192,192,144709,1,0,0:0:0:0:
448,192,144762,1,0,0:0:0:0:
64,192,144815,1,0,0:0:0:0:
192,192,144867,1,0,0:0:0:0:
320,192,144920,1,0,0:0:0:0:
448,192,144973,1,0,0:0:0:0:
64,192,145025,1,0,0:0:0:0:
192,192,145078,1,0,0:0:0:0:
320,192,145131,1,0,0:0:0:0:
64,192,145183,1,0,0:0:0:0:
448,192,145183,1,0,0:0:0:0:
192,192,145236,1,0,0:0:0:0:
320,192,145289,1,0,0:0:0:0:
64,192,145341,1,0,0:0:0:0:
192,192,145394,1,0,0:0:0:0:
64,192,145446,1,0,0:0:0:0:
320,192,145499,1,0,0:0:0:0:
192,192,145552,1,0,0:0:0:0:
320,192,145604,1,0,0:0:0:0:
448,192,145657,1,0,0:0:0:0:
64,192,145710,1,0,0:0:0:0:
192,192,145762,1,0,0:0:0:0:
320,192,145815,1,0,0:0:0:0:
448,192,145868,1,0,0:0:0:0:
192,192,145920,1,0,0:0:0:0:
320,192,145973,1,0,0:0:0:0:
64,192,146026,1,0,0:0:0:0:
448,192,146078,1,0,0:0:0:0:
320,192,146131,1,0,0:0:0:0:
192,192,146184,1,0,0:0:0:0:
320,192,146236,1,0,0:0:0:0:
64,192,146289,1,0,0:0:0:0:
448,192,146342,1,0,0:0:0:0:
320,192,146394,1,0,0:0:0:0:
192,192,146447,1,0,0:0:0:0:
448,192,146447,1,0,0:0:0:0:
64,192,146500,1,0,0:0:0:0:
320,192,146552,1,0,0:0:0:0:
192,192,146605,1,0,0:0:0:0:
64,192,146658,1,0,0:0:0:0:
192,192,146710,1,0,0:0:0:0:
320,192,146763,1,0,0:0:0:0:
192,192,146816,1,0,0:0:0:0:
448,192,146868,1,0,0:0:0:0:
64,192,146921,1,0,0:0:0:0:
192,192,146974,1,0,0:0:0:0:
320,192,147026,1,0,0:0:0:0:
448,192,147079,1,0,0:0:0:0:
192,192,147132,1,0,0:0:0:0:
320,192,147184,1,0,0:0:0:0:
192,192,147237,1,0,0:0:0:0:
448,192,147290,1,0,0:0:0:0:
64,192,147342,1,0,0:0:0:0:
192,192,147395,1,0,0:0:0:0:
320,192,147448,1,0,0:0:0:0:
64,192,147500,1,0,0:0:0:0:
448,192,147553,1,0,0:0:0:0:
320,192,147606,1,0,0:0:0:0:
192,192,147658,1,0,0:0:0:0:
64,192,147711,1,0,0:0:0:0:
448,192,147711,1,0,0:0:0:0:
192,192,147764,1,0,0:0:0:0:
320,192,147816,1,0,0:0:0:0:
448,192,147869,1,0,0:0:0:0:
320,192,147921,1,0,0:0:0:0:
192,192,147974,1,0,0:0:0:0:
448,192,148027,1,0,0:0:0:0:
64,192,148079,1,0,0:0:0:0:
192,192,148132,1,0,0:0:0:0:
320,192,148185,1,0,0:0:0:0:
448,192,148237,1,0,0:0:0:0:
192,192,148290,1,0,0:0:0:0:
320,192,148343,1,0,0:0:0:0:
448,192,148395,1,0,0:0:0:0:
64,192,148448,1,0,0:0:0:0:
192,192,148501,1,0,0:0:0:0:
448,192,148553,1,0,0:0:0:0:
64,192,148606,1,0,0:0:0:0:
192,192,148659,1,0,0:0:0:0:
320,192,148711,1,0,0:0:0:0:
448,192,148764,1,0,0:0:0:0:
64,192,148817,1,0,0:0:0:0:
192,192,148869,1,0,0:0:0:0:
320,192,148922,1,0,0:0:0:0:
64,192,148975,1,0,0:0:0:0:
448,192,148975,1,0,0:0:0:0:
192,192,149027,1,0,0:0:0:0:
448,192,149080,1,0,0:0:0:0:
320,192,149133,1,0,0:0:0:0:
192,192,149185,1,0,0:0:0:0:
320,192,149238,1,0,0:0:0:0:
448,192,149291,1,0,0:0:0:0:
64,192,149343,1,0,0:0:0:0:
192,192,149396,1,0,0:0:0:0:
320,192,149449,1,0,0:0:0:0:
192,192,149501,1,0,0:0:0:0:
320,192,149554,1,0,0:0:0:0:
64,192,149607,1,0,0:0:0:0:
448,192,149607,1,0,0:0:0:0:
64,192,149923,1,0,0:0:0:0:
320,192,149923,1,0,0:0:0:0:
192,192,150554,128,0,150712:0:0:0:0:
448,192,150554,1,0,0:0:0:0:
64,192,151081,1,0,0:0:0:0:
320,192,151081,1,0,0:0:0:0:
192,192,151186,128,0,151344:0:0:0:0:
448,192,151186,1,0,0:0:0:0:
64,192,151502,1,0,0:0:0:0:
320,192,151502,1,0,0:0:0:0:
192,192,151818,128,0,151976:0:0:0:0:
448,192,151818,1,0,0:0:0:0:
64,192,152134,1,0,0:0:0:0:
320,192,152134,1,0,0:0:0:0:
192,192,152450,128,0,152608:0:0:0:0:
448,192,152450,1,0,0:0:0:0:
192,192,153082,128,0,153240:0:0:0:0:
448,192,153082,1,0,0:0:0:0:
192,192,153609,1,0,0:0:0:0:
448,192,153609,1,0,0:0:0:0:
64,192,153714,1,0,0:0:0:0:
320,192,153714,1,0,0:0:0:0:
448,192,153767,1,0,0:0:0:0:
320,192,153819,1,0,0:0:0:0:
64,192,153872,1,0,0:0:0:0:
448,192,153925,1,0,0:0:0:0:
320,192,153977,1,0,0:0:0:0:
192,192,154030,1,0,0:0:0:0:
64,192,154083,1,0,0:0:0:0:
320,192,154135,1,0,0:0:0:0:
192,192,154188,1,0,0:0:0:0:
320,192,154241,1,0,0:0:0:0:
64,192,154293,1,0,0:0:0:0:
448,192,154346,1,0,0:0:0:0:
320,192,154399,1,0,0:0:0:0:
192,192,154451,1,0,0:0:0:0:
320,192,154504,1,0,0:0:0:0:
64,192,154557,1,0,0:0:0:0:
448,192,154609,1,0,0:0:0:0:
64,192,154662,1,0,0:0:0:0:
448,192,154715,1,0,0:0:0:0:
320,192,154767,1,0,0:0:0:0:
192,192,154820,1,0,0:0:0:0:
64,192,154873,1,0,0:0:0:0:
448,192,154925,1,0,0:0:0:0:
192,192,154978,1,0,0:0:0:0:
320,192,154978,1,0,0:0:0:0:
448,192,155030,1,0,0:0:0:0:
64,192,155083,1,0,0:0:0:0:
320,192,155136,1,0,0:0:0:0:
192,192,155188,1,0,0:0:0:0:
64,192,155241,1,0,0:0:0:0:
448,192,155294,1,0,0:0:0:0:
320,192,155346,1,0,0:0:0:0:
448,192,155399,1,0,0:0:0:0:
64,192,155452,1,0,0:0:0:0:
192,192,155504,1,0,0:0:0:0:
448,192,155557,1,0,0:0:0:0:
64,192,155610,1,0,0:0:0:0:
320,192,155662,1,0,0:0:0:0:
448,192,155715,1,0,0:0:0:0:
64,192,155768,1,0,0:0:0:0:
320,192,155820,1,0,0:0:0:0:
192,192,155873,1,0,0:0:0:0:
320,192,155926,1,0,0:0:0:0:
64,192,155978,1,0,0:0:0:0:
448,192,156031,1,0,0:0:0:0:
320,192,156084,1,0,0:0:0:0:
192,192,156136,1,0,0:0:0:0:
320,192,156189,1,0,0:0:0:0:
64,192,156242,1,0,0:0:0:0:
192,192,156242,1,0,0:0:0:0:
448,192,156294,1,0,0:0:0:0:
320,192,156347,1,0,0:0:0:0:
192,192,156400,1,0,0:0:0:0:
64,192,156452,1,0,0:0:0:0:
192,192,156505,1,0,0:0:0:0:
320,192,156558,1,0,0:0:0:0:
448,192,156610,1,0,0:0:0:0:
64,192,156663,1,0,0:0:0:0:
192,192,156716,1,0,0:0:0:0:
448,192,156768,1,0,0:0:0:0:
320,192,156821,1,0,0:0:0:0:
192,192,156874,1,0,0:0:0:0:
320,192,156926,1,0,0:0:0:0:
448,192,156979,1,0,0:0:0:0:
64,192,157032,1,0,0:0:0:0:
320,192,157084,1,0,0:0:0:0:
448,192,157137,1,0,0:0:0:0:
64,192,157190,1,0,0:0:0:0:
192,192,157242,1,0,0:0:0:0:
320,192,157295,1,0,0:0:0:0:
64,192,157347,1,0,0:0:0:0:
320,192,157400,1,0,0:0:0:0:
192,192,157453,1,0,0:0:0:0:
64,192,157505,1,0,0:0:0:0:
448,192,157505,1,0,0:0:0:0:
320,192,157558,1,0,0:0:0:0:
192,192,157611,1,0,0:0:0:0:
64,192,157663,1,0,0:0:0:0:
448,192,157716,1,0,0:0:0:0:
320,192,157769,1,0,0:0:0:0:
192,192,157821,1,0,0:0:0:0:
64,192,157874,1,0,0:0:0:0:
192,192,157927,1,0,0:0:0:0:
448,192,157979,1,0,0:0:0:0:
320,192,158032,1,0,0:0:0:0:
192,192,158085,1,0,0:0:0:0:
448,192,158137,1,0,0:0:0:0:
64,192,158190,1,0,0:0:0:0:
192,192,158243,1,0,0:0:0:0:
448,192,158295,1,0,0:0:0:0:
320,192,158348,1,0,0:0:0:0:
192,192,158401,1,0,0:0:0:0:
448,192,158453,1,0,0:0:0:0:
320,192,158506,1,0,0:0:0:0:
192,192,158559,1,0,0:0:0:0:
448,192,158611,1,0,0:0:0:0:
320,192,158664,1,0,0:0:0:0:
64,192,158717,1,0,0:0:0:0:
320,192,158769,1,0,0:0:0:0:
448,192,158769,1,0,0:0:0:0:
192,192,158822,1,0,0:0:0:0:
64,192,158875,1,0,0:0:0:0:
448,192,158927,1,0,0:0:0:0:
320,192,158980,1,0,0:0:0:0:
192,192,159033,1,0,0:0:0:0:
448,192,159085,1,0,0:0:0:0:
320,192,159138,1,0,0:0:0:0:
192,192,159191,1,0,0:0:0:0:
448,192,159243,1,0,0:0:0:0:
320,192,159296,1,0,0:0:0:0:
64,192,159349,1,0,0:0:0:0:
448,192,159401,1,0,0:0:0:0:
320,192,159454,1,0,0:0:0:0:
192,192,159507,1,0,0:0:0:0:
64,192,159559,1,0,0:0:0:0:
192,192,159612,1,0,0:0:0:0:
320,192,159665,1,0,0:0:0:0:
448,192,159717,1,0,0:0:0:0:
64,192,159770,1,0,0:0:0:0:
192,192,159822,1,0,0:0:0:0:
320,192,159875,1,0,0:0:0:0:
448,192,159928,1,0,0:0:0:0:
320,192,159980,1,0,0:0:0:0:
64,192,160033,1,0,0:0:0:0:
192,192,160033,1,0,0:0:0:0:
448,192,160086,1,0,0:0:0:0:
320,192,160138,1,0,0:0:0:0:
192,192,160191,1,0,0:0:0:0:
448,192,160244,1,0,0:0:0:0:
320,192,160296,1,0,0:0:0:0:
64,192,160349,1,0,0:0:0:0:
192,192,160402,1,0,0:0:0:0:
448,192,160454,1,0,0:0:0:0:
320,192,160507,1,0,0:0:0:0:
64,192,160560,1,0,0:0:0:0:
192,192,160612,1,0,0:0:0:0:
320,192,160665,1,0,0:0:0:0:
192,192,160718,1,0,0:0:0:0:
64,192,160770,1,0,0:0:0:0:
448,192,160823,1,0,0:0:0:0:
320,192,160876,1,0,0:0:0:0:
64,192,160928,1,0,0:0:0:0:
448,192,160981,1,0,0:0:0:0:
320,192,161034,1,0,0:0:0:0:
192,192,161086,1,0,0:0:0:0:
64,192,161139,1,0,0:0:0:0:
448,192,161192,1,0,0:0:0:0:
320,192,161244,1,0,0:0:0:0:
64,192,161297,1,0,0:0:0:0:
192,192,161297,1,0,0:0:0:0:
448,192,161350,1,0,0:0:0:0:
320,192,161402,1,0,0:0:0:0:
192,192,161455,1,0,0:0:0:0:
448,192,161508,1,0,0:0:0:0:
320,192,161560,1,0,0:0:0:0:
64,192,161613,1,0,0:0:0:0:
192,192,161666,1,0,0:0:0:0:
64,192,161718,1,0,0:0:0:0:
320,192,161771,1,0,0:0:0:0:
192,192,161824,1,0,0:0:0:0:
448,192,161876,1,0,0:0:0:0:
320,192,161929,1,0,0:0:0:0:
192,192,161982,1,0,0:0:0:0:
64,192,162034,1,0,0:0:0:0:
448,192,162087,1,0,0:0:0:0:
192,192,162139,1,0,0:0:0:0:
448,192,162192,1,0,0:0:0:0:
192,192,162245,1,0,0:0:0:0:
320,192,162297,1,0,0:0:0:0:
192,192,162350,1,0,0:0:0:0:
64,192,162403,1,0,0:0:0:0:
320,192,162455,1,0,0:0:0:0:
448,192,162508,1,0,0:0:0:0:
64,192,162561,1,0,0:0:0:0:
320,192,162561,1,0,0:0:0:0:
192,192,162613,1,0,0:0:0:0:
448,192,162666,1,0,0:0:0:0:
320,192,162719,1,0,0:0:0:0:
192,192,162771,1,0,0:0:0:0:
64,192,162824,1,0,0:0:0:0:
448,192,162877,1,0,0:0:0:0:
320,192,162929,1,0,0:0:0:0:
192,192,162982,1,0,0:0:0:0:
448,192,163035,1,0,0:0:0:0:
320,192,163087,1,0,0:0:0:0:
192,192,163140,1,0,0:0:0:0:
448,192,163193,1,0,0:0:0:0:
320,192,163245,1,0,0:0:0:0:
64,192,163298,1,0,0:0:0:0:
448,192,163351,1,0,0:0:0:0:
320,192,163403,1,0,0:0:0:0:
192,192,163456,1,0,0:0:0:0:
64,192,163509,1,0,0:0:0:0:
192,192,163561,1,0,0:0:0:0:
320,192,163614,1,0,0:0:0:0:
448,192,163667,1,0,0:0:0:0:
192,192,163719,1,0,0:0:0:0:
64,192,163772,1,0,0:0:0:0:
320,192,163825,1,0,0:0:0:0:
448,192,163825,1,0,0:0:0:0:
192,192,163877,1,0,0:0:0:0:
64,192,163930,1,0,0:0:0:0:
448,192,163983,1,0,0:0:0:0:
320,192,164035,1,0,0:0:0:0:
192,192,164088,1,0,0:0:0:0:
320,192,164141,1,0,0:0:0:0:
448,192,164193,1,0,0:0:0:0:
64,192,164246,1,0,0:0:0:0:
192,192,164299,1,0,0:0:0:0:
320,192,164351,1,0,0:0:0:0:
448,192,164404,1,0,0:0:0:0:
192,192,164456,1,0,0:0:0:0:
320,192,164509,1,0,0:0:0:0:
448,192,164562,1,0,0:0:0:0:
64,192,164614,1,0,0:0:0:0:
192,192,164667,1,0,0:0:0:0:
320,192,164720,1,0,0:0:0:0:
192,192,164772,1,0,0:0:0:0:
448,192,164825,1,0,0:0:0:0:
64,192,164878,1,0,0:0:0:0:
320,192,164930,1,0,0:0:0:0:
192,192,164983,1,0,0:0:0:0:
320,192,165036,1,0,0:0:0:0:
64,192,165088,1,0,0:0:0:0:
448,192,165088,1,0,0:0:0:0:
192,192,165141,1,0,0:0:0:0:
320,192,165194,1,0,0:0:0:0:
448,192,165246,1,0,0:0:0:0:
64,192,165299,1,0,0:0:0:0:
192,192,165352,1,0,0:0:0:0:
64,192,165404,1,0,0:0:0:0:
448,192,165457,1,0,0:0:0:0:
320,192,165510,1,0,0:0:0:0:
192,192,165562,1,0,0:0:0:0:
320,192,165615,1,0,0:0:0:0:
64,192,165668,1,0,0:0:0:0:
320,192,165720,1,0,0:0:0:0:
448,192,165773,1,0,0:0:0:0:
192,192,165826,1,0,0:0:0:0:
320,192,165878,1,0,0:0:0:0:
64,192,165931,1,0,0:0:0:0:
192,192,165984,1,0,0:0:0:0:
320,192,166036,1,0,0:0:0:0:
448,192,166089,1,0,0:0:0:0:
320,192,166142,1,0,0:0:0:0:
192,192,166194,1,0,0:0:0:0:
64,192,166247,1,0,0:0:0:0:
320,192,166300,1,0,0:0:0:0:
192,192,166352,1,0,0:0:0:0:
448,192,166352,1,0,0:0:0:0:
320,192,166405,1,0,0:0:0:0:
64,192,166458,1,0,0:0:0:0:
192,192,166510,1,0,0:0:0:0:
320,192,166563,1,0,0:0:0:0:
448,192,166616,1,0,0:0:0:0:
320,192,166668,1,0,0:0:0:0:
192,192,166721,1,0,0:0:0:0:
448,192,166774,1,0,0:0:0:0:
64,192,166826,1,0,0:0:0:0:
320,192,166879,1,0,0:0:0:0:
192,192,166931,1,0,0:0:0:0:
448,192,166984,1,0,0:0:0:0:
320,192,167037,1,0,0:0:0:0:
192,192,167089,1,0,0:0:0:0:
448,192,167142,1,0,0:0:0:0:
320,192,167195,1,0,0:0:0:0:
64,192,167247,1,0,0:0:0:0:
192,192,167300,1,0,0:0:0:0:
320,192,167353,1,0,0:0:0:0:
64,192,167405,1,0,0:0:0:0:
192,192,167458,1,0,0:0:0:0:
320,192,167511,1,0,0:0:0:0:
448,192,167563,1,0,0:0:0:0:
64,192,167616,1,0,0:0:0:0:
192,192,167616,1,0,0:0:0:0:
320,192,167669,1,0,0:0:0:0:
448,192,167721,1,0,0:0:0:0:
192,192,167774,1,0,0:0:0:0:
320,192,167827,1,0,0:0:0:0:
64,192,167879,1,0,0:0:0:0:
320,192,167932,1,0,0:0:0:0:
448,192,167985,1,0,0:0:0:0:
192,192,168037,1,0,0:0:0:0:
64,192,168090,1,0,0:0:0:0:
320,192,168143,1,0,0:0:0:0:
192,192,168195,1,0,0:0:0:0:
64,192,168248,1,0,0:0:0:0:
448,192,168248,1,0,0:0:0:0:
64,192,168564,1,0,0:0:0:0:
192,192,168564,1,0,0:0:0:0:
320,192,169196,1,0,0:0:0:0:
448,192,169196,128,0,169354:0:0:0:0:
64,192,169722,1,0,0:0:0:0:
192,192,169722,1,0,0:0:0:0:
320,192,169828,1,0,0:0:0:0:
448,192,169828,128,0,169986:0:0:0:0:
64,192,170144,1,0,0:0:0:0:
192,192,170144,1,0,0:0:0:0:
320,192,170460,1,0,0:0:0:0:
448,192,170460,128,0,170618:0:0:0:0:
64,192,170776,1,0,0:0:0:0:
192,192,170776,1,0,0:0:0:0:
320,192,171092,1,0,0:0:0:0:
448,192,171092,128,0,171250:0:0:0:0:
320,192,171723,1,0,0:0:0:0:
448,192,171723,128,0,171881:0:0:0:0:
320,192,172250,1,0,0:0:0:0:
448,192,172250,1,0,0:0:0:0:
64,192,172355,1,0,0:0:0:0:
192,192,172355,1,0,0:0:0:0:
320,192,172408,1,0,0:0:0:0:
448,192,172461,1,0,0:0:0:0:
192,192,172513,1,0,0:0:0:0:
320,192,172566,1,0,0:0:0:0:
448,192,172619,1,0,0:0:0:0:
64,192,172671,1,0,0:0:0:0:
192,192,172724,1,0,0:0:0:0:
320,192,172777,1,0,0:0:0:0:
448,192,172829,1,0,0:0:0:0:
320,192,172882,1,0,0:0:0:0:
192,192,172935,1,0,0:0:0:0:
64,192,172987,1,0,0:0:0:0:
448,192,173040,1,0,0:0:0:0:
192,192,173093,1,0,0:0:0:0:
448,192,173145,1,0,0:0:0:0:
64,192,173198,1,0,0:0:0:0:
320,192,173251,1,0,0:0:0:0:
192,192,173303,1,0,0:0:0:0:
320,192,173356,1,0,0:0:0:0:
64,192,173409,1,0,0:0:0:0:
448,192,173461,1,0,0:0:0:0:
192,192,173514,1,0,0:0:0:0:
320,192,173567,1,0,0:0:0:0:
64,192,173619,1,0,0:0:0:0:
448,192,173619,1,0,0:0:0:0:
192,192,173672,1,0,0:0:0:0:
320,192,173725,1,0,0:0:0:0:
192,192,173777,1,0,0:0:0:0:
448,192,173830,1,0,0:0:0:0:
64,192,173883,1,0,0:0:0:0:
448,192,173935,1,0,0:0:0:0:
192,192,173988,1,0,0:0:0:0:
320,192,174040,1,0,0:0:0:0:
192,192,174093,1,0,0:0:0:0:
448,192,174146,1,0,0:0:0:0:
320,192,174198,1,0,0:0:0:0:
192,192,174251,1,0,0:0:0:0:
64,192,174304,1,0,0:0:0:0:
320,192,174356,1,0,0:0:0:0:
192,192,174409,1,0,0:0:0:0:
448,192,174462,1,0,0:0:0:0:
320,192,174514,1,0,0:0:0:0:
448,192,174567,1,0,0:0:0:0:
64,192,174620,1,0,0:0:0:0:
192,192,174672,1,0,0:0:0:0:
320,192,174725,1,0,0:0:0:0:
192,192,174778,1,0,0:0:0:0:
320,192,174830,1,0,0:0:0:0:
64,192,174883,1,0,0:0:0:0:
448,192,174883,1,0,0:0:0:0:
320,192,174936,1,0,0:0:0:0:
192,192,174988,1,0,0:0:0:0:
64,192,175041,1,0,0:0:0:0:
192,192,175094,1,0,0:0:0:0:
448,192,175146,1,0,0:0:0:0:
64,192,175199,1,0,0:0:0:0:
448,192,175252,1,0,0:0:0:0:
320,192,175304,1,0,0:0:0:0:
192,192,175357,1,0,0:0:0:0:
64,192,175410,1,0,0:0:0:0:
192,192,175462,1,0,0:0:0:0:
320,192,175515,1,0,0:0:0:0:
448,192,175568,1,0,0:0:0:0:
320,192,175620,1,0,0:0:0:0:
192,192,175673,1,0,0:0:0:0:
64,192,175726,1,0,0:0:0:0:
320,192,175778,1,0,0:0:0:0:
192,192,175831,1,0,0:0:0:0:
448,192,175884,1,0,0:0:0:0:
320,192,175936,1,0,0:0:0:0:
448,192,175989,1,0,0:0:0:0:
64,192,176042,1,0,0:0:0:0:
192,192,176094,1,0,0:0:0:0:
320,192,176147,1,0,0:0:0:0:
448,192,176147,1,0,0:0:0:0:
192,192,176200,1,0,0:0:0:0:
64,192,176252,1,0,0:0:0:0:
448,192,176305,1,0,0:0:0:0:
320,192,176357,1,0,0:0:0:0:
192,192,176410,1,0,0:0:0:0:
64,192,176463,1,0,0:0:0:0:
448,192,176515,1,0,0:0:0:0:
192,192,176568,1,0,0:0:0:0:
320,192,176621,1,0,0:0:0:0:
64,192,176673,1,0,0:0:0:0:
448,192,176726,1,0,0:0:0:0:
320,192,176779,1,0,0:0:0:0:
192,192,176831,1,0,0:0:0:0:
448,192,176884,1,0,0:0:0:0:
320,192,176937,1,0,0:0:0:0:
192,192,176989,1,0,0:0:0:0:
448,192,177042,1,0,0:0:0:0:
320,192,177095,1,0,0:0:0:0:
64,192,177147,1,0,0:0:0:0:
448,192,177200,1,0,0:0:0:0:
320,192,177253,1,0,0:0:0:0:
64,192,177305,1,0,0:0:0:0:
192,192,177358,1,0,0:0:0:0:
320,192,177411,1,0,0:0:0:0:
448,192,177411,1,0,0:0:0:0:
64,192,177463,1,0,0:0:0:0:
192,192,177516,1,0,0:0:0:0:
320,192,177569,1,0,0:0:0:0:
448,192,177621,1,0,0:0:0:0:
64,192,177674,1,0,0:0:0:0:
320,192,177727,1,0,0:0:0:0:
448,192,177779,1,0,0:0:0:0:
64,192,177832,1,0,0:0:0:0:
320,192,177885,1,0,0:0:0:0:
448,192,177937,1,0,0:0:0:0:
192,192,177990,1,0,0:0:0:0:
320,192,178043,1,0,0:0:0:0:
448,192,178095,1,0,0:0:0:0:
64,192,178148,1,0,0:0:0:0:
192,192,178201,1,0,0:0:0:0:
320,192,178253,1,0,0:0:0:0:
448,192,178306,1,0,0:0:0:0:
320,192,178359,1,0,0:0:0:0:
192,192,178411,1,0,0:0:0:0:
64,192,178464,1,0,0:0:0:0:
448,192,178517,1,0,0:0:0:0:
320,192,178569,1,0,0:0:0:0:
192,192,178622,1,0,0:0:0:0:
64,192,178675,1,0,0:0:0:0:
448,192,178675,1,0,0:0:0:0:
320,192,178727,1,0,0:0:0:0:
192,192,178780,1,0,0:0:0:0:
448,192,178832,1,0,0:0:0:0:
320,192,178885,1,0,0:0:0:0:
64,192,178938,1,0,0:0:0:0:
192,192,178990,1,0,0:0:0:0:
448,192,179043,1,0,0:0:0:0:
320,192,179096,1,0,0:0:0:0:
64,192,179148,1,0,0:0:0:0:
192,192,179201,1,0,0:0:0:0:
448,192,179254,1,0,0:0:0:0:
64,192,179306,1,0,0:0:0:0:
448,192,179359,1,0,0:0:0:0:
320,192,179412,1,0,0:0:0:0:
192,192,179464,1,0,0:0:0:0:
64,192,179517,1,0,0:0:0:0:
448,192,179570,1,0,0:0:0:0:
320,192,179622,1,0,0:0:0:0:
192,192,179675,1,0,0:0:0:0:
64,192,179728,1,0,0:0:0:0:
192,192,179780,1,0,0:0:0:0:
320,192,179833,1,0,0:0:0:0:
448,192,179886,1,0,0:0:0:0:
64,192,179938,1,0,0:0:0:0:
192,192,179938,1,0,0:0:0:0:
320,192,179991,1,0,0:0:0:0:
192,192,180044,1,0,0:0:0:0:
64,192,180096,1,0,0:0:0:0:
448,192,180149,1,0,0:0:0:0:
192,192,180202,1,0,0:0:0:0:
448,192,180254,1,0,0:0:0:0:
320,192,180307,1,0,0:0:0:0:
64,192,180360,1,0,0:0:0:0:
192,192,180412,1,0,0:0:0:0:
320,192,180465,1,0,0:0:0:0:
192,192,180518,1,0,0:0:0:0:
448,192,180570,1,0,0:0:0:0:
64,192,180623,1,0,0:0:0:0:
192,192,180676,1,0,0:0:0:0:
320,192,180728,1,0,0:0:0:0:
448,192,180781,1,0,0:0:0:0:
320,192,180834,1,0,0:0:0:0:
192,192,180886,1,0,0:0:0:0:
64,192,180939,1,0,0:0:0:0:
320,192,180992,1,0,0:0:0:0:
448,192,181044,1,0,0:0:0:0:
192,192,181097,1,0,0:0:0:0:
320,192,181149,1,0,0:0:0:0:
64,192,181202,1,0,0:0:0:0:
448,192,181202,1,0,0:0:0:0:
192,192,181255,1,0,0:0:0:0:
320,192,181307,1,0,0:0:0:0:
448,192,181360,1,0,0:0:0:0:
64,192,181413,1,0,0:0:0:0:
192,192,181465,1,0,0:0:0:0:
320,192,181518,1,0,0:0:0:0:
448,192,181571,1,0,0:0:0:0:
64,192,181623,1,0,0:0:0:0:
320,192,181676,1,0,0:0:0:0:
64,192,181729,1,0,0:0:0:0:
192,192,181781,1,0,0:0:0:0:
320,192,181834,1,0,0:0:0:0:
448,192,181887,1,0,0:0:0:0:
192,192,181939,1,0,0:0:0:0:
320,192,181992,1,0,0:0:0:0:
64,192,182045,1,0,0:0:0:0:
192,192,182097,1,0,0:0:0:0:
448,192,182150,1,0,0:0:0:0:
320,192,182203,1,0,0:0:0:0:
192,192,182255,1,0,0:0:0:0:
448,192,182308,1,0,0:0:0:0:
320,192,182361,1,0,0:0:0:0:
192,192,182413,1,0,0:0:0:0:
64,192,182466,1,0,0:0:0:0:
448,192,182466,1,0,0:0:0:0:
320,192,182519,1,0,0:0:0:0:
192,192,182571,1,0,0:0:0:0:
448,192,182624,1,0,0:0:0:0:
320,192,182677,1,0,0:0:0:0:
448,192,182729,1,0,0:0:0:0:
64,192,182782,1,0,0:0:0:0:
320,192,182835,1,0,0:0:0:0:
192,192,182887,1,0,0:0:0:0:
64,192,182940,1,0,0:0:0:0:
192,192,182993,1,0,0:0:0:0:
320,192,183045,1,0,0:0:0:0:
448,192,183098,1,0,0:0:0:0:
320,192,183151,1,0,0:0:0:0:
192,192,183203,1,0,0:0:0:0:
320,192,183256,1,0,0:0:0:0:
192,192,183309,1,0,0:0:0:0:
64,192,183361,1,0,0:0:0:0:
320,192,183414,1,0,0:0:0:0:
192,192,183467,1,0,0:0:0:0:
320,192,183519,1,0,0:0:0:0:
448,192,183572,1,0,0:0:0:0:
64,192,183624,1,0,0:0:0:0:
192,192,183677,1,0,0:0:0:0:
320,192,183730,1,0,0:0:0:0:
448,192,183730,1,0,0:0:0:0:
64,192,183782,1,0,0:0:0:0:
192,192,183835,1,0,0:0:0:0:
320,192,183888,1,0,0:0:0:0:
448,192,183940,1,0,0:0:0:0:
64,192,183993,1,0,0:0:0:0:
192,192,184046,1,0,0:0:0:0:
320,192,184098,1,0,0:0:0:0:
64,192,184151,1,0,0:0:0:0:
448,192,184204,1,0,0:0:0:0:
320,192,184256,1,0,0:0:0:0:
192,192,184309,1,0,0:0:0:0:
64,192,184362,1,0,0:0:0:0:
320,192,184414,1,0,0:0:0:0:
192,192,184467,1,0,0:0:0:0:
320,192,184520,1,0,0:0:0:0:
448,192,184572,1,0,0:0:0:0:
64,192,184625,1,0,0:0:0:0:
192,192,184678,1,0,0:0:0:0:
320,192,184730,1,0,0:0:0:0:
448,192,184783,1,0,0:0:0:0:
320,192,184836,1,0,0:0:0:0:
192,192,184888,1,0,0:0:0:0:
64,192,184941,1,0,0:0:0:0:
320,192,184994,1,0,0:0:0:0:
448,192,184994,1,0,0:0:0:0:
192,192,185046,1,0,0:0:0:0:
320,192,185099,1,0,0:0:0:0:
64,192,185152,1,0,0:0:0:0:
192,192,185204,1,0,0:0:0:0:
448,192,185257,1,0,0:0:0:0:
320,192,185310,1,0,0:0:0:0:
192,192,185362,1,0,0:0:0:0:
320,192,185415,1,0,0:0:0:0:
192,192,185468,1,0,0:0:0:0:
64,192,185520,1,0,0:0:0:0:
320,192,185573,1,0,0:0:0:0:
192,192,185626,1,0,0:0:0:0:
448,192,185678,1,0,0:0:0:0:
320,192,185731,1,0,0:0:0:0:
192,192,185784,1,0,0:0:0:0:
64,192,185836,1,0,0:0:0:0:
448,192,185889,1,0,0:0:0:0:
320,192,185941,1,0,0:0:0:0:
192,192,185994,1,0,0:0:0:0:
64,192,186047,1,0,0:0:0:0:
448,192,186099,1,0,0:0:0:0:
320,192,186152,1,0,0:0:0:0:
192,192,186205,1,0,0:0:0:0:
64,192,186257,1,0,0:0:0:0:
320,192,186257,1,0,0:0:0:0:
448,192,186310,1,0,0:0:0:0:
64,192,186363,1,0,0:0:0:0:
192,192,186415,1,0,0:0:0:0:
320,192,186468,1,0,0:0:0:0:
192,192,186521,1,0,0:0:0:0:
64,192,186573,1,0,0:0:0:0:
448,192,186626,1,0,0:0:0:0:
320,192,186679,1,0,0:0:0:0:
192,192,186731,1,0,0:0:0:0:
320,192,186784,1,0,0:0:0:0:
192,192,186837,1,0,0:0:0:0:
64,192,186889,1,0,0:0:0:0:
448,192,186889,1,0,0:0:0:0:
192,192,187205,1,0,0:0:0:0:
448,192,187205,1,0,0:0:0:0:
64,192,187837,128,0,187995:0:0:0:0:
192,192,187837,1,0,0:0:0:0:
320,192,188364,1,0,0:0:0:0:
448,192,188364,1,0,0:0:0:0:
64,192,188469,128,0,188627:0:0:0:0:
192,192,188469,1,0,0:0:0:0:
320,192,188785,1,0,0:0:0:0:
448,192,188785,1,0,0:0:0:0:
64,192,189101,128,0,189259:0:0:0:0:
192,192,189101,1,0,0:0:0:0:
320,192,189417,1,0,0:0:0:0:
448,192,189417,1,0,0:0:0:0:
64,192,189733,128,0,189891:0:0:0:0:
192,192,189733,1,0,0:0:0:0:
64,192,190365,128,0,190523:0:0:0:0:
192,192,190365,1,0,0:0:0:0:
64,192,190891,1,0,0:0:0:0:
192,192,190891,1,0,0:0:0:0:
320,192,190997,1,0,0:0:0:0:
448,192,190997,1,0,0:0:0:0:
192,192,191049,1,0,0:0:0:0:
320,192,191102,1,0,0:0:0:0:
64,192,191155,1,0,0:0:0:0:
448,192,191207,1,0,0:0:0:0:
64,192,191260,1,0,0:0:0:0:
320,192,191313,1,0,0:0:0:0:
192,192,191365,1,0,0:0:0:0:
448,192,191418,1,0,0:0:0:0:
64,192,191471,1,0,0:0:0:0:
320,192,191523,1,0,0:0:0:0:
192,192,191576,1,0,0:0:0:0:
320,192,191629,1,0,0:0:0:0:
64,192,191681,1,0,0:0:0:0:
192,192,191734,1,0,0:0:0:0:
320,192,191787,1,0,0:0:0:0:
448,192,191839,1,0,0:0:0:0:
64,192,191892,1,0,0:0:0:0:
320,192,191945,1,0,0:0:0:0:
192,192,191997,1,0,0:0:0:0:
448,192,192050,1,0,0:0:0:0:
64,192,192103,1,0,0:0:0:0:
320,192,192155,1,0,0:0:0:0:
192,192,192208,1,0,0:0:0:0:
64,192,192261,1,0,0:0:0:0:
448,192,192261,1,0,0:0:0:0:
192,192,192313,1,0,0:0:0:0:
320,192,192366,1,0,0:0:0:0:
448,192,192419,1,0,0:0:0:0:
64,192,192471,1,0,0:0:0:0:
192,192,192524,1,0,0:0:0:0:
320,192,192577,1,0,0:0:0:0:
448,192,192629,1,0,0:0:0:0:
320,192,192682,1,0,0:0:0:0:
192,192,192735,1,0,0:0:0:0:
64,192,192787,1,0,0:0:0:0:
448,192,192840,1,0,0:0:0:0:
320,192,192893,1,0,0:0:0:0:
192,192,192945,1,0,0:0:0:0:
320,192,192998,1,0,0:0:0:0:
448,192,193050,1,0,0:0:0:0:
64,192,193103,1,0,0:0:0:0:
192,192,193156,1,0,0:0:0:0:
64,192,193208,1,0,0:0:0:0:
448,192,193261,1,0,0:0:0:0:
320,192,193314,1,0,0:0:0:0:
192,192,193366,1,0,0:0:0:0:
320,192,193419,1,0,0:0:0:0:
64,192,193472,1,0,0:0:0:0:
192,192,193524,1,0,0:0:0:0:
448,192,193524,1,0,0:0:0:0:
320,192,193577,1,0,0:0:0:0:
192,192,193630,1,0,0:0:0:0:
448,192,193682,1,0,0:0:0:0:
320,192,193735,1,0,0:0:0:0:
64,192,193788,1,0,0:0:0:0:
448,192,193840,1,0,0:0:0:0:
64,192,193893,1,0,0:0:0:0:
192,192,193946,1,0,0:0:0:0:
320,192,193998,1,0,0:0:0:0:
448,192,194051,1,0,0:0:0:0:
320,192,194104,1,0,0:0:0:0:
192,192,194156,1,0,0:0:0:0:
64,192,194209,1,0,0:0:0:0:
192,192,194262,1,0,0:0:0:0:
320,192,194314,1,0,0:0:0:0:
448,192,194367,1,0,0:0:0:0:
320,192,194420,1,0,0:0:0:0:
192,192,194472,1,0,0:0:0:0:
64,192,194525,1,0,0:0:0:0:
192,192,194578,1,0,0:0:0:0:
64,192,194630,1,0,0:0:0:0:
448,192,194683,1,0,0:0:0:0:
320,192,194736,1,0,0:0:0:0:
64,192,194788,1,0,0:0:0:0:
192,192,194788,1,0,0:0:0:0:
320,192,194841,1,0,0:0:0:0:
448,192,194894,1,0,0:0:0:0:
64,192,194946,1,0,0:0:0:0:
192,192,194999,1,0,0:0:0:0:
320,192,195052,1,0,0:0:0:0:
448,192,195104,1,0,0:0:0:0:
64,192,195157,1,0,0:0:0:0:
320,192,195210,1,0,0:0:0:0:
192,192,195262,1,0,0:0:0:0:
448,192,195315,1,0,0:0:0:0:
320,192,195368,1,0,0:0:0:0:
192,192,195420,1,0,0:0:0:0:
320,192,195473,1,0,0:0:0:0:
64,192,195525,1,0,0:0:0:0:
192,192,195578,1,0,0:0:0:0:
320,192,195631,1,0,0:0:0:0:
64,192,195683,1,0,0:0:0:0:
320,192,195736,1,0,0:0:0:0:
448,192,195789,1,0,0:0:0:0:
192,192,195841,1,0,0:0:0:0:
320,192,195894,1,0,0:0:0:0:
448,192,195947,1,0,0:0:0:0:
320,192,195999,1,0,0:0:0:0:
64,192,196052,1,0,0:0:0:0:
192,192,196052,1,0,0:0:0:0:
448,192,196105,1,0,0:0:0:0:
320,192,196157,1,0,0:0:0:0:
192,192,196210,1,0,0:0:0:0:
64,192,196263,1,0,0:0:0:0:
448,192,196315,1,0,0:0:0:0:
320,192,196368,1,0,0:0:0:0:
64,192,196421,1,0,0:0:0:0:
448,192,196473,1,0,0:0:0:0:
320,192,196526,1,0,0:0:0:0:
64,192,196579,1,0,0:0:0:0:
192,192,196631,1,0,0:0:0:0:
320,192,196684,1,0,0:0:0:0:
448,192,196737,1,0,0:0:0:0:
64,192,196789,1,0,0:0:0:0:
192,192,196842,1,0,0:0:0:0:
320,192,196895,1,0,0:0:0:0:
448,192,196947,1,0,0:0:0:0:
192,192,197000,1,0,0:0:0:0:
320,192,197053,1,0,0:0:0:0:
448,192,197105,1,0,0:0:0:0:
64,192,197158,1,0,0:0:0:0:
192,192,197211,1,0,0:0:0:0:
320,192,197263,1,0,0:0:0:0:
64,192,197316,1,0,0:0:0:0:
448,192,197316,1,0,0:0:0:0:
192,192,197369,1,0,0:0:0:0:
320,192,197421,1,0,0:0:0:0:
64,192,197474,1,0,0:0:0:0:
192,192,197527,1,0,0:0:0:0:
448,192,197579,1,0,0:0:0:0:
320,192,197632,1,0,0:0:0:0:
192,192,197685,1,0,0:0:0:0:
320,192,197737,1,0,0:0:0:0:
64,192,197790,1,0,0:0:0:0:
320,192,197842,1,0,0:0:0:0:
64,192,197895,1,0,0:0:0:0:
448,192,197948,1,0,0:0:0:0:
192,192,198000,1,0,0:0:0:0:
64,192,198053,1,0,0:0:0:0:
320,192,198106,1,0,0:0:0:0:
448,192,198158,1,0,0:0:0:0:
320,192,198211,1,0,0:0:0:0:
192,192,198264,1,0,0:0:0:0:
320,192,198316,1,0,0:0:0:0:
64,192,198369,1,0,0:0:0:0:
192,192,198422,1,0,0:0:0:0:
448,192,198474,1,0,0:0:0:0:
320,192,198527,1,0,0:0:0:0:
64,192,198580,1,0,0:0:0:0:
448,192,198580,1,0,0:0:0:0:
192,192,198632,1,0,0:0:0:0:
320,192,198685,1,0,0:0:0:0:
448,192,198738,1,0,0:0:0:0:
64,192,198790,1,0,0:0:0:0:
192,192,198843,1,0,0:0:0:0:
64,192,198896,1,0,0:0:0:0:
448,192,198948,1,0,0:0:0:0:
192,192,199001,1,0,0:0:0:0:
448,192,199054,1,0,0:0:0:0:
320,192,199106,1,0,0:0:0:0:
192,192,199159,1,0,0:0:0:0:
64,192,199212,1,0,0:0:0:0:
448,192,199264,1,0,0:0:0:0:
320,192,199317,1,0,0:0:0:0:
192,192,199370,1,0,0:0:0:0:
64,192,199422,1,0,0:0:0:0:
320,192,199475,1,0,0:0:0:0:
192,192,199528,1,0,0:0:0:0:
320,192,199580,1,0,0:0:0:0:
448,192,199633,1,0,0:0:0:0:
64,192,199686,1,0,0:0:0:0:
448,192,199738,1,0,0:0:0:0:
192,192,199791,1,0,0:0:0:0:
64,192,199844,1,0,0:0:0:0:
320,192,199844,1,0,0:0:0:0:
192,192,199896,1,0,0:0:0:0:
448,192,199949,1,0,0:0:0:0:
320,192,200002,1,0,0:0:0:0:
192,192,200054,1,0,0:0:0:0:
64,192,200107,1,0,0:0:0:0:
192,192,200159,1,0,0:0:0:0:
320,192,200212,1,0,0:0:0:0:
448,192,200265,1,0,0:0:0:0:
192,192,200317,1,0,0:0:0:0:
64,192,200370,1,0,0:0:0:0:
448,192,200423,1,0,0:0:0:0:
320,192,200475,1,0,0:0:0:0:
192,192,200528,1,0,0:0:0:0:
448,192,200581,1,0,0:0:0:0:
320,192,200633,1,0,0:0:0:0:
192,192,200686,1,0,0:0:0:0:
64,192,200739,1,0,0:0:0:0:
192,192,200791,1,0,0:0:0:0:
320,192,200844,1,0,0:0:0:0:
448,192,200897,1,0,0:0:0:0:
64,192,200949,1,0,0:0:0:0:
192,192,201002,1,0,0:0:0:0:
320,192,201055,1,0,0:0:0:0:
64,192,201107,1,0,0:0:0:0:
448,192,201107,1,0,0:0:0:0:
192,192,201160,1,0,0:0:0:0:
320,192,201213,1,0,0:0:0:0:
64,192,201265,1,0,0:0:0:0:
448,192,201318,1,0,0:0:0:0:
64,192,201371,1,0,0:0:0:0:
320,192,201423,1,0,0:0:0:0:
192,192,201476,1,0,0:0:0:0:
320,192,201529,1,0,0:0:0:0:
448,192,201581,1,0,0:0:0:0:
64,192,201634,1,0,0:0:0:0:
192,192,201687,1,0,0:0:0:0:
320,192,201739,1,0,0:0:0:0:
448,192,201792,1,0,0:0:0:0:
320,192,201845,1,0,0:0:0:0:
448,192,201897,1,0,0:0:0:0:
64,192,201950,1,0,0:0:0:0:
192,192,202003,1,0,0:0:0:0:
320,192,202055,1,0,0:0:0:0:
192,192,202108,1,0,0:0:0:0:
320,192,202161,1,0,0:0:0:0:
64,192,202213,1,0,0:0:0:0:
448,192,202266,1,0,0:0:0:0:
320,192,202319,1,0,0:0:0:0:
64,192,202371,1,0,0:0:0:0:
192,192,202371,1,0,0:0:0:0:
448,192,202424,1,0,0:0:0:0:
320,192,202477,1,0,0:0:0:0:
192,192,202529,1,0,0:0:0:0:
64,192,202582,1,0,0:0:0:0:
192,192,202634,1,0,0:0:0:0:
320,192,202687,1,0,0:0:0:0:
448,192,202740,1,0,0:0:0:0:
320,192,202792,1,0,0:0:0:0:
64,192,202845,1,0,0:0:0:0:
192,192,202898,1,0,0:0:0:0:
320,192,202950,1,0,0:0:0:0:
192,192,203003,1,0,0:0:0:0:
448,192,203056,1,0,0:0:0:0:
320,192,203108,1,0,0:0:0:0:
448,192,203161,1,0,0:0:0:0:
64,192,203214,1,0,0:0:0:0:
192,192,203266,1,0,0:0:0:0:
448,192,203319,1,0,0:0:0:0:
320,192,203372,1,0,0:0:0:0:
448,192,203424,1,0,0:0:0:0:
192,192,203477,1,0,0:0:0:0:
64,192,203530,1,0,0:0:0:0:
320,192,203582,1,0,0:0:0:0:
192,192,203635,1,0,0:0:0:0:
64,192,203688,1,0,0:0:0:0:
320,192,203740,1,0,0:0:0:0:
448,192,203793,1,0,0:0:0:0:
320,192,203846,1,0,0:0:0:0:
192,192,203898,1,0,0:0:0:0:
320,192,203951,1,0,0:0:0:0:
64,192,204004,1,0,0:0:0:0:
448,192,204056,1,0,0:0:0:0:
320,192,204109,1,0,0:0:0:0:
192,192,204162,1,0,0:0:0:0:
64,192,204214,1,0,0:0:0:0:
320,192,204267,1,0,0:0:0:0:
448,192,204320,1,0,0:0:0:0:
64,192,204372,1,0,0:0:0:0:
192,192,204425,1,0,0:0:0:0:
448,192,204478,1,0,0:0:0:0:
64,192,204530,1,0,0:0:0:0:
192,192,204583,1,0,0:0:0:0:
320,192,204636,1,0,0:0:0:0:
448,192,204688,1,0,0:0:0:0:
64,192,204741,1,0,0:0:0:0:
192,192,204794,1,0,0:0:0:0:
320,192,204846,1,0,0:0:0:0:
64,192,204899,1,0,0:0:0:0:
448,192,204899,1,0,0:0:0:0:
192,192,204951,1,0,0:0:0:0:
320,192,205004,1,0,0:0:0:0:
448,192,205057,1,0,0:0:0:0:
192,192,205109,1,0,0:0:0:0:
320,192,205162,1,0,0:0:0:0:
448,192,205215,1,0,0:0:0:0:
192,192,205267,1,0,0:0:0:0:
64,192,205320,1,0,0:0:0:0:
320,192,205373,1,0,0:0:0:0:
192,192,205425,1,0,0:0:0:0:
320,192,205478,1,0,0:0:0:0:
64,192,205531,1,0,0:0:0:0:
448,192,205531,1,0,0:0:0:0:
64,192,205847,1,0,0:0:0:0:
320,192,205847,1,0,0:0:0:0:
192,192,206479,128,0,206637:0:0:0:0:
448,192,206479,1,0,0:0:0:0:
64,192,207005,1,0,0:0:0:0:
320,192,207005,1,0,0:0:0:0:
192,192,207111,128,0,207269:0:0:0:0:
448,192,207111,1,0,0:0:0:0:
64,192,207426,1,0,0:0:0:0:
320,192,207426,1,0,0:0:0:0:
192,192,207742,128,0,207900:0:0:0:0:
448,192,207742,1,0,0:0:0:0:
64,192,208058,1,0,0:0:0:0:
320,192,208058,1,0,0:0:0:0:
192,192,208374,128,0,208532:0:0:0:0:
448,192,208374,1,0,0:0:0:0:
192,192,209006,128,0,209164:0:0:0:0:
448,192,209006,1,0,0:0:0:0:
192,192,209533,1,0,0:0:0:0:
448,192,209533,1,0,0:0:0:0:
64,192,209638,1,0,0:0:0:0:
320,192,209638,1,0,0:0:0:0:
192,192,209691,1,0,0:0:0:0:
320,192,209743,1,0,0:0:0:0:
64,192,209796,1,0,0:0:0:0:
448,192,209849,1,0,0:0:0:0:
64,192,209901,1,0,0:0:0:0:
320,192,209954,1,0,0:0:0:0:
192,192,210007,1,0,0:0:0:0:
448,192,210059,1,0,0:0:0:0:
192,192,210112,1,0,0:0:0:0:
448,192,210165,1,0,0:0:0:0:
64,192,210217,1,0,0:0:0:0:
320,192,210270,1,0,0:0:0:0:
192,192,210323,1,0,0:0:0:0:
448,192,210375,1,0,0:0:0:0:
192,192,210428,1,0,0:0:0:0:
320,192,210481,1,0,0:0:0:0:
448,192,210533,1,0,0:0:0:0:
64,192,210586,1,0,0:0:0:0:
448,192,210639,1,0,0:0:0:0:
320,192,210691,1,0,0:0:0:0:
192,192,210744,1,0,0:0:0:0:
64,192,210797,1,0,0:0:0:0:
448,192,210849,1,0,0:0:0:0:
192,192,210902,1,0,0:0:0:0:
320,192,210902,1,0,0:0:0:0:
448,192,210955,1,0,0:0:0:0:
64,192,211007,1,0,0:0:0:0:
192,192,211060,1,0,0:0:0:0:
320,192,211113,1,0,0:0:0:0:
64,192,211165,1,0,0:0:0:0:
320,192,211218,1,0,0:0:0:0:
192,192,211271,1,0,0:0:0:0:
448,192,211323,1,0,0:0:0:0:
320,192,211376,1,0,0:0:0:0:
192,192,211429,1,0,0:0:0:0:
448,192,211481,1,0,0:0:0:0:
64,192,211534,1,0,0:0:0:0:
320,192,211587,1,0,0:0:0:0:
448,192,211639,1,0,0:0:0:0:
64,192,211692,1,0,0:0:0:0:
320,192,211745,1,0,0:0:0:0:
192,192,211797,1,0,0:0:0:0:
320,192,211850,1,0,0:0:0:0:
64,192,211903,1,0,0:0:0:0:
192,192,211955,1,0,0:0:0:0:
320,192,212008,1,0,0:0:0:0:
64,192,212061,1,0,0:0:0:0:
448,192,212113,1,0,0:0:0:0:
192,192,212166,1,0,0:0:0:0:
320,192,212166,1,0,0:0:0:0:
448,192,212218,1,0,0:0:0:0:
64,192,212271,1,0,0:0:0:0:
320,192,212324,1,0,0:0:0:0:
448,192,212376,1,0,0:0:0:0:
192,192,212429,1,0,0:0:0:0:
320,192,212482,1,0,0:0:0:0:
192,192,212534,1,0,0:0:0:0:
448,192,212587,1,0,0:0:0:0:
64,192,212640,1,0,0:0:0:0:
192,192,212692,1,0,0:0:0:0:
320,192,212745,1,0,0:0:0:0:
448,192,212798,1,0,0:0:0:0:
320,192,212850,1,0,0:0:0:0:
192,192,212903,1,0,0:0:0:0:
64,192,212956,1,0,0:0:0:0:
320,192,213008,1,0,0:0:0:0:
64,192,213061,1,0,0:0:0:0:
448,192,213114,1,0,0:0:0:0:
192,192,213166,1,0,0:0:0:0:
320,192,213219,1,0,0:0:0:0:
448,192,213272,1,0,0:0:0:0:
192,192,213324,1,0,0:0:0:0:
320,192,213377,1,0,0:0:0:0:
64,192,213430,1,0,0:0:0:0:
448,192,213430,1,0,0:0:0:0:
192,192,213482,1,0,0:0:0:0:
320,192,213535,1,0,0:0:0:0:
448,192,213588,1,0,0:0:0:0:
64,192,213640,1,0,0:0:0:0:
192,192,213693,1,0,0:0:0:0:
320,192,213746,1,0,0:0:0:0:
192,192,213798,1,0,0:0:0:0:
64,192,213851,1,0,0:0:0:0:
448,192,213904,1,0,0:0:0:0:
320,192,213956,1,0,0:0:0:0:
64,192,214009,1,0,0:0:0:0:
448,192,214062,1,0,0:0:0:0:
320,192,214114,1,0,0:0:0:0:
192,192,214167,1,0,0:0:0:0:
448,192,214220,1,0,0:0:0:0:
64,192,214272,1,0,0:0:0:0:
192,192,214325,1,0,0:0:0:0:
448,192,214378,1,0,0:0:0:0:
320,192,214430,1,0,0:0:0:0:
192,192,214483,1,0,0:0:0:0:
448,192,214535,1,0,0:0:0:0:
320,192,214588,1,0,0:0:0:0:
64,192,214641,1,0,0:0:0:0:
320,192,214693,1,0,0:0:0:0:
448,192,214693,1,0,0:0:0:0:
192,192,214746,1,0,0:0:0:0:
64,192,214799,1,0,0:0:0:0:
448,192,214851,1,0,0:0:0:0:
192,192,214904,1,0,0:0:0:0:
320,192,214957,1,0,0:0:0:0:
448,192,215009,1,0,0:0:0:0:
192,192,215062,1,0,0:0:0:0:
320,192,215115,1,0,0:0:0:0:
448,192,215167,1,0,0:0:0:0:
192,192,215220,1,0,0:0:0:0:
64,192,215273,1,0,0:0:0:0:
448,192,215325,1,0,0:0:0:0:
192,192,215378,1,0,0:0:0:0:
320,192,215431,1,0,0:0:0:0:
64,192,215483,1,0,0:0:0:0:
448,192,215536,1,0,0:0:0:0:
192,192,215589,1,0,0:0:0:0:
448,192,215641,1,0,0:0:0:0:
320,192,215694,1,0,0:0:0:0:
192,192,215747,1,0,0:0:0:0:
64,192,215799,1,0,0:0:0:0:
320,192,215852,1,0,0:0:0:0:
192,192,215905,1,0,0:0:0:0:
64,192,215957,1,0,0:0:0:0:
448,192,215957,1,0,0:0:0:0:
320,192,216010,1,0,0:0:0:0:
192,192,216063,1,0,0:0:0:0:
64,192,216115,1,0,0:0:0:0:
448,192,216168,1,0,0:0:0:0:
320,192,216221,1,0,0:0:0:0:
448,192,216273,1,0,0:0:0:0:
192,192,216326,1,0,0:0:0:0:
448,192,216379,1,0,0:0:0:0:
64,192,216431,1,0,0:0:0:0:
192,192,216484,1,0,0:0:0:0:
320,192,216537,1,0,0:0:0:0:
448,192,216589,1,0,0:0:0:0:
320,192,216642,1,0,0:0:0:0:
192,192,216695,1,0,0:0:0:0:
64,192,216747,1,0,0:0:0:0:
320,192,216800,1,0,0:0:0:0:
192,192,216852,1,0,0:0:0:0:
320,192,216905,1,0,0:0:0:0:
448,192,216958,1,0,0:0:0:0:
64,192,217010,1,0,0:0:0:0:
192,192,217063,1,0,0:0:0:0:
448,192,217116,1,0,0:0:0:0:
320,192,217168,1,0,0:0:0:0:
64,192,217221,1,0,0:0:0:0:
192,192,217221,1,0,0:0:0:0:
448,192,217274,1,0,0:0:0:0:
320,192,217326,1,0,0:0:0:0:
192,192,217379,1,0,0:0:0:0:
64,192,217432,1,0,0:0:0:0:
448,192,217484,1,0,0:0:0:0:
192,192,217537,1,0,0:0:0:0:
320,192,217590,1,0,0:0:0:0:
64,192,217642,1,0,0:0:0:0:
320,192,217695,1,0,0:0:0:0:
192,192,217748,1,0,0:0:0:0:
448,192,217800,1,0,0:0:0:0:
192,192,217853,1,0,0:0:0:0:
320,192,217906,1,0,0:0:0:0:
64,192,217958,1,0,0:0:0:0:
448,192,218011,1,0,0:0:0:0:
192,192,218064,1,0,0:0:0:0:
448,192,218116,1,0,0:0:0:0:
192,192,218169,1,0,0:0:0:0:
320,192,218222,1,0,0:0:0:0:
64,192,218274,1,0,0:0:0:0:
192,192,218327,1,0,0:0:0:0:
64,192,218380,1,0,0:0:0:0:
320,192,218432,1,0,0:0:0:0:
192,192,218485,1,0,0:0:0:0:
448,192,218485,1,0,0:0:0:0:
320,192,218538,1,0,0:0:0:0:
192,192,218590,1,0,0:0:0:0:
64,192,218643,1,0,0:0:0:0:
448,192,218696,1,0,0:0:0:0:
320,192,218748,1,0,0:0:0:0:
192,192,218801,1,0,0:0:0:0:
448,192,218854,1,0,0:0:0:0:
320,192,218906,1,0,0:0:0:0:
64,192,218959,1,0,0:0:0:0:
192,192,219012,1,0,0:0:0:0:
320,192,219064,1,0,0:0:0:0:
448,192,219117,1,0,0:0:0:0:
320,192,219170,1,0,0:0:0:0:
64,192,219222,1,0,0:0:0:0:
192,192,219275,1,0,0:0:0:0:
64,192,219327,1,0,0:0:0:0:
320,192,219380,1,0,0:0:0:0:
448,192,219433,1,0,0:0:0:0:
192,192,219485,1,0,0:0:0:0:
320,192,219538,1,0,0:0:0:0:
64,192,219591,1,0,0:0:0:0:
192,192,219643,1,0,0:0:0:0:
320,192,219696,1,0,0:0:0:0:
64,192,219749,1,0,0:0:0:0:
448,192,219749,1,0,0:0:0:0:
192,192,219801,1,0,0:0:0:0:
320,192,219854,1,0,0:0:0:0:
192,192,219907,1,0,0:0:0:0:
448,192,219959,1,0,0:0:0:0:
320,192,220012,1,0,0:0:0:0:
192,192,220065,1,0,0:0:0:0:
448,192,220117,1,0,0:0:0:0:
64,192,220170,1,0,0:0:0:0:
192,192,220223,1,0,0:0:0:0:
320,192,220275,1,0,0:0:0:0:
448,192,220328,1,0,0:0:0:0:
320,192,220381,1,0,0:0:0:0:
192,192,220433,1,0,0:0:0:0:
64,192,220486,1,0,0:0:0:0:
448,192,220539,1,0,0:0:0:0:
320,192,220591,1,0,0:0:0:0:
64,192,220644,1,0,0:0:0:0:
192,192,220697,1,0,0:0:0:0:
448,192,220749,1,0,0:0:0:0:
320,192,220802,1,0,0:0:0:0:
192,192,220855,1,0,0:0:0:0:
320,192,220907,1,0,0:0:0:0:
192,192,220960,1,0,0:0:0:0:
64,192,221013,1,0,0:0:0:0:
448,192,221013,1,0,0:0:0:0:
320,192,221065,1,0,0:0:0:0:
192,192,221118,1,0,0:0:0:0:
448,192,221171,1,0,0:0:0:0:
320,192,221223,1,0,0:0:0:0:
64,192,221276,1,0,0:0:0:0:
192,192,221329,1,0,0:0:0:0:
448,192,221381,1,0,0:0:0:0:
320,192,221434,1,0,0:0:0:0:
192,192,221487,1,0,0:0:0:0:
320,192,221539,1,0,0:0:0:0:
64,192,221592,1,0,0:0:0:0:
320,192,221644,1,0,0:0:0:0:
448,192,221697,1,0,0:0:0:0:
192,192,221750,1,0,0:0:0:0:
64,192,221802,1,0,0:0:0:0:
320,192,221855,1,0,0:0:0:0:
192,192,221908,1,0,0:0:0:0:
448,192,221960,1,0,0:0:0:0:
64,192,222013,1,0,0:0:0:0:
192,192,222066,1,0,0:0:0:0:
320,192,222118,1,0,0:0:0:0:
64,192,222171,1,0,0:0:0:0:
448,192,222224,1,0,0:0:0:0:
192,192,222276,1,0,0:0:0:0:
320,192,222276,1,0,0:0:0:0:
448,192,222329,1,0,0:0:0:0:
64,192,222382,1,0,0:0:0:0:
192,192,222434,1,0,0:0:0:0:
320,192,222487,1,0,0:0:0:0:
448,192,222540,1,0,0:0:0:0:
320,192,222592,1,0,0:0:0:0:
192,192,222645,1,0,0:0:0:0:
64,192,222698,1,0,0:0:0:0:
448,192,222750,1,0,0:0:0:0:
320,192,222803,1,0,0:0:0:0:
192,192,222856,1,0,0:0:0:0:
64,192,222908,1,0,0:0:0:0:
320,192,222961,1,0,0:0:0:0:
192,192,223014,1,0,0:0:0:0:
448,192,223066,1,0,0:0:0:0:
320,192,223119,1,0,0:0:0:0:
64,192,223172,1,0,0:0:0:0:
320,192,223224,1,0,0:0:0:0:
192,192,223277,1,0,0:0:0:0:
448,192,223330,1,0,0:0:0:0:
320,192,223382,1,0,0:0:0:0:
192,192,223435,1,0,0:0:0:0:
64,192,223488,1,0,0:0:0:0:
320,192,223540,1,0,0:0:0:0:
448,192,223540,1,0,0:0:0:0:
192,192,223593,1,0,0:0:0:0:
320,192,223646,1,0,0:0:0:0:
64,192,223698,1,0,0:0:0:0:
192,192,223751,1,0,0:0:0:0:
64,192,223804,1,0,0:0:0:0:
320,192,223856,1,0,0:0:0:0:
448,192,223909,1,0,0:0:0:0:
192,192,223962,1,0,0:0:0:0:
320,192,224014,1,0,0:0:0:0:
448,192,224067,1,0,0:0:0:0:
64,192,224119,1,0,0:0:0:0:
192,192,224172,1,0,0:0:0:0:
320,192,224172,1,0,0:0:0:0:
64,192,224488,1,0,0:0:0:0:
192,192,224488,1,0,0:0:0:0:
320,192,225120,1,0,0:0:0:0:
448,192,225120,128,0,225278:0:0:0:0:
64,192,225647,1,0,0:0:0:0:
192,192,225647,1,0,0:0:0:0:
320,192,225752,1,0,0:0:0:0:
448,192,225752,128,0,225910:0:0:0:0:
64,192,226068,1,0,0:0:0:0:
192,192,226068,1,0,0:0:0:0:
320,192,226384,1,0,0:0:0:0:
448,192,226384,128,0,226542:0:0:0:0:
64,192,226700,1,0,0:0:0:0:
192,192,226700,1,0,0:0:0:0:
320,192,227016,1,0,0:0:0:0:
448,192,227016,128,0,227174:0:0:0:0:
320,192,227648,1,0,0:0:0:0:
448,192,227648,128,0,227806:0:0:0:0:
320,192,228174,1,0,0:0:0:0:
448,192,228174,1,0,0:0:0:0:
64,192,228280,1,0,0:0:0:0:
192,192,228280,1,0,0:0:0:0:
320,192,228332,1,0,0:0:0:0:
448,192,228385,1,0,0:0:0:0:
192,192,228438,1,0,0:0:0:0:
320,192,228490,1,0,0:0:0:0:
448,192,228543,1,0,0:0:0:0:
64,192,228596,1,0,0:0:0:0:
192,192,228648,1,0,0:0:0:0:
320,192,228701,1,0,0:0:0:0:
448,192,228753,1,0,0:0:0:0:
320,192,228806,1,0,0:0:0:0:
192,192,228859,1,0,0:0:0:0:
64,192,228911,1,0,0:0:0:0:
448,192,228964,1,0,0:0:0:0:
192,192,229017,1,0,0:0:0:0:
448,192,229069,1,0,0:0:0:0:
64,192,229122,1,0,0:0:0:0:
320,192,229175,1,0,0:0:0:0:
192,192,229227,1,0,0:0:0:0:
320,192,229280,1,0,0:0:0:0:
448,192,229333,1,0,0:0:0:0:
64,192,229385,1,0,0:0:0:0:
192,192,229438,1,0,0:0:0:0:
320,192,229491,1,0,0:0:0:0:
64,192,229543,1,0,0:0:0:0:
448,192,229543,1,0,0:0:0:0:
320,192,229596,1,0,0:0:0:0:
192,192,229649,1,0,0:0:0:0:
64,192,229701,1,0,0:0:0:0:
448,192,229754,1,0,0:0:0:0:
192,192,229807,1,0,0:0:0:0:
448,192,229859,1,0,0:0:0:0:
64,192,229912,1,0,0:0:0:0:
320,192,229965,1,0,0:0:0:0:
192,192,230017,1,0,0:0:0:0:
448,192,230070,1,0,0:0:0:0:
320,192,230123,1,0,0:0:0:0:
192,192,230175,1,0,0:0:0:0:
64,192,230228,1,0,0:0:0:0:
448,192,230281,1,0,0:0:0:0:
320,192,230333,1,0,0:0:0:0:
192,192,230386,1,0,0:0:0:0:
320,192,230439,1,0,0:0:0:0:
448,192,230491,1,0,0:0:0:0:
64,192,230544,1,0,0:0:0:0:
192,192,230597,1,0,0:0:0:0:
320,192,230649,1,0,0:0:0:0:
448,192,230702,1,0,0:0:0:0:
320,192,230755,1,0,0:0:0:0:
64,192,230807,1,0,0:0:0:0:
192,192,230807,1,0,0:0:0:0:
448,192,230860,1,0,0:0:0:0:
320,192,230913,1,0,0:0:0:0:
192,192,230965,1,0,0:0:0:0:
64,192,231018,1,0,0:0:0:0:
448,192,231071,1,0,0:0:0:0:
320,192,231123,1,0,0:0:0:0:
448,192,231176,1,0,0:0:0:0:
64,192,231228,1,0,0:0:0:0:
320,192,231281,1,0,0:0:0:0:
192,192,231334,1,0,0:0:0:0:
320,192,231386,1,0,0:0:0:0:
448,192,231439,1,0,0:0:0:0:
192,192,231492,1,0,0:0:0:0:
64,192,231544,1,0,0:0:0:0:
192,192,231597,1,0,0:0:0:0:
320,192,231650,1,0,0:0:0:0:
448,192,231702,1,0,0:0:0:0:
320,192,231755,1,0,0:0:0:0:
192,192,231808,1,0,0:0:0:0:
64,192,231860,1,0,0:0:0:0:
448,192,231913,1,0,0:0:0:0:
192,192,231966,1,0,0:0:0:0:
64,192,232018,1,0,0:0:0:0:
320,192,232071,1,0,0:0:0:0:
448,192,232071,1,0,0:0:0:0:
192,192,232124,1,0,0:0:0:0:
64,192,232176,1,0,0:0:0:0:
448,192,232229,1,0,0:0:0:0:
320,192,232282,1,0,0:0:0:0:
192,192,232334,1,0,0:0:0:0:
64,192,232387,1,0,0:0:0:0:
192,192,232440,1,0,0:0:0:0:
320,192,232492,1,0,0:0:0:0:
64,192,232545,1,0,0:0:0:0:
192,192,232598,1,0,0:0:0:0:
448,192,232650,1,0,0:0:0:0:
320,192,232703,1,0,0:0:0:0:
192,192,232756,1,0,0:0:0:0:
448,192,232808,1,0,0:0:0:0:
320,192,232861,1,0,0:0:0:0:
192,192,232914,1,0,0:0:0:0:
448,192,232966,1,0,0:0:0:0:
320,192,233019,1,0,0:0:0:0:
64,192,233072,1,0,0:0:0:0:
448,192,233124,1,0,0:0:0:0:
320,192,233177,1,0,0:0:0:0:
64,192,233230,1,0,0:0:0:0:
192,192,233282,1,0,0:0:0:0:
320,192,233335,1,0,0:0:0:0:
448,192,233335,1,0,0:0:0:0:
64,192,233388,1,0,0:0:0:0:
192,192,233440,1,0,0:0:0:0:
320,192,233493,1,0,0:0:0:0:
448,192,233545,1,0,0:0:0:0:
64,192,233598,1,0,0:0:0:0:
320,192,233651,1,0,0:0:0:0:
448,192,233703,1,0,0:0:0:0:
64,192,233756,1,0,0:0:0:0:
320,192,233809,1,0,0:0:0:0:
448,192,233861,1,0,0:0:0:0:
192,192,233914,1,0,0:0:0:0:
320,192,233967,1,0,0:0:0:0:
448,192,234019,1,0,0:0:0:0:
64,192,234072,1,0,0:0:0:0:
192,192,234125,1,0,0:0:0:0:
320,192,234177,1,0,0:0:0:0:
448,192,234230,1,0,0:0:0:0:
320,192,234283,1,0,0:0:0:0:
192,192,234335,1,0,0:0:0:0:
64,192,234388,1,0,0:0:0:0:
448,192,234441,1,0,0:0:0:0:
320,192,234493,1,0,0:0:0:0:
192,192,234546,1,0,0:0:0:0:
64,192,234599,1,0,0:0:0:0:
448,192,234599,1,0,0:0:0:0:
320,192,234651,1,0,0:0:0:0:
192,192,234704,1,0,0:0:0:0:
448,192,234757,1,0,0:0:0:0:
320,192,234809,1,0,0:0:0:0:
64,192,234862,1,0,0:0:0:0:
192,192,234915,1,0,0:0:0:0:
448,192,234967,1,0,0:0:0:0:
320,192,235020,1,0,0:0:0:0:
192,192,235073,1,0,0:0:0:0:
64,192,235125,1,0,0:0:0:0:
448,192,235178,1,0,0:0:0:0:
192,192,235231,1,0,0:0:0:0:
448,192,235283,1,0,0:0:0:0:
320,192,235336,1,0,0:0:0:0:
192,192,235389,1,0,0:0:0:0:
64,192,235441,1,0,0:0:0:0:
448,192,235494,1,0,0:0:0:0:
320,192,235547,1,0,0:0:0:0:
192,192,235599,1,0,0:0:0:0:
64,192,235652,1,0,0:0:0:0:
192,192,235705,1,0,0:0:0:0:
320,192,235757,1,0,0:0:0:0:
64,192,235810,1,0,0:0:0:0:
192,192,235863,1,0,0:0:0:0:
448,192,235863,1,0,0:0:0:0:
320,192,235915,1,0,0:0:0:0:
64,192,235968,1,0,0:0:0:0:
192,192,236020,1,0,0:0:0:0:
448,192,236073,1,0,0:0:0:0:
320,192,236126,1,0,0:0:0:0:
448,192,236178,1,0,0:0:0:0:
64,192,236231,1,0,0:0:0:0:
192,192,236284,1,0,0:0:0:0:
64,192,236336,1,0,0:0:0:0:
320,192,236389,1,0,0:0:0:0:
192,192,236442,1,0,0:0:0:0:
448,192,236494,1,0,0:0:0:0:
64,192,236547,1,0,0:0:0:0:
192,192,236600,1,0,0:0:0:0:
320,192,236652,1,0,0:0:0:0:
448,192,236705,1,0,0:0:0:0:
320,192,236758,1,0,0:0:0:0:
192,192,236810,1,0,0:0:0:0:
64,192,236863,1,0,0:0:0:0:
192,192,236916,1,0,0:0:0:0:
448,192,236968,1,0,0:0:0:0:
320,192,237021,1,0,0:0:0:0:
192,192,237074,1,0,0:0:0:0:
64,192,237126,1,0,0:0:0:0:
448,192,237126,1,0,0:0:0:0:
320,192,237179,1,0,0:0:0:0:
192,192,237232,1,0,0:0:0:0:
448,192,237284,1,0,0:0:0:0:
64,192,237337,1,0,0:0:0:0:
192,192,237390,1,0,0:0:0:0:
320,192,237442,1,0,0:0:0:0:
448,192,237495,1,0,0:0:0:0:
192,192,237548,1,0,0:0:0:0:
320,192,237600,1,0,0:0:0:0:
64,192,237653,1,0,0:0:0:0:
448,192,237706,1,0,0:0:0:0:
192,192,237758,1,0,0:0:0:0:
448,192,237811,1,0,0:0:0:0:
320,192,237864,1,0,0:0:0:0:
192,192,237916,1,0,0:0:0:0:
64,192,237969,1,0,0:0:0:0:
448,192,238022,1,0,0:0:0:0:
320,192,238074,1,0,0:0:0:0:
192,192,238127,1,0,0:0:0:0:
64,192,238180,1,0,0:0:0:0:
448,192,238232,1,0,0:0:0:0:
320,192,238285,1,0,0:0:0:0:
192,192,238337,1,0,0:0:0:0:
64,192,238390,1,0,0:0:0:0:
448,192,238390,1,0,0:0:0:0:
320,192,238443,1,0,0:0:0:0:
192,192,238495,1,0,0:0:0:0:
448,192,238548,1,0,0:0:0:0:
320,192,238601,1,0,0:0:0:0:
64,192,238653,1,0,0:0:0:0:
192,192,238706,1,0,0:0:0:0:
320,192,238759,1,0,0:0:0:0:
192,192,238811,1,0,0:0:0:0:
64,192,238864,1,0,0:0:0:0:
448,192,238917,1,0,0:0:0:0:
320,192,238969,1,0,0:0:0:0:
192,192,239022,1,0,0:0:0:0:
64,192,239075,1,0,0:0:0:0:
320,192,239127,1,0,0:0:0:0:
192,192,239180,1,0,0:0:0:0:
448,192,239233,1,0,0:0:0:0:
320,192,239285,1,0,0:0:0:0:
64,192,239338,1,0,0:0:0:0:
192,192,239391,1,0,0:0:0:0:
320,192,239443,1,0,0:0:0:0:
448,192,239496,1,0,0:0:0:0:
64,192,239549,1,0,0:0:0:0:
192,192,239601,1,0,0:0:0:0:
320,192,239654,1,0,0:0:0:0:
448,192,239654,1,0,0:0:0:0:
64,192,239707,1,0,0:0:0:0:
192,192,239759,1,0,0:0:0:0:
320,192,239812,1,0,0:0:0:0:
448,192,239865,1,0,0:0:0:0:
320,192,239917,1,0,0:0:0:0:
192,192,239970,1,0,0:0:0:0:
320,192,240023,1,0,0:0:0:0:
64,192,240075,1,0,0:0:0:0:
448,192,240128,1,0,0:0:0:0:
320,192,240181,1,0,0:0:0:0:
192,192,240233,1,0,0:0:0:0:
64,192,240286,1,0,0:0:0:0:
192,192,240339,1,0,0:0:0:0:
448,192,240391,1,0,0:0:0:0:
320,192,240444,1,0,0:0:0:0:
64,192,240497,1,0,0:0:0:0:
320,192,240549,1,0,0:0:0:0:
192,192,240602,1,0,0:0:0:0:
320,192,240654,1,0,0:0:0:0:
448,192,240707,1,0,0:0:0:0:
64,192,240760,1,0,0:0:0:0:
192,192,240812,1,0,0:0:0:0:
320,192,240865,1,0,0:0:0:0:
64,192,240918,1,0,0:0:0:0:
448,192,240918,1,0,0:0:0:0:
320,192,240970,1,0,0:0:0:0:
192,192,241023,1,0,0:0:0:0:
64,192,241076,1,0,0:0:0:0:
192,192,241128,1,0,0:0:0:0:
320,192,241181,1,0,0:0:0:0:
192,192,241234,1,0,0:0:0:0:
448,192,241286,1,0,0:0:0:0:
320,192,241339,1,0,0:0:0:0:
192,192,241392,1,0,0:0:0:0:
64,192,241444,1,0,0:0:0:0:
320,192,241497,1,0,0:0:0:0:
192,192,241550,1,0,0:0:0:0:
448,192,241602,1,0,0:0:0:0:
320,192,241655,1,0,0:0:0:0:
192,192,241708,1,0,0:0:0:0:
64,192,241760,1,0,0:0:0:0:
448,192,241813,1,0,0:0:0:0:
320,192,241866,1,0,0:0:0:0:
192,192,241918,1,0,0:0:0:0:
64,192,241971,1,0,0:0:0:0:
448,192,242024,1,0,0:0:0:0:
320,192,242076,1,0,0:0:0:0:
192,192,242129,1,0,0:0:0:0:
64,192,242182,1,0,0:0:0:0:
320,192,242182,1,0,0:0:0:0:
448,192,242234,1,0,0:0:0:0:
192,192,242287,1,0,0:0:0:0:
320,192,242340,1,0,0:0:0:0:
64,192,242392,1,0,0:0:0:0:
192,192,242445,1,0,0:0:0:0:
64,192,242498,1,0,0:0:0:0:
320,192,242550,1,0,0:0:0:0:
192,192,242603,1,0,0:0:0:0:
448,192,242656,1,0,0:0:0:0:
320,192,242708,1,0,0:0:0:0:
192,192,242761,1,0,0:0:0:0:
64,192,242814,1,0,0:0:0:0:
448,192,242814,1,0,0:0:0:0:
192,192,243129,1,0,0:0:0:0:
448,192,243129,1,0,0:0:0:0:
64,192,243761,128,0,243919:0:0:0:0:
192,192,243761,1,0,0:0:0:0:
320,192,244288,1,0,0:0:0:0:
448,192,244288,1,0,0:0:0:0:
64,192,244393,128,0,244551:0:0:0:0:
192,192,244393,1,0,0:0:0:0:
320,192,244709,1,0,0:0:0:0:
448,192,244709,1,0,0:0:0:0:
64,192,245025,128,0,245183:0:0:0:0:
192,192,245025,1,0,0:0:0:0:
320,192,245341,1,0,0:0:0:0:
448,192,245341,1,0,0:0:0:0:
64,192,245657,128,0,245815:0:0:0:0:
192,192,245657,1,0,0:0:0:0:
64,192,246289,128,0,246447:0:0:0:0:
192,192,246289,1,0,0:0:0:0:
64,192,246816,1,0,0:0:0:0:
192,192,246816,1,0,0:0:0:0:
320,192,246921,1,0,0:0:0:0:
448,192,246921,1,0,0:0:0:0:
192,192,246974,1,0,0:0:0:0:
64,192,247026,1,0,0:0:0:0:
320,192,247079,1,0,0:0:0:0:
192,192,247132,1,0,0:0:0:0:
64,192,247184,1,0,0:0:0:0:
448,192,247237,1,0,0:0:0:0:
320,192,247290,1,0,0:0:0:0:
192,192,247342,1,0,0:0:0:0:
64,192,247395,1,0,0:0:0:0:
192,192,247448,1,0,0:0:0:0:
320,192,247500,1,0,0:0:0:0:
448,192,247553,1,0,0:0:0:0:
64,192,247606,1,0,0:0:0:0:
320,192,247658,1,0,0:0:0:0:
64,192,247711,1,0,0:0:0:0:
448,192,247764,1,0,0:0:0:0:
192,192,247816,1,0,0:0:0:0:
320,192,247869,1,0,0:0:0:0:
192,192,247921,1,0,0:0:0:0:
64,192,247974,1,0,0:0:0:0:
448,192,248027,1,0,0:0:0:0:
320,192,248079,1,0,0:0:0:0:
192,192,248132,1,0,0:0:0:0:
64,192,248185,1,0,0:0:0:0:
448,192,248185,1,0,0:0:0:0:
192,192,248237,1,0,0:0:0:0:
320,192,248290,1,0,0:0:0:0:
448,192,248343,1,0,0:0:0:0:
64,192,248395,1,0,0:0:0:0:
192,192,248448,1,0,0:0:0:0:
64,192,248501,1,0,0:0:0:0:
448,192,248553,1,0,0:0:0:0:
320,192,248606,1,0,0:0:0:0:
192,192,248659,1,0,0:0:0:0:
64,192,248711,1,0,0:0:0:0:
192,192,248764,1,0,0:0:0:0:
320,192,248817,1,0,0:0:0:0:
448,192,248869,1,0,0:0:0:0:
192,192,248922,1,0,0:0:0:0:
320,192,248975,1,0,0:0:0:0:
64,192,249027,1,0,0:0:0:0:
192,192,249080,1,0,0:0:0:0:
64,192,249133,1,0,0:0:0:0:
448,192,249185,1,0,0:0:0:0:
320,192,249238,1,0,0:0:0:0:
192,192,249291,1,0,0:0:0:0:
320,192,249343,1,0,0:0:0:0:
448,192,249396,1,0,0:0:0:0:
64,192,249449,1,0,0:0:0:0:
320,192,249449,1,0,0:0:0:0:
192,192,249501,1,0,0:0:0:0:
448,192,249554,1,0,0:0:0:0:
320,192,249607,1,0,0:0:0:0:
192,192,249659,1,0,0:0:0:0:
64,192,249712,1,0,0:0:0:0:
448,192,249765,1,0,0:0:0:0:
64,192,249817,1,0,0:0:0:0:
192,192,249870,1,0,0:0:0:0:
320,192,249923,1,0,0:0:0:0:
448,192,249975,1,0,0:0:0:0:
320,192,250028,1,0,0:0:0:0:
192,192,250081,1,0,0:0:0:0:
64,192,250133,1,0,0:0:0:0:
192,192,250186,1,0,0:0:0:0:
320,192,250238,1,0,0:0:0:0:
448,192,250291,1,0,0:0:0:0:
192,192,250344,1,0,0:0:0:0:
320,192,250396,1,0,0:0:0:0:
64,192,250449,1,0,0:0:0:0:
192,192,250502,1,0,0:0:0:0:
64,192,250554,1,0,0:0:0:0:
448,192,250607,1,0,0:0:0:0:
320,192,250660,1,0,0:0:0:0:
64,192,250712,1,0,0:0:0:0:
192,192,250712,1,0,0:0:0:0:
320,192,250765,1,0,0:0:0:0:
448,192,250818,1,0,0:0:0:0:
64,192,250870,1,0,0:0:0:0:
192,192,250923,1,0,0:0:0:0:
320,192,250976,1,0,0:0:0:0:
448,192,251028,1,0,0:0:0:0:
64,192,251081,1,0,0:0:0:0:
320,192,251134,1,0,0:0:0:0:
192,192,251186,1,0,0:0:0:0:
448,192,251239,1,0,0:0:0:0:
320,192,251292,1,0,0:0:0:0:
192,192,251344,1,0,0:0:0:0:
448,192,251397,1,0,0:0:0:0:
320,192,251450,1,0,0:0:0:0:
192,192,251502,1,0,0:0:0:0:
448,192,251555,1,0,0:0:0:0:
320,192,251608,1,0,0:0:0:0:
192,192,251660,1,0,0:0:0:0:
64,192,251713,1,0,0:0:0:0:
448,192,251766,1,0,0:0:0:0:
192,192,251818,1,0,0:0:0:0:
64,192,251871,1,0,0:0:0:0:
448,192,251924,1,0,0:0:0:0:
192,192,251976,1,0,0:0:0:0:
320,192,251976,1,0,0:0:0:0:
64,192,252029,1,0,0:0:0:0:
448,192,252082,1,0,0:0:0:0:
320,192,252134,1,0,0:0:0:0:
192,192,252187,1,0,0:0:0:0:
448,192,252240,1,0,0:0:0:0:
320,192,252292,1,0,0:0:0:0:
192,192,252345,1,0,0:0:0:0:
448,192,252398,1,0,0:0:0:0:
320,192,252450,1,0,0:0:0:0:
64,192,252503,1,0,0:0:0:0:
192,192,252555,1,0,0:0:0:0:
320,192,252608,1,0,0:0:0:0:
64,192,252661,1,0,0:0:0:0:
448,192,252713,1,0,0:0:0:0:
320,192,252766,1,0,0:0:0:0:
192,192,252819,1,0,0:0:0:0:
64,192,252871,1,0,0:0:0:0:
192,192,252924,1,0,0:0:0:0:
320,192,252977,1,0,0:0:0:0:
448,192,253029,1,0,0:0:0:0:
64,192,253082,1,0,0:0:0:0:
192,192,253135,1,0,0:0:0:0:
320,192,253187,1,0,0:0:0:0:
64,192,253240,1,0,0:0:0:0:
448,192,253240,1,0,0:0:0:0:
192,192,253293,1,0,0:0:0:0:
320,192,253345,1,0,0:0:0:0:
64,192,253398,1,0,0:0:0:0:
192,192,253451,1,0,0:0:0:0:
448,192,253503,1,0,0:0:0:0:
320,192,253556,1,0,0:0:0:0:
64,192,253609,1,0,0:0:0:0:
192,192,253661,1,0,0:0:0:0:
448,192,253714,1,0,0:0:0:0:
320,192,253767,1,0,0:0:0:0:
64,192,253819,1,0,0:0:0:0:
448,192,253872,1,0,0:0:0:0:
64,192,253925,1,0,0:0:0:0:
192,192,253977,1,0,0:0:0:0:
320,192,254030,1,0,0:0:0:0:
448,192,254083,1,0,0:0:0:0:
320,192,254135,1,0,0:0:0:0:
192,192,254188,1,0,0:0:0:0:
320,192,254241,1,0,0:0:0:0:
64,192,254293,1,0,0:0:0:0:
448,192,254346,1,0,0:0:0:0:
320,192,254399,1,0,0:0:0:0:
192,192,254451,1,0,0:0:0:0:
64,192,254504,1,0,0:0:0:0:
448,192,254504,1,0,0:0:0:0:
192,192,254557,1,0,0:0:0:0:
320,192,254609,1,0,0:0:0:0:
448,192,254662,1,0,0:0:0:0:
64,192,254715,1,0,0:0:0:0:
192,192,254767,1,0,0:0:0:0:
64,192,254820,1,0,0:0:0:0:
448,192,254873,1,0,0:0:0:0:
192,192,254925,1,0,0:0:0:0:
448,192,254978,1,0,0:0:0:0:
320,192,255030,1,0,0:0:0:0:
192,192,255083,1,0,0:0:0:0:
64,192,255136,1,0,0:0:0:0:
448,192,255188,1,0,0:0:0:0:
320,192,255241,1,0,0:0:0:0:
192,192,255294,1,0,0:0:0:0:
64,192,255346,1,0,0:0:0:0:
192,192,255399,1,0,0:0:0:0:
320,192,255452,1,0,0:0:0:0:
448,192,255504,1,0,0:0:0:0:
320,192,255557,1,0,0:0:0:0:
64,192,255610,1,0,0:0:0:0:
320,192,255662,1,0,0:0:0:0:
192,192,255715,1,0,0:0:0:0:
64,192,255768,1,0,0:0:0:0:
448,192,255768,1,0,0:0:0:0:
320,192,255820,1,0,0:0:0:0:
192,192,255873,1,0,0:0:0:0:
64,192,255926,1,0,0:0:0:0:
448,192,255978,1,0,0:0:0:0:
320,192,256031,1,0,0:0:0:0:
192,192,256084,1,0,0:0:0:0:
64,192,256136,1,0,0:0:0:0:
320,192,256189,1,0,0:0:0:0:
192,192,256242,1,0,0:0:0:0:
448,192,256294,1,0,0:0:0:0:
320,192,256347,1,0,0:0:0:0:
192,192,256400,1,0,0:0:0:0:
64,192,256452,1,0,0:0:0:0:
192,192,256505,1,0,0:0:0:0:
320,192,256558,1,0,0:0:0:0:
448,192,256610,1,0,0:0:0:0:
64,192,256663,1,0,0:0:0:0:
192,192,256716,1,0,0:0:0:0:
320,192,256768,1,0,0:0:0:0:
448,192,256821,1,0,0:0:0:0:
64,192,256874,1,0,0:0:0:0:
192,192,256926,1,0,0:0:0:0:
320,192,256979,1,0,0:0:0:0:
64,192,257032,1,0,0:0:0:0:
448,192,257032,1,0,0:0:0:0:
192,192,257084,1,0,0:0:0:0:
320,192,257137,1,0,0:0:0:0:
448,192,257190,1,0,0:0:0:0:
192,192,257242,1,0,0:0:0:0:
64,192,257295,1,0,0:0:0:0:
320,192,257347,1,0,0:0:0:0:
192,192,257400,1,0,0:0:0:0:
320,192,257453,1,0,0:0:0:0:
448,192,257505,1,0,0:0:0:0:
64,192,257558,1,0,0:0:0:0:
192,192,257611,1,0,0:0:0:0:
320,192,257663,1,0,0:0:0:0:
448,192,257716,1,0,0:0:0:0:
192,192,257769,1,0,0:0:0:0:
320,192,257821,1,0,0:0:0:0:
64,192,257874,1,0,0:0:0:0:
448,192,257927,1,0,0:0:0:0:
320,192,257979,1,0,0:0:0:0:
192,192,258032,1,0,0:0:0:0:
320,192,258085,1,0,0:0:0:0:
64,192,258137,1,0,0:0:0:0:
448,192,258190,1,0,0:0:0:0:
320,192,258243,1,0,0:0:0:0:
64,192,258295,1,0,0:0:0:0:
192,192,258295,1,0,0:0:0:0:
448,192,258348,1,0,0:0:0:0:
320,192,258401,1,0,0:0:0:0:
192,192,258453,1,0,0:0:0:0:
64,192,258506,1,0,0:0:0:0:
192,192,258559,1,0,0:0:0:0:
320,192,258611,1,0,0:0:0:0:
192,192,258664,1,0,0:0:0:0:
448,192,258717,1,0,0:0:0:0:
64,192,258769,1,0,0:0:0:0:
192,192,258822,1,0,0:0:0:0:
320,192,258875,1,0,0:0:0:0:
448,192,258927,1,0,0:0:0:0:
192,192,258980,1,0,0:0:0:0:
64,192,259033,1,0,0:0:0:0:
320,192,259085,1,0,0:0:0:0:
448,192,259138,1,0,0:0:0:0:
64,192,259191,1,0,0:0:0:0:
192,192,259243,1,0,0:0:0:0:
320,192,259296,1,0,0:0:0:0:
64,192,259349,1,0,0:0:0:0:
448,192,259401,1,0,0:0:0:0:
320,192,259454,1,0,0:0:0:0:
192,192,259507,1,0,0:0:0:0:
64,192,259559,1,0,0:0:0:0:
448,192,259559,1,0,0:0:0:0:
192,192,259612,1,0,0:0:0:0:
320,192,259665,1,0,0:0:0:0:
448,192,259717,1,0,0:0:0:0:
320,192,259770,1,0,0:0:0:0:
192,192,259822,1,0,0:0:0:0:
320,192,259875,1,0,0:0:0:0:
64,192,259928,1,0,0:0:0:0:
192,192,259980,1,0,0:0:0:0:
320,192,260033,1,0,0:0:0:0:
448,192,260086,1,0,0:0:0:0:
192,192,260138,1,0,0:0:0:0:
320,192,260191,1,0,0:0:0:0:
448,192,260244,1,0,0:0:0:0:
64,192,260296,1,0,0:0:0:0:
192,192,260349,1,0,0:0:0:0:
448,192,260402,1,0,0:0:0:0:
64,192,260454,1,0,0:0:0:0:
192,192,260507,1,0,0:0:0:0:
320,192,260560,1,0,0:0:0:0:
448,192,260612,1,0,0:0:0:0:
64,192,260665,1,0,0:0:0:0:
192,192,260718,1,0,0:0:0:0:
320,192,260770,1,0,0:0:0:0:
192,192,260823,1,0,0:0:0:0:
448,192,260823,1,0,0:0:0:0:
64,192,260876,1,0,0:0:0:0:
448,192,260928,1,0,0:0:0:0:
320,192,260981,1,0,0:0:0:0:
192,192,261034,1,0,0:0:0:0:
320,192,261086,1,0,0:0:0:0:
448,192,261139,1,0,0:0:0:0:
192,192,261192,1,0,0:0:0:0:
64,192,261244,1,0,0:0:0:0:
320,192,261297,1,0,0:0:0:0:
192,192,261350,1,0,0:0:0:0:
320,192,261402,1,0,0:0:0:0:
64,192,261455,1,0,0:0:0:0:
448,192,261455,1,0,0:0:0:0:
64,192,261771,1,0,0:0:0:0:
320,192,261771,1,0,0:0:0:0:
192,192,262403,128,0,262561:0:0:0:0:
448,192,262403,1,0,0:0:0:0:
64,192,262929,1,0,0:0:0:0:
320,192,262929,1,0,0:0:0:0:
192,192,263035,128,0,263193:0:0:0:0:
448,192,263035,1,0,0:0:0:0:
64,192,263351,1,0,0:0:0:0:
320,192,263351,1,0,0:0:0:0:
192,192,263667,128,0,263825:0:0:0:0:
448,192,263667,1,0,0:0:0:0:
64,192,263983,1,0,0:0:0:0:
320,192,263983,1,0,0:0:0:0:
192,192,264299,128,0,264456:0:0:0:0:
448,192,264299,1,0,0:0:0:0:
192,192,264930,128,0,265088:0:0:0:0:
448,192,264930,1,0,0:0:0:0:
192,192,265457,1,0,0:0:0:0:
448,192,265457,1,0,0:0:0:0:
64,192,265562,1,0,0:0:0:0:
320,192,265562,1,0,0:0:0:0:
448,192,265615,1,0,0:0:0:0:
192,192,265668,1,0,0:0:0:0:
64,192,265720,1,0,0:0:0:0:
448,192,265773,1,0,0:0:0:0:
192,192,265826,1,0,0:0:0:0:
320,192,265878,1,0,0:0:0:0:
64,192,265931,1,0,0:0:0:0:
448,192,265984,1,0,0:0:0:0:
192,192,266036,1,0,0:0:0:0:
448,192,266089,1,0,0:0:0:0:
64,192,266142,1,0,0:0:0:0:
320,192,266194,1,0,0:0:0:0:
192,192,266247,1,0,0:0:0:0:
64,192,266300,1,0,0:0:0:0:
192,192,266352,1,0,0:0:0:0:
320,192,266405,1,0,0:0:0:0:
448,192,266458,1,0,0:0:0:0:
64,192,266510,1,0,0:0:0:0:
448,192,266563,1,0,0:0:0:0:
320,192,266616,1,0,0:0:0:0:
192,192,266668,1,0,0:0:0:0:
64,192,266721,1,0,0:0:0:0:
448,192,266774,1,0,0:0:0:0:
192,192,266826,1,0,0:0:0:0:
320,192,266826,1,0,0:0:0:0:
448,192,266879,1,0,0:0:0:0:
64,192,266931,1,0,0:0:0:0:
320,192,266984,1,0,0:0:0:0:
192,192,267037,1,0,0:0:0:0:
64,192,267089,1,0,0:0:0:0:
448,192,267142,1,0,0:0:0:0:
320,192,267195,1,0,0:0:0:0:
448,192,267247,1,0,0:0:0:0:
64,192,267300,1,0,0:0:0:0:
192,192,267353,1,0,0:0:0:0:
448,192,267405,1,0,0:0:0:0:
64,192,267458,1,0,0:0:0:0:
320,192,267511,1,0,0:0:0:0:
448,192,267563,1,0,0:0:0:0:
64,192,267616,1,0,0:0:0:0:
192,192,267669,1,0,0:0:0:0:
448,192,267721,1,0,0:0:0:0:
192,192,267774,1,0,0:0:0:0:
320,192,267827,1,0,0:0:0:0:
448,192,267879,1,0,0:0:0:0:
64,192,267932,1,0,0:0:0:0:
192,192,267985,1,0,0:0:0:0:
320,192,268037,1,0,0:0:0:0:
64,192,268090,1,0,0:0:0:0:
192,192,268090,1,0,0:0:0:0:
448,192,268143,1,0,0:0:0:0:
192,192,268195,1,0,0:0:0:0:
320,192,268248,1,0,0:0:0:0:
448,192,268301,1,0,0:0:0:0:
64,192,268353,1,0,0:0:0:0:
320,192,268406,1,0,0:0:0:0:
64,192,268459,1,0,0:0:0:0:
448,192,268511,1,0,0:0:0:0:
320,192,268564,1,0,0:0:0:0:
192,192,268617,1,0,0:0:0:0:
64,192,268669,1,0,0:0:0:0:
192,192,268722,1,0,0:0:0:0:
320,192,268775,1,0,0:0:0:0:
448,192,268827,1,0,0:0:0:0:
192,192,268880,1,0,0:0:0:0:
320,192,268933,1,0,0:0:0:0:
448,192,268985,1,0,0:0:0:0:
64,192,269038,1,0,0:0:0:0:
192,192,269091,1,0,0:0:0:0:
320,192,269143,1,0,0:0:0:0:
448,192,269196,1,0,0:0:0:0:
320,192,269248,1,0,0:0:0:0:
192,192,269301,1,0,0:0:0:0:
64,192,269354,1,0,0:0:0:0:
448,192,269354,1,0,0:0:0:0:
320,192,269406,1,0,0:0:0:0:
192,192,269459,1,0,0:0:0:0:
64,192,269512,1,0,0:0:0:0:
448,192,269564,1,0,0:0:0:0:
320,192,269617,1,0,0:0:0:0:
192,192,269670,1,0,0:0:0:0:
448,192,269722,1,0,0:0:0:0:
320,192,269775,1,0,0:0:0:0:
64,192,269828,1,0,0:0:0:0:
192,192,269880,1,0,0:0:0:0:
320,192,269933,1,0,0:0:0:0:
448,192,269986,1,0,0:0:0:0:
320,192,270038,1,0,0:0:0:0:
192,192,270091,1,0,0:0:0:0:
64,192,270144,1,0,0:0:0:0:
320,192,270196,1,0,0:0:0:0:
192,192,270249,1,0,0:0:0:0:
64,192,270302,1,0,0:0:0:0:
320,192,270354,1,0,0:0:0:0:
192,192,270407,1,0,0:0:0:0:
448,192,270460,1,0,0:0:0:0:
320,192,270512,1,0,0:0:0:0:
64,192,270565,1,0,0:0:0:0:
320,192,270618,1,0,0:0:0:0:
448,192,270618,1,0,0:0:0:0:
192,192,270670,1,0,0:0:0:0:
64,192,270723,1,0,0:0:0:0:
448,192,270776,1,0,0:0:0:0:
192,192,270828,1,0,0:0:0:0:
320,192,270881,1,0,0:0:0:0:
448,192,270934,1,0,0:0:0:0:
192,192,270986,1,0,0:0:0:0:
320,192,271039,1,0,0:0:0:0:
448,192,271092,1,0,0:0:0:0:
192,192,271144,1,0,0:0:0:0:
64,192,271197,1,0,0:0:0:0:
448,192,271250,1,0,0:0:0:0:
192,192,271302,1,0,0:0:0:0:
320,192,271355,1,0,0:0:0:0:
64,192,271408,1,0,0:0:0:0:
448,192,271460,1,0,0:0:0:0:
192,192,271513,1,0,0:0:0:0:
448,192,271566,1,0,0:0:0:0:
320,192,271618,1,0,0:0:0:0:
192,192,271671,1,0,0:0:0:0:
64,192,271723,1,0,0:0:0:0:
192,192,271776,1,0,0:0:0:0:
320,192,271829,1,0,0:0:0:0:
64,192,271881,1,0,0:0:0:0:
448,192,271881,1,0,0:0:0:0:
320,192,271934,1,0,0:0:0:0:
192,192,271987,1,0,0:0:0:0:
448,192,272039,1,0,0:0:0:0:
320,192,272092,1,0,0:0:0:0:
64,192,272145,1,0,0:0:0:0:
192,192,272197,1,0,0:0:0:0:
64,192,272250,1,0,0:0:0:0:
448,192,272303,1,0,0:0:0:0:
320,192,272355,1,0,0:0:0:0:
64,192,272408,1,0,0:0:0:0:
192,192,272461,1,0,0:0:0:0:
320,192,272513,1,0,0:0:0:0:
192,192,272566,1,0,0:0:0:0:
64,192,272619,1,0,0:0:0:0:
448,192,272671,1,0,0:0:0:0:
320,192,272724,1,0,0:0:0:0:
64,192,272777,1,0,0:0:0:0:
448,192,272829,1,0,0:0:0:0:
320,192,272882,1,0,0:0:0:0:
192,192,272935,1,0,0:0:0:0:
64,192,272987,1,0,0:0:0:0:
448,192,273040,1,0,0:0:0:0:
320,192,273093,1,0,0:0:0:0:
64,192,273145,1,0,0:0:0:0:
192,192,273145,1,0,0:0:0:0:
448,192,273198,1,0,0:0:0:0:
64,192,273251,1,0,0:0:0:0:
320,192,273303,1,0,0:0:0:0:
192,192,273356,1,0,0:0:0:0:
448,192,273409,1,0,0:0:0:0:
192,192,273461,1,0,0:0:0:0:
320,192,273514,1,0,0:0:0:0:
64,192,273567,1,0,0:0:0:0:
320,192,273619,1,0,0:0:0:0:
448,192,273672,1,0,0:0:0:0:
64,192,273725,1,0,0:0:0:0:
192,192,273777,1,0,0:0:0:0:
320,192,273830,1,0,0:0:0:0:
64,192,273883,1,0,0:0:0:0:
448,192,273935,1,0,0:0:0:0:
192,192,273988,1,0,0:0:0:0:
448,192,274040,1,0,0:0:0:0:
320,192,274093,1,0,0:0:0:0:
192,192,274146,1,0,0:0:0:0:
64,192,274198,1,0,0:0:0:0:
192,192,274251,1,0,0:0:0:0:
64,192,274304,1,0,0:0:0:0:
448,192,274356,1,0,0:0:0:0:
192,192,274409,1,0,0:0:0:0:
320,192,274409,1,0,0:0:0:0:
64,192,274462,1,0,0:0:0:0:
448,192,274514,1,0,0:0:0:0:
320,192,274567,1,0,0:0:0:0:
192,192,274620,1,0,0:0:0:0:
448,192,274672,1,0,0:0:0:0:
320,192,274725,1,0,0:0:0:0:
192,192,274778,1,0,0:0:0:0:
64,192,274830,1,0,0:0:0:0:
448,192,274883,1,0,0:0:0:0:
320,192,274936,1,0,0:0:0:0:
64,192,274988,1,0,0:0:0:0:
448,192,275041,1,0,0:0:0:0:
320,192,275094,1,0,0:0:0:0:
64,192,275146,1,0,0:0:0:0:
448,192,275199,1,0,0:0:0:0:
320,192,275252,1,0,0:0:0:0:
192,192,275304,1,0,0:0:0:0:
448,192,275357,1,0,0:0:0:0:
64,192,275410,1,0,0:0:0:0:
192,192,275462,1,0,0:0:0:0:
320,192,275515,1,0,0:0:0:0:
448,192,275568,1,0,0:0:0:0:
64,192,275620,1,0,0:0:0:0:
192,192,275673,1,0,0:0:0:0:
320,192,275673,1,0,0:0:0:0:
64,192,275726,1,0,0:0:0:0:
448,192,275778,1,0,0:0:0:0:
320,192,275831,1,0,0:0:0:0:
192,192,275884,1,0,0:0:0:0:
320,192,275936,1,0,0:0:0:0:
192,192,275989,1,0,0:0:0:0:
448,192,276042,1,0,0:0:0:0:
320,192,276094,1,0,0:0:0:0:
192,192,276147,1,0,0:0:0:0:
64,192,276200,1,0,0:0:0:0:
192,192,276252,1,0,0:0:0:0:
64,192,276305,1,0,0:0:0:0:
320,192,276357,1,0,0:0:0:0:
448,192,276410,1,0,0:0:0:0:
192,192,276463,1,0,0:0:0:0:
320,192,276515,1,0,0:0:0:0:
192,192,276568,1,0,0:0:0:0:
448,192,276621,1,0,0:0:0:0:
64,192,276673,1,0,0:0:0:0:
192,192,276726,1,0,0:0:0:0:
320,192,276779,1,0,0:0:0:0:
448,192,276831,1,0,0:0:0:0:
320,192,276884,1,0,0:0:0:0:
192,192,276937,1,0,0:0:0:0:
448,192,276937,1,0,0:0:0:0:
64,192,276989,1,0,0:0:0:0:
320,192,277042,1,0,0:0:0:0:
192,192,277095,1,0,0:0:0:0:
64,192,277147,1,0,0:0:0:0:
448,192,277200,1,0,0:0:0:0:
320,192,277253,1,0,0:0:0:0:
192,192,277305,1,0,0:0:0:0:
448,192,277358,1,0,0:0:0:0:
320,192,277411,1,0,0:0:0:0:
192,192,277463,1,0,0:0:0:0:
448,192,277516,1,0,0:0:0:0:
64,192,277569,1,0,0:0:0:0:
320,192,277621,1,0,0:0:0:0:
64,192,277674,1,0,0:0:0:0:
448,192,277727,1,0,0:0:0:0:
192,192,277779,1,0,0:0:0:0:
448,192,277832,1,0,0:0:0:0:
320,192,277885,1,0,0:0:0:0:
64,192,277937,1,0,0:0:0:0:
192,192,277990,1,0,0:0:0:0:
320,192,278043,1,0,0:0:0:0:
448,192,278095,1,0,0:0:0:0:
64,192,278148,1,0,0:0:0:0:
192,192,278201,1,0,0:0:0:0:
320,192,278201,1,0,0:0:0:0:
448,192,278253,1,0,0:0:0:0:
320,192,278306,1,0,0:0:0:0:
192,192,278359,1,0,0:0:0:0:
64,192,278411,1,0,0:0:0:0:
448,192,278464,1,0,0:0:0:0:
64,192,278517,1,0,0:0:0:0:
320,192,278569,1,0,0:0:0:0:
448,192,278622,1,0,0:0:0:0:
64,192,278675,1,0,0:0:0:0:
320,192,278727,1,0,0:0:0:0:
192,192,278780,1,0,0:0:0:0:
448,192,278832,1,0,0:0:0:0:
320,192,278885,1,0,0:0:0:0:
192,192,278938,1,0,0:0:0:0:
448,192,278990,1,0,0:0:0:0:
320,192,279043,1,0,0:0:0:0:
192,192,279096,1,0,0:0:0:0:
448,192,279148,1,0,0:0:0:0:
64,192,279201,1,0,0:0:0:0:
320,192,279254,1,0,0:0:0:0:
192,192,279306,1,0,0:0:0:0:
320,192,279359,1,0,0:0:0:0:
64,192,279412,1,0,0:0:0:0:
192,192,279464,1,0,0:0:0:0:
448,192,279464,1,0,0:0:0:0:
320,192,279517,1,0,0:0:0:0:
192,192,279570,1,0,0:0:0:0:
64,192,279622,1,0,0:0:0:0:
448,192,279675,1,0,0:0:0:0:
64,192,279728,1,0,0:0:0:0:
320,192,279780,1,0,0:0:0:0:
448,192,279833,1,0,0:0:0:0:
192,192,279886,1,0,0:0:0:0:
320,192,279938,1,0,0:0:0:0:
448,192,279991,1,0,0:0:0:0:
64,192,280044,1,0,0:0:0:0:
192,192,280096,1,0,0:0:0:0:
320,192,280096,1,0,0:0:0:0:
64,192,280412,1,0,0:0:0:0:
192,192,280412,1,0,0:0:0:0:
320,192,281044,1,0,0:0:0:0:
448,192,281044,128,0,281202:0:0:0:0:
64,192,281571,1,0,0:0:0:0:
192,192,281571,1,0,0:0:0:0:
320,192,281676,1,0,0:0:0:0:
448,192,281676,128,0,281834:0:0:0:0:
64,192,281992,1,0,0:0:0:0:
192,192,281992,1,0,0:0:0:0:
320,192,282308,1,0,0:0:0:0:
448,192,282308,128,0,282466:0:0:0:0:
64,192,282624,1,0,0:0:0:0:
192,192,282624,1,0,0:0:0:0:
320,192,282940,1,0,0:0:0:0:
448,192,282940,128,0,283098:0:0:0:0:
320,192,283572,1,0,0:0:0:0:
448,192,283572,128,0,283730:0:0:0:0:
320,192,284098,1,0,0:0:0:0:
448,192,284098,1,0,0:0:0:0:
64,192,284204,1,0,0:0:0:0:
192,192,284204,1,0,0:0:0:0:
320,192,284256,1,0,0:0:0:0:
448,192,284309,1,0,0:0:0:0:
192,192,284362,1,0,0:0:0:0:
320,192,284414,1,0,0:0:0:0:
448,192,284467,1,0,0:0:0:0:
64,192,284520,1,0,0:0:0:0:
192,192,284572,1,0,0:0:0:0:
320,192,284625,1,0,0:0:0:0:
448,192,284678,1,0,0:0:0:0:
320,192,284730,1,0,0:0:0:0:
192,192,284783,1,0,0:0:0:0:
64,192,284836,1,0,0:0:0:0:
448,192,284888,1,0,0:0:0:0:
192,192,284941,1,0,0:0:0:0:
448,192,284994,1,0,0:0:0:0:
64,192,285046,1,0,0:0:0:0:
320,192,285099,1,0,0:0:0:0:
192,192,285152,1,0,0:0:0:0:
320,192,285204,1,0,0:0:0:0:
64,192,285257,1,0,0:0:0:0:
448,192,285310,1,0,0:0:0:0:
192,192,285362,1,0,0:0:0:0:
320,192,285415,1,0,0:0:0:0:
64,192,285468,1,0,0:0:0:0:
448,192,285468,1,0,0:0:0:0:
320,192,285520,1,0,0:0:0:0:
192,192,285573,1,0,0:0:0:0:
64,192,285626,1,0,0:0:0:0:
320,192,285678,1,0,0:0:0:0:
192,192,285731,1,0,0:0:0:0:
320,192,285784,1,0,0:0:0:0:
64,192,285836,1,0,0:0:0:0:
448,192,285889,1,0,0:0:0:0:
192,192,285941,1,0,0:0:0:0:
448,192,285994,1,0,0:0:0:0:
64,192,286047,1,0,0:0:0:0:
192,192,286099,1,0,0:0:0:0:
64,192,286152,1,0,0:0:0:0:
320,192,286205,1,0,0:0:0:0:
192,192,286257,1,0,0:0:0:0:
320,192,286310,1,0,0:0:0:0:
448,192,286363,1,0,0:0:0:0:
64,192,286415,1,0,0:0:0:0:
192,192,286468,1,0,0:0:0:0:
320,192,286521,1,0,0:0:0:0:
448,192,286573,1,0,0:0:0:0:
320,192,286626,1,0,0:0:0:0:
192,192,286679,1,0,0:0:0:0:
64,192,286731,1,0,0:0:0:0:
448,192,286731,1,0,0:0:0:0:
320,192,286784,1,0,0:0:0:0:
448,192,286837,1,0,0:0:0:0:
64,192,286889,1,0,0:0:0:0:
192,192,286942,1,0,0:0:0:0:
448,192,286995,1,0,0:0:0:0:
64,192,287047,1,0,0:0:0:0:
448,192,287100,1,0,0:0:0:0:
320,192,287153,1,0,0:0:0:0:
192,192,287205,1,0,0:0:0:0:
64,192,287258,1,0,0:0:0:0:
192,192,287311,1,0,0:0:0:0:
320,192,287363,1,0,0:0:0:0:
448,192,287416,1,0,0:0:0:0:
320,192,287469,1,0,0:0:0:0:
192,192,287521,1,0,0:0:0:0:
64,192,287574,1,0,0:0:0:0:
320,192,287627,1,0,0:0:0:0:
192,192,287679,1,0,0:0:0:0:
448,192,287732,1,0,0:0:0:0:
320,192,287785,1,0,0:0:0:0:
448,192,287837,1,0,0:0:0:0:
64,192,287890,1,0,0:0:0:0:
192,192,287943,1,0,0:0:0:0:
320,192,287995,1,0,0:0:0:0:
448,192,287995,1,0,0:0:0:0:
192,192,288048,1,0,0:0:0:0:
64,192,288101,1,0,0:0:0:0:
448,192,288153,1,0,0:0:0:0:
320,192,288206,1,0,0:0:0:0:
192,192,288258,1,0,0:0:0:0:
64,192,288311,1,0,0:0:0:0:
448,192,288364,1,0,0:0:0:0:
192,192,288416,1,0,0:0:0:0:
320,192,288469,1,0,0:0:0:0:
64,192,288522,1,0,0:0:0:0:
448,192,288574,1,0,0:0:0:0:
320,192,288627,1,0,0:0:0:0:
192,192,288680,1,0,0:0:0:0:
448,192,288732,1,0,0:0:0:0:
320,192,288785,1,0,0:0:0:0:
192,192,288838,1,0,0:0:0:0:
448,192,288890,1,0,0:0:0:0:
320,192,288943,1,0,0:0:0:0:
64,192,288996,1,0,0:0:0:0:
448,192,289048,1,0,0:0:0:0:
320,192,289101,1,0,0:0:0:0:
64,192,289154,1,0,0:0:0:0:
192,192,289206,1,0,0:0:0:0:
320,192,289259,1,0,0:0:0:0:
448,192,289259,1,0,0:0:0:0:
64,192,289312,1,0,0:0:0:0:
192,192,289364,1,0,0:0:0:0:
320,192,289417,1,0,0:0:0:0:
448,192,289470,1,0,0:0:0:0:
64,192,289522,1,0,0:0:0:0:
320,192,289575,1,0,0:0:0:0:
448,192,289628,1,0,0:0:0:0:
64,192,289680,1,0,0:0:0:0:
320,192,289733,1,0,0:0:0:0:
448,192,289786,1,0,0:0:0:0:
192,192,289838,1,0,0:0:0:0:
320,192,289891,1,0,0:0:0:0:
448,192,289944,1,0,0:0:0:0:
64,192,289996,1,0,0:0:0:0:
192,192,290049,1,0,0:0:0:0:
320,192,290102,1,0,0:0:0:0:
448,192,290154,1,0,0:0:0:0:
320,192,290207,1,0,0:0:0:0:
192,192,290260,1,0,0:0:0:0:
64,192,290312,1,0,0:0:0:0:
448,192,290365,1,0,0:0:0:0:
320,192,290418,1,0,0:0:0:0:
192,192,290470,1,0,0:0:0:0:
64,192,290523,1,0,0:0:0:0:
448,192,290523,1,0,0:0:0:0:
320,192,290576,1,0,0:0:0:0:
192,192,290628,1,0,0:0:0:0:
448,192,290681,1,0,0:0:0:0:
320,192,290733,1,0,0:0:0:0:
64,192,290786,1,0,0:0:0:0:
192,192,290839,1,0,0:0:0:0:
448,192,290891,1,0,0:0:0:0:
320,192,290944,1,0,0:0:0:0:
64,192,290997,1,0,0:0:0:0:
192,192,291049,1,0,0:0:0:0:
448,192,291102,1,0,0:0:0:0:
64,192,291155,1,0,0:0:0:0:
448,192,291207,1,0,0:0:0:0:
320,192,291260,1,0,0:0:0:0:
192,192,291313,1,0,0:0:0:0:
64,192,291365,1,0,0:0:0:0:
192,192,291418,1,0,0:0:0:0:
320,192,291471,1,0,0:0:0:0:
192,192,291523,1,0,0:0:0:0:
448,192,291576,1,0,0:0:0:0:
64,192,291629,1,0,0:0:0:0:
192,192,291681,1,0,0:0:0:0:
64,192,291734,1,0,0:0:0:0:
320,192,291787,1,0,0:0:0:0:
448,192,291787,1,0,0:0:0:0:
192,192,291839,1,0,0:0:0:0:
320,192,291892,1,0,0:0:0:0:
64,192,291945,1,0,0:0:0:0:
448,192,291997,1,0,0:0:0:0:
320,192,292050,1,0,0:0:0:0:
448,192,292103,1,0,0:0:0:0:
64,192,292155,1,0,0:0:0:0:
192,192,292208,1,0,0:0:0:0:
64,192,292261,1,0,0:0:0:0:
320,192,292313,1,0,0:0:0:0:
192,192,292366,1,0,0:0:0:0:
448,192,292419,1,0,0:0:0:0:
64,192,292471,1,0,0:0:0:0:
192,192,292524,1,0,0:0:0:0:
320,192,292577,1,0,0:0:0:0:
448,192,292629,1,0,0:0:0:0:
320,192,292682,1,0,0:0:0:0:
192,192,292735,1,0,0:0:0:0:
64,192,292787,1,0,0:0:0:0:
192,192,292840,1,0,0:0:0:0:
448,192,292893,1,0,0:0:0:0:
320,192,292945,1,0,0:0:0:0:
192,192,292998,1,0,0:0:0:0:
64,192,293050,1,0,0:0:0:0:
448,192,293050,1,0,0:0:0:0:
192,192,293103,1,0,0:0:0:0:
320,192,293156,1,0,0:0:0:0:
448,192,293208,1,0,0:0:0:0:
192,192,293261,1,0,0:0:0:0:
320,192,293314,1,0,0:0:0:0:
448,192,293366,1,0,0:0:0:0:
320,192,293419,1,0,0:0:0:0:
192,192,293472,1,0,0:0:0:0:
64,192,293524,1,0,0:0:0:0:
320,192,293577,1,0,0:0:0:0:
192,192,293630,1,0,0:0:0:0:
320,192,293682,1,0,0:0:0:0:
448,192,293735,1,0,0:0:0:0:
64,192,293788,1,0,0:0:0:0:
320,192,293840,1,0,0:0:0:0:
192,192,293893,1,0,0:0:0:0:
448,192,293946,1,0,0:0:0:0:
320,192,293998,1,0,0:0:0:0:
192,192,294051,1,0,0:0:0:0:
64,192,294104,1,0,0:0:0:0:
448,192,294156,1,0,0:0:0:0:
320,192,294209,1,0,0:0:0:0:
192,192,294262,1,0,0:0:0:0:
64,192,294314,1,0,0:0:0:0:
448,192,294314,1,0,0:0:0:0:
320,192,294367,1,0,0:0:0:0:
192,192,294420,1,0,0:0:0:0:
448,192,294472,1,0,0:0:0:0:
320,192,294525,1,0,0:0:0:0:
448,192,294578,1,0,0:0:0:0:
64,192,294630,1,0,0:0:0:0:
320,192,294683,1,0,0:0:0:0:
192,192,294736,1,0,0:0:0:0:
64,192,294788,1,0,0:0:0:0:
448,192,294841,1,0,0:0:0:0:
320,192,294894,1,0,0:0:0:0:
192,192,294946,1,0,0:0:0:0:
64,192,294999,1,0,0:0:0:0:
192,192,295052,1,0,0:0:0:0:
320,192,295104,1,0,0:0:0:0:
448,192,295157,1,0,0:0:0:0:
64,192,295210,1,0,0:0:0:0:
192,192,295262,1,0,0:0:0:0:
448,192,295315,1,0,0:0:0:0:
192,192,295368,1,0,0:0:0:0:
320,192,295420,1,0,0:0:0:0:
64,192,295473,1,0,0:0:0:0:
192,192,295525,1,0,0:0:0:0:
320,192,295578,1,0,0:0:0:0:
448,192,295578,1,0,0:0:0:0:
64,192,295631,1,0,0:0:0:0:
192,192,295683,1,0,0:0:0:0:
320,192,295736,1,0,0:0:0:0:
448,192,295789,1,0,0:0:0:0:
64,192,295841,1,0,0:0:0:0:
192,192,295894,1,0,0:0:0:0:
320,192,295947,1,0,0:0:0:0:
64,192,295999,1,0,0:0:0:0:
448,192,296052,1,0,0:0:0:0:
320,192,296105,1,0,0:0:0:0:
192,192,296157,1,0,0:0:0:0:
64,192,296210,1,0,0:0:0:0:
320,192,296263,1,0,0:0:0:0:
448,192,296315,1,0,0:0:0:0:
64,192,296368,1,0,0:0:0:0:
192,192,296421,1,0,0:0:0:0:
320,192,296473,1,0,0:0:0:0:
192,192,296526,1,0,0:0:0:0:
320,192,296579,1,0,0:0:0:0:
448,192,296631,1,0,0:0:0:0:
64,192,296684,1,0,0:0:0:0:
192,192,296737,1,0,0:0:0:0:
320,192,296789,1,0,0:0:0:0:
64,192,296842,1,0,0:0:0:0:
448,192,296842,1,0,0:0:0:0:
320,192,296895,1,0,0:0:0:0:
192,192,296947,1,0,0:0:0:0:
64,192,297000,1,0,0:0:0:0:
192,192,297053,1,0,0:0:0:0:
320,192,297105,1,0,0:0:0:0:
192,192,297158,1,0,0:0:0:0:
448,192,297211,1,0,0:0:0:0:
320,192,297263,1,0,0:0:0:0:
192,192,297316,1,0,0:0:0:0:
64,192,297369,1,0,0:0:0:0:
320,192,297421,1,0,0:0:0:0:
192,192,297474,1,0,0:0:0:0:
448,192,297527,1,0,0:0:0:0:
320,192,297579,1,0,0:0:0:0:
192,192,297632,1,0,0:0:0:0:
64,192,297685,1,0,0:0:0:0:
448,192,297737,1,0,0:0:0:0:
320,192,297790,1,0,0:0:0:0:
192,192,297842,1,0,0:0:0:0:
64,192,297895,1,0,0:0:0:0:
448,192,297948,1,0,0:0:0:0:
320,192,298000,1,0,0:0:0:0:
192,192,298053,1,0,0:0:0:0:
64,192,298106,1,0,0:0:0:0:
320,192,298106,1,0,0:0:0:0:
448,192,298158,1,0,0:0:0:0:
64,192,298211,1,0,0:0:0:0:
192,192,298264,1,0,0:0:0:0:
320,192,298316,1,0,0:0:0:0:
192,192,298369,1,0,0:0:0:0:
64,192,298422,1,0,0:0:0:0:
320,192,298474,1,0,0:0:0:0:
192,192,298527,1,0,0:0:0:0:
448,192,298580,1,0,0:0:0:0:
320,192,298632,1,0,0:0:0:0:
192,192,298685,1,0,0:0:0:0:
64,192,298738,1,0,0:0:0:0:
448,192,298738,1,0,0:0:0:0:
192,192,299054,1,0,0:0:0:0:
448,192,299054,1,0,0:0:0:0:
64,192,299686,128,0,299844:0:0:0:0:
192,192,299686,1,0,0:0:0:0:
320,192,300212,1,0,0:0:0:0:
448,192,300212,1,0,0:0:0:0:
64,192,300317,128,0,300475:0:0:0:0:
192,192,300317,1,0,0:0:0:0:
320,192,300633,1,0,0:0:0:0:
448,192,300633,1,0,0:0:0:0:
64,192,300949,128,0,301107:0:0:0:0:
192,192,300949,1,0,0:0:0:0:
320,192,301265,1,0,0:0:0:0:
448,192,301265,1,0,0:0:0:0:
64,192,301581,128,0,301739:0:0:0:0:
192,192,301581,1,0,0:0:0:0:
64,192,302213,128,0,302371:0:0:0:0:
192,192,302213,1,0,0:0:0:0:
64,192,302740,1,0,0:0:0:0:
192,192,302740,1,0,0:0:0:0:
320,192,302845,1,0,0:0:0:0:
448,192,302845,1,0,0:0:0:0:
192,192,302898,1,0,0:0:0:0:
64,192,302950,1,0,0:0:0:0:
320,192,303003,1,0,0:0:0:0:
192,192,303056,1,0,0:0:0:0:
64,192,303108,1,0,0:0:0:0:
448,192,303161,1,0,0:0:0:0:
320,192,303214,1,0,0:0:0:0:
192,192,303266,1,0,0:0:0:0:
64,192,303319,1,0,0:0:0:0:
192,192,303372,1,0,0:0:0:0:
320,192,303424,1,0,0:0:0:0:
448,192,303477,1,0,0:0:0:0:
64,192,303530,1,0,0:0:0:0:
320,192,303582,1,0,0:0:0:0:
64,192,303635,1,0,0:0:0:0:
448,192,303688,1,0,0:0:0:0:
192,192,303740,1,0,0:0:0:0:
320,192,303793,1,0,0:0:0:0:
192,192,303846,1,0,0:0:0:0:
448,192,303898,1,0,0:0:0:0:
64,192,303951,1,0,0:0:0:0:
320,192,304004,1,0,0:0:0:0:
192,192,304056,1,0,0:0:0:0:
64,192,304109,1,0,0:0:0:0:
448,192,304109,1,0,0:0:0:0:
192,192,304162,1,0,0:0:0:0:
320,192,304214,1,0,0:0:0:0:
448,192,304267,1,0,0:0:0:0:
192,192,304320,1,0,0:0:0:0:
320,192,304372,1,0,0:0:0:0:
192,192,304425,1,0,0:0:0:0:
448,192,304478,1,0,0:0:0:0:
192,192,304530,1,0,0:0:0:0:
320,192,304583,1,0,0:0:0:0:
64,192,304636,1,0,0:0:0:0:
192,192,304688,1,0,0:0:0:0:
320,192,304741,1,0,0:0:0:0:
448,192,304794,1,0,0:0:0:0:
192,192,304846,1,0,0:0:0:0:
64,192,304899,1,0,0:0:0:0:
448,192,304951,1,0,0:0:0:0:
320,192,305004,1,0,0:0:0:0:
192,192,305057,1,0,0:0:0:0:
448,192,305109,1,0,0:0:0:0:
320,192,305162,1,0,0:0:0:0:
192,192,305215,1,0,0:0:0:0:
64,192,305267,1,0,0:0:0:0:
192,192,305320,1,0,0:0:0:0:
320,192,305373,1,0,0:0:0:0:
448,192,305373,1,0,0:0:0:0:
192,192,305425,1,0,0:0:0:0:
320,192,305478,1,0,0:0:0:0:
64,192,305531,1,0,0:0:0:0:
320,192,305583,1,0,0:0:0:0:
192,192,305636,1,0,0:0:0:0:
448,192,305689,1,0,0:0:0:0:
64,192,305741,1,0,0:0:0:0:
192,192,305794,1,0,0:0:0:0:
320,192,305847,1,0,0:0:0:0:
448,192,305899,1,0,0:0:0:0:
320,192,305952,1,0,0:0:0:0:
192,192,306005,1,0,0:0:0:0:
64,192,306057,1,0,0:0:0:0:
192,192,306110,1,0,0:0:0:0:
320,192,306163,1,0,0:0:0:0:
448,192,306215,1,0,0:0:0:0:
192,192,306268,1,0,0:0:0:0:
320,192,306321,1,0,0:0:0:0:
64,192,306373,1,0,0:0:0:0:
192,192,306426,1,0,0:0:0:0:
64,192,306479,1,0,0:0:0:0:
448,192,306531,1,0,0:0:0:0:
320,192,306584,1,0,0:0:0:0:
64,192,306637,1,0,0:0:0:0:
192,192,306637,1,0,0:0:0:0:
320,192,306689,1,0,0:0:0:0:
448,192,306742,1,0,0:0:0:0:
64,192,306795,1,0,0:0:0:0:
192,192,306847,1,0,0:0:0:0:
320,192,306900,1,0,0:0:0:0:
448,192,306953,1,0,0:0:0:0:
64,192,307005,1,0,0:0:0:0:
320,192,307058,1,0,0:0:0:0:
192,192,307111,1,0,0:0:0:0:
448,192,307163,1,0,0:0:0:0:
320,192,307216,1,0,0:0:0:0:
192,192,307269,1,0,0:0:0:0:
320,192,307321,1,0,0:0:0:0:
64,192,307374,1,0,0:0:0:0:
192,192,307426,1,0,0:0:0:0:
320,192,307479,1,0,0:0:0:0:
64,192,307532,1,0,0:0:0:0:
192,192,307584,1,0,0:0:0:0:
448,192,307637,1,0,0:0:0:0:
64,192,307690,1,0,0:0:0:0:
192,192,307742,1,0,0:0:0:0:
448,192,307795,1,0,0:0:0:0:
320,192,307848,1,0,0:0:0:0:
64,192,307900,1,0,0:0:0:0:
192,192,307900,1,0,0:0:0:0:
448,192,307953,1,0,0:0:0:0:
320,192,308006,1,0,0:0:0:0:
192,192,308058,1,0,0:0:0:0:
64,192,308111,1,0,0:0:0:0:
448,192,308164,1,0,0:0:0:0:
192,192,308216,1,0,0:0:0:0:
64,192,308269,1,0,0:0:0:0:
448,192,308322,1,0,0:0:0:0:
192,192,308374,1,0,0:0:0:0:
64,192,308427,1,0,0:0:0:0:
320,192,308480,1,0,0:0:0:0:
192,192,308532,1,0,0:0:0:0:
64,192,308585,1,0,0:0:0:0:
448,192,308638,1,0,0:0:0:0:
320,192,308690,1,0,0:0:0:0:
192,192,308743,1,0,0:0:0:0:
64,192,308796,1,0,0:0:0:0:
192,192,308848,1,0,0:0:0:0:
320,192,308901,1,0,0:0:0:0:
448,192,308954,1,0,0:0:0:0:
64,192,309006,1,0,0:0:0:0:
192,192,309059,1,0,0:0:0:0:
320,192,309112,1,0,0:0:0:0:
64,192,309164,1,0,0:0:0:0:
448,192,309164,1,0,0:0:0:0:
192,192,309217,1,0,0:0:0:0:
320,192,309270,1,0,0:0:0:0:
64,192,309322,1,0,0:0:0:0:
192,192,309375,1,0,0:0:0:0:
448,192,309428,1,0,0:0:0:0:
320,192,309480,1,0,0:0:0:0:
64,192,309533,1,0,0:0:0:0:
192,192,309586,1,0,0:0:0:0:
448,192,309638,1,0,0:0:0:0:
320,192,309691,1,0,0:0:0:0:
64,192,309743,1,0,0:0:0:0:
448,192,309796,1,0,0:0:0:0:
64,192,309849,1,0,0:0:0:0:
192,192,309901,1,0,0:0:0:0:
320,192,309954,1,0,0:0:0:0:
448,192,310007,1,0,0:0:0:0:
320,192,310059,1,0,0:0:0:0:
192,192,310112,1,0,0:0:0:0:
320,192,310165,1,0,0:0:0:0:
64,192,310217,1,0,0:0:0:0:
192,192,310270,1,0,0:0:0:0:
320,192,310323,1,0,0:0:0:0:
448,192,310375,1,0,0:0:0:0:
64,192,310428,1,0,0:0:0:0:
192,192,310428,1,0,0:0:0:0:
320,192,310481,1,0,0:0:0:0:
192,192,310533,1,0,0:0:0:0:
448,192,310586,1,0,0:0:0:0:
64,192,310639,1,0,0:0:0:0:
192,192,310691,1,0,0:0:0:0:
64,192,310744,1,0,0:0:0:0:
448,192,310797,1,0,0:0:0:0:
192,192,310849,1,0,0:0:0:0:
448,192,310902,1,0,0:0:0:0:
320,192,310955,1,0,0:0:0:0:
192,192,311007,1,0,0:0:0:0:
64,192,311060,1,0,0:0:0:0:
448,192,311113,1,0,0:0:0:0:
320,192,311165,1,0,0:0:0:0:
192,192,311218,1,0,0:0:0:0:
64,192,311271,1,0,0:0:0:0:
192,192,311323,1,0,0:0:0:0:
320,192,311376,1,0,0:0:0:0:
448,192,311429,1,0,0:0:0:0:
320,192,311481,1,0,0:0:0:0:
64,192,311534,1,0,0:0:0:0:
320,192,311587,1,0,0:0:0:0:
192,192,311639,1,0,0:0:0:0:
64,192,311692,1,0,0:0:0:0:
448,192,311692,1,0,0:0:0:0:
320,192,311745,1,0,0:0:0:0:
192,192,311797,1,0,0:0:0:0:
64,192,311850,1,0,0:0:0:0:
448,192,311903,1,0,0:0:0:0:
320,192,311955,1,0,0:0:0:0:
192,192,312008,1,0,0:0:0:0:
64,192,312061,1,0,0:0:0:0:
320,192,312113,1,0,0:0:0:0:
192,192,312166,1,0,0:0:0:0:
448,192,312218,1,0,0:0:0:0:
320,192,312271,1,0,0:0:0:0:
192,192,312324,1,0,0:0:0:0:
64,192,312376,1,0,0:0:0:0:
320,192,312429,1,0,0:0:0:0:
192,192,312482,1,0,0:0:0:0:
448,192,312534,1,0,0:0:0:0:
64,192,312587,1,0,0:0:0:0:
192,192,312640,1,0,0:0:0:0:
320,192,312692,1,0,0:0:0:0:
448,192,312745,1,0,0:0:0:0:
64,192,312798,1,0,0:0:0:0:
192,192,312850,1,0,0:0:0:0:
320,192,312903,1,0,0:0:0:0:
64,192,312956,1,0,0:0:0:0:
448,192,312956,1,0,0:0:0:0:
320,192,313008,1,0,0:0:0:0:
192,192,313061,1,0,0:0:0:0:
64,192,313114,1,0,0:0:0:0:
448,192,313166,1,0,0:0:0:0:
192,192,313219,1,0,0:0:0:0:
320,192,313272,1,0,0:0:0:0:
64,192,313324,1,0,0:0:0:0:
320,192,313377,1,0,0:0:0:0:
192,192,313430,1,0,0:0:0:0:
448,192,313482,1,0,0:0:0:0:
192,192,313535,1,0,0:0:0:0:
320,192,313588,1,0,0:0:0:0:
448,192,313640,1,0,0:0:0:0:
64,192,313693,1,0,0:0:0:0:
192,192,313746,1,0,0:0:0:0:
320,192,313798,1,0,0:0:0:0:
448,192,313851,1,0,0:0:0:0:
320,192,313904,1,0,0:0:0:0:
192,192,313956,1,0,0:0:0:0:
320,192,314009,1,0,0:0:0:0:
64,192,314062,1,0,0:0:0:0:
448,192,314114,1,0,0:0:0:0:
320,192,314167,1,0,0:0:0:0:
64,192,314220,1,0,0:0:0:0:
192,192,314220,1,0,0:0:0:0:
448,192,314272,1,0,0:0:0:0:
320,192,314325,1,0,0:0:0:0:
192,192,314378,1,0,0:0:0:0:
448,192,314430,1,0,0:0:0:0:
320,192,314483,1,0,0:0:0:0:
192,192,314535,1,0,0:0:0:0:
64,192,314588,1,0,0:0:0:0:
448,192,314641,1,0,0:0:0:0:
320,192,314693,1,0,0:0:0:0:
192,192,314746,1,0,0:0:0:0:
320,192,314799,1,0,0:0:0:0:
448,192,314851,1,0,0:0:0:0:
192,192,314904,1,0,0:0:0:0:
64,192,314957,1,0,0:0:0:0:
320,192,315009,1,0,0:0:0:0:
448,192,315062,1,0,0:0:0:0:
64,192,315115,1,0,0:0:0:0:
192,192,315167,1,0,0:0:0:0:
320,192,315220,1,0,0:0:0:0:
64,192,315273,1,0,0:0:0:0:
448,192,315325,1,0,0:0:0:0:
320,192,315378,1,0,0:0:0:0:
192,192,315431,1,0,0:0:0:0:
64,192,315483,1,0,0:0:0:0:
448,192,315483,1,0,0:0:0:0:
192,192,315536,1,0,0:0:0:0:
320,192,315589,1,0,0:0:0:0:
448,192,315641,1,0,0:0:0:0:
320,192,315694,1,0,0:0:0:0:
192,192,315747,1,0,0:0:0:0:
320,192,315799,1,0,0:0:0:0:
64,192,315852,1,0,0:0:0:0:
192,192,315905,1,0,0:0:0:0:
320,192,315957,1,0,0:0:0:0:
448,192,316010,1,0,0:0:0:0:
192,192,316063,1,0,0:0:0:0:
320,192,316115,1,0,0:0:0:0:
448,192,316168,1,0,0:0:0:0:
64,192,316221,1,0,0:0:0:0:
192,192,316273,1,0,0:0:0:0:
448,192,316326,1,0,0:0:0:0:
64,192,316379,1,0,0:0:0:0:
192,192,316431,1,0,0:0:0:0:
320,192,316484,1,0,0:0:0:0:
448,192,316537,1,0,0:0:0:0:
64,192,316589,1,0,0:0:0:0:
192,192,316642,1,0,0:0:0:0:
320,192,316695,1,0,0:0:0:0:
192,192,316747,1,0,0:0:0:0:
448,192,316747,1,0,0:0:0:0:
64,192,316800,1,0,0:0:0:0:
448,192,316852,1,0,0:0:0:0:
320,192,316905,1,0,0:0:0:0:
192,192,316958,1,0,0:0:0:0:
320,192,317010,1,0,0:0:0:0:
448,192,317063,1,0,0:0:0:0:
192,192,317116,1,0,0:0:0:0:
64,192,317168,1,0,0:0:0:0:
320,192,317221,1,0,0:0:0:0:
192,192,317274,1,0,0:0:0:0:
320,192,317326,1,0,0:0:0:0:
64,192,317379,1,0,0:0:0:0:
448,192,317379,1,0,0:0:0:0:
64,192,317695,1,0,0:0:0:0:
320,192,317695,1,0,0:0:0:0:
192,192,318327,128,0,318485:0:0:0:0:
448,192,318327,1,0,0:0:0:0:
64,192,318854,1,0,0:0:0:0:
320,192,318854,1,0,0:0:0:0:
192,192,318959,128,0,319117:0:0:0:0:
448,192,318959,1,0,0:0:0:0:
64,192,319275,1,0,0:0:0:0:
320,192,319275,1,0,0:0:0:0:
192,192,319591,128,0,319749:0:0:0:0:
448,192,319591,1,0,0:0:0:0:
64,192,319907,1,0,0:0:0:0:
320,192,319907,1,0,0:0:0:0:
192,192,320223,128,0,320381:0:0:0:0:
448,192,320223,1,0,0:0:0:0:
192,192,320855,128,0,321013:0:0:0:0:
448,192,320855,1,0,0:0:0:0:
192,192,321381,1,0,0:0:0:0:
448,192,321381,1,0,0:0:0:0:
64,192,321487,1,0,0:0:0:0:
320,192,321487,1,0,0:0:0:0:
192,192,321539,1,0,0:0:0:0:
320,192,321592,1,0,0:0:0:0:
64,192,321644,1,0,0:0:0:0:
192,192,321697,1,0,0:0:0:0:
448,192,321750,1,0,0:0:0:0:
192,192,321802,1,0,0:0:0:0:
320,192,321855,1,0,0:0:0:0:
448,192,321908,1,0,0:0:0:0:
64,192,321960,1,0,0:0:0:0:
448,192,322013,1,0,0:0:0:0:
320,192,322066,1,0,0:0:0:0:
192,192,322118,1,0,0:0:0:0:
320,192,322171,1,0,0:0:0:0:
192,192,322224,1,0,0:0:0:0:
64,192,322276,1,0,0:0:0:0:
320,192,322329,1,0,0:0:0:0:
448,192,322382,1,0,0:0:0:0:
64,192,322434,1,0,0:0:0:0:
448,192,322487,1,0,0:0:0:0:
320,192,322540,1,0,0:0:0:0:
192,192,322592,1,0,0:0:0:0:
64,192,322645,1,0,0:0:0:0:
448,192,322698,1,0,0:0:0:0:
192,192,322750,1,0,0:0:0:0:
320,192,322750,1,0,0:0:0:0:
448,192,322803,1,0,0:0:0:0:
64,192,322856,1,0,0:0:0:0:
320,192,322908,1,0,0:0:0:0:
192,192,322961,1,0,0:0:0:0:
64,192,323014,1,0,0:0:0:0:
448,192,323066,1,0,0:0:0:0:
320,192,323119,1,0,0:0:0:0:
448,192,323172,1,0,0:0:0:0:
64,192,323224,1,0,0:0:0:0:
192,192,323277,1,0,0:0:0:0:
448,192,323330,1,0,0:0:0:0:
64,192,323382,1,0,0:0:0:0:
320,192,323435,1,0,0:0:0:0:
448,192,323488,1,0,0:0:0:0:
192,192,323540,1,0,0:0:0:0:
320,192,323593,1,0,0:0:0:0:
448,192,323646,1,0,0:0:0:0:
64,192,323698,1,0,0:0:0:0:
192,192,323751,1,0,0:0:0:0:
320,192,323804,1,0,0:0:0:0:
448,192,323856,1,0,0:0:0:0:
320,192,323909,1,0,0:0:0:0:
192,192,323962,1,0,0:0:0:0:
64,192,324014,1,0,0:0:0:0:
448,192,324014,1,0,0:0:0:0:
320,192,324067,1,0,0:0:0:0:
192,192,324119,1,0,0:0:0:0:
448,192,324172,1,0,0:0:0:0:
320,192,324225,1,0,0:0:0:0:
64,192,324277,1,0,0:0:0:0:
192,192,324330,1,0,0:0:0:0:
448,192,324383,1,0,0:0:0:0:
320,192,324435,1,0,0:0:0:0:
192,192,324488,1,0,0:0:0:0:
448,192,324541,1,0,0:0:0:0:
320,192,324593,1,0,0:0:0:0:
192,192,324646,1,0,0:0:0:0:
64,192,324699,1,0,0:0:0:0:
448,192,324751,1,0,0:0:0:0:
192,192,324804,1,0,0:0:0:0:
320,192,324857,1,0,0:0:0:0:
448,192,324909,1,0,0:0:0:0:
64,192,324962,1,0,0:0:0:0:
192,192,325015,1,0,0:0:0:0:
320,192,325067,1,0,0:0:0:0:
192,192,325120,1,0,0:0:0:0:
320,192,325173,1,0,0:0:0:0:
64,192,325225,1,0,0:0:0:0:
192,192,325278,1,0,0:0:0:0:
448,192,325278,1,0,0:0:0:0:
64,192,325331,1,0,0:0:0:0:
320,192,325383,1,0,0:0:0:0:
192,192,325436,1,0,0:0:0:0:
448,192,325489,1,0,0:0:0:0:
64,192,325541,1,0,0:0:0:0:
320,192,325594,1,0,0:0:0:0:
192,192,325647,1,0,0:0:0:0:
64,192,325699,1,0,0:0:0:0:
448,192,325752,1,0,0:0:0:0:
320,192,325805,1,0,0:0:0:0:
64,192,325857,1,0,0:0:0:0:
192,192,325910,1,0,0:0:0:0:
320,192,325963,1,0,0:0:0:0:
192,192,326015,1,0,0:0:0:0:
448,192,326068,1,0,0:0:0:0:
64,192,326121,1,0,0:0:0:0:
192,192,326173,1,0,0:0:0:0:
448,192,326226,1,0,0:0:0:0:
320,192,326279,1,0,0:0:0:0:
192,192,326331,1,0,0:0:0:0:
448,192,326384,1,0,0:0:0:0:
320,192,326436,1,0,0:0:0:0:
64,192,326489,1,0,0:0:0:0:
192,192,326542,1,0,0:0:0:0:
448,192,326542,1,0,0:0:0:0:
320,192,326594,1,0,0:0:0:0:
64,192,326647,1,0,0:0:0:0:
192,192,326700,1,0,0:0:0:0:
320,192,326752,1,0,0:0:0:0:
64,192,326805,1,0,0:0:0:0:
192,192,326858,1,0,0:0:0:0:
320,192,326910,1,0,0:0:0:0:
448,192,326963,1,0,0:0:0:0:
64,192,327016,1,0,0:0:0:0:
192,192,327068,1,0,0:0:0:0:
320,192,327121,1,0,0:0:0:0:
448,192,327174,1,0,0:0:0:0:
192,192,327226,1,0,0:0:0:0:
320,192,327279,1,0,0:0:0:0:
64,192,327332,1,0,0:0:0:0:
320,192,327384,1,0,0:0:0:0:
192,192,327437,1,0,0:0:0:0:
448,192,327490,1,0,0:0:0:0:
320,192,327542,1,0,0:0:0:0:
64,192,327595,1,0,0:0:0:0:
192,192,327648,1,0,0:0:0:0:
320,192,327700,1,0,0:0:0:0:
192,192,327753,1,0,0:0:0:0:
64,192,327806,1,0,0:0:0:0:
448,192,327806,1,0,0:0:0:0:
320,192,327858,1,0,0:0:0:0:
192,192,327911,1,0,0:0:0:0:
448,192,327964,1,0,0:0:0:0:
320,192,328016,1,0,0:0:0:0:
192,192,328069,1,0,0:0:0:0:
64,192,328122,1,0,0:0:0:0:
192,192,328174,1,0,0:0:0:0:
448,192,328227,1,0,0:0:0:0:
320,192,328280,1,0,0:0:0:0:
64,192,328332,1,0,0:0:0:0:
192,192,328385,1,0,0:0:0:0:
320,192,328438,1,0,0:0:0:0:
64,192,328490,1,0,0:0:0:0:
192,192,328543,1,0,0:0:0:0:
448,192,328596,1,0,0:0:0:0:
320,192,328648,1,0,0:0:0:0:
192,192,328701,1,0,0:0:0:0:
448,192,328753,1,0,0:0:0:0:
320,192,328806,1,0,0:0:0:0:
192,192,328859,1,0,0:0:0:0:
64,192,328911,1,0,0:0:0:0:
448,192,328964,1,0,0:0:0:0:
320,192,329017,1,0,0:0:0:0:
64,192,329069,1,0,0:0:0:0:
192,192,329069,1,0,0:0:0:0:
448,192,329122,1,0,0:0:0:0:
64,192,329175,1,0,0:0:0:0:
192,192,329227,1,0,0:0:0:0:
320,192,329280,1,0,0:0:0:0:
448,192,329333,1,0,0:0:0:0:
64,192,329385,1,0,0:0:0:0:
320,192,329438,1,0,0:0:0:0:
192,192,329491,1,0,0:0:0:0:
320,192,329543,1,0,0:0:0:0:
64,192,329596,1,0,0:0:0:0:
448,192,329649,1,0,0:0:0:0:
320,192,329701,1,0,0:0:0:0:
192,192,329754,1,0,0:0:0:0:
64,192,329807,1,0,0:0:0:0:
192,192,329859,1,0,0:0:0:0:
320,192,329912,1,0,0:0:0:0:
448,192,329965,1,0,0:0:0:0:
192,192,330017,1,0,0:0:0:0:
320,192,330070,1,0,0:0:0:0:
64,192,330123,1,0,0:0:0:0:
192,192,330175,1,0,0:0:0:0:
64,192,330228,1,0,0:0:0:0:
448,192,330281,1,0,0:0:0:0:
192,192,330333,1,0,0:0:0:0:
320,192,330333,1,0,0:0:0:0:
64,192,330386,1,0,0:0:0:0:
448,192,330439,1,0,0:0:0:0:
320,192,330491,1,0,0:0:0:0:
192,192,330544,1,0,0:0:0:0:
64,192,330597,1,0,0:0:0:0:
448,192,330649,1,0,0:0:0:0:
192,192,330702,1,0,0:0:0:0:
64,192,330755,1,0,0:0:0:0:
448,192,330807,1,0,0:0:0:0:
320,192,330860,1,0,0:0:0:0:
192,192,330913,1,0,0:0:0:0:
448,192,330965,1,0,0:0:0:0:
320,192,331018,1,0,0:0:0:0:
64,192,331071,1,0,0:0:0:0:
448,192,331123,1,0,0:0:0:0:
320,192,331176,1,0,0:0:0:0:
192,192,331228,1,0,0:0:0:0:
448,192,331281,1,0,0:0:0:0:
64,192,331334,1,0,0:0:0:0:
320,192,331386,1,0,0:0:0:0:
192,192,331439,1,0,0:0:0:0:
448,192,331492,1,0,0:0:0:0:
320,192,331544,1,0,0:0:0:0:
64,192,331597,1,0,0:0:0:0:
192,192,331597,1,0,0:0:0:0:
320,192,331650,1,0,0:0:0:0:
64,192,331702,1,0,0:0:0:0:
192,192,331755,1,0,0:0:0:0:
448,192,331808,1,0,0:0:0:0:
320,192,331860,1,0,0:0:0:0:
192,192,331913,1,0,0:0:0:0:
448,192,331966,1,0,0:0:0:0:
64,192,332018,1,0,0:0:0:0:
320,192,332071,1,0,0:0:0:0:
64,192,332124,1,0,0:0:0:0:
448,192,332176,1,0,0:0:0:0:
320,192,332229,1,0,0:0:0:0:
192,192,332282,1,0,0:0:0:0:
64,192,332334,1,0,0:0:0:0:
192,192,332387,1,0,0:0:0:0:
448,192,332440,1,0,0:0:0:0:
320,192,332492,1,0,0:0:0:0:
192,192,332545,1,0,0:0:0:0:
320,192,332598,1,0,0:0:0:0:
448,192,332650,1,0,0:0:0:0:
64,192,332703,1,0,0:0:0:0:
192,192,332756,1,0,0:0:0:0:
320,192,332808,1,0,0:0:0:0:
64,192,332861,1,0,0:0:0:0:
448,192,332861,1,0,0:0:0:0:
192,192,332914,1,0,0:0:0:0:
320,192,332966,1,0,0:0:0:0:
448,192,333019,1,0,0:0:0:0:
64,192,333072,1,0,0:0:0:0:
192,192,333124,1,0,0:0:0:0:
320,192,333177,1,0,0:0:0:0:
448,192,333230,1,0,0:0:0:0:
320,192,333282,1,0,0:0:0:0:
192,192,333335,1,0,0:0:0:0:
320,192,333388,1,0,0:0:0:0:
64,192,333440,1,0,0:0:0:0:
448,192,333493,1,0,0:0:0:0:
320,192,333545,1,0,0:0:0:0:
192,192,333598,1,0,0:0:0:0:
64,192,333651,1,0,0:0:0:0:
320,192,333703,1,0,0:0:0:0:
192,192,333756,1,0,0:0:0:0:
448,192,333809,1,0,0:0:0:0:
64,192,333861,1,0,0:0:0:0:
192,192,333914,1,0,0:0:0:0:
320,192,333967,1,0,0:0:0:0:
64,192,334019,1,0,0:0:0:0:
448,192,334072,1,0,0:0:0:0:
192,192,334125,1,0,0:0:0:0:
320,192,334125,1,0,0:0:0:0:
64,192,334177,1,0,0:0:0:0:
448,192,334230,1,0,0:0:0:0:
320,192,334283,1,0,0:0:0:0:
192,192,334335,1,0,0:0:0:0:
448,192,334388,1,0,0:0:0:0:
320,192,334441,1,0,0:0:0:0:
192,192,334493,1,0,0:0:0:0:
448,192,334546,1,0,0:0:0:0:
64,192,334599,1,0,0:0:0:0:
320,192,334651,1,0,0:0:0:0:
192,192,334704,1,0,0:0:0:0:
448,192,334757,1,0,0:0:0:0:
320,192,334809,1,0,0:0:0:0:
192,192,334862,1,0,0:0:0:0:
448,192,334915,1,0,0:0:0:0:
320,192,334967,1,0,0:0:0:0:
192,192,335020,1,0,0:0:0:0:
448,192,335073,1,0,0:0:0:0:
64,192,335125,1,0,0:0:0:0:
320,192,335178,1,0,0:0:0:0:
192,192,335231,1,0,0:0:0:0:
320,192,335283,1,0,0:0:0:0:
64,192,335336,1,0,0:0:0:0:
192,192,335389,1,0,0:0:0:0:
448,192,335389,1,0,0:0:0:0:
320,192,335441,1,0,0:0:0:0:
64,192,335494,1,0,0:0:0:0:
192,192,335547,1,0,0:0:0:0:
448,192,335599,1,0,0:0:0:0:
64,192,335652,1,0,0:0:0:0:
320,192,335705,1,0,0:0:0:0:
448,192,335757,1,0,0:0:0:0:
192,192,335810,1,0,0:0:0:0:
320,192,335863,1,0,0:0:0:0:
448,192,335915,1,0,0:0:0:0:
64,192,335968,1,0,0:0:0:0:
192,192,336020,1,0,0:0:0:0:
320,192,336020,1,0,0:0:0:0:
64,192,336336,1,0,0:0:0:0:
192,192,336336,1,0,0:0:0:0:
320,192,336968,1,0,0:0:0:0:
448,192,336968,128,0,337126:0:0:0:0:
64,192,337495,1,0,0:0:0:0:
192,192,337495,1,0,0:0:0:0:
320,192,337600,1,0,0:0:0:0:
448,192,337600,128,0,337758:0:0:0:0:
64,192,337916,1,0,0:0:0:0:
192,192,337916,1,0,0:0:0:0:
320,192,338232,1,0,0:0:0:0:
448,192,338232,128,0,338390:0:0:0:0:
64,192,338548,1,0,0:0:0:0:
192,192,338548,1,0,0:0:0:0:
320,192,338864,1,0,0:0:0:0:
448,192,338864,128,0,339022:0:0:0:0:
320,192,339496,1,0,0:0:0:0:
448,192,339496,128,0,339654:0:0:0:0:
320,192,340023,1,0,0:0:0:0:
448,192,340023,1,0,0:0:0:0:
64,192,340128,1,0,0:0:0:0:
192,192,340128,1,0,0:0:0:0:
320,192,340181,1,0,0:0:0:0:
448,192,340233,1,0,0:0:0:0:
192,192,340286,1,0,0:0:0:0:
320,192,340339,1,0,0:0:0:0:
448,192,340391,1,0,0:0:0:0:
64,192,340444,1,0,0:0:0:0:
192,192,340497,1,0,0:0:0:0:
320,192,340549,1,0,0:0:0:0:
448,192,340602,1,0,0:0:0:0:
320,192,340654,1,0,0:0:0:0:
192,192,340707,1,0,0:0:0:0:
64,192,340760,1,0,0:0:0:0:
448,192,340812,1,0,0:0:0:0:
192,192,340865,1,0,0:0:0:0:
448,192,340918,1,0,0:0:0:0:
64,192,340970,1,0,0:0:0:0:
320,192,341023,1,0,0:0:0:0:
192,192,341076,1,0,0:0:0:0:
320,192,341128,1,0,0:0:0:0:
64,192,341181,1,0,0:0:0:0:
448,192,341234,1,0,0:0:0:0:
192,192,341286,1,0,0:0:0:0:
320,192,341339,1,0,0:0:0:0:
64,192,341392,1,0,0:0:0:0:
448,192,341392,1,0,0:0:0:0:
320,192,341444,1,0,0:0:0:0:
192,192,341497,1,0,0:0:0:0:
64,192,341550,1,0,0:0:0:0:
448,192,341602,1,0,0:0:0:0:
192,192,341655,1,0,0:0:0:0:
448,192,341708,1,0,0:0:0:0:
64,192,341760,1,0,0:0:0:0:
320,192,341813,1,0,0:0:0:0:
192,192,341866,1,0,0:0:0:0:
448,192,341918,1,0,0:0:0:0:
320,192,341971,1,0,0:0:0:0:
192,192,342024,1,0,0:0:0:0:
64,192,342076,1,0,0:0:0:0:
320,192,342129,1,0,0:0:0:0:
192,192,342182,1,0,0:0:0:0:
448,192,342234,1,0,0:0:0:0:
320,192,342287,1,0,0:0:0:0:
448,192,342340,1,0,0:0:0:0:
64,192,342392,1,0,0:0:0:0:
192,192,342445,1,0,0:0:0:0:
320,192,342498,1,0,0:0:0:0:
192,192,342550,1,0,0:0:0:0:
320,192,342603,1,0,0:0:0:0:
64,192,342656,1,0,0:0:0:0:
448,192,342656,1,0,0:0:0:0:
320,192,342708,1,0,0:0:0:0:
192,192,342761,1,0,0:0:0:0:
64,192,342814,1,0,0:0:0:0:
192,192,342866,1,0,0:0:0:0:
448,192,342919,1,0,0:0:0:0:
320,192,342972,1,0,0:0:0:0:
448,192,343024,1,0,0:0:0:0:
320,192,343077,1,0,0:0:0:0:
192,192,343129,1,0,0:0:0:0:
64,192,343182,1,0,0:0:0:0:
192,192,343235,1,0,0:0:0:0:
320,192,343287,1,0,0:0:0:0:
448,192,343340,1,0,0:0:0:0:
320,192,343393,1,0,0:0:0:0:
192,192,343445,1,0,0:0:0:0:
64,192,343498,1,0,0:0:0:0:
320,192,343551,1,0,0:0:0:0:
192,192,343603,1,0,0:0:0:0:
448,192,343656,1,0,0:0:0:0:
320,192,343709,1,0,0:0:0:0:
448,192,343761,1,0,0:0:0:0:
64,192,343814,1,0,0:0:0:0:
192,192,343867,1,0,0:0:0:0:
320,192,343919,1,0,0:0:0:0:
448,192,343919,1,0,0:0:0:0:
192,192,343972,1,0,0:0:0:0:
64,192,344025,1,0,0:0:0:0:
448,192,344077,1,0,0:0:0:0:
320,192,344130,1,0,0:0:0:0:
192,192,344183,1,0,0:0:0:0:
64,192,344235,1,0,0:0:0:0:
448,192,344288,1,0,0:0:0:0:
192,192,344341,1,0,0:0:0:0:
320,192,344393,1,0,0:0:0:0:
64,192,344446,1,0,0:0:0:0:
448,192,344499,1,0,0:0:0:0:
320,192,344551,1,0,0:0:0:0:
192,192,344604,1,0,0:0:0:0:
448,192,344657,1,0,0:0:0:0:
320,192,344709,1,0,0:0:0:0:
192,192,344762,1,0,0:0:0:0:
448,192,344815,1,0,0:0:0:0:
320,192,344867,1,0,0:0:0:0:
64,192,344920,1,0,0:0:0:0:
448,192,344973,1,0,0:0:0:0:
320,192,345025,1,0,0:0:0:0:
64,192,345078,1,0,0:0:0:0:
192,192,345131,1,0,0:0:0:0:
320,192,345183,1,0,0:0:0:0:
448,192,345183,1,0,0:0:0:0:
64,192,345236,1,0,0:0:0:0:
192,192,345289,1,0,0:0:0:0:
320,192,345341,1,0,0:0:0:0:
448,192,345394,1,0,0:0:0:0:
64,192,345446,1,0,0:0:0:0:
320,192,345499,1,0,0:0:0:0:
448,192,345552,1,0,0:0:0:0:
64,192,345604,1,0,0:0:0:0:
320,192,345657,1,0,0:0:0:0:
448,192,345710,1,0,0:0:0:0:
192,192,345762,1,0,0:0:0:0:
320,192,345815,1,0,0:0:0:0:
448,192,345868,1,0,0:0:0:0:
64,192,345920,1,0,0:0:0:0:
192,192,345973,1,0,0:0:0:0:
320,192,346026,1,0,0:0:0:0:
448,192,346078,1,0,0:0:0:0:
320,192,346131,1,0,0:0:0:0:
192,192,346184,1,0,0:0:0:0:
64,192,346236,1,0,0:0:0:0:
448,192,346289,1,0,0:0:0:0:
320,192,346342,1,0,0:0:0:0:
192,192,346394,1,0,0:0:0:0:
64,192,346447,1,0,0:0:0:0:
448,192,346447,1,0,0:0:0:0:
320,192,346500,1,0,0:0:0:0:
192,192,346552,1,0,0:0:0:0:
448,192,346605,1,0,0:0:0:0:
320,192,346658,1,0,0:0:0:0:
64,192,346710,1,0,0:0:0:0:
192,192,346763,1,0,0:0:0:0:
448,192,346816,1,0,0:0:0:0:
320,192,346868,1,0,0:0:0:0:
64,192,346921,1,0,0:0:0:0:
192,192,346974,1,0,0:0:0:0:
448,192,347026,1,0,0:0:0:0:
64,192,347079,1,0,0:0:0:0:
448,192,347132,1,0,0:0:0:0:
320,192,347184,1,0,0:0:0:0:
192,192,347237,1,0,0:0:0:0:
64,192,347290,1,0,0:0:0:0:
192,192,347342,1,0,0:0:0:0:
320,192,347395,1,0,0:0:0:0:
448,192,347448,1,0,0:0:0:0:
192,192,347500,1,0,0:0:0:0:
320,192,347553,1,0,0:0:0:0:
192,192,347606,1,0,0:0:0:0:
64,192,347658,1,0,0:0:0:0:
192,192,347711,1,0,0:0:0:0:
448,192,347711,1,0,0:0:0:0:
320,192,347764,1,0,0:0:0:0:
64,192,347816,1,0,0:0:0:0:
192,192,347869,1,0,0:0:0:0:
448,192,347921,1,0,0:0:0:0:
320,192,347974,1,0,0:0:0:0:
448,192,348027,1,0,0:0:0:0:
64,192,348079,1,0,0:0:0:0:
192,192,348132,1,0,0:0:0:0:
64,192,348185,1,0,0:0:0:0:
320,192,348237,1,0,0:0:0:0:
192,192,348290,1,0,0:0:0:0:
448,192,348343,1,0,0:0:0:0:
64,192,348395,1,0,0:0:0:0:
192,192,348448,1,0,0:0:0:0:
320,192,348501,1,0,0:0:0:0:
448,192,348553,1,0,0:0:0:0:
320,192,348606,1,0,0:0:0:0:
192,192,348659,1,0,0:0:0:0:
64,192,348711,1,0,0:0:0:0:
192,192,348764,1,0,0:0:0:0:
448,192,348817,1,0,0:0:0:0:
320,192,348869,1,0,0:0:0:0:
192,192,348922,1,0,0:0:0:0:
64,192,348975,1,0,0:0:0:0:
320,192,348975,1,0,0:0:0:0:
448,192,349027,1,0,0:0:0:0:
192,192,349080,1,0,0:0:0:0:
320,192,349133,1,0,0:0:0:0:
64,192,349185,1,0,0:0:0:0:
192,192,349238,1,0,0:0:0:0:
320,192,349291,1,0,0:0:0:0:
448,192,349343,1,0,0:0:0:0:
320,192,349396,1,0,0:0:0:0:
192,192,349449,1,0,0:0:0:0:
64,192,349501,1,0,0:0:0:0:
192,192,349554,1,0,0:0:0:0:
320,192,349607,1,0,0:0:0:0:
448,192,349659,1,0,0:0:0:0:
320,192,349712,1,0,0:0:0:0:
192,192,349765,1,0,0:0:0:0:
64,192,349817,1,0,0:0:0:0:
448,192,349870,1,0,0:0:0:0:
320,192,349923,1,0,0:0:0:0:
192,192,349975,1,0,0:0:0:0:
64,192,350028,1,0,0:0:0:0:
448,192,350081,1,0,0:0:0:0:
320,192,350133,1,0,0:0:0:0:
64,192,350186,1,0,0:0:0:0:
192,192,350238,1,0,0:0:0:0:
448,192,350238,1,0,0:0:0:0:
320,192,350291,1,0,0:0:0:0:
192,192,350344,1,0,0:0:0:0:
448,192,350396,1,0,0:0:0:0:
320,192,350449,1,0,0:0:0:0:
448,192,350502,1,0,0:0:0:0:
192,192,350554,1,0,0:0:0:0:
320,192,350607,1,0,0:0:0:0:
192,192,350660,1,0,0:0:0:0:
64,192,350712,1,0,0:0:0:0:
448,192,350765,1,0,0:0:0:0:
320,192,350818,1,0,0:0:0:0:
192,192,350870,1,0,0:0:0:0:
64,192,350923,1,0,0:0:0:0:
320,192,350976,1,0,0:0:0:0:
192,192,351028,1,0,0:0:0:0:
320,192,351081,1,0,0:0:0:0:
64,192,351134,1,0,0:0:0:0:
192,192,351186,1,0,0:0:0:0:
320,192,351239,1,0,0:0:0:0:
192,192,351292,1,0,0:0:0:0:
448,192,351344,1,0,0:0:0:0:
320,192,351397,1,0,0:0:0:0:
192,192,351450,1,0,0:0:0:0:
64,192,351502,1,0,0:0:0:0:
320,192,351502,1,0,0:0:0:0:
448,192,351555,1,0,0:0:0:0:
192,192,351608,1,0,0:0:0:0:
64,192,351660,1,0,0:0:0:0:
320,192,351713,1,0,0:0:0:0:
448,192,351766,1,0,0:0:0:0:
192,192,351818,1,0,0:0:0:0:
320,192,351871,1,0,0:0:0:0:
64,192,351924,1,0,0:0:0:0:
448,192,351976,1,0,0:0:0:0:
320,192,352029,1,0,0:0:0:0:
64,192,352082,1,0,0:0:0:0:
192,192,352134,1,0,0:0:0:0:
320,192,352187,1,0,0:0:0:0:
448,192,352240,1,0,0:0:0:0:
192,192,352292,1,0,0:0:0:0:
64,192,352345,1,0,0:0:0:0:
320,192,352398,1,0,0:0:0:0:
192,192,352450,1,0,0:0:0:0:
320,192,352503,1,0,0:0:0:0:
448,192,352555,1,0,0:0:0:0:
64,192,352608,1,0,0:0:0:0:
192,192,352661,1,0,0:0:0:0:
320,192,352713,1,0,0:0:0:0:
64,192,352766,1,0,0:0:0:0:
448,192,352766,1,0,0:0:0:0:
320,192,352819,1,0,0:0:0:0:
192,192,352871,1,0,0:0:0:0:
64,192,352924,1,0,0:0:0:0:
192,192,352977,1,0,0:0:0:0:
320,192,353029,1,0,0:0:0:0:
192,192,353082,1,0,0:0:0:0:
448,192,353135,1,0,0:0:0:0:
320,192,353187,1,0,0:0:0:0:
192,192,353240,1,0,0:0:0:0:
64,192,353293,1,0,0:0:0:0:
320,192,353345,1,0,0:0:0:0:
192,192,353398,1,0,0:0:0:0:
448,192,353451,1,0,0:0:0:0:
320,192,353503,1,0,0:0:0:0:
192,192,353556,1,0,0:0:0:0:
64,192,353609,1,0,0:0:0:0:
448,192,353661,1,0,0:0:0:0:
320,192,353714,1,0,0:0:0:0:
192,192,353767,1,0,0:0:0:0:
64,192,353819,1,0,0:0:0:0:
448,192,353872,1,0,0:0:0:0:
320,192,353925,1,0,0:0:0:0:
192,192,353977,1,0,0:0:0:0:
320,192,354030,1,0,0:0:0:0:
448,192,354030,1,0,0:0:0:0:
64,192,354083,1,0,0:0:0:0:
192,192,354135,1,0,0:0:0:0:
320,192,354188,1,0,0:0:0:0:
448,192,354241,1,0,0:0:0:0:
192,192,354293,1,0,0:0:0:0:
64,192,354346,1,0,0:0:0:0:
320,192,354399,1,0,0:0:0:0:
192,192,354451,1,0,0:0:0:0:
448,192,354504,1,0,0:0:0:0:
320,192,354557,1,0,0:0:0:0:
192,192,354609,1,0,0:0:0:0:
64,192,354662,1,0,0:0:0:0:
448,192,354662,1,0,0:0:0:0:
192,192,354978,1,0,0:0:0:0:
448,192,354978,1,0,0:0:0:0:
64,192,355610,128,0,355768:0:0:0:0:
192,192,355610,1,0,0:0:0:0:
320,192,356136,1,0,0:0:0:0:
448,192,356136,1,0,0:0:0:0:
64,192,356242,128,0,356400:0:0:0:0:
192,192,356242,1,0,0:0:0:0:
320,192,356558,1,0,0:0:0:0:
448,192,356558,1,0,0:0:0:0:
64,192,356874,128,0,357032:0:0:0:0:
192,192,356874,1,0,0:0:0:0:
320,192,357190,1,0,0:0:0:0:
448,192,357190,1,0,0:0:0:0:
64,192,357505,128,0,357663:0:0:0:0:
192,192,357505,1,0,0:0:0:0:
64,192,358137,128,0,358295:0:0:0:0:
192,192,358137,1,0,0:0:0:0:
64,192,358664,1,0,0:0:0:0:
192,192,358664,1,0,0:0:0:0:
320,192,358769,1,0,0:0:0:0:
448,192,358769,1,0,0:0:0:0:
64,192,359085,1,0,0:0:0:0:
192,192,359085,1,0,0:0:0:0:
64,192,359717,1,0,0:0:0:0:
192,192,359717,1,0,0:0:0:0:
320,192,360033,1,0,0:0:0:0:
448,192,360033,1,0,0:0:0:0:
192,192,360665,1,0,0:0:0:0:
