osu file format v14

[General]
AudioFilename: audio.mp3
AudioLeadIn: 0
PreviewTime: 25822
Countdown: 0
SampleSet: Soft
StackLeniency: 0.4
Mode: 2
LetterboxInBreaks: 0
EpilepsyWarning: 1
WidescreenStoryboard: 1

[Editor]
Bookmarks: 13390,26632,33297,39873,46538,53115,66356,79597,92839,106080,119322
DistanceSpacing: 1.8
BeatDivisor: 4
GridSize: 4
TimelineZoom: 1

[Metadata]
Title:Zabolel, no ne toboy
TitleUnicode:Заболел, но не тобой
Artist:INTERNAL
ArtistUnicode:ИНТЕРНАЛ
Creator:Daycore
Version:salad
Source:
Tags:nelly larakagi russian rap hip-hop хип-хоп русский рэп cut short version изгой
BeatmapID:2339028
BeatmapSetID:1119095

[Difficulty]
HPDrainRate:3
CircleSize:3.5
OverallDifficulty:6.5
ApproachRate:6.5
SliderMultiplier:0.999999999999999
SliderTickRate:1

[Events]
//Background and Video events
0,0,"sickness.jpg",0,0
//Break Periods
//Storyboard Layer 0 (Background)
//Storyboard Layer 1 (Fail)
//Storyboard Layer 2 (Pass)
//Storyboard Layer 3 (Foreground)
//Storyboard Layer 4 (Overlay)
//Storyboard Sound Samples

[TimingPoints]
13424,413.793103448276,4,2,1,30,1,0
13424,-166.666666666667,4,2,1,30,0,0
15079,-166.666666666667,4,2,1,25,0,0
16734,-166.666666666667,4,2,1,20,0,0
20044,-166.666666666667,4,2,1,30,0,0
21699,-166.666666666667,4,2,1,25,0,0
23355,-166.666666666667,4,2,1,40,0,0
25817,-100,4,2,1,52,0,0
26665,-100,4,2,1,70,0,0
52320,-101.112234580384,4,2,1,40,0,0
53111,413.793103448276,4,2,1,50,1,0
53111,-100,4,2,1,50,0,0
56420,-100,4,2,1,50,0,0
58075,-100,4,2,1,40,0,0
59730,-100,4,2,1,30,0,0
61386,-100,4,2,1,15,0,0
63042,-100,4,2,1,5,0,0

[Colours]
Combo1 : 128,128,128
Combo2 : 128,128,0

[HitObjects]
179,192,13424,6,0,P|215:192|259:192,1,59.9999981689454,2|0,0:0|0:0,0:0:0:0:
331,192,14251,2,0,P|295:192|251:192,1,59.9999981689454
179,192,15079,2,0,P|215:192|259:192,2,59.9999981689454,2|0|0,0:0|0:0|0:0,0:0:0:0:
256,192,16734,12,0,19217,0:0:0:0:
401,123,20044,6,0,P|376:95|336:91,1,59.9999981689454,2|0,0:0|0:0,0:0:0:0:
246,101,20872,2,0,P|271:129|311:133,1,59.9999981689454
183,124,21699,2,0,L|98:125,2,59.9999981689454,2|0|0,0:0|0:0|0:0,0:0:0:0:
256,192,23355,12,0,25837,0:0:0:0:
183,252,26665,6,0,L|291:241,1,100,4|2,0:3|0:3,0:0:0:0:
373,228,27286,1,0,0:0:0:0:
179,241,27492,1,8,0:2:0:0:
68,342,27906,1,2,0:3:0:0:
278,353,28320,6,0,L|345:348,1,50,4|0,0:3|0:0,0:0:0:0:
449,339,28734,2,0,L|381:344,1,50,6|0,0:3|0:0,0:0:0:0:
203,358,29148,1,8,0:2:0:0:
392,343,29561,1,2,0:3:0:0:
182,323,29975,6,0,L|66:318,1,100,4|2,0:3|0:3,0:0:0:0:
27,245,30596,1,0,0:0:0:0:
221,235,30803,1,8,0:2:0:0:
317,375,31217,1,2,0:3:0:0:
107,217,31630,6,0,P|92:182|95:150,1,50,4|0,0:3|0:0,0:0:0:0:
213,136,32044,2,0,P|228:101|223:66,1,50,6|0,0:3|0:0,0:0:0:0:
33,66,32458,1,8,0:2:0:0:
222,83,32872,1,6,0:3:0:0:
432,202,33286,6,0,L|310:206,1,100,4|2,0:3|0:3,0:0:0:0:
257,256,33906,1,0,0:0:0:0:
451,244,34113,1,8,0:2:0:0:
286,256,34527,1,2,0:3:0:0:
131,292,34941,6,0,L|61:288,1,50,4|0,0:3|0:0,0:0:0:0:
203,202,35355,2,0,L|268:199,1,50,6|0,0:3|0:0,0:0:0:0:
57,189,35768,1,8,0:2:0:0:
227,176,36182,1,2,0:3:0:0:
392,149,36596,6,0,L|291:142,1,100,4|2,0:3|0:3,0:0:0:0:
229,128,37217,1,0,0:0:0:0:
34,146,37424,1,8,0:2:0:0:
194,161,37837,1,2,0:3:0:0:
373,147,38251,6,0,L|442:136,1,50,4|0,0:3|0:0,0:0:0:0:
299,151,38665,2,0,L|229:140,1,50,6|0,0:3|0:0,0:0:0:0:
444,119,39079,1,8,0:2:0:0:
269,109,39492,1,6,0:3:0:0:
458,273,39906,6,0,L|338:263,1,100,4|2,0:3|0:3,0:0:0:0:
273,293,40527,1,0,0:0:0:0:
469,289,40734,1,8,0:2:0:0:
302,220,41148,1,2,0:3:0:0:
91,260,41561,6,0,L|-7:274,1,50,4|0,0:3|0:0,0:0:0:0:
181,241,41975,2,0,L|231:233,1,50,6|0,0:3|0:0,0:0:0:0:
42,267,42389,1,8,0:2:0:0:
180,274,42803,1,2,0:3:0:0:
339,286,43217,6,0,P|357:276|439:337,1,100,4|2,0:3|0:3,0:0:0:0:
500,352,43837,1,0,0:0:0:0:
306,372,44044,1,8,0:2:0:0:
482,223,44458,1,2,0:3:0:0:
252,229,44872,6,0,P|221:241|174:232,1,50,4|0,0:3|0:0,0:0:0:0:
333,156,45286,2,0,P|358:158|381:168,1,50,6|0,0:3|0:0,0:0:0:0:
186,129,45699,1,8,0:2:0:0:
350,227,46113,1,6,0:3:0:0:
171,245,46527,6,0,L|57:240,1,100,4|2,0:3|0:3,0:0:0:0:
0,190,47148,1,0,0:0:0:0:
195,188,47355,1,8,0:2:0:0:
404,185,47768,1,2,0:3:0:0:
196,217,48182,6,0,L|124:220,1,50,4|0,0:3|0:0,0:0:0:0:
287,212,48596,2,0,L|336:209,1,50,6|0,0:3|0:0,0:0:0:0:
146,219,49010,1,8,0:0:0:0:
83,344,49424,1,2,0:3:0:0:
294,341,49837,6,0,P|355:350|403:322,1,100,4|2,0:3|0:3,0:0:0:0:
438,259,50458,1,0,0:0:0:0:
243,272,50665,1,8,0:2:0:0:
57,228,51079,1,2,0:3:0:0:
232,156,51492,6,0,P|256:137|317:146,1,50,4|0,0:3|0:0,0:0:0:0:
174,240,51906,2,0,P|150:259|89:250,1,50,6|0,0:3|0:0,0:0:0:0:
57,228,52320,1,0,0:0:0:0:
60,222,53111,5,2,0:0:0:0:
256,192,53524,12,0,63042,0:0:0:0:
