osu file format v14

[General]
AudioFilename: audio.mp3
AudioLeadIn: 0
PreviewTime: 25822
Countdown: 0
SampleSet: Soft
StackLeniency: 0.4
Mode: 2
LetterboxInBreaks: 0
EpilepsyWarning: 1
WidescreenStoryboard: 1

[Editor]
Bookmarks: 13390,26632,33297,39873,46538,53115,66356,79597,92839,106080,119322
DistanceSpacing: 3.2
BeatDivisor: 4
GridSize: 4
TimelineZoom: 1.7

[Metadata]
Title:Zabolel, no ne toboy
TitleUnicode:Заболел, но не тобой
Artist:INTERNAL
ArtistUnicode:ИНТЕРНАЛ
Creator:Daycore
Version:nelly's platter
Source:
Tags:nelly larakagi russian rap hip-hop хип-хоп русский рэп cut short version изгой
BeatmapID:2340133
BeatmapSetID:1119095

[Difficulty]
HPDrainRate:4
CircleSize:4
OverallDifficulty:8
ApproachRate:8
SliderMultiplier:1.3
SliderTickRate:1

[Events]
//Background and Video events
0,0,"sickness.jpg",0,0
//Break Periods
//Storyboard Layer 0 (Background)
//Storyboard Layer 1 (Fail)
//Storyboard Layer 2 (Pass)
//Storyboard Layer 3 (Foreground)
//Storyboard Layer 4 (Overlay)
//Storyboard Sound Samples

[TimingPoints]
13424,413.793103448276,4,2,1,30,1,0
13424,-166.666666666667,4,2,1,30,0,0
15079,-166.666666666667,4,2,1,25,0,0
16734,-100,4,2,1,20,0,0
20044,-100,4,2,1,30,0,0
21699,-100,4,2,1,25,0,0
23355,-100,4,2,1,40,0,0
25817,-100,4,2,1,52,0,0
26665,-100,4,2,1,70,0,0
52320,-101.112234580384,4,2,1,40,0,0
53111,413.793103448276,4,2,1,50,1,0
53111,-100,4,2,1,50,0,0
56420,-100,4,2,1,50,0,0
58075,-100,4,2,1,40,0,0
59730,-100,4,2,1,30,0,0
61386,-100,4,2,1,15,0,0
63042,-100,4,2,1,5,0,0

[Colours]
Combo1 : 128,128,128
Combo2 : 128,128,0

[HitObjects]
130,332,13424,6,0,L|125:248,1,77.999997619629,2|0,0:0|0:0,0:0:0:0:
297,203,14251,2,0,L|299:125,1,77.999997619629
122,105,15079,1,2,0:0:0:0:
298,118,15492,1,0,0:0:0:0:
122,105,15906,1,0,0:0:0:0:
256,192,16734,12,0,19217,0:0:0:0:
451,167,20044,6,0,L|319:165,1,130,2|0,0:0|0:0,0:0:0:0:
138,300,20872,2,0,L|270:298,1,130
451,167,21699,2,0,L|319:165,2,130,2|0|0,0:0|0:0|0:0,0:0:0:0:
256,192,23355,12,0,25837,0:0:0:0:
166,304,26665,6,0,L|161:239,1,65,4|0,0:3|0:0,0:0:0:0:
278,239,27079,2,0,L|283:174,1,65,2|0,0:3|0:0,0:0:0:0:
74,174,27492,2,0,P|45:152|78:80,1,130,8|2,0:2|0:3,0:0:0:0:
182,80,28113,1,0,0:0:0:0:
390,80,28320,6,0,L|457:83,2,65,4|0|6,0:3|0:0|0:3,0:0:0:0:
285,85,28941,1,0,0:0:0:0:
79,103,29148,2,0,P|50:125|83:197,1,130,8|2,0:2|0:3,0:0:0:0:
187,197,29768,1,0,0:0:0:0:
471,209,29975,6,0,L|474:142,1,65,4|0,0:3|0:0,0:0:0:0:
356,91,30389,2,0,L|292:88,1,65,2|0,0:3|0:0,0:0:0:0:
497,50,30803,2,0,P|499:95|439:146,1,130,8|2,0:2|0:3,0:0:0:0:
334,145,31424,1,0,0:0:0:0:
129,245,31630,6,0,L|200:248,1,65,4|0,0:3|0:0,0:0:0:0:
311,254,32044,2,0,L|382:257,1,65,6|0,0:3|0:0,0:0:0:0:
169,140,32458,1,8,0:2:0:0:
374,138,32872,2,0,L|378:74,1,65,6|0,0:3|0:0,0:0:0:0:
94,51,33286,5,4,0:3:0:0:
58,121,33492,1,0,0:0:0:0:
112,205,33699,1,2,0:3:0:0:
217,231,33906,1,0,0:0:0:0:
417,124,34113,2,0,L|287:121,1,130,8|2,0:2|0:3,0:0:0:0:
177,121,34734,1,0,0:0:0:0:
372,292,34941,6,0,L|378:226,1,65,4|0,0:3|0:0,0:0:0:0:
260,227,35355,2,0,L|254:161,1,65,6|0,0:3|0:0,0:0:0:0:
459,35,35768,2,0,P|488:57|465:137,1,130,8|2,0:2|0:3,0:0:0:0:
366,143,36389,1,0,0:0:0:0:
89,128,36596,6,0,L|17:129,1,65,4|0,0:3|0:0,0:0:0:0:
131,223,37010,1,2,0:3:0:0:
23,223,37217,1,0,0:0:0:0:
223,306,37424,2,0,P|261:306|313:236,1,130,8|2,0:2|0:3,0:0:0:0:
208,115,38044,1,0,0:0:0:0:
408,62,38251,6,0,L|476:65,2,65,4|0|6,0:3|0:0|0:3,0:0:0:0:
303,59,38872,1,0,0:0:0:0:
98,49,39079,1,8,0:2:0:0:
290,234,39492,2,0,L|354:229,1,65,6|0,0:3|0:0,0:0:0:0:
87,156,39906,6,0,L|19:159,2,65,4|0|2,0:3|0:0|0:3,0:0:0:0:
192,153,40527,1,0,0:0:0:0:
392,142,40734,2,0,P|394:97|334:46,1,130,8|2,0:2|0:3,0:0:0:0:
224,47,41355,1,0,0:0:0:0:
418,47,41561,6,0,L|423:112,1,65,4|0,0:3|0:0,0:0:0:0:
305,169,41975,2,0,L|300:234,1,65,6|0,0:3|0:0,0:0:0:0:
498,267,42389,2,0,P|500:311|440:363,1,130,8|2,0:2|0:3,0:0:0:0:
335,362,43010,1,0,0:0:0:0:
69,353,43217,6,0,L|65:288,1,65,4|0,0:3|0:0,0:0:0:0:
186,254,43630,2,0,L|254:250,1,65,2|0,0:3|0:0,0:0:0:0:
50,235,44044,2,0,P|19:181|57:133,1,130,8|2,0:2|0:3,0:0:0:0:
161,129,44665,1,0,0:0:0:0:
366,124,44872,6,0,L|369:60,1,65,4|0,0:3|0:0,0:0:0:0:
251,279,45286,2,0,L|248:215,1,65,6|0,0:3|0:0,0:0:0:0:
443,177,45699,1,8,0:2:0:0:
223,119,46113,2,0,L|158:121,1,65,6|0,0:3|0:0,0:0:0:0:
426,333,46527,5,4,0:3:0:0:
462,263,46734,1,0,0:0:0:0:
408,179,46941,1,2,0:3:0:0:
303,153,47148,1,0,0:0:0:0:
103,260,47355,2,0,L|233:263,1,130,8|2,0:2|0:3,0:0:0:0:
343,263,47975,1,0,0:0:0:0:
148,92,48182,6,0,L|142:158,1,65,4|0,0:3|0:0,0:0:0:0:
260,157,48596,2,0,L|266:223,1,65,6|0,0:3|0:0,0:0:0:0:
62,349,49010,2,0,P|33:327|56:246,1,130,8|2,0:0|0:3,0:0:0:0:
155,241,49630,1,0,0:0:0:0:
431,256,49837,6,0,L|503:255,1,65,4|0,0:3|0:0,0:0:0:0:
379,161,50251,1,2,0:3:0:0:
497,161,50458,1,0,0:0:0:0:
297,78,50665,2,0,P|259:78|207:148,1,130,8|2,0:2|0:3,0:0:0:0:
312,268,51286,1,0,0:0:0:0:
112,322,51492,6,0,L|109:257,1,65,4|0,0:3|0:0,0:0:0:0:
212,165,51906,1,6,0:3:0:0:
109,157,52113,1,0,0:0:0:0:
212,165,52320,1,0,0:0:0:0:
212,165,53111,5,2,0:0:0:0:
256,192,53524,12,0,63042,0:0:0:0:
