osu file format v14

[General]
AudioFilename: audio.mp3
AudioLeadIn: 0
PreviewTime: 95883
Countdown: 0
SampleSet: Soft
StackLeniency: 0
Mode: 0
LetterboxInBreaks: 0
WidescreenStoryboard: 1

[Editor]
Bookmarks: 10967,21633,32300,42966,53633,64300,74966,85633,96300,117633
DistanceSpacing: 0.2
BeatDivisor: 4
GridSize: 32
TimelineZoom: 1.8

[Metadata]
Title:Juicy
TitleUnicode:Juicy
Artist:INSTASAMKA
ArtistUnicode:INSTASAMKA
Creator:M a r v o l l o
Version:WAJIKLAK'S MAGNIFICENT EXPERT
Source:
Tags:shmiklak marvollo m_a_r_v_o_l_l_o russian hip hop русский хип хоп пусси джуси моя жопа на тусе pussy daycore инстасамка moneydealer манидилер schoolboy komore 228 AYE1337 wajinshu froskya revialink announcerf fackel
BeatmapID:4040979
BeatmapSetID:1951437

[Difficulty]
HPDrainRate:5.5
CircleSize:4.5
OverallDifficulty:8
ApproachRate:9.5
SliderMultiplier:2.6
SliderTickRate:1

[Events]
//Background and Video events
0,0,"pusijusinatuse.jpg",0,0
//Break Periods
//Storyboard Layer 0 (Background)
//Storyboard Layer 1 (Fail)
//Storyboard Layer 2 (Pass)
//Storyboard Layer 3 (Foreground)
//Storyboard Layer 4 (Overlay)
//Storyboard Sound Samples

[TimingPoints]
9990,324.324324324324,4,2,1,90,1,0
10638,327.868852459016,4,2,1,90,1,0
10967,333.333333333333,4,2,1,90,1,0
24966,-181.818181818181,4,2,1,90,0,0
25300,-100,4,2,1,90,0,0
29633,-222.222222222221,4,2,1,90,0,0
32300,-133.333333333333,4,2,2,70,0,0
42966,-133.333333333333,4,2,1,80,0,0
47966,-83.3333333333333,4,2,1,80,0,0
48300,-181.818181818181,4,2,1,80,0,0
48633,-153.846153846153,4,2,1,80,0,0
48966,-133.333333333333,4,2,1,80,0,0
49300,-83.3333333333333,4,2,1,80,0,0
49633,-133.333333333333,4,2,1,80,0,0
49966,-133.333333333333,4,2,1,80,0,0
50300,-133.333333333333,4,2,1,80,0,0
50633,-83.3333333333333,4,2,1,80,0,0
50966,-95.2380952380951,4,2,1,80,0,0
51300,-133.333333333333,4,2,1,80,0,0
51466,-285.714285714284,4,2,1,80,0,0
51633,-83.3333333333333,4,2,1,80,0,0
52300,-71.4285714285714,4,2,1,80,0,0
52633,-71.4285714285714,4,2,1,80,0,0
53300,-100,4,2,1,80,0,0
53633,-100,4,2,1,90,0,0
64300,-100,4,2,1,60,0,0
66966,-100,4,2,1,90,0,0
67633,-100,4,2,1,90,0,0
67967,-100,4,2,1,90,0,0
68966,-181.818181818181,4,2,1,90,0,0
69300,-100,4,2,1,90,0,0
71633,-181.818181818181,4,2,1,90,0,0
71967,-100,4,2,1,90,0,0
72300,-399.999999999997,4,2,1,90,0,0
74966,-333.333333333333,4,2,1,70,0,0
85633,-333.333333333333,4,2,1,80,0,0
87633,-1000,4,2,1,80,0,0
87966,-333.333333333333,4,2,1,80,0,0
88966,-1000,4,2,1,80,0,0
89300,-333.333333333333,4,2,1,80,0,0
90300,-166.666666666667,4,2,1,80,0,0
90466,-166.666666666667,4,2,1,80,0,0
90966,-250.000000000001,4,2,1,80,0,0
93133,-133.333333333333,4,2,1,80,0,0
93466,-83.3333333333333,4,2,1,80,0,0
93799,-95.2380952380951,4,2,1,80,0,0
94133,-133.333333333333,4,2,1,80,0,0
94299,-285.714285714284,4,2,1,80,0,0
94466,-83.3333333333333,4,2,1,80,0,0
95133,-71.4285714285714,4,2,1,80,0,0
95466,-71.4285714285714,4,2,1,80,0,0
95966,-100,4,2,1,80,0,0
96300,-100,4,2,1,90,0,0
114966,-250,4,2,1,90,0,0

[Colours]
Combo1 : 243,128,12
Combo2 : 185,17,21
Combo3 : 235,220,37
Combo4 : 230,13,51

[HitObjects]
179,115,9990,5,4,0:2:0:0:
179,115,10314,1,4,0:2:0:0:
179,115,10638,6,0,P|169:87|165:42,1,65,2|0,0:0|0:0,0:0:0:0:
83,219,10801,2,0,P|91:189|96:145,1,65,2|0,0:0|0:0,0:0:0:0:
185,283,10967,6,0,P|257:251|329:242,1,130,6|8,3:2|0:0,0:0:0:0:
447,307,11300,1,2,0:0:0:0:
379,128,11467,1,2,3:2:0:0:
321,368,11633,1,8,0:0:0:0:
312,348,11966,6,0,P|274:255|223:165,1,195,2|0,3:2|0:0,0:0:0:0:
204,156,12300,1,0,0:0:0:0:
199,294,12466,1,2,0:0:0:0:
261,75,12633,1,2,3:2:0:0:
109,183,12800,1,0,0:0:0:0:
346,235,12966,1,10,0:0:0:0:
95,336,13133,5,0,3:0:0:0:
111,315,13300,1,2,0:0:0:0:
85,315,13466,1,2,0:0:0:0:
261,362,13633,6,0,P|367:338|400:323,1,130,2|8,3:2|0:0,0:0:0:0:
466,175,13966,2,0,P|475:210|493:247,1,65,2|0,0:0|0:0,0:0:0:0:
399,132,14133,1,2,3:2:0:0:
409,119,14216,1,0,0:0:0:0:
417,106,14300,2,0,P|424:72|350:68,1,130,10|2,0:2|0:2,0:0:0:0:
225,172,14633,6,0,P|133:148|90:108,1,130,2|8,3:2|0:0,0:0:0:0:
192,250,14966,1,2,0:0:0:0:
94,39,15133,1,2,3:2:0:0:
16,295,15300,1,2,3:2:0:0:
109,353,15633,5,10,0:0:0:0:
31,97,15800,1,2,3:2:0:0:
40,103,16300,6,0,P|109:118|168:125,1,130,2|8,3:2|0:0,0:0:0:0:
300,73,16633,1,0,0:0:0:0:
151,36,16800,1,2,3:2:0:0:
234,201,16966,1,10,0:0:0:0:
243,211,17300,6,0,P|239:284|169:233,1,195,2|0,3:2|0:0,0:0:0:0:
171,216,17633,1,0,0:0:0:0:
244,369,17800,1,2,0:0:0:0:
99,288,17966,1,2,3:2:0:0:
322,322,18133,1,0,0:0:0:0:
64,384,18300,1,8,0:0:0:0:
209,142,18466,5,0,3:2:0:0:
215,128,18633,1,2,0:0:0:0:
220,116,18799,1,2,0:0:0:0:
81,45,18966,6,0,L|125:204,1,130,2|10,3:2|0:0,0:0:0:0:
121,177,19300,1,0,0:0:0:0:
431,45,19633,6,0,L|387:204,1,130,2|10,3:2|0:0,0:0:0:0:
391,177,19967,1,0,0:0:0:0:
279,323,20300,5,2,3:2:0:0:
252,127,20466,1,10,0:2:0:0:
168,250,20633,5,2,3:2:0:0:
195,54,20799,1,10,0:2:0:0:
122,331,20966,5,2,3:2:0:0:
95,135,21132,1,8,0:2:0:0:
295,239,21300,6,0,P|325:228|351:209,1,65,2|0,3:2|0:0,0:0:0:0:
450,311,21466,2,0,P|423:291|393:281,1,65,2|0,0:0|0:0,0:0:0:0:
178,372,21633,6,0,P|189:293|205:222,1,130,6|8,3:2|0:0,0:0:0:0:
308,92,21966,1,2,0:0:0:0:
121,119,22133,1,2,3:2:0:0:
351,208,22299,1,8,0:0:0:0:
365,207,22633,6,0,B|243:166|276:253|143:198,1,195,2|0,3:2|0:0,0:0:0:0:
94,167,22966,2,0,P|105:135|89:85,1,65
46,55,23133,1,2,0:0:0:0:
220,132,23300,1,2,3:2:0:0:
149,277,23383,2,0,P|195:268|222:270,1,65
304,281,23632,1,10,0:0:0:0:
394,96,23799,5,0,3:0:0:0:
402,74,23966,1,2,0:0:0:0:
454,204,24133,1,2,0:0:0:0:
449,197,24217,1,0,0:0:0:0:
444,191,24300,6,0,P|457:230|457:266,1,65,2|0,3:2|0:0,0:0:0:0:
348,329,24466,1,8,0:0:0:0:
294,109,24633,1,2,0:0:0:0:
368,244,24799,1,2,3:2:0:0:
233,337,24966,2,0,P|240:301|228:256,1,71.5000021820069,10|2,0:2|0:2,0:0:0:0:
42,93,25300,5,2,3:2:0:0:
90,217,25466,1,8,0:0:0:0:
261,83,25633,5,2,0:0:0:0:
109,141,25799,1,2,3:2:0:0:
300,307,25966,1,2,3:2:0:0:
285,289,26300,5,10,0:0:0:0:
476,123,26467,1,2,3:2:0:0:
463,103,26966,6,0,B|417:81|417:81|342:108,1,130,2|8,3:2|0:0,0:0:0:0:
512,19,27299,1,0,0:0:0:0:
416,177,27466,1,2,3:2:0:0:
263,41,27632,1,10,0:0:0:0:
247,36,27966,6,0,P|179:12|207:93,1,195,2|0,3:2|0:0,0:0:0:0:
188,105,28299,1,0,0:0:0:0:
56,238,28466,1,2,0:0:0:0:
42,90,28632,1,2,3:2:0:0:
24,72,28966,5,10,0:0:0:0:
227,249,29133,1,0,3:2:0:0:
347,99,29300,2,0,L|341:136,2,32.5,2|0|2,0:0|0:0|0:0,0:0:0:0:
340,84,29466,1,2,0:0:0:0:
317,63,29633,6,0,P|286:62|254:56,1,58.4999982147217,2|0,3:2|0:0,0:0:0:0:
183,23,29966,1,0,0:0:0:0:
151,125,30133,2,0,P|159:153|161:182,1,58.4999982147217,2|2,3:2|3:2,0:0:0:0:
161,200,30633,6,0,P|112:193|95:188,1,58.4999982147217,0|0,3:0|0:0,0:0:0:0:
169,284,30966,2,0,P|195:270|219:254,1,58.4999982147217,2|2,0:2|0:2,0:0:0:0:
321,330,31300,2,0,P|272:323|255:318,1,58.4999982147217,2|2,0:2|0:2,0:0:0:0:
351,225,31633,1,2,3:2:0:0:
358,220,31716,1,0,0:0:0:0:
365,216,31800,1,0,0:2:0:0:
370,211,31883,1,0,0:0:0:0:
378,208,31966,2,0,L|399:214,6,14.6249995536804,2|0|2|0|2|0|0,0:2|0:0|0:0|0:0|0:0|0:0|0:0,0:0:0:0:
321,152,32300,5,2,0:0:0:0:
447,107,32466,1,8,0:0:0:0:
296,28,32633,2,0,L|312:137,1,97.50000371933,0|2,0:0|3:2,0:0:0:0:
155,185,32966,2,0,L|176:25,1,146.250005578995,10|0,0:2|0:0,0:0:0:0:
162,21,33300,5,2,3:2:0:0:
61,67,33466,1,0,0:0:0:0:
34,171,33633,2,0,P|84:206|117:291,1,146.250005578995,2|0,0:2|0:0,0:0:0:0:
110,310,33966,2,0,L|55:296,2,48.750001859665,2|0|2,0:2|0:0|0:0,0:0:0:0:
220,372,34300,6,0,B|298:396|270:324|362:346,1,146.250005578995,8|0,3:2|0:0,0:0:0:0:
365,353,34633,1,0,3:0:0:0:
463,348,34800,1,0,0:0:0:0:
239,282,34966,5,2,3:2:0:0:
302,118,35133,1,10,0:0:0:0:
391,234,35300,2,0,L|293:222,1,97.50000371933,0|2,0:0|3:2,0:0:0:0:
193,148,35633,2,0,L|38:166,1,146.250005578995,8|0,0:0|0:0,0:0:0:0:
0,220,35966,6,0,P|58:201|105:189,1,97.50000371933,2|8,3:2|0:0,0:0:0:0:
206,61,36300,2,0,P|264:80|311:92,1,97.50000371933,2|8,0:0|0:0,0:0:0:0:
465,41,36633,1,2,0:2:0:0:
402,136,36800,1,2,0:2:0:0:
431,256,36966,1,8,3:2:0:0:
439,258,37300,6,0,L|455:325,1,48.750001859665,0|0,3:2|0:0,0:0:0:0:
360,369,37466,2,0,L|376:302,1,48.750001859665
304,242,37633,5,2,0:0:0:0:
133,273,37800,1,8,0:0:0:0:
235,168,37966,2,0,P|225:241|222:275,1,97.50000371933,0|2,0:0|3:2,0:0:0:0:
113,91,38300,2,0,P|120:139|125:187,1,97.50000371933,10|0,0:2|0:0,0:0:0:0:
40,326,38633,1,2,3:2:0:0:
142,272,38800,1,0,0:0:0:0:
272,354,38966,6,0,P|256:217|254:171,1,146.250005578995,2|0,0:2|0:0,0:0:0:0:
272,190,39300,2,0,L|381:209,1,97.50000371933,2|2,3:2|0:0,0:0:0:0:
512,114,39633,2,0,P|455:124|352:117,1,146.250005578995,8|0,3:2|0:0,0:0:0:0:
355,115,39966,1,0,3:0:0:0:
256,44,40133,1,2,0:3:0:0:
308,179,40300,5,2,3:2:0:0:
374,35,40466,1,10,0:0:0:0:
475,235,40633,2,0,L|371:244,1,97.50000371933,0|2,0:0|3:2,0:0:0:0:
254,338,40966,2,0,B|175:359|203:287|111:309,1,146.250005578995,8|0,0:0|0:0,0:0:0:0:
104,325,41300,2,0,L|208:305,1,97.50000371933,2|8,3:2|0:0,0:0:0:0:
423,261,41633,5,2,0:0:0:0:
355,171,41800,1,8,0:0:0:0:
462,65,41966,2,0,L|446:174,1,97.50000371933,2|2,0:2|0:2,0:0:0:0:
492,343,42300,2,0,L|463:141,1,195.00000743866,8|2,3:2|3:2,0:0:0:0:
464,149,42966,5,2,3:2:0:0:
447,232,43133,1,10,0:0:0:0:
346,306,43300,5,0,0:0:0:0:
377,211,43466,1,2,3:2:0:0:
478,158,43633,5,8,0:0:0:0:
491,151,43800,1,0,0:0:0:0:
366,204,43966,5,2,3:2:0:0:
377,211,44133,1,2,0:0:0:0:
266,130,44300,5,2,0:0:0:0:
188,239,44466,1,0,0:0:0:0:
279,218,44633,1,2,3:2:0:0:
182,147,44800,1,2,0:0:0:0:
270,327,44966,5,8,3:2:0:0:
285,331,45133,1,0,0:0:0:0:
158,282,45300,5,2,3:2:0:0:
161,295,45466,1,2,0:0:0:0:
137,159,45633,5,2,3:2:0:0:
276,119,45800,1,10,0:0:0:0:
209,200,45966,1,0,0:0:0:0:
227,51,46133,1,2,3:2:0:0:
395,204,46300,5,8,0:0:0:0:
384,223,46466,1,0,0:0:0:0:
214,206,46632,5,2,3:2:0:0:
206,230,46799,1,10,0:0:0:0:
189,80,46966,5,2,0:0:0:0:
86,154,47132,1,8,0:0:0:0:
94,162,47299,1,2,3:2:0:0:
194,242,47466,1,2,0:0:0:0:
54,66,47632,5,8,3:2:0:0:
42,230,47799,1,0,0:0:0:0:
227,240,47966,2,0,B|217:177|268:149|268:149|246:174|244:211,1,155.999995239258,2|2,3:2|0:0,0:0:0:0:
329,321,48300,5,2,3:2:0:0:
266,151,48466,1,10,0:0:0:0:
443,166,48633,2,0,B|482:175|482:175|335:201,1,168.999992263794,0|8,0:0|0:0,0:0:0:0:
110,93,49133,1,0,0:0:0:0:
198,218,49300,2,0,B|240:212|257:169|257:169|240:212|277:245,1,155.999995239258,2|2,3:2|0:0,0:0:0:0:
86,351,49633,6,0,B|63:298|83:255|83:255|97:218|78:160,1,195.00000743866,2|2,0:0|3:2,0:0:0:0:
79,160,50300,1,8,3:2:0:0:
224,304,50466,2,0,P|259:314|277:315,1,48.750001859665
368,221,50633,6,0,B|411:207|444:239|444:239|408:229|369:248,1,155.999995239258,2|2,3:2|0:0,0:0:0:0:
265,95,50966,2,0,P|201:118|122:92,2,136.499995834351,2|10|0,3:2|0:0|0:0,0:0:0:0:
447,20,51466,2,0,P|454:43|462:77,1,45.4999986114502,2|8,3:2|0:0,0:0:0:0:
373,246,51800,6,0,B|345:202|345:202|386:87,1,155.999995239258,0|2,0:0|3:2,0:0:0:0:
463,325,52133,1,10,0:0:0:0:
146,235,52300,6,0,B|101:228|101:228|135:260,1,90.9999972229005,2|0,0:0|0:0,0:0:0:0:
270,286,52466,2,0,B|314:292|314:292|280:260,1,90.9999972229005,8|0,0:0|0:0,0:0:0:0:
180,314,52633,2,0,B|173:358|173:358|205:325,1,90.9999972229005,2|0,3:2|0:0,0:0:0:0:
236,203,52800,2,0,B|242:158|242:158|210:191,1,90.9999972229005,2|0,0:0|0:0,0:0:0:0:
377,305,53300,6,0,P|349:295|304:291,1,65,2|0,0:0|0:0,0:0:0:0:
485,295,53466,2,0,P|465:272|428:246,1,65,2|0,0:0|0:0,0:0:0:0:
307,161,53634,6,0,P|243:173|178:180,1,130,6|8,3:2|0:0,0:0:0:0:
3,117,53967,1,2,0:0:0:0:
96,268,54134,1,2,3:2:0:0:
143,24,54300,1,8,0:0:0:0:
152,34,54633,6,0,P|251:23|352:-1,1,195,2|0,3:2|0:0,0:0:0:0:
500,83,54967,1,0,0:0:0:0:
325,157,55133,1,2,0:0:0:0:
437,9,55300,1,2,3:2:0:0:
471,220,55467,1,0,0:0:0:0:
439,28,55633,1,10,0:0:0:0:
331,240,55800,5,0,3:0:0:0:
318,248,55967,1,2,0:0:0:0:
301,243,56133,1,2,0:0:0:0:
184,164,56300,6,0,P|290:140|323:125,1,130,2|8,3:2|0:0,0:0:0:0:
459,16,56633,2,0,P|446:45|438:77,1,65,2|0,0:0|0:0,0:0:0:0:
484,205,56800,1,2,3:2:0:0:
486,220,56883,1,0,0:0:0:0:
489,234,56967,2,0,L|468:371,1,130,10|2,0:2|0:2,0:0:0:0:
324,199,57300,6,0,L|303:62,1,130,2|8,3:2|0:0,0:0:0:0:
251,238,57633,1,2,0:0:0:0:
459,113,57800,1,2,3:2:0:0:
180,40,57967,1,2,3:2:0:0:
485,35,58300,5,10,0:0:0:0:
137,115,58467,1,2,3:2:0:0:
375,124,58633,5,2,0:0:0:0:
190,33,58800,1,2,0:0:0:0:
27,130,58967,6,0,P|12:199|5:258,1,130,2|8,3:2|0:0,0:0:0:0:
121,384,59300,1,0,0:0:0:0:
146,157,59467,1,2,3:2:0:0:
19,288,59633,1,10,0:0:0:0:
28,301,59966,6,0,B|131:310|96:225|218:226,1,195,2|0,3:2|0:0,0:0:0:0:
213,230,60300,1,0,0:0:0:0:
287,381,60467,1,2,0:0:0:0:
294,148,60633,1,2,3:2:0:0:
190,321,60800,1,0,0:0:0:0:
384,249,60967,1,8,0:0:0:0:
271,65,61133,5,0,3:2:0:0:
265,51,61300,1,2,0:0:0:0:
260,39,61466,1,2,0:0:0:0:
81,339,61633,6,0,B|120:289|120:289|110:207,1,130,2|10,3:2|0:0,0:0:0:0:
122,206,61967,1,0,0:0:0:0:
431,339,62300,6,0,B|392:289|392:289|402:207,1,130,2|10,3:2|0:0,0:0:0:0:
390,206,62634,1,0,0:0:0:0:
279,61,62967,5,2,3:2:0:0:
264,313,63133,1,10,0:2:0:0:
174,92,63300,5,2,3:2:0:0:
189,337,63466,1,10,0:2:0:0:
115,28,63633,5,2,3:2:0:0:
76,335,63799,1,8,0:2:0:0:
371,206,63967,6,0,L|383:126,1,65,2|0,3:2|0:0,0:0:0:0:
274,293,64133,2,0,L|262:213,1,65,2|0,0:0|0:0,0:0:0:0:
360,352,64300,5,6,3:2:0:0:
367,339,64466,1,8,0:0:0:0:
219,336,66966,5,2,3:2:0:0:
304,200,67133,1,8,0:0:0:0:
121,221,67300,1,2,0:0:0:0:
211,117,67466,1,2,3:2:0:0:
338,310,67633,2,0,P|263:315|198:333,1,130,10|2,0:2|0:2,0:0:0:0:
105,206,67966,5,2,3:2:0:0:
208,93,68133,1,8,0:0:0:0:
349,72,68300,5,2,0:0:0:0:
404,289,68467,1,2,3:2:0:0:
229,194,68633,2,0,P|263:202|295:216,1,65,2|0,3:2|0:0,0:0:0:0:
459,140,68800,2,0,P|429:152|397:159,1,65,2|0,0:0|0:0,0:0:0:0:
227,80,68966,2,0,P|261:88|293:102,1,35.7500010910034,10|0,0:0|0:0,0:0:0:0:
322,145,69133,1,2,3:2:0:0:
176,258,69300,5,2,0:2:0:0:
158,232,69383,1,2,0:2:0:0:
151,202,69466,1,2,0:2:0:0:
153,171,69549,1,0,0:0:0:0:
166,142,69633,1,2,3:2:0:0:
361,226,69800,5,8,0:0:0:0:
252,324,69966,1,0,0:0:0:0:
468,340,70133,1,2,3:2:0:0:
471,142,70300,1,10,0:0:0:0:
471,142,70633,6,0,B|492:126|492:126|464:97|424:126|424:126|369:97|316:131,1,195,2|0,3:2|0:0,0:0:0:0:
321,130,70966,1,0,0:0:0:0:
429,210,71133,1,2,0:0:0:0:
303,21,71300,1,2,3:2:0:0:
216,100,71466,1,0,0:0:0:0:
65,35,71633,2,0,P|97:31|117:31,1,35.7500010910034,8|0,0:0|0:0,0:0:0:0:
44,47,71800,1,0,3:2:0:0:
228,121,71966,5,2,0:0:0:0:
245,151,72049,1,2,0:0:0:0:
242,186,72132,1,2,0:0:0:0:
221,214,72215,1,0,0:0:0:0:
206,224,72300,6,0,B|180:208|180:208|141:215,1,65,2|0,3:2|0:0,0:0:0:0:
269,333,72800,2,0,B|285:307|285:307|278:268,1,65,0|0,3:0|0:0,0:0:0:0:
70,198,73300,2,0,B|63:231|63:231|79:257,1,65,0|2,3:0|0:2,0:0:0:0:
299,266,74966,6,0,L|348:277,2,38.9999988098145,2|10|0,3:2|0:0|0:0,0:0:0:0:
355,170,75466,1,2,3:2:0:0:
346,185,75633,1,8,0:0:0:0:
225,82,75800,1,0,0:0:0:0:
229,98,75966,2,0,L|241:176,1,77.999997619629,2|2,3:2|0:0,0:0:0:0:
178,258,76466,1,0,0:0:0:0:
88,149,76633,2,0,L|110:103,2,38.9999988098145,2|2|8,3:2|0:0|3:2,0:0:0:0:
223,26,77133,5,0,0:0:0:0:
240,49,77300,1,2,3:2:0:0:
320,5,77466,1,2,0:0:0:0:
502,80,77633,2,0,L|493:124,1,38.9999988098145,2|10,3:2|0:0,0:0:0:0:
256,197,77966,5,0,0:0:0:0:
264,171,78133,1,2,3:2:0:0:
77,217,78300,1,8,0:0:0:0:
67,198,78633,5,2,3:2:0:0:
81,225,78800,1,10,0:0:0:0:
47,305,78966,1,2,0:0:0:0:
66,331,79133,1,8,0:0:0:0:
103,109,79300,1,2,3:2:0:0:
81,109,79466,2,0,L|64:65,1,38.9999988098145,2|8,0:0|3:2,0:0:0:0:
267,142,79966,5,2,3:2:0:0:
323,327,80133,1,2,0:0:0:0:
389,229,80300,5,2,3:2:0:0:
364,221,80466,2,0,L|316:240,1,38.9999988098145,10|0,0:0|0:0,0:0:0:0:
197,270,80800,2,0,L|149:251,1,38.9999988098145,2|8,3:2|0:0,0:0:0:0:
28,338,81133,1,0,0:0:0:0:
48,345,81300,2,0,L|96:326,1,38.9999988098145,2|2,3:2|0:0,0:0:0:0:
256,343,81633,5,2,0:0:0:0:
270,330,81800,1,0,0:0:0:0:
409,357,81966,2,0,L|390:322,1,38.9999988098145,2|2,3:2|0:0,0:0:0:0:
461,188,82300,1,8,3:2:0:0:
461,188,82633,5,2,3:2:0:0:
433,174,82800,1,2,0:0:0:0:
255,221,82966,1,2,3:2:0:0:
302,125,83133,2,0,L|316:170,1,38.9999988098145,10|0,0:0|0:0,0:0:0:0:
191,310,83466,2,0,L|202:272,1,38.9999988098145,2|8,3:2|0:0,0:0:0:0:
136,160,83800,5,0,0:0:0:0:
191,258,83966,1,2,3:2:0:0:
223,81,84133,1,10,0:2:0:0:
55,259,84300,5,2,0:0:0:0:
85,244,84466,1,8,0:2:0:0:
336,278,84633,2,0,L|318:239,2,38.9999988098145,2|2|0,3:2|0:0|0:0,0:0:0:0:
60,136,85633,6,0,P|69:158|76:181,1,38.9999988098145,2|10,3:2|0:0,0:0:0:0:
149,74,85966,1,0,0:0:0:0:
144,76,86133,1,2,3:2:0:0:
194,275,86300,2,0,P|200:256|207:238,1,38.9999988098145,8|0,0:0|0:0,0:0:0:0:
316,339,86633,2,0,P|296:343|277:349,1,38.9999988098145,2|2,3:2|0:0,0:0:0:0:
395,228,86966,5,2,0:0:0:0:
390,226,87133,1,0,0:0:0:0:
479,100,87300,1,2,3:2:0:0:
474,102,87467,1,2,0:0:0:0:
280,119,87633,6,0,L|301:122,1,19.5,8|0,3:2|0:0,0:0:0:0:
309,118,87966,1,2,3:2:0:0:
141,35,88133,2,0,P|135:47|129:68,1,19.4999994049072,2|0,0:0|0:0,0:0:0:0:
159,124,88300,5,2,3:2:0:0:
35,308,88466,1,10,0:0:0:0:
41,131,88633,5,0,0:0:0:0:
30,205,88800,1,2,3:2:0:0:
200,258,88966,6,0,L|182:265,1,19.5,8|0,0:0|0:0,0:0:0:0:
166,271,89300,1,2,3:2:0:0:
252,344,89466,1,10,0:2:0:0:
307,164,89633,5,2,0:0:0:0:
307,164,89799,1,8,0:2:0:0:
464,342,89966,1,2,3:2:0:0:
430,274,90133,1,2,0:0:0:0:
462,202,90300,6,0,L|485:205,4,19.4999994049072,8|0|0|0|0,3:2|0:0|0:0|0:0|0:0,0:0:0:0:
294,38,90633,5,2,3:2:0:0:
246,179,90800,2,0,P|271:175|289:174,1,38.9999988098145,2|0,0:0|0:0,0:0:0:0:
230,174,90966,5,2,3:2:0:0:
122,105,91133,1,2,0:0:0:0:
95,216,91300,1,0,0:0:0:0:
212,280,91466,1,2,3:2:0:0:
201,300,91800,5,0,0:0:0:0:
57,221,91967,1,2,3:2:0:0:
73,76,92134,1,2,0:0:0:0:
223,169,92300,1,2,0:0:0:0:
106,299,92466,1,0,0:0:0:0:
189,72,92633,2,0,P|206:120|223:157,1,78,2|0,3:2|0:0,0:0:0:0:
238,154,92966,1,0,3:2:0:0:
398,74,93133,1,0,0:0:0:0:
366,185,93300,6,0,P|382:227|388:265,1,48.750001859665,2|0,3:2|0:0,0:0:0:0:
449,365,93466,2,0,P|465:323|457:280,1,77.999997619629,2|0,0:0|0:0,0:0:0:0:
310,306,93633,6,0,B|246:329|246:329|156:299,2,155.999995239258,2|2|0,3:2|0:0|0:0,0:0:0:0:
213,134,94133,6,0,P|224:182|238:244,1,97.50000371933,2|0,3:2|0:0,0:0:0:0:
7,316,94466,2,0,P|32:239|82:296,1,155.999995239258,0|2,0:0|3:2,0:0:0:0:
316,127,94799,1,2,0:0:0:0:
103,48,94966,6,0,P|120:89|118:129,1,77.999997619629,2|0,0:0|0:0,0:0:0:0:
329,40,95133,2,0,P|312:81|316:129,1,90.9999972229005
217,230,95300,6,0,L|209:186,1,45.4999986114502,10|0,3:2|0:0,0:0:0:0:
209,186,95633,6,0,L|224:265,1,45.4999986114502,8|0,3:2|0:0,0:0:0:0:
209,186,95966,6,0,L|227:276,1,65,2|0,0:2|0:0,0:0:0:0:
303,87,96133,2,0,L|285:177,1,65,2|0,0:0|0:0,0:0:0:0:
381,10,96300,6,0,L|400:139,1,130,6|8,3:2|0:0,0:0:0:0:
337,325,96633,1,2,0:0:0:0:
220,173,96800,1,2,3:2:0:0:
482,242,96966,1,8,0:0:0:0:
469,233,97299,6,0,P|370:244|269:268,1,195,2|0,3:2|0:0,0:0:0:0:
80,346,97633,1,0,0:0:0:0:
211,220,97799,1,2,0:0:0:0:
71,367,97966,1,2,3:2:0:0:
129,129,98133,1,0,0:0:0:0:
0,275,98299,1,10,0:0:0:0:
239,336,98466,5,0,3:0:0:0:
283,348,98633,1,2,0:0:0:0:
327,358,98799,1,2,0:0:0:0:
419,273,98966,6,0,P|397:211|386:147,1,130,2|8,3:2|0:0,0:0:0:0:
465,12,99299,2,0,P|457:43|443:73,1,65,2|0,0:0|0:0,0:0:0:0:
306,161,99466,1,2,3:2:0:0:
291,163,99549,1,0,0:0:0:0:
277,166,99633,2,0,L|140:145,1,130,10|2,0:2|0:2,0:0:0:0:
0,327,99966,6,0,L|137:306,1,130,2|8,3:2|0:0,0:0:0:0:
258,92,100299,1,2,0:0:0:0:
87,230,100466,1,2,3:2:0:0:
389,351,100633,1,2,3:2:0:0:
27,349,100966,5,10,0:0:0:0:
383,253,101133,1,2,3:2:0:0:
131,277,101299,5,2,0:0:0:0:
322,351,101466,1,2,0:0:0:0:
487,236,101633,6,0,B|507:170|507:170|481:92,1,130,2|8,3:2|0:0,0:0:0:0:
394,0,101966,1,0,0:0:0:0:
348,209,102133,1,2,3:2:0:0:
493,96,102299,1,10,0:0:0:0:
480,78,102632,6,0,B|276:65,1,195,2|0,3:2|0:0,0:0:0:0:
271,61,102966,1,0,0:0:0:0:
316,229,103133,1,2,0:0:0:0:
258,57,103299,1,2,3:2:0:0:
214,285,103466,1,0,0:0:0:0:
363,154,103633,1,8,0:0:0:0:
106,223,103799,5,0,3:2:0:0:
92,217,103966,1,2,0:0:0:0:
80,212,104132,1,2,0:0:0:0:
431,45,104299,6,0,B|392:95|402:177,1,130,2|10,3:2|0:0,0:0:0:0:
390,178,104633,1,0,0:0:0:0:
81,45,104966,6,0,B|120:95|110:177,1,130,2|10,3:2|0:0,0:0:0:0:
122,178,105300,1,0,0:0:0:0:
53,322,105633,5,2,3:2:0:0:
342,353,105799,1,10,0:2:0:0:
19,233,105966,5,2,3:2:0:0:
342,216,106132,1,10,0:2:0:0:
15,123,106299,5,2,3:2:0:0:
356,74,106465,1,8,0:2:0:0:
69,338,106633,6,0,L|149:350,1,65,0|0,3:2|0:0,0:0:0:0:
9,214,106799,2,0,L|89:202,1,65,2|0,0:0|0:0,0:0:0:0:
233,77,106966,5,2,3:2:0:0:
240,66,107133,1,8,0:0:0:0:
240,66,109633,6,0,P|302:44|366:33,1,130,2|8,3:2|0:0,0:0:0:0:
501,147,109966,2,0,P|471:133|440:125,1,65,2|0,0:0|0:0,0:0:0:0:
349,205,110133,1,2,3:2:0:0:
347,220,110216,1,0,0:0:0:0:
344,234,110300,2,0,L|365:371,1,130,10|2,0:2|0:2,0:0:0:0:
212,187,110633,6,0,L|231:58,1,130,2|8,3:2|0:0,0:0:0:0:
128,173,110966,1,2,0:0:0:0:
274,257,111133,1,2,3:2:0:0:
223,45,111300,1,2,3:2:0:0:
235,35,111633,5,10,0:0:0:0:
152,257,111800,1,2,3:2:0:0:
155,25,111966,5,2,0:2:0:0:
235,319,112133,1,2,0:2:0:0:
342,173,112300,6,0,B|408:153|408:153|486:179,1,130,2|8,3:2|0:0,0:0:0:0:
406,326,112633,1,0,0:0:0:0:
335,193,112800,1,2,3:2:0:0:
510,275,112966,1,10,0:0:0:0:
500,286,113299,6,0,B|302:267,1,195,2|0,3:2|0:0,0:0:0:0:
289,263,113633,1,0,0:0:0:0:
107,279,113800,1,2,0:0:0:0:
237,171,113966,1,2,3:2:0:0:
202,359,114133,1,0,0:0:0:0:
115,152,114300,1,8,0:0:0:0:
295,55,114466,5,0,3:2:0:0:
315,38,114633,1,2,0:0:0:0:
289,32,114799,1,2,0:0:0:0:
134,162,114966,6,0,P|179:170|280:130,1,156,2|0,3:2|3:0,0:0:0:0:
455,224,115633,2,0,P|386:188|349:200,1,104,2|0,3:2|3:0,0:0:0:0:
301,247,116133,1,0,0:0:0:0:
371,333,116300,2,0,L|381:273,1,52,2|2,0:2|0:2,0:0:0:0:
268,163,116633,2,0,L|258:103,1,52,2|2,0:2|0:2,0:0:0:0:
178,241,116966,1,2,3:2:0:0:
512,92,117300,5,6,0:2:0:0:
4,197,117633,1,12,0:0:0:0:
