osu file format v14

[General]
AudioFilename: audio.mp3
AudioLeadIn: 0
PreviewTime: 95883
Countdown: 0
SampleSet: Soft
StackLeniency: 0.2
Mode: 0
LetterboxInBreaks: 0
WidescreenStoryboard: 1

[Editor]
Bookmarks: 10967,18966,20300,21633,29633,30966,32300,42966,53633,64300,65633,66966,72300,73633,74966,85633,90966,96300,106966,108300,109633,117633
DistanceSpacing: 1.8
BeatDivisor: 4
GridSize: 16
TimelineZoom: 3.199999

[Metadata]
Title:Juicy
TitleUnicode:Juicy
Artist:INSTASAMKA
ArtistUnicode:INSTASAMKA
Creator:M a r v o l l o
Version:SCHOOLBOY'S JUICE DELUGE
Source:
Tags:shmiklak marvollo m_a_r_v_o_l_l_o russian hip hop русский хип хоп пусси джуси моя жопа на тусе pussy daycore инстасамка moneydealer манидилер schoolboy komore 228 AYE1337 wajinshu froskya revialink announcerf fackel
BeatmapID:4134668
BeatmapSetID:1951437

[Difficulty]
HPDrainRate:6
CircleSize:3.8
OverallDifficulty:8
ApproachRate:9.3
SliderMultiplier:2.1
SliderTickRate:1

[Events]
//Background and Video events
0,0,"pusijusinatuse.jpg",0,0
//Break Periods
//Storyboard Layer 0 (Background)
//Storyboard Layer 1 (Fail)
//Storyboard Layer 2 (Pass)
//Storyboard Layer 3 (Foreground)
//Storyboard Layer 4 (Overlay)
//Storyboard Sound Samples

[TimingPoints]
9990,324.324324324324,4,2,1,90,1,0
10638,327.868852459016,4,2,1,90,1,0
10967,333.333333333333,4,2,1,90,1,0
12966,-66.6666666666667,4,2,1,90,0,0
15966,-399.999999999997,4,2,1,90,0,0
16883,-133.333333333333,4,2,1,90,0,0
17300,-66.6666666666667,4,2,1,90,0,0
21633,-100,4,2,1,90,0,0
22300,-81.3008130081301,4,2,1,90,0,0
22550,-100,4,2,1,90,0,0
23633,-66.6666666666667,4,2,1,90,0,0
27966,-100,4,2,1,90,0,0
28633,-59.1715976331361,4,2,1,90,0,0
29633,-133.333333333333,4,2,1,90,0,0
31966,-50,4,2,1,90,0,0
32300,-133.333333333333,4,2,2,70,0,0
32966,-181.818181818181,4,2,2,70,0,0
35966,-399.999999999997,4,2,2,70,0,0
36300,-66.6666666666667,4,2,2,70,0,0
36966,-100,4,2,2,70,0,0
37966,-133.333333333333,4,2,2,70,0,0
38300,-81.3008130081301,4,2,2,70,0,0
38633,-66.6666666666667,4,2,2,70,0,0
38966,-66.6666666666667,4,2,2,70,0,0
39633,-133.333333333333,4,2,2,70,0,0
39966,-399.999999999997,4,2,2,70,0,0
40300,-55.5555555555556,4,2,2,70,0,0
41300,-133.333333333333,4,2,2,70,0,0
41633,-81.3008130081301,4,2,2,70,0,0
42300,-125,4,2,2,70,0,0
42633,-153.846153846153,4,2,2,70,0,0
42966,-153.846153846153,4,2,1,80,0,0
46966,-81.3008130081301,4,2,1,80,0,0
48800,-181.818181818181,4,2,1,80,0,0
49633,-81.3008130081301,4,2,1,80,0,0
50133,-125,4,2,1,80,0,0
50466,-66.6666666666667,4,2,1,80,0,0
50966,-50,4,2,1,80,0,0
52133,-43.859649122807,4,2,1,80,0,0
52800,-31.055900621118,4,2,1,80,0,0
53300,-133.333333333333,4,2,1,80,0,0
53633,-100,4,2,1,90,0,0
55466,-66.6666666666667,4,2,1,90,0,0
55966,-81.3008130081301,4,2,1,90,0,0
57466,-181.818181818181,4,2,1,90,0,0
57633,-81.3008130081301,4,2,1,90,0,0
57800,-181.818181818181,4,2,1,90,0,0
57966,-81.3008130081301,4,2,1,90,0,0
58133,-181.818181818181,4,2,1,90,0,0
58300,-81.3008130081301,4,2,1,90,0,0
58966,-97.0873786407767,4,2,1,90,0,0
59633,-66.6666666666667,4,2,1,90,0,0
63966,-83.3333333333333,4,2,1,90,0,0
64133,-66.6666666666667,4,2,1,90,0,0
64300,-66.6666666666667,4,2,1,60,0,0
66966,-66.6666666666667,4,2,1,90,0,0
70633,-133.333333333333,4,2,1,90,0,0
70966,-81.3008130081301,4,2,1,90,0,0
72300,-222.222222222221,4,2,1,90,0,0
74466,-66.6666666666667,4,2,1,90,0,0
74966,-500,4,2,1,70,0,0
78133,-1000,4,2,1,70,0,0
78800,-250,4,2,1,70,0,0
78966,-500,4,2,1,70,0,0
79465,-1000,4,2,1,70,0,0
79966,-500,4,2,1,70,0,0
82634,-500,4,2,1,70,0,0
85633,-500,4,2,1,80,0,0
86633,-66.6666666666667,4,2,1,80,0,0
89633,-50,4,2,1,80,0,0
89966,-40,4,2,1,80,0,0
90300,-33.3333333333333,4,2,1,80,0,0
94383,-50,4,2,1,80,0,0
95300,-50,4,2,1,80,0,0
95966,-100,4,2,1,80,0,0
96300,-100,4,2,1,90,0,0
98281,-66.6666666666667,4,2,1,90,0,0
98630,-90.9090909090909,4,2,1,90,0,0
101633,-66.6666666666667,4,2,1,90,0,0
104966,-33.3333333333333,4,2,1,90,0,0
106621,-66.6666666666667,4,2,1,90,0,0
113300,-71.4285714285714,4,2,1,90,0,0
114966,-100,4,2,1,90,0,0
115466,-133.333333333333,4,2,1,90,0,0
116300,-100,4,2,1,90,0,0
116800,-133.333333333333,4,2,1,90,0,0
117300,-434.782608695652,4,2,1,90,0,0

[Colours]
Combo1 : 243,128,12
Combo2 : 185,17,21
Combo3 : 235,220,37
Combo4 : 230,13,51

[HitObjects]
134,282,9990,6,0,L|91:368,1,52.5,4|0,0:2|0:0,0:0:0:0:
134,282,10314,6,0,L|91:368,1,52.5,4|0,0:2|0:0,0:0:0:0:
19,131,10638,5,2,0:0:0:0:
0,15,10801,1,2,0:0:0:0:
62,63,10967,6,0,P|120:52|178:43,1,105,6|8,3:2|0:0,0:0:0:0:
222,100,11300,1,2,0:0:0:0:
153,144,11467,5,2,3:2:0:0:
266,34,11633,2,0,P|384:54|457:82,1,157.5,8|0,0:0|0:0,0:0:0:0:
483,114,11966,2,0,P|505:61|481:17,1,105,2|2,3:2|0:0,0:0:0:0:
326,205,12300,5,0,0:0:0:0:
349,282,12466,1,2,0:0:0:0:
454,240,12633,2,0,P|446:230|382:233,1,52.5,2|0,3:2|0:0,0:0:0:0:
230,384,12800,5,0,0:0:0:0:
300,347,12966,2,0,B|294:226|200:286|207:132,1,236.250009012223,10|0,0:0|0:0,0:0:0:0:
211,12,13300,5,2,0:0:0:0:
328,57,13466,1,2,0:0:0:0:
127,250,13633,5,2,3:2:0:0:
87,37,13800,1,8,0:0:0:0:
408,187,13966,5,2,0:0:0:0:
270,222,14133,1,2,3:2:0:0:
23,103,14300,5,10,0:2:0:0:
184,50,14466,1,2,0:2:0:0:
413,268,14633,5,2,3:2:0:0:
191,207,14800,1,8,0:0:0:0:
96,4,14966,5,2,0:0:0:0:
282,59,15133,1,2,3:2:0:0:
347,319,15300,5,2,3:2:0:0:
112,216,15466,1,2,0:0:0:0:
358,6,15633,5,10,0:0:0:0:
400,136,15800,1,2,3:2:0:0:
20,244,15966,6,0,P|24:222|36:182,1,52.5,2|2,0:0|3:2,0:0:0:0:
478,185,16466,1,8,0:0:0:0:
177,306,16633,1,0,0:0:0:0:
438,255,16800,5,2,3:2:0:0:
366,289,16966,2,0,P|270:265|233:260,1,118.125004506111,10|0,0:0|0:0,0:0:0:0:
185,222,17300,6,0,P|178:178|160:96,1,78.7500030040742,2|0,3:2|0:0,0:0:0:0:
107,101,17466,1,2,0:0:0:0:
12,162,17633,5,0,0:0:0:0:
12,162,17800,1,2,0:0:0:0:
30,81,17966,5,2,3:2:0:0:
249,353,18133,5,0,0:0:0:0:
177,384,18300,2,0,B|66:338|146:262|-25:240,1,236.250009012223,8|0,0:0|0:0,0:0:0:0:
1,326,18633,5,2,0:0:0:0:
56,384,18800,1,2,0:0:0:0:
129,167,18966,6,0,P|109:62|111:-20,1,157.500006008148,2|10,3:2|0:0,0:0:0:0:
136,176,19633,2,0,P|166:66|210:-2,1,157.500006008148,2|10,3:2|0:0,0:0:0:0:
255,67,19966,1,0,0:0:0:0:
255,67,20133,1,0,0:0:0:0:
407,197,20300,5,2,3:2:0:0:
455,352,20466,1,10,0:2:0:0:
96,283,20633,5,2,3:2:0:0:
45,362,20800,1,10,0:2:0:0:
414,95,20966,5,2,3:2:0:0:
502,247,21133,1,8,0:2:0:0:
23,138,21300,6,0,P|8:179|6:232,1,78.7500030040742,2|0,3:2|0:0,0:0:0:0:
70,37,21466,2,0,P|41:102|30:137,1,78.7500030040742,2|0,0:0|0:0,0:0:0:0:
139,209,21633,6,0,P|196:208|226:148,1,105,6|8,3:2|0:0,0:0:0:0:
261,106,21966,1,2,0:0:0:0:
425,311,22133,5,2,3:2:0:0:
476,382,22300,2,0,B|383:376|424:284|286:300,1,193.725002956009,8|0,0:0|0:0,0:0:0:0:
241,367,22633,2,0,P|213:323|233:256,1,105,2|2,3:2|0:0,0:0:0:0:
290,32,22966,5,0,0:0:0:0:
211,52,23133,1,2,0:0:0:0:
475,159,23300,2,0,P|490:126|470:96,1,52.5,2|0,3:2|0:0,0:0:0:0:
140,6,23466,5,0,0:0:0:0:
96,76,23633,2,0,B|120:209|205:122|225:258,1,236.250009012223,10|0,0:0|0:0,0:0:0:0:
133,365,23966,5,2,0:0:0:0:
68,300,24133,1,2,0:0:0:0:
489,289,24300,5,2,3:2:0:0:
356,336,24466,1,8,0:0:0:0:
260,63,24633,5,2,0:0:0:0:
420,127,24800,1,2,3:2:0:0:
251,75,24966,5,10,0:2:0:0:
415,141,25133,1,2,0:2:0:0:
91,214,25300,5,2,3:2:0:0:
44,18,25466,1,8,0:0:0:0:
296,198,25633,5,2,0:0:0:0:
11,263,25800,1,2,3:2:0:0:
152,9,25966,5,2,3:2:0:0:
328,59,26133,1,2,0:0:0:0:
221,343,26300,5,10,0:0:0:0:
141,318,26466,1,2,3:2:0:0:
458,212,26633,6,0,P|470:289|518:384,2,157.500006008148,2|2|2,0:0|0:0|3:2,0:0:0:0:
382,176,27050,2,0,P|404:140|453:134,1,78.7500030040742,0|8,0:0|0:0,0:0:0:0:
384,260,27300,5,0,0:0:0:0:
295,35,27466,1,2,3:2:0:0:
311,217,27633,2,0,P|280:338|230:392,1,157.500006008148,10|0,0:0|0:0,0:0:0:0:
26,327,27966,2,0,P|61:294|148:313,1,105,2|2,3:2|0:0,0:0:0:0:
173,345,28300,5,0,0:0:0:0:
102,378,28466,1,2,0:0:0:0:
256,276,28633,5,2,3:2:0:0:
184,245,28800,2,0,B|101:226|101:226|98:228|98:228|5:205,2,177.450003316898,0|10|0,0:0|0:0|3:2,0:0:0:0:
429,158,29300,1,2,0:0:0:0:
351,177,29466,1,2,0:0:0:0:
366,0,29633,6,0,P|413:5|439:54,1,78.7500030040742,2|0,3:2|0:0,0:0:0:0:
373,80,29966,1,0,0:0:0:0:
501,127,30133,6,0,P|457:141|413:170,1,78.7500030040742,2|2,3:2|3:2,0:0:0:0:
428,157,30633,2,0,P|409:214|398:261,1,78.7500030040742,0|0,3:0|0:0,0:0:0:0:
496,362,30966,6,0,P|472:310|434:306,1,78.7500030040742,2|2,0:2|0:2,0:0:0:0:
378,306,31300,1,2,0:2:0:0:
240,353,31466,6,0,P|191:362|132:375,1,78.7500030040742,2|2,0:2|3:2,0:0:0:0:
162,367,31966,6,0,B|157:316|94:269|94:269|117:275|117:275|81:221|-9:212|-9:212|38:249,1,315,2|0,0:2|0:0,0:0:0:0:
34,357,32300,6,0,P|47:359|66:271,1,118.125004506111,2|0,0:0|0:0,0:0:0:0:
13,77,32633,1,0,0:0:0:0:
13,77,32800,1,2,3:2:0:0:
8,226,32966,6,0,P|54:210|96:198,1,86.6250026435853,10|0,0:2|0:0,0:0:0:0:
171,179,33300,1,2,3:2:0:0:
278,154,33466,1,0,0:0:0:0:
390,361,33633,5,2,0:2:0:0:
281,337,33800,1,0,0:0:0:0:
494,191,33966,6,0,P|500:213|511:250,1,57.7500017623902,2|2,0:2|0:0,0:0:0:0:
404,62,34300,2,0,L|381:165,1,86.6250026435853,8|0,3:2|0:0,0:0:0:0:
497,179,34633,2,0,P|503:201|514:238,1,57.7500017623902,0|0,3:0|0:0,0:0:0:0:
301,230,34966,6,0,L|286:297,1,57.7500017623902,2|10,3:2|0:0,0:0:0:0:
370,274,35300,5,0,0:0:0:0:
217,242,35466,1,2,3:2:0:0:
363,358,35633,2,0,L|466:343,1,86.6250026435853,8|0,0:0|0:0,0:0:0:0:
436,380,35966,6,0,L|389:377,1,39.375,2|0,3:2|0:0,0:0:0:0:
413,367,36300,6,0,L|471:102,1,236.250009012223,2|0,0:0|0:0,0:0:0:0:
432,67,36633,1,2,0:2:0:0:
383,132,36800,1,2,0:2:0:0:
463,136,36966,6,0,P|366:82|274:63,1,157.5,8|0,3:2|0:0,0:0:0:0:
33,127,37300,2,0,L|1:140,1,26.25,0|0,3:2|0:0,0:0:0:0:
28,123,37466,2,0,L|-11:138,1,26.25
97,180,37633,6,0,P|140:169|168:115,1,105,2|8,0:0|0:0,0:0:0:0:
45,35,37966,2,0,P|82:47|100:86,1,78.7500030040742,0|2,0:0|3:2,0:0:0:0:
255,184,38300,6,0,P|263:149|281:92,1,64.5750009853363,10|0,0:2|0:0,0:0:0:0:
270,121,38466,2,0,P|278:86|296:29,1,64.5750009853363
472,202,38633,2,0,P|456:255|446:293,1,78.7500030040742,2|0,3:2|0:0,0:0:0:0:
454,285,38800,2,0,P|438:338|428:376,1,78.7500030040742
331,316,38966,6,0,B|361:214|395:102|395:102|430:79,1,236.250009012223,2|0,0:2|0:0,0:0:0:0:
461,40,39300,1,2,3:2:0:0:
480,116,39466,1,2,0:0:0:0:
262,248,39633,6,0,P|254:192|240:104,1,118.125004506111,8|0,3:2|0:0,0:0:0:0:
173,189,39966,6,0,P|174:203|177:222,1,26.25,0|2,3:0|0:3,0:0:0:0:
121,270,40216,1,0,0:0:0:0:
155,350,40300,6,0,B|292:355|260:227|414:258,1,283.499991348267,2|0,3:2|0:0,0:0:0:0:
474,301,40633,1,0,0:0:0:0:
435,370,40800,1,2,3:2:0:0:
325,323,40966,6,0,P|351:145|370:32,1,283.499991348267,8|0,0:0|0:0,0:0:0:0:
443,1,41300,2,0,P|442:30|361:31,1,118.125004506111,2|0,3:2|0:0,0:0:0:0:
390,145,41633,6,0,P|328:88|208:82,1,193.725002956009,2|0,0:0|0:0,0:0:0:0:
146,63,41966,2,0,P|149:38|194:10,1,64.5750009853363,2|0,0:2|0:0,0:0:0:0:
280,99,42133,6,0,P|234:76|199:84,1,64.5750009853363,2|0,0:2|0:0,0:0:0:0:
61,148,42300,2,0,P|16:68|43:5,1,126,8|0,3:2|0:0,0:0:0:0:
149,42,42633,6,0,P|130:71|90:68,1,68.2499968757631,2|2,3:2|0:0,0:0:0:0:
25,33,42966,5,2,3:2:0:0:
98,72,43133,1,10,0:0:0:0:
61,148,43300,1,0,0:0:0:0:
155,176,43466,1,2,3:2:0:0:
134,260,43633,1,8,0:0:0:0:
233,279,43800,1,0,0:0:0:0:
250,370,43966,1,2,3:2:0:0:
366,384,44133,1,2,0:0:0:0:
266,358,44300,1,2,0:0:0:0:
350,369,44466,1,0,0:0:0:0:
309,345,44633,1,2,3:2:0:0:
309,345,44800,1,2,0:0:0:0:
350,15,44966,1,8,3:2:0:0:
350,15,45133,1,0,0:0:0:0:
411,69,45300,5,2,3:2:0:0:
384,315,45466,1,2,0:0:0:0:
335,94,45633,5,2,3:2:0:0:
256,124,45800,1,10,0:0:0:0:
84,7,45966,1,0,0:0:0:0:
186,33,46133,1,2,3:2:0:0:
65,222,46300,1,8,0:0:0:0:
14,72,46466,1,0,0:0:0:0:
71,229,46633,1,2,3:2:0:0:
9,65,46800,1,10,0:0:0:0:
155,206,46966,6,0,P|199:219|282:263,1,129.150001970673,2|8,0:0|0:0,0:0:0:0:
353,227,47300,1,2,3:2:0:0:
353,227,47466,1,2,0:0:0:0:
342,313,47633,5,8,3:2:0:0:
256,50,47800,1,0,0:0:0:0:
443,151,47966,6,0,B|473:150|502:178|502:178|470:155|418:180,1,129.150001970673,2|2,3:2|0:0,0:0:0:0:
488,78,48300,6,0,P|426:93|352:122,1,129.150001970673,2|10,3:2|0:0,0:0:0:0:
20,230,48633,1,0,0:0:0:0:
310,186,48800,6,0,P|240:171|182:151,1,115.50000352478,2|0,3:2|0:0,0:0:0:0:
122,121,49300,1,2,3:2:0:0:
122,121,49467,1,2,0:0:0:0:
198,367,49633,6,0,P|256:360|271:290,1,129.150001970673,2|0,0:0|0:0,0:0:0:0:
86,47,49966,1,2,3:2:0:0:
347,264,50133,6,0,P|332:226|293:216,1,84,2|8,0:0|3:2,0:0:0:0:
293,216,50466,6,0,B|281:176|281:176|272:172|272:172|236:124,1,78.7500030040742
344,112,50633,2,0,B|361:73|361:73|368:71|367:71|404:22,1,78.7500030040742,2|0,3:2|0:0,0:0:0:0:
267,60,50800,2,0,B|256:40|256:40|248:35|248:35|216:-35,1,78.7500030040742,2|0,0:0|0:0,0:0:0:0:
173,137,50966,6,0,B|74:67|74:67|67:68|67:68|-54:3,2,210,2|10|0,3:2|0:0|0:0,0:0:0:0:
454,354,51466,2,0,B|458:346|472:338|472:338|502:156|502:156|391:301|391:301|391:318|390:346,1,420,2|0,3:2|0:0,0:0:0:0:
323,369,51883,1,0,0:0:0:0:
255,328,51966,6,0,B|233:278|233:278|221:187,1,105,2|0,3:2|0:0,0:0:0:0:
153,257,52133,2,0,B|113:199|113:199|93:105,1,119.699998538818,10|0,0:0|0:0,0:0:0:0:
175,353,52300,6,0,B|185:267|185:267|191:266|191:266|222:182|222:182|306:144,2,239.399997077637,2|8|2,0:0|0:0|3:2,0:0:0:0:
2,8,52800,2,0,B|57:18|57:18|68:32|68:32|90:24|90:24|349:137|349:137|501:359|501:359|499:362|499:362|523:407,1,676.200001031799,2|0,0:0|0:0,0:0:0:0:
429,383,53300,2,0,P|431:352|479:317,1,78.7500030040742,2|2,0:0|0:0,0:0:0:0:
463,320,53633,6,0,P|456:284|448:192,1,105,6|8,3:2|0:0,0:0:0:0:
425,0,53966,1,2,0:0:0:0:
364,71,54133,5,2,3:2:0:0:
512,28,54300,2,0,P|517:83|415:119,1,157.5,8|0,0:0|0:0,0:0:0:0:
364,71,54633,6,0,P|356:43|346:2,1,52.5,2|0,3:2|0:0,0:0:0:0:
274,46,54800,2,0,P|282:73|292:115,1,52.5,2|0,0:0|0:0,0:0:0:0:
352,158,54966,5,0,0:0:0:0:
128,314,55133,1,2,0:0:0:0:
217,272,55300,1,2,3:2:0:0:
34,154,55466,2,0,P|16:74|-4:-22,2,157.500006008148,0|10|0,0:0|0:0|3:0,0:0:0:0:
110,191,55966,6,0,P|122:154|70:106,1,64.5750009853363,2|0,0:0|0:0,0:0:0:0:
34,154,56133,1,2,0:0:0:0:
326,151,56300,6,0,L|234:151,1,64.5750009853363,2|0,3:2|0:0,0:0:0:0:
26,148,56466,1,8,0:0:0:0:
334,144,56633,6,0,L|374:54,1,64.5750009853363,2|0,0:0|0:0,0:0:0:0:
120,81,56800,1,2,3:2:0:0:
113,71,56966,6,0,L|94:-10,1,64.5750009853363,10|0,0:2|0:0,0:0:0:0:
232,246,57133,1,2,0:2:0:0:
148,277,57300,6,0,L|47:273,1,64.5750009853363,2|0,3:2|0:0,0:0:0:0:
395,287,57466,2,0,L|406:328,1,28.8750008811951,8|0,0:0|0:0,0:0:0:0:
153,250,57633,6,0,L|76:261,1,64.5750009853363,2|0,0:0|0:0,0:0:0:0:
411,282,57800,2,0,L|432:319,1,28.8750008811951,2|0,3:2|0:0,0:0:0:0:
50,65,57966,6,0,L|37:-17,1,64.5750009853363,2|0,3:2|0:0,0:0:0:0:
372,73,58133,2,0,L|406:96,1,28.8750008811951,2|0,0:0|0:0,0:0:0:0:
78,73,58300,6,0,L|58:-7,1,64.5750009853363,10|0,0:0|0:0,0:0:0:0:
400,56,58466,2,0,B|474:36|458:50|556:26,2,129.150001970673,2|2|2,3:2|0:0|0:0,0:0:0:0:
337,8,58883,1,0,0:0:0:0:
272,57,58966,6,0,P|237:94|255:168,1,108.149999092369,2|8,3:2|0:0,0:0:0:0:
481,291,59300,1,0,0:0:0:0:
465,206,59466,2,0,P|427:223|420:271,1,54.0749995461845,2|0,3:2|0:0,0:0:0:0:
241,366,59633,2,0,B|135:337|182:215|62:206,1,236.250009012223,10|0,0:0|0:0,0:0:0:0:
29,277,59966,6,0,B|15:302|15:302|30:323|28:350|28:350|37:327|68:316|68:316|64:271,1,157.500006008148,2|2,3:2|0:0,0:0:0:0:
79,208,60300,6,0,B|61:78|61:78|17:50,2,157.500006008148,0|2|2,0:0|0:0|3:2,0:0:0:0:
29,277,60800,1,0,0:0:0:0:
245,368,60966,2,0,B|321:334|321:334|325:255|325:255|419:206,1,236.250009012223,8|0,0:0|0:0,0:0:0:0:
462,272,61300,2,0,B|487:291|487:291|398:274,1,78.7500030040742,2|0,0:0|0:0,0:0:0:0:
337,156,61466,2,0,L|318:59,1,78.7500030040742,2|0,0:0|0:0,0:0:0:0:
385,24,61633,5,2,3:2:0:0:
385,24,61800,1,10,0:0:0:0:
0,128,62300,1,2,3:2:0:0:
0,128,62466,1,10,0:0:0:0:
409,66,62966,5,2,3:2:0:0:
127,24,63133,1,10,0:2:0:0:
388,172,63300,5,2,3:2:0:0:
145,201,63466,1,10,0:2:0:0:
347,332,63633,5,2,3:2:0:0:
195,296,63800,1,8,0:2:0:0:
250,384,63966,6,0,L|278:295,1,62.9999980773926,2|0,3:2|0:0,0:0:0:0:
260,18,64133,2,0,P|269:56|283:109,1,78.7500030040742,2|0,0:0|0:0,0:0:0:0:
59,342,64300,5,6,3:2:0:0:
0,323,64466,1,8,0:0:0:0:
22,35,66633,2,0,P|52:72|102:172,1,157.500006008148,2|0,0:0|0:0,0:0:0:0:
101,169,66966,5,2,3:2:0:0:
101,169,67133,1,8,0:0:0:0:
149,98,67300,1,2,0:0:0:0:
250,22,67466,1,2,3:2:0:0:
415,13,67633,1,10,0:2:0:0:
510,123,67800,1,2,0:2:0:0:
339,31,67966,1,2,3:2:0:0:
154,4,68133,1,8,0:0:0:0:
1,126,68300,1,2,0:0:0:0:
228,50,68466,1,2,3:2:0:0:
16,36,68633,1,2,3:2:0:0:
256,132,68800,1,2,0:0:0:0:
10,220,68966,1,10,0:0:0:0:
109,119,69133,5,2,3:2:0:0:
197,362,69300,2,0,B|207:294|130:338|137:273|137:273|158:303|183:304,1,157.500006008148,2|2,0:2|0:2,0:0:0:0:
197,362,69550,1,0,0:0:0:0:
197,362,69633,6,0,P|261:308|393:306,1,157.500006008148,2|8,3:2|0:0,0:0:0:0:
394,352,69966,1,0,0:0:0:0:
445,99,70133,5,2,3:2:0:0:
502,178,70300,2,0,B|443:173|405:230|405:230|409:163|345:117,1,236.250009012223,10|0,0:0|0:0,0:0:0:0:
477,23,70633,2,0,P|490:8|471:22,1,78.7500030040742,2|2,3:2|0:0,0:0:0:0:
304,209,70966,6,0,P|239:221|159:247,1,129.150001970673,0|2,0:0|0:0,0:0:0:0:
102,215,71300,1,2,3:2:0:0:
114,127,71466,6,0,P|158:144|211:162,1,64.5750009853363
42,378,71633,2,0,P|30:305|12:222,1,129.150001970673,8|0,0:0|3:2,0:0:0:0:
37,173,71966,1,2,0:0:0:0:
102,215,72133,1,2,0:0:0:0:
254,312,72300,6,0,P|236:354|181:363,1,94.499997116089,2|0,3:2|0:0,0:0:0:0:
258,294,72800,2,0,P|239:247|265:203,1,94.499997116089,0|0,3:0|0:0,0:0:0:0:
302,316,73300,2,0,P|326:325|336:354,1,47.2499985580445,0|0,3:0|0:0,0:0:0:0:
502,241,73633,6,0,P|474:258|455:257,2,47.2499985580445,2|2|2,0:2|0:2|0:2,0:0:0:0:
455,178,74133,1,2,0:2:0:0:
455,178,74300,1,2,0:2:0:0:
512,19,74633,6,0,B|506:14|506:14|309:50,1,157.500006008148,2|0,0:0|0:0,0:0:0:0:
35,80,74966,2,0,L|41:54,1,21,2|10,3:2|0:0,0:0:0:0:
105,22,75300,1,0,0:0:0:0:
28,239,75466,6,0,L|34:261,1,21,2|8,3:2|0:0,0:0:0:0:
103,290,75800,1,0,0:0:0:0:
141,358,75966,2,0,L|135:380,1,21,2|2,3:2|0:0,0:0:0:0:
503,79,76300,6,0,L|498:51,1,21,2|0,0:0|0:0,0:0:0:0:
29,121,76633,1,2,3:2:0:0:
426,37,76800,2,0,L|421:8,1,21,2|8,0:0|3:2,0:0:0:0:
238,208,77133,6,0,L|214:211,1,21,0|2,0:0|3:2,0:0:0:0:
512,384,77466,1,2,0:0:0:0:
189,91,77633,6,0,L|195:69,1,21,2|10,3:2|0:0,0:0:0:0:
245,357,77966,1,0,0:0:0:0:
121,43,78133,2,0,L|115:21,1,21,2|0,3:2|0:0,0:0:0:0:
52,84,78633,1,2,3:2:0:0:
52,84,78800,6,0,L|24:80,1,21,10|0,0:0|0:0,0:0:0:0:
29,159,78966,2,0,L|5:164,1,21,2|8,0:0|0:0,0:0:0:0:
91,207,79300,1,2,3:2:0:0:
31,256,79466,2,0,L|9:251,1,21,2|0,0:0|0:0,0:0:0:0:
512,198,79966,2,0,L|485:207,1,21,2|2,3:2|0:0,0:0:0:0:
27,48,80300,6,0,L|13:21,1,21,2|10,3:2|0:0,0:0:0:0:
256,192,80633,1,0,0:0:0:0:
485,48,80800,2,0,L|494:29,1,21,2|8,3:2|0:0,0:0:0:0:
191,147,81133,1,0,0:0:0:0:
235,82,81300,2,0,L|225:58,1,21,2|2,3:2|0:0,0:0:0:0:
463,334,81633,6,0,L|455:361,1,21,2|0,0:0|0:0,0:0:0:0:
411,279,81966,1,2,3:2:0:0:
458,218,82133,2,0,L|481:207,1,21,2|8,0:0|3:2,0:0:0:0:
21,384,82633,2,0,L|-3:376,1,21,2|2,3:2|0:0,0:0:0:0:
251,80,82966,6,0,L|241:55,1,21,2|10,3:2|0:0,0:0:0:0:
214,330,83300,1,0,0:0:0:0:
257,39,83466,2,0,L|252:63,1,21,2|8,3:2|0:0,0:0:0:0:
259,354,83800,1,0,0:0:0:0:
220,39,83966,1,2,3:2:0:0:
269,347,84133,1,10,0:2:0:0:
116,197,84300,6,0,L|106:225,1,21,2|8,0:0|0:2,0:0:0:0:
0,0,84633,1,2,3:2:0:0:
193,165,84800,2,0,L|188:143,1,21,2|0,0:0|0:0,0:0:0:0:
510,22,85300,2,0,L|485:33,1,21,2|2,0:0|0:0,0:0:0:0:
66,124,85633,5,2,3:2:0:0:
311,49,85800,1,10,0:0:0:0:
73,118,85966,1,0,0:0:0:0:
308,69,86133,1,2,3:2:0:0:
62,77,86300,1,8,0:0:0:0:
314,115,86466,1,0,0:0:0:0:
0,10,86633,6,0,P|22:85|37:162,1,157.500006008148,2|2,3:2|0:0,0:0:0:0:
37,162,86966,6,0,B|83:131|65:54|5:70|-2:113|33:133,1,157.500006008148,2|0,0:0|0:0,0:0:0:0:
0,230,87300,6,0,B|-12:238|-12:238|21:241|42:269|42:269|58:246|97:238|97:238|71:216,1,157.500006008148,2|2,3:2|0:0,0:0:0:0:
48,294,87633,6,0,B|58:311|74:324|74:324|57:342|55:364|55:364|47:339|24:325|24:325|37:312|49:271,1,157.500006008148,8|0,3:2|0:0,0:0:0:0:
162,160,87966,5,2,3:2:0:0:
314,35,88133,1,2,0:0:0:0:
466,202,88300,2,0,B|455:205|455:205|380:164|316:172,1,157.500006008148,2|10,3:2|0:0,0:0:0:0:
113,342,88633,5,0,0:0:0:0:
249,218,88800,1,2,3:2:0:0:
10,136,88966,2,0,B|47:133|76:174|76:174|67:131|99:102,1,157.500006008148,8|0,0:0|0:0,0:0:0:0:
238,130,89300,6,0,P|276:199|305:272,1,157.500006008148,2|10,3:2|0:2,0:0:0:0:
488,110,89633,6,0,P|375:52|254:-44,1,210,2|8,0:0|0:2,0:0:0:0:
86,331,89966,6,0,P|134:287|197:274,1,131.25,2|0,3:2|0:0,0:0:0:0:
277,309,90133,2,0,P|282:365|222:360,1,131.25,2|0,0:0|0:0,0:0:0:0:
197,274,90300,6,0,B|495:352|495:352|508:335,2,315.000012016297,8|0|2,3:2|0:0|3:2,0:0:0:0:
124,249,90800,1,2,0:0:0:0:
50,226,90966,5,2,3:2:0:0:
50,226,91133,1,2,0:0:0:0:
50,226,91300,1,0,0:0:0:0:
50,226,91466,1,2,3:2:0:0:
462,67,91800,6,0,B|526:27|526:27|406:84,1,157.500006008148
387,113,91966,1,2,3:2:0:0:
387,113,92133,1,2,0:0:0:0:
387,113,92300,1,2,0:0:0:0:
387,113,92466,1,0,0:0:0:0:
387,113,92633,1,2,3:2:0:0:
387,113,92800,1,2,0:0:0:0:
147,312,93133,6,0,B|162:325|184:320|184:320|178:333|220:359|220:359|176:333|135:355,1,157.500006008148
82,358,93300,1,2,3:2:0:0:
0,110,93466,1,2,0:0:0:0:
82,358,93633,1,2,3:2:0:0:
0,110,93800,1,2,0:0:0:0:
82,358,93967,1,0,0:0:0:0:
0,110,94133,1,2,3:2:0:0:
124,196,94466,6,0,B|150:161|192:179|192:179|154:176|124:230,1,105
63,248,94633,1,2,3:2:0:0:
458,316,94800,1,2,0:0:0:0:
63,248,94967,1,2,0:0:0:0:
458,316,95133,1,0,0:0:0:0:
63,248,95300,6,0,L|35:162,1,52.5,10|0,3:2|0:0,0:0:0:0:
63,248,95633,2,0,L|35:162,1,52.5,8|0,3:2|0:0,0:0:0:0:
466,24,95966,5,2,0:2:0:0:
466,24,96133,1,2,0:0:0:0:
402,68,96300,6,0,P|349:51|262:31,1,105,6|8,3:2|0:0,0:0:0:0:
143,60,96633,1,2,0:0:0:0:
220,21,96800,5,2,3:2:0:0:
306,310,96966,2,0,P|316:238|302:124,1,157.5,8|0,0:0|0:0,0:0:0:0:
234,105,97300,2,0,P|221:130|234:206,1,105,2|2,3:2|0:0,0:0:0:0:
442,328,97633,5,0,0:0:0:0:
420,247,97800,1,2,0:0:0:0:
141,373,97966,2,0,P|181:363|226:352,1,52.5,2|0,3:2|0:0,0:0:0:0:
273,339,98133,5,0,0:0:0:0:
27,188,98300,2,0,P|203:231|236:308,1,236.250009012223,10|0,0:0|0:0,0:0:0:0:
299,226,98633,2,0,L|269:351,1,115.50000352478,2|2,0:0|0:0,0:0:0:0:
74,78,98966,5,2,3:2:0:0:
166,63,99133,1,8,0:0:0:0:
489,260,99300,6,0,L|455:147,1,115.50000352478,2|2,0:0|3:2,0:0:0:0:
37,384,99633,2,0,L|3:273,1,115.50000352478,10|2,0:2|0:2,0:0:0:0:
395,284,99966,5,2,3:2:0:0:
368,371,100133,1,8,0:0:0:0:
115,96,100300,5,2,0:0:0:0:
78,12,100466,1,2,3:2:0:0:
409,171,100633,5,2,3:2:0:0:
483,207,100800,1,2,0:0:0:0:
96,275,100966,5,10,0:0:0:0:
3,322,101133,1,2,3:2:0:0:
256,255,101300,6,0,L|257:166,1,57.7500017623902,2|0,0:0|0:0,0:0:0:0:
256,110,101466,2,0,L|255:199,1,57.7500017623902,2|0,0:0|0:0,0:0:0:0:
314,310,101633,6,0,P|386:329|450:390,2,157.500006008148,2|8|0,3:2|0:0|0:0,0:0:0:0:
269,377,102133,1,2,3:2:0:0:
189,341,102300,1,10,0:0:0:0:
9,4,102633,1,2,3:2:0:0:
50,79,102800,1,2,0:0:0:0:
226,83,102966,6,0,P|138:43|87:-17,2,157.500006008148,0|2|2,0:0|0:0|3:2,0:0:0:0:
309,80,103466,1,0,0:0:0:0:
500,17,103633,1,8,0:0:0:0:
419,128,103800,5,0,3:2:0:0:
238,367,103966,5,2,0:0:0:0:
33,130,104133,5,2,0:0:0:0:
117,171,104300,5,2,3:2:0:0:
11,380,104466,1,10,0:0:0:0:
238,240,104966,6,0,P|257:245|258:288,2,52.5000020027161,2|0|0,3:2|0:0|0:0,0:0:0:0:
164,267,105133,1,10,0:0:0:0:
352,62,105633,6,0,P|339:36|353:-8,2,52.5000020027161,2|0|0,3:2|0:0|0:0,0:0:0:0:
453,100,105800,1,10,0:2:0:0:
235,44,105966,5,2,3:2:0:0:
399,276,106133,1,10,0:2:0:0:
124,32,106300,5,2,3:2:0:0:
189,349,106467,1,8,0:2:0:0:
30,226,106633,6,0,P|12:207|11:136,1,78.7500030040742,0|0,3:2|0:0,0:0:0:0:
106,198,106800,2,0,P|102:159|78:128,1,78.7500030040742,2|0,0:0|0:0,0:0:0:0:
11,72,106966,5,2,3:2:0:0:
309,129,107133,1,8,0:0:0:0:
0,371,109300,2,0,B|-25:359|-19:296|29:297|29:297|8:316|7:368,1,157.500006008148,2|2,0:0|0:0,0:0:0:0:
94,365,109633,5,2,3:2:0:0:
94,365,109800,1,8,0:0:0:0:
181,364,109966,5,2,0:0:0:0:
181,364,110133,1,2,3:2:0:0:
172,35,110300,1,10,0:2:0:0:
172,35,110466,1,2,0:2:0:0:
259,32,110633,5,2,3:2:0:0:
259,32,110800,1,8,0:0:0:0:
275,372,110966,1,2,0:0:0:0:
275,372,111133,1,2,3:2:0:0:
364,371,111300,5,2,3:2:0:0:
364,371,111466,1,2,0:0:0:0:
348,34,111633,1,10,0:0:0:0:
348,34,111800,1,2,3:2:0:0:
434,28,111966,5,2,0:2:0:0:
434,28,112133,1,2,0:2:0:0:
434,28,112300,6,0,P|398:160|358:185,1,157.500006008148,2|8,3:2|0:0,0:0:0:0:
305,147,112633,1,0,0:0:0:0:
467,209,112800,5,2,3:2:0:0:
347,339,112966,2,0,B|237:289|332:188|205:135,1,236.250009012223,10|0,0:0|0:0,0:0:0:0:
148,126,113300,2,0,B|130:157|94:173|94:173|137:168|167:207,1,146.999995513916,2|2,3:2|0:0,0:0:0:0:
212,63,113633,5,0,0:0:0:0:
212,63,113800,1,2,0:0:0:0:
177,355,113966,5,2,3:2:0:0:
132,32,114133,1,0,0:0:0:0:
99,373,114300,2,0,B|71:339|29:333|29:333|51:273|85:270|85:270|77:315|101:337,1,220.499993270874,8|0,0:0|0:0,0:0:0:0:
177,355,114633,5,2,0:0:0:0:
177,355,114800,1,2,0:0:0:0:
177,355,114966,6,0,P|253:335|292:327,2,105,2|0|0,3:2|0:0|0:0,0:0:0:0:
274,245,115466,2,0,P|312:244|337:273,2,78.7500030040742,0|2|0,3:0|3:2|0:0,0:0:0:0:
187,197,115966,6,0,P|182:155|154:99,1,78.7500030040742,0|0,3:0|0:0,0:0:0:0:
216,51,116300,6,0,P|251:34|221:57,2,105,2|2|2,0:2|0:2|0:2,0:0:0:0:
169,121,116800,2,0,P|128:104|77:93,2,78.7500030040742,2|2|0,0:2|3:2|0:2,0:0:0:0:
469,174,117300,6,0,L|481:217,1,36.2249987839508,6|0,0:2|0:0,0:0:0:0:
35,236,117633,6,0,L|44:188,1,48.2999983786011,12|0,0:0|0:0,0:0:0:0:
