osu file format v14

[General]
AudioFilename: audio.mp3
AudioLeadIn: 0
PreviewTime: 95883
Countdown: 0
SampleSet: Soft
StackLeniency: 0.7
Mode: 0
LetterboxInBreaks: 0
WidescreenStoryboard: 1

[Editor]
Bookmarks: 10967,21633,32300,42966,53633,64300,74966,85633,96300,112300,114967,117633
DistanceSpacing: 0.2
BeatDivisor: 4
GridSize: 16
TimelineZoom: 1.8

[Metadata]
Title:Juicy
TitleUnicode:Juicy
Artist:INSTASAMKA
ArtistUnicode:INSTASAMKA
Creator:M a r v o l l o
Version:EXPENSIVE COLLAB HARD
Source:
Tags:shmiklak marvollo m_a_r_v_o_l_l_o russian hip hop русский хип хоп пусси джуси моя жопа на тусе pussy daycore инстасамка moneydealer манидилер schoolboy komore 228 AYE1337 wajinshu froskya revialink announcerf fackel
BeatmapID:4217143
BeatmapSetID:1951437

[Difficulty]
HPDrainRate:5
CircleSize:4
OverallDifficulty:7
ApproachRate:8
SliderMultiplier:0.999999999999999
SliderTickRate:1

[Events]
//Background and Video events
0,0,"pusijusinatuse.jpg",0,0
//Break Periods
//Storyboard Layer 0 (Background)
//Storyboard Layer 1 (Fail)
//Storyboard Layer 2 (Pass)
//Storyboard Layer 3 (Foreground)
//Storyboard Layer 4 (Overlay)
//Storyboard Sound Samples

[TimingPoints]
9990,324.324324324324,4,2,1,90,1,0
10638,327.868852459016,4,2,1,90,1,0
10967,333.333333333333,4,2,1,90,1,0
10967,-83.3333333333333,4,2,1,90,0,0
29633,-100,4,2,1,90,0,0
32300,-111.111111111111,4,2,2,70,0,0
42967,-99.9999999999999,4,2,1,80,0,0
50467,-90.9090909090909,4,2,1,80,0,0
53300,-90.9090909090909,4,2,1,80,0,0
53633,-83.3333333333333,4,2,1,90,0,0
64300,-83.3333333333333,4,2,1,60,0,0
66966,-83.3333333333333,4,2,1,90,0,0
72300,-111.111111111111,4,2,1,90,0,0
74967,-99.9999999999999,4,2,1,70,0,0
85633,-95.2380952380952,4,2,1,80,0,0
90967,-111.111111111111,4,2,1,80,0,0
93133,-100,4,2,1,80,0,0
94467,-90.9090909090909,4,2,1,80,0,0
96300,-83.3333333333333,4,2,1,90,0,0
114967,-100,4,2,1,90,0,0

[Colours]
Combo1 : 243,128,12
Combo2 : 185,17,21
Combo3 : 235,220,37
Combo4 : 230,13,51

[HitObjects]
188,98,9990,5,4,0:2:0:0:
101,194,10314,1,4,0:2:0:0:
2,116,10638,5,2,0:0:0:0:
2,116,10801,1,2,0:0:0:0:
22,34,10967,2,0,P|87:52|119:60,1,59.9999981689454,6|8,3:2|0:0,0:0:0:0:
131,116,11300,2,0,P|159:108|188:99,1,59.9999981689454,2|2,0:0|3:2,0:0:0:0:
236,30,11633,2,0,P|309:41|316:114,1,119.999996337891,8|2,0:0|3:2,0:0:0:0:
377,143,12133,1,2,0:0:0:0:
330,213,12300,2,0,P|284:198|241:191,2,59.9999981689454,0|2|2,0:0|0:0|3:2,0:0:0:0:
361,296,12800,1,0,0:0:0:0:
361,296,12967,1,10,0:0:0:0:
207,357,13300,5,2,0:0:0:0:
207,357,13467,1,2,0:0:0:0:
146,300,13633,1,2,3:2:0:0:
146,300,13800,1,8,0:0:0:0:
176,216,13967,2,0,P|214:207|265:194,1,59.9999981689454,2|2,0:0|3:2,0:0:0:0:
215,119,14300,2,0,P|253:110|304:97,1,59.9999981689454,10|2,0:2|0:2,0:0:0:0:
358,87,14633,1,2,3:2:0:0:
358,87,14800,1,8,0:0:0:0:
379,172,14966,1,2,0:0:0:0:
379,172,15133,1,2,3:2:0:0:
461,154,15300,2,0,P|470:192|483:243,1,59.9999981689454,2|2,3:2|0:0,0:0:0:0:
406,261,15633,2,0,P|415:299|428:350,1,59.9999981689454,10|2,0:0|3:2,0:0:0:0:
339,344,15966,1,2,0:0:0:0:
256,200,16300,6,0,P|258:229|244:255,1,59.9999981689454,2|8,3:2|0:0,0:0:0:0:
161,240,16633,2,0,P|158:210|172:184,1,59.9999981689454,0|2,0:0|3:2,0:0:0:0:
229,121,16967,2,0,L|253:-13,1,119.999996337891,10|2,0:0|3:2,0:0:0:0:
333,12,17467,1,2,0:0:0:0:
353,93,17633,2,0,L|411:81,2,59.9999981689454,0|2|2,0:0|0:0|3:2,0:0:0:0:
313,169,18133,1,0,0:0:0:0:
313,169,18300,1,8,0:0:0:0:
149,129,18633,6,0,L|90:117,1,59.9999981689454,2|2,0:0|0:0,0:0:0:0:
73,200,18967,2,0,L|131:211,1,59.9999981689454,2|10,3:2|0:0,0:0:0:0:
73,200,19633,6,0,L|131:211,1,59.9999981689454,2|10,3:2|0:0,0:0:0:0:
73,200,20300,6,0,L|131:211,1,59.9999981689454,2|10,3:2|0:2,0:0:0:0:
215,221,20633,2,0,L|227:279,1,59.9999981689454,2|10,3:2|0:2,0:0:0:0:
241,363,20967,2,0,L|299:352,1,59.9999981689454,2|8,3:2|0:2,0:0:0:0:
385,333,21300,1,2,3:2:0:0:
385,333,21467,1,2,0:0:0:0:
457,374,21633,6,0,B|508:362|465:274,1,59.9999981689454,6|8,3:2|0:0,0:0:0:0:
476,243,21967,2,0,B|406:264,1,59.9999981689454,2|2,0:0|3:2,0:0:0:0:
334,264,22300,2,0,B|275:247|253:168|340:157,1,119.999996337891,8|2,0:0|3:2,0:0:0:0:
374,141,22800,1,2,0:0:0:0:
452,172,22967,1,0,0:0:0:0:
452,172,23133,1,2,0:0:0:0:
497,100,23300,2,0,P|488:66|486:31,1,59.9999981689454,2|0,3:2|0:0,0:0:0:0:
403,26,23633,6,0,B|387:62|387:62|343:51,1,59.9999981689454,10|0,0:0|3:0,0:0:0:0:
288,24,23967,2,0,B|268:19|268:19|252:55,1,59.9999981689454,2|2,0:0|0:0,0:0:0:0:
288,130,24300,2,0,L|353:159,1,59.9999981689454,2|8,3:2|0:0,0:0:0:0:
372,233,24633,1,2,0:0:0:0:
372,233,24800,1,2,3:2:0:0:
300,277,24967,1,10,0:2:0:0:
300,277,25133,1,2,0:2:0:0:
308,360,25300,6,0,P|279:372|229:366,1,59.9999981689454,2|8,3:2|0:0,0:0:0:0:
169,352,25633,2,0,P|144:332|124:286,1,59.9999981689454,2|2,0:0|3:2,0:0:0:0:
122,224,25967,2,0,L|193:232,1,59.9999981689454,2|2,3:2|0:0,0:0:0:0:
249,181,26300,2,0,L|311:187,1,59.9999981689454,10|2,0:0|3:2,0:0:0:0:
373,240,26633,5,2,0:0:0:0:
370,71,26967,2,0,P|348:52|306:46,1,59.9999981689454,2|8,3:2|0:0,0:0:0:0:
239,15,27300,2,0,P|217:34|175:40,1,59.9999981689454,0|2,0:0|3:2,0:0:0:0:
109,10,27633,2,0,B|136:79|135:104|67:111,1,119.999996337891,10|2,0:0|3:2,0:0:0:0:
6,95,28133,1,2,0:0:0:0:
6,95,28300,2,0,L|18:167,1,59.9999981689454,0|2,0:0|0:0,0:0:0:0:
47,232,28633,1,2,3:2:0:0:
118,188,28800,1,0,0:0:0:0:
118,188,28967,2,0,L|190:203,1,59.9999981689454,10|0,0:0|3:2,0:0:0:0:
221,271,29300,2,0,L|285:240,1,59.9999981689454,2|2,0:0|0:0,0:0:0:0:
359,248,29633,6,0,L|365:84,2,150,2|2|0,3:2|3:2|3:0,0:0:0:0:
136,355,31633,5,2,3:2:0:0:
229,229,31967,1,2,0:2:0:0:
303,330,32300,6,0,P|360:341|410:358,1,89.9999972534181,2|0,0:0|0:0,0:0:0:0:
442,298,32800,1,2,3:2:0:0:
442,298,32967,2,0,P|411:248|453:214,1,89.9999972534181,10|2,0:2|3:2,0:0:0:0:
483,182,33467,1,0,0:0:0:0:
483,182,33633,2,0,P|473:161|467:140,1,44.999998626709,2|0,0:2|0:0,0:0:0:0:
397,112,33967,2,0,P|406:91|412:70,1,44.999998626709,2|2,0:2|0:0,0:0:0:0:
362,15,34300,2,0,B|306:27|327:50|259:64,1,89.9999972534181,8|0,3:2|3:0,0:0:0:0:
167,7,34967,6,0,B|205:35|205:35|191:59|173:154,1,134.999995880127,2|2,3:2|3:2,0:0:0:0:
117,158,35633,2,0,P|134:203|143:259,1,89.9999972534181,8|2,0:0|3:2,0:0:0:0:
232,331,36300,1,2,0:0:0:0:
330,252,36633,1,2,0:2:0:0:
402,269,36800,1,2,0:2:0:0:
440,205,36967,2,0,P|423:160|414:104,1,89.9999972534181,8|0,3:2|3:2,0:0:0:0:
370,66,37467,5,0,0:0:0:0:
370,66,37633,2,0,L|326:77,1,44.999998626709,2|8,0:0|0:0,0:0:0:0:
274,22,37967,2,0,L|230:33,1,44.999998626709,0|2,0:0|3:2,0:0:0:0:
185,92,38300,2,0,L|196:136,1,44.999998626709,10|0,0:2|0:0,0:0:0:0:
259,174,38634,2,0,L|248:218,1,44.999998626709,2|0,3:2|0:0,0:0:0:0:
226,288,38967,2,0,P|182:284|147:317,1,89.9999972534181,2|2,0:2|3:2,0:0:0:0:
80,334,39467,1,2,0:0:0:0:
80,334,39633,2,0,P|65:279|49:225,1,89.9999972534181,8|0,3:2|3:0,0:0:0:0:
17,127,40300,6,0,B|56:134|56:134|61:145|61:145|105:154,1,89.9999972534181,2|0,3:2|0:0,0:0:0:0:
158,108,40800,1,2,3:2:0:0:
158,108,40967,2,0,P|201:111|235:83,1,89.9999972534181,8|2,0:0|3:2,0:0:0:0:
347,26,41633,6,0,B|340:65|340:65|329:70|329:70|320:114,1,89.9999972534181,2|2,0:0|0:2,0:0:0:0:
303,182,42133,1,2,0:2:0:0:
303,182,42300,2,0,P|346:185|380:157,1,89.9999972534181,8|2,3:2|3:2,0:0:0:0:
498,273,42967,6,0,L|440:262,1,50,2|10,3:2|0:0,0:0:0:0:
407,323,43300,2,0,L|349:312,1,50,0|2,0:0|3:2,0:0:0:0:
297,354,43633,1,8,0:0:0:0:
202,242,43967,6,0,L|139:258,1,50,2|2,3:2|0:0,0:0:0:0:
120,319,44300,2,0,L|54:297,1,50,2|0,0:0|0:0,0:0:0:0:
17,351,44633,1,2,3:2:0:0:
45,207,44967,2,0,P|34:141|32:96,1,100,8|2,3:2|3:2,0:0:0:0:
57,39,45467,1,2,0:0:0:0:
126,17,45633,6,0,L|155:92,1,50,2|10,3:2|0:0,0:0:0:0:
153,136,45967,2,0,L|216:109,1,50,0|2,0:0|3:2,0:0:0:0:
263,151,46300,2,0,P|281:157|390:183,1,100,8|2,0:0|3:2,0:0:0:0:
426,205,46800,1,10,0:0:0:0:
464,143,46967,2,0,P|485:160|498:197,1,50,2|8,0:0|0:0,0:0:0:0:
481,252,47300,1,2,3:2:0:0:
401,380,47633,5,8,3:2:0:0:
269,316,47967,5,2,3:2:0:0:
269,316,48133,1,2,0:0:0:0:
202,346,48300,2,0,L|141:301,1,50,2|10,3:2|0:0,0:0:0:0:
95,284,48633,1,0,0:0:0:0:
125,217,48800,2,0,L|153:145,1,50,2|8,3:2|0:0,0:0:0:0:
31,75,49300,5,2,3:2:0:0:
31,75,49467,1,2,0:0:0:0:
92,36,49633,2,0,L|156:80,1,50,2|0,0:0|0:0,0:0:0:0:
193,107,49967,1,2,3:2:0:0:
311,191,50300,1,8,3:2:0:0:
328,42,50633,5,2,3:2:0:0:
328,42,50800,1,2,0:0:0:0:
343,120,50967,2,0,B|370:135|370:135|386:171,1,55.0000016784668,2|10,3:2|0:0,0:0:0:0:
451,192,51300,1,0,0:0:0:0:
417,265,51467,2,0,B|411:282|411:282|397:347,1,55.0000016784668,2|8,3:2|0:0,0:0:0:0:
250,369,51967,5,2,3:2:0:0:
250,369,52133,1,10,0:0:0:0:
222,293,52300,2,0,B|241:257|241:257|250:226,1,55.0000016784668,2|8,0:0|0:0,0:0:0:0:
306,191,52633,2,0,B|290:174|290:174|254:131,1,55.0000016784668,2|2,3:2|0:0,0:0:0:0:
294,72,52967,2,0,B|264:32|191:48|224:102|233:73,1,110.000003356934,2|2,0:0|0:0,0:0:0:0:
117,196,53633,6,0,P|97:125|99:94,1,59.9999981689454,6|8,3:2|0:0,0:0:0:0:
41,75,53967,2,0,L|121:54,1,59.9999981689454,2|2,0:0|3:2,0:0:0:0:
164,19,54300,2,0,B|217:18|211:18|241:59|248:60|299:57,1,119.999996337891,8|2,0:0|3:2,0:0:0:0:
351,25,54800,1,2,0:0:0:0:
421,71,54967,2,0,L|403:149,1,59.9999981689454,0|2,0:0|0:0,0:0:0:0:
452,200,55300,2,0,L|380:218,1,59.9999981689454,2|0,3:2|0:0,0:0:0:0:
331,271,55633,2,0,B|257:257|259:232|228:307,2,119.999996337891,10|2|2,0:0|0:0|3:2,0:0:0:0:
449,373,56633,6,0,L|507:359,1,59.9999981689454,2|2,0:0|3:2,0:0:0:0:
491,282,56967,2,0,L|432:295,1,59.9999981689454,10|2,0:2|0:2,0:0:0:0:
366,347,57300,1,2,3:2:0:0:
366,347,57467,1,8,0:0:0:0:
297,298,57633,1,2,0:0:0:0:
297,298,57800,1,2,3:2:0:0:
225,343,57967,2,0,P|201:336|181:300,1,59.9999981689454,2|2,3:2|0:0,0:0:0:0:
112,259,58300,2,0,P|138:204|174:196,1,59.9999981689454,10|2,0:0|3:2,0:0:0:0:
217,218,58633,1,2,0:0:0:0:
300,71,58967,6,0,L|294:4,1,59.9999981689454,2|8,3:2|0:0,0:0:0:0:
378,11,59300,2,0,L|384:78,1,59.9999981689454,0|2,0:0|3:2,0:0:0:0:
347,146,59633,2,0,B|272:172|309:170|220:120,1,119.999996337891,10|2,0:0|3:2,0:0:0:0:
197,57,60133,1,2,0:0:0:0:
117,85,60300,2,0,P|92:102|70:136,1,59.9999981689454,0|2,0:0|0:0,0:0:0:0:
5,173,60633,2,0,P|7:203|25:239,1,59.9999981689454,2|0,3:2|0:0,0:0:0:0:
98,258,60967,1,8,0:0:0:0:
98,258,61133,1,0,3:2:0:0:
54,329,61300,2,0,L|135:338,1,59.9999981689454,2|2,0:0|0:0,0:0:0:0:
195,314,61633,5,2,3:2:0:0:
195,314,61800,1,10,0:0:0:0:
400,263,62300,1,2,3:2:0:0:
400,263,62467,1,10,0:0:0:0:
297,112,62967,2,0,L|219:119,1,59.9999981689454,2|10,3:2|0:2,0:0:0:0:
201,193,63300,2,0,L|279:200,1,59.9999981689454,2|10,3:2|0:2,0:0:0:0:
305,269,63633,2,0,L|227:276,1,59.9999981689454,2|8,3:2|0:2,0:0:0:0:
173,319,63967,1,2,3:2:0:0:
173,319,64133,1,2,0:0:0:0:
100,275,64300,6,0,B|92:275|84:280|84:280|90:248|69:222,1,59.9999981689454,6|8,3:2|0:0,0:0:0:0:
12,46,66633,5,2,0:0:0:0:
12,46,66800,1,0,0:0:0:0:
89,13,66967,2,0,P|106:62|118:88,1,59.9999981689454,2|8,3:2|0:0,0:0:0:0:
103,153,67300,2,0,L|192:120,1,59.9999981689454,2|2,0:0|3:2,0:0:0:0:
225,80,67633,6,0,B|294:73|265:121|342:108,1,119.999996337891,10|2,0:2|3:2,0:0:0:0:
399,52,68133,1,8,0:0:0:0:
476,96,68300,1,2,0:0:0:0:
476,96,68467,1,2,3:2:0:0:
415,153,68633,1,2,3:2:0:0:
284,259,68967,2,0,L|266:180,1,59.9999981689454,10|2,0:0|3:2,0:0:0:0:
204,250,69300,5,2,0:2:0:0:
204,250,69467,1,2,0:2:0:0:
165,175,69633,2,0,L|120:220,1,59.9999981689454,2|8,3:2|0:0,0:0:0:0:
45,253,69967,1,0,0:0:0:0:
113,300,70133,1,2,3:2:0:0:
64,368,70300,1,10,0:0:0:0:
228,332,70633,6,0,P|244:341|314:362,1,59.9999981689454,2|2,3:2|0:0,0:0:0:0:
359,320,70967,2,0,B|433:296|433:296|446:312|471:317,1,119.999996337891,0|2,0:0|3:2,0:0:0:0:
493,236,71467,1,0,0:0:0:0:
415,219,71633,1,8,0:0:0:0:
415,219,71800,1,0,3:2:0:0:
469,155,71967,6,0,P|483:128|449:101,1,59.9999981689454,2|2,0:0|0:0,0:0:0:0:
500,35,72300,2,0,B|471:27|471:27|381:15,1,89.9999972534181,2|0,3:2|0:0,0:0:0:0:
369,46,72800,2,0,B|363:75|363:75|367:110|367:110|359:150,1,89.9999972534181,0|0,3:0|0:0,0:0:0:0:
345,181,73300,2,0,B|312:174|272:175|272:175|218:119|231:32|298:8,1,269.999991760254,0|2,3:0|0:2,0:0:0:0:
413,49,74633,5,2,0:0:0:0:
413,49,74967,6,0,B|443:87|443:87|429:115|448:170,1,100,2|0,3:2|0:0,0:0:0:0:
483,191,75467,2,0,L|462:253,1,50,2|8,3:2|0:0,0:0:0:0:
466,312,75800,1,0,0:0:0:0:
466,312,75967,2,0,L|393:334,1,50,2|2,3:2|0:0,0:0:0:0:
358,361,76300,2,0,B|317:356|317:356|298:324|236:319,1,100,2|2,0:0|3:2,0:0:0:0:
201,342,76800,1,2,0:0:0:0:
201,342,76967,1,8,3:2:0:0:
158,276,77133,6,0,L|93:296,2,50,0|2|2,0:0|3:2|0:0,0:0:0:0:
210,229,77633,2,0,B|248:198|248:198|225:122,1,100,2|0,3:2|0:0,0:0:0:0:
178,98,78133,2,0,L|106:108,1,50,2|8,3:2|0:0,0:0:0:0:
21,15,78633,5,2,3:2:0:0:
95,25,78800,1,10,0:0:0:0:
95,25,78967,2,0,B|140:23|140:23|144:29|144:29|202:27,1,100,2|2,0:0|3:2,0:0:0:0:
252,71,79467,2,0,L|302:44,1,50,2|8,0:0|3:2,0:0:0:0:
449,8,79967,6,0,L|430:74,1,50,2|2,3:2|0:0,0:0:0:0:
453,133,80300,2,0,L|498:112,2,50,2|10|0,3:2|0:0|0:0,0:0:0:0:
411,195,80800,2,0,L|329:181,1,50,2|8,3:2|0:0,0:0:0:0:
298,155,81133,1,0,0:0:0:0:
298,155,81300,2,0,L|194:203,1,100,2|2,3:2|0:0,0:0:0:0:
58,174,81967,1,2,3:2:0:0:
58,174,82133,2,0,L|77:242,1,50,2|8,0:0|3:2,0:0:0:0:
133,359,82633,6,0,B|157:347|157:347|186:353,1,50,2|2,3:2|0:0,0:0:0:0:
249,380,82967,2,0,L|268:304,1,50,2|10,3:2|0:0,0:0:0:0:
252,256,83300,2,0,L|236:189,2,50,0|2|8,0:0|3:2|0:0,0:0:0:0:
330,254,83800,1,0,0:0:0:0:
330,254,83967,2,0,L|382:229,1,50,2|10,3:2|0:2,0:0:0:0:
446,254,84300,2,0,L|465:139,1,100,2|2,0:0|3:2,0:0:0:0:
397,108,84800,1,2,0:0:0:0:
397,108,84967,1,0,0:0:0:0:
397,108,85633,6,0,L|301:123,1,52.4999983978272,2|10,3:2|0:0,0:0:0:0:
319,191,85967,2,0,L|267:182,1,52.4999983978272,0|2,0:0|3:2,0:0:0:0:
234,253,86300,2,0,L|185:231,1,52.4999983978272,8|0,0:0|0:0,0:0:0:0:
131,287,86633,6,0,P|110:266|107:241,1,52.4999983978272,2|2,3:2|0:0,0:0:0:0:
27,247,86967,2,0,P|26:217|42:198,1,52.4999983978272,2|0,0:0|0:0,0:0:0:0:
1,140,87300,2,0,P|21:119|46:116,1,52.4999983978272,2|2,3:2|0:0,0:0:0:0:
36,37,87633,2,0,P|65:36|84:52,1,52.4999983978272,8|0,3:2|0:0,0:0:0:0:
128,114,87967,6,0,L|179:105,1,52.4999983978272,2|2,3:2|0:0,0:0:0:0:
202,30,88300,2,0,L|253:38,1,52.4999983978272,2|10,3:2|0:0,0:0:0:0:
295,104,88633,2,0,L|346:95,1,52.4999983978272,0|2,0:0|3:2,0:0:0:0:
422,66,88966,2,0,L|473:74,1,52.4999983978272,8|0,0:0|0:0,0:0:0:0:
459,152,89300,2,0,L|407:143,1,52.4999983978272,2|10,3:2|0:2,0:0:0:0:
391,221,89633,2,0,L|442:229,1,52.4999983978272,2|8,0:0|0:2,0:0:0:0:
428,307,89967,2,0,L|376:298,1,52.4999983978272,2|2,3:2|0:0,0:0:0:0:
359,375,90300,2,0,L|410:383,1,52.4999983978272,8|0,3:2|0:0,0:0:0:0:
494,361,90633,5,2,3:2:0:0:
494,361,90800,1,2,0:0:0:0:
500,278,90967,2,0,L|411:264,1,89.9999972534181,2|0,3:2|0:0,0:0:0:0:
386,196,91467,1,2,3:2:0:0:
284,298,91800,5,0,0:0:0:0:
284,298,91967,2,0,L|269:238,1,44.999998626709,2|2,3:2|0:0,0:0:0:0:
206,226,92300,2,0,L|219:137,1,89.9999972534181,2|2,0:0|3:2,0:0:0:0:
274,89,92800,1,2,0:0:0:0:
159,11,93133,5,0,0:0:0:0:
159,11,93300,2,0,P|138:27|110:24,1,50,2|2,3:2|0:0,0:0:0:0:
44,51,93633,2,0,P|68:86|49:152,1,99.9999999999999,2|0,3:2|0:0,0:0:0:0:
15,202,94133,1,2,3:2:0:0:
118,317,94467,5,0,0:0:0:0:
118,317,94634,2,0,P|146:300|168:304,1,55.0000016784668,2|2,3:2|0:0,0:0:0:0:
246,326,94967,2,0,P|243:281|289:235,1,110.000003356934,2|10,0:0|3:2,0:0:0:0:
230,174,95467,1,2,0:0:0:0:
282,110,95633,1,8,3:2:0:0:
426,85,95967,5,2,0:2:0:0:
426,85,96133,1,2,0:0:0:0:
470,156,96300,2,0,L|477:219,1,59.9999981689454,6|8,3:2|0:0,0:0:0:0:
394,196,96633,1,2,0:0:0:0:
420,276,96800,2,0,L|429:364,1,59.9999981689454,2|8,3:2|0:0,0:0:0:0:
279,252,97300,6,0,B|194:214|207:249|149:225,1,119.999996337891,2|0,3:2|0:0,0:0:0:0:
101,171,97800,1,2,0:0:0:0:
32,219,97967,2,0,P|28:166|25:149,1,59.9999981689454,2|0,3:2|0:0,0:0:0:0:
70,88,98300,5,10,0:0:0:0:
70,88,98467,1,0,3:0:0:0:
156,103,98633,1,2,0:0:0:0:
156,103,98800,1,2,0:0:0:0:
124,25,98967,6,0,P|181:23|204:21,1,59.9999981689454,2|8,3:2|0:0,0:0:0:0:
238,87,99300,2,0,L|245:182,1,59.9999981689454,2|2,0:0|3:2,0:0:0:0:
307,200,99633,1,10,0:2:0:0:
449,112,99966,2,0,B|448:82|448:82|423:64,1,59.9999981689453,2|8,3:2|0:0,0:0:0:0:
338,67,100300,2,0,B|317:88|317:88|321:118,1,59.9999981689453,2|2,0:0|3:2,0:0:0:0:
369,195,100633,1,2,3:2:0:0:
369,195,100800,1,2,0:0:0:0:
292,228,100967,6,0,P|308:260|337:269,1,59.9999981689454,10|2,0:0|3:2,0:0:0:0:
296,346,101300,2,0,P|258:347|214:372,1,59.9999981689454,2|2,0:0|0:0,0:0:0:0:
210,274,101633,6,0,L|202:194,1,59.9999981689454,2|8,3:2|0:0,0:0:0:0:
129,253,101967,1,0,0:0:0:0:
51,284,102133,2,0,L|40:367,1,59.9999981689454,2|10,3:2|0:0,0:0:0:0:
90,181,102633,6,0,P|59:171|42:125,1,59.9999981689454,2|2,3:2|0:0,0:0:0:0:
28,70,102967,1,0,0:0:0:0:
28,70,103133,1,2,0:0:0:0:
92,15,103300,1,2,3:2:0:0:
257,69,103633,6,0,P|264:127|269:148,1,59.9999981689454,8|0,0:0|3:2,0:0:0:0:
307,201,103967,2,0,L|217:214,1,59.9999981689454,2|2,0:0|0:0,0:0:0:0:
256,129,104300,5,2,3:2:0:0:
256,129,104467,1,10,0:0:0:0:
294,339,104967,5,2,3:2:0:0:
294,339,105134,1,10,0:0:0:0:
464,203,105633,6,0,L|474:126,1,59.9999981689454,2|10,3:2|0:2,0:0:0:0:
387,140,105967,2,0,L|360:62,1,59.9999981689454,2|10,3:2|0:2,0:0:0:0:
298,131,106300,2,0,L|230:97,1,59.9999981689454,2|8,3:2|0:2,0:0:0:0:
177,153,106633,1,0,3:2:0:0:
177,153,106800,1,2,0:0:0:0:
107,105,106967,6,0,B|94:148|94:148|97:180,1,59.9999981689454,2|8,3:2|0:0,0:0:0:0:
287,357,109300,5,2,0:0:0:0:
287,357,109467,1,2,0:0:0:0:
315,278,109633,2,0,B|306:260|287:241|287:241|285:225|278:201,1,59.9999981689454,2|8,3:2|0:0,0:0:0:0:
201,241,109967,1,2,0:0:0:0:
234,164,110133,1,2,3:2:0:0:
189,92,110300,6,0,B|223:100|240:58|256:14|307:28,1,119.999996337891,10|2,0:2|3:2,0:0:0:0:
311,105,110800,1,8,0:0:0:0:
369,44,110967,2,0,P|383:50|443:63,1,59.9999981689454,2|2,0:0|3:2,0:0:0:0:
507,38,111300,2,0,L|491:119,1,59.9999981689454,2|2,3:2|0:0,0:0:0:0:
428,148,111633,6,0,B|438:178|438:178|446:219,1,59.9999981689454,10|2,0:0|3:2,0:0:0:0:
505,270,111967,1,2,0:2:0:0:
505,270,112133,1,2,0:2:0:0:
458,339,112300,6,0,P|436:319|405:314,1,59.9999981689454,2|8,3:2|0:0,0:0:0:0:
362,243,112633,2,0,P|332:249|311:269,1,59.9999981689454,0|2,0:0|3:2,0:0:0:0:
258,335,112967,2,0,P|201:316|118:302,1,119.999996337891,10|2,0:0|3:2,0:0:0:0:
94,235,113467,1,2,0:0:0:0:
149,172,113633,2,0,P|142:136|133:104,2,59.9999981689454,0|2|2,0:0|0:0|3:2,0:0:0:0:
227,214,114133,1,0,0:0:0:0:
227,214,114300,1,8,0:0:0:0:
195,49,114633,2,0,P|224:41|253:36,1,59.9999981689454,2|2,0:0|0:0,0:0:0:0:
316,68,114967,6,0,B|298:132|358:132|328:219,2,150,2|0|0,3:2|3:0|3:0,0:0:0:0:
512,0,116967,1,2,3:2:0:0:
444,145,117301,1,6,0:2:0:0:
481,290,117634,2,0,P|438:277|364:267,1,100,12|0,0:0|0:0,0:0:0:0:
