osu file format v14

[General]
AudioFilename: audio.mp3
AudioLeadIn: 0
PreviewTime: 95883
Countdown: 0
SampleSet: Soft
StackLeniency: 0.7
Mode: 0
LetterboxInBreaks: 0
WidescreenStoryboard: 1

[Editor]
Bookmarks: 10967,21633,32300,42966,53633,64300,74966,85633,96300,112300,114967,117633
DistanceSpacing: 1
BeatDivisor: 4
GridSize: 16
TimelineZoom: 0.8999999

[Metadata]
Title:Juicy
TitleUnicode:Juicy
Artist:INSTASAMKA
ArtistUnicode:INSTASAMKA
Creator:M a r v o l l o
Version:ELITE NORMAL
Source:
Tags:shmiklak marvollo m_a_r_v_o_l_l_o russian hip hop русский хип хоп пусси джуси моя жопа на тусе pussy daycore инстасамка moneydealer манидилер schoolboy komore 228 AYE1337 wajinshu froskya revialink announcerf fackel
BeatmapID:4218118
BeatmapSetID:1951437

[Difficulty]
HPDrainRate:3.5
CircleSize:3.7
OverallDifficulty:4
ApproachRate:5.5
SliderMultiplier:0.85
SliderTickRate:1

[Events]
//Background and Video events
0,0,"pusijusinatuse.jpg",0,0
//Break Periods
//Storyboard Layer 0 (Background)
//Storyboard Layer 1 (Fail)
//Storyboard Layer 2 (Pass)
//Storyboard Layer 3 (Foreground)
//Storyboard Layer 4 (Overlay)
//Storyboard Sound Samples

[TimingPoints]
9990,324.324324324324,4,2,1,90,1,0
10638,327.868852459016,4,2,1,90,1,0
10967,333.333333333333,4,2,1,90,1,0
10967,-90.9090909090909,4,2,1,90,0,0
32300,-111.111111111111,4,2,2,70,0,0
42966,-99.9999999999999,4,2,1,80,0,0
53633,-90.9090909090909,4,2,1,90,0,0
64300,-90.9090909090909,4,2,1,60,0,0
66966,-90.9090909090909,4,2,1,90,0,0
72300,-100,4,2,1,90,0,0
74966,-111.111111111111,4,2,1,70,0,0
85633,-100,4,2,1,80,0,0
96300,-90.9090909090909,4,2,1,90,0,0
114967,-100,4,2,1,90,0,0

[Colours]
Combo1 : 243,128,12
Combo2 : 185,17,21
Combo3 : 235,220,37
Combo4 : 230,13,51

[HitObjects]
461,310,9990,5,4,0:2:0:0:
427,231,10314,1,4,0:2:0:0:
481,165,10638,2,0,L|467:115,1,42.5,2|2,0:0|0:0,0:0:0:0:
445,88,10967,6,0,P|396:107|346:92,1,93.5000028533936,6|2,3:2|0:0,0:0:0:0:
325,70,11467,1,2,3:2:0:0:
325,70,11633,2,0,B|280:51|280:51|233:79,1,93.5000028533936,8|2,0:0|3:2,0:0:0:0:
193,143,12300,2,0,L|211:206,1,46.7500014266968,0|2,0:0|0:0,0:0:0:0:
234,218,12633,2,0,P|196:256|184:307,1,93.5000028533936,2|10,3:2|0:0,0:0:0:0:
113,338,13300,2,0,P|97:294|63:262,1,93.5000028533936,2|2,0:0|3:2,0:0:0:0:
6,201,13967,6,0,L|16:144,1,46.7500014266968,2|2,0:0|3:2,0:0:0:0:
41,123,14300,2,0,L|31:66,1,46.7500014266968,10|2,0:2|0:2,0:0:0:0:
60,45,14633,2,0,P|108:68|164:76,1,93.5000028533936,2|2,3:2|0:0,0:0:0:0:
185,57,15133,1,2,3:2:0:0:
185,57,15300,2,0,L|232:52,1,46.7500014266968,2|2,3:2|0:0,0:0:0:0:
271,37,15633,2,0,L|318:42,1,46.7500014266968,10|2,0:0|3:2,0:0:0:0:
414,122,16300,6,0,P|364:133|327:163,1,93.5000028533936,2|0,3:2|0:0,0:0:0:0:
307,193,16800,1,2,3:2:0:0:
307,193,16967,2,0,L|213:183,1,93.5000028533936,10|2,0:0|3:2,0:0:0:0:
134,209,17633,2,0,L|93:176,2,46.7500014266968,0|2|2,0:0|0:0|3:2,0:0:0:0:
155,290,18300,2,0,P|158:328|164:354,1,46.7500014266968,8|0,0:0|3:2,0:0:0:0:
192,362,18633,2,0,L|235:344,1,46.7500014266968,2|2,0:0|0:0,0:0:0:0:
272,325,18966,5,2,3:2:0:0:
436,358,19633,1,2,3:2:0:0:
362,206,20300,2,0,L|366:137,1,46.7500014266968,2|10,3:2|0:2,0:0:0:0:
337,126,20633,2,0,L|352:58,1,46.7500014266968,2|10,3:2|0:2,0:0:0:0:
379,52,20967,1,2,3:2:0:0:
456,84,21300,2,0,P|474:110|480:139,1,46.7500014266968,2|2,3:2|0:0,0:0:0:0:
474,166,21633,6,0,B|456:214|456:214|473:271,1,93.5000028533936,6|2,3:2|0:0,0:0:0:0:
485,298,22133,1,2,3:2:0:0:
485,298,22300,2,0,L|382:283,1,93.5000028533936,8|2,0:0|3:2,0:0:0:0:
325,233,22967,2,0,P|324:201|332:175,1,46.7500014266968,0|2,0:0|0:0,0:0:0:0:
347,149,23300,2,0,L|327:46,1,93.5000028533936,2|10,3:2|0:0,0:0:0:0:
252,23,23967,2,0,L|234:114,1,93.5000028533936,2|2,0:0|3:2,0:0:0:0:
209,195,24634,6,0,L|219:252,1,46.7500014266968,2|2,0:0|3:2,0:0:0:0:
231,280,24967,2,0,L|221:337,1,46.7500014266968,10|2,0:2|0:2,0:0:0:0:
251,356,25300,2,0,P|299:333|355:325,1,93.5000028533936,2|2,3:2|0:0,0:0:0:0:
374,356,25800,1,2,3:2:0:0:
374,356,25967,2,0,L|421:351,1,46.7500014266968,2|2,3:2|0:0,0:0:0:0:
458,331,26300,2,0,P|461:309|463:284,1,46.7500014266968,10|2,0:0|3:2,0:0:0:0:
436,160,26967,6,0,L|425:64,1,93.5000028533936,2|0,3:2|0:0,0:0:0:0:
401,39,27467,1,2,3:2:0:0:
401,39,27634,2,0,P|350:34|307:29,1,93.5000028533936,10|2,0:0|3:2,0:0:0:0:
230,61,28300,2,0,L|189:28,2,46.7500014266968,0|2|2,0:0|0:0|3:2,0:0:0:0:
219,144,28967,2,0,P|181:147|155:153,1,46.7500014266968,10|0,0:0|3:2,0:0:0:0:
140,175,29300,2,0,P|121:170|97:157,1,46.7500014266968,2|2,0:0|0:0,0:0:0:0:
71,123,29633,1,2,3:2:0:0:
163,264,30300,5,2,3:2:0:0:
420,47,31633,5,2,3:2:0:0:
472,112,31966,1,2,0:2:0:0:
436,188,32300,6,0,L|348:169,1,76.4999976654053,2|0,0:0|0:0,0:0:0:0:
329,199,32800,1,2,3:2:0:0:
329,199,32966,2,0,L|341:279,2,76.4999976654053,10|2|2,0:2|3:2|0:2,0:0:0:0:
274,134,33966,1,2,0:2:0:0:
206,83,34300,2,0,P|159:88|127:103,1,76.4999976654053,8|0,3:2|3:0,0:0:0:0:
81,166,34966,6,0,L|88:250,1,76.4999976654053,2|0,3:2|0:0,0:0:0:0:
110,277,35466,1,2,3:2:0:0:
110,277,35633,2,0,L|187:255,2,76.4999976654053,8|2|2,0:0|3:2|0:0,0:0:0:0:
44,330,36633,1,2,0:2:0:0:
118,368,36966,2,0,P|158:361|194:346,1,76.4999976654053,8|0,3:2|3:2,0:0:0:0:
218,315,37466,1,0,0:0:0:0:
218,315,37633,6,0,L|297:329,1,76.4999976654053,2|0,0:0|0:0,0:0:0:0:
330,308,38133,1,2,3:2:0:0:
330,308,38300,2,0,L|409:294,2,76.4999976654053,10|2|2,0:2|3:2|0:2,0:0:0:0:
271,246,39300,1,2,3:2:0:0:
276,162,39633,2,0,P|321:171|361:190,1,76.4999976654053,8|0,3:2|3:0,0:0:0:0:
392,255,40300,6,0,P|383:300|364:340,1,76.4999976654053,2|0,3:2|0:0,0:0:0:0:
337,354,40800,1,2,3:2:0:0:
337,354,40966,2,0,L|262:342,1,76.4999976654053,8|2,0:0|3:2,0:0:0:0:
204,279,41633,2,0,L|129:291,1,76.4999976654053,2|2,0:0|0:2,0:0:0:0:
100,322,42133,1,2,0:2:0:0:
100,322,42300,1,8,3:2:0:0:
56,157,42966,6,0,P|103:176|137:179,1,85,2|0,3:2|0:0,0:0:0:0:
177,165,43466,1,2,3:2:0:0:
177,165,43633,2,0,L|265:155,1,85,8|2,0:0|3:2,0:0:0:0:
331,106,44300,1,2,0:0:0:0:
396,159,44633,1,2,3:2:0:0:
354,233,44966,2,0,L|366:319,1,85,8|2,3:2|3:2,0:0:0:0:
283,338,45633,6,0,L|271:253,1,85,2|0,3:2|0:0,0:0:0:0:
235,230,46133,1,2,3:2:0:0:
235,230,46300,2,0,P|198:222|139:233,1,85,8|2,0:0|3:2,0:0:0:0:
76,266,46966,1,2,0:0:0:0:
34,191,47300,1,2,3:2:0:0:
85,123,47633,2,0,L|182:107,1,85,8|2,3:2|3:2,0:0:0:0:
248,139,48300,6,0,B|344:156|308:75|405:94,1,170,2|8,3:2|0:0,0:0:0:0:
466,149,49300,1,2,3:2:0:0:
431,226,49633,2,0,B|419:270|419:270|434:310,2,85,2|2|8,0:0|3:2|3:2,0:0:0:0:
466,149,50633,2,0,L|458:103,1,42.5,2|2,3:2|0:0,0:0:0:0:
427,77,50966,6,0,P|375:70|297:98,1,127.5,2|2,3:2|3:2,0:0:0:0:
236,143,51800,1,0,0:0:0:0:
236,143,51966,1,2,3:2:0:0:
151,130,52300,2,0,L|124:44,2,85,2|2|2,0:0|3:2|0:0,0:0:0:0:
18,261,53633,6,0,P|67:242|117:257,1,93.5000028533936,6|2,3:2|0:0,0:0:0:0:
139,283,54133,1,2,3:2:0:0:
139,283,54299,2,0,B|184:302|184:302|231:274,1,93.5000028533936,8|2,0:0|3:2,0:0:0:0:
295,237,54966,2,0,L|358:255,1,46.7500014266968,0|2,0:0|0:0,0:0:0:0:
365,283,55300,2,0,P|415:282|467:268,1,93.5000028533936,2|10,3:2|0:0,0:0:0:0:
496,197,55966,2,0,P|495:147|481:95,1,93.5000028533936,2|2,0:0|3:2,0:0:0:0:
414,59,56633,6,0,L|357:69,1,46.7500014266968,2|2,0:0|3:2,0:0:0:0:
343,101,56966,2,0,L|286:91,1,46.7500014266968,10|2,0:2|0:2,0:0:0:0:
262,117,57299,2,0,P|285:165|293:221,1,93.5000028533936,2|2,3:2|0:0,0:0:0:0:
268,239,57799,1,2,3:2:0:0:
268,239,57966,2,0,L|221:234,1,46.7500014266968,2|2,3:2|0:0,0:0:0:0:
182,219,58299,2,0,B|135:206|135:206|79:234,1,93.5000028533936,10|2,0:0|0:0,0:0:0:0:
61,303,58966,6,0,P|83:345|143:352,1,93.5000028533936,2|0,3:2|0:0,0:0:0:0:
164,338,59466,1,2,3:2:0:0:
164,338,59633,2,0,L|258:348,1,93.5000028533936,10|2,0:0|3:2,0:0:0:0:
336,319,60299,2,0,L|377:352,2,46.7500014266968,0|2|2,0:0|0:0|3:2,0:0:0:0:
313,237,60966,2,0,P|316:199|322:173,1,46.7500014266968,8|0,0:0|3:2,0:0:0:0:
345,159,61299,2,0,L|337:105,1,46.7500014266968,2|2,0:0|0:0,0:0:0:0:
323,73,61632,5,2,3:2:0:0:
450,182,62299,1,2,3:2:0:0:
338,307,62966,2,0,L|269:303,1,46.7500014266968,2|10,3:2|0:2,0:0:0:0:
257,279,63299,2,0,L|189:294,1,46.7500014266968,2|10,3:2|0:2,0:0:0:0:
171,273,63633,1,2,3:2:0:0:
104,324,63966,2,0,L|57:317,1,46.7500014266968,2|2,3:2|0:0,0:0:0:0:
16,325,64300,1,6,3:2:0:0:
16,325,64466,1,8,0:0:0:0:
256,346,66966,5,2,3:2:0:0:
335,318,67300,2,0,L|392:308,1,46.7500014266968,2|2,0:0|3:2,0:0:0:0:
415,285,67633,2,0,L|425:228,1,46.7500014266968,10|2,0:2|0:2,0:0:0:0:
430,197,67966,2,0,P|407:149|399:93,1,93.5000028533936,2|2,3:2|0:0,0:0:0:0:
371,85,68466,1,2,3:2:0:0:
371,85,68633,2,0,L|324:90,1,46.7500014266968,2|2,3:2|0:0,0:0:0:0:
284,76,68966,2,0,B|237:66|237:66|181:88,1,93.5000028533936,10|2,0:0|0:2,0:0:0:0:
135,142,69633,6,0,L|146:238,1,93.5000028533936,2|0,3:2|0:0,0:0:0:0:
147,280,70133,1,2,3:2:0:0:
147,280,70300,2,0,P|198:276|241:290,1,93.5000028533936,10|2,0:0|3:2,0:0:0:0:
307,336,70966,2,0,L|298:390,2,46.7500014266968,0|2|2,0:0|0:0|3:2,0:0:0:0:
370,280,71633,2,0,L|379:216,1,46.7500014266968,8|0,0:0|3:2,0:0:0:0:
401,199,71966,2,0,L|395:152,1,46.7500014266968,2|2,0:0|0:0,0:0:0:0:
411,113,72299,1,2,3:2:0:0:
267,60,72966,5,2,3:2:0:0:
468,290,74300,5,2,0:2:0:0:
286,335,74966,6,0,B|233:294|233:294|147:323,1,152.999995330811,2|8,3:2|0:0,0:0:0:0:
73,354,75966,1,2,3:2:0:0:
23,284,76300,2,0,L|43:202,1,76.4999976654053,2|2,0:0|3:2,0:0:0:0:
75,185,76800,1,2,0:0:0:0:
75,185,76966,2,0,L|55:103,1,76.4999976654053,8|2,3:2|3:2,0:0:0:0:
95,35,77633,6,0,B|163:47|163:47|176:39|176:39|252:52,1,152.999995330811,2|8,3:2|0:0,0:0:0:0:
389,134,78966,2,0,B|321:146|321:146|308:138|308:138|232:151,1,152.999995330811,2|8,0:0|3:2,0:0:0:0:
196,221,79966,1,2,3:2:0:0:
216,302,80300,6,0,P|256:344|354:328,1,152.999995330811,2|8,3:2|0:0,0:0:0:0:
403,275,81300,1,2,3:2:0:0:
461,214,81633,2,0,P|455:177|452:134,1,76.4999976654053,2|2,0:0|3:2,0:0:0:0:
421,108,82133,1,2,0:0:0:0:
421,108,82300,2,0,P|423:69|429:32,1,76.4999976654053,8|2,3:2|3:2,0:0:0:0:
346,25,82966,6,0,P|283:66|202:68,1,152.999995330811,2|8,3:2|0:0,0:0:0:0:
169,50,83800,1,0,0:0:0:0:
169,50,83966,2,0,L|124:62,1,38.2499988327027,2|10,3:2|0:2,0:0:0:0:
96,82,84300,2,0,L|12:65,2,76.4999976654053,2|2|0,0:0|3:2|0:0,0:0:0:0:
218,200,85633,6,0,P|222:148|237:101,1,85,2|0,3:2|0:0,0:0:0:0:
213,83,86133,1,2,3:2:0:0:
212,83,86300,2,0,P|241:40|277:6,1,85,8|2,0:0|3:2,0:0:0:0:
348,1,86966,2,0,P|371:36|400:66,1,85,2|2,0:0|3:2,0:0:0:0:
459,128,87633,2,0,P|436:163|407:193,1,85,8|2,3:2|3:2,0:0:0:0:
367,210,88133,1,2,0:0:0:0:
367,210,88300,6,0,L|279:203,1,85,2|0,3:2|0:0,0:0:0:0:
247,227,88800,1,2,3:2:0:0:
247,227,88966,2,0,L|159:220,1,85,8|2,0:0|3:2,0:0:0:0:
130,299,89633,2,0,L|214:305,1,85,2|2,0:0|3:2,0:0:0:0:
287,350,90300,2,0,L|371:343,1,85,8|2,3:2|3:2,0:0:0:0:
443,297,90966,5,2,3:2:0:0:
168,288,92300,5,2,0:0:0:0:
392,133,93633,5,2,3:2:0:0:
173,82,94966,5,2,0:0:0:0:
234,141,95300,5,10,3:2:0:0:
296,83,95633,5,8,3:2:0:0:
296,83,96300,6,0,L|391:69,1,93.5000028533936,6|2,3:2|0:0,0:0:0:0:
423,101,96800,1,2,3:2:0:0:
423,101,96966,2,0,B|442:146|442:146|414:193,1,93.5000028533936,8|2,0:0|3:2,0:0:0:0:
358,242,97633,2,0,L|295:224,1,46.7500014266968,0|2,0:0|0:0,0:0:0:0:
274,246,97967,2,0,P|224:247|172:261,1,93.5000028533936,2|10,3:2|0:0,0:0:0:0:
100,279,98633,2,0,P|99:229|85:177,1,93.5000028533936,2|2,0:0|3:2,0:0:0:0:
113,106,99300,6,0,L|170:116,1,46.7500014266968,2|2,0:0|3:2,0:0:0:0:
193,90,99633,2,0,L|239:81,1,46.7500014266968,10|2,0:2|0:2,0:0:0:0:
277,63,99966,2,0,P|325:86|381:94,1,93.5000028533936,2|2,3:2|0:0,0:0:0:0:
403,120,100466,1,2,3:2:0:0:
403,120,100633,2,0,L|398:167,1,46.7500014266968,2|2,3:2|0:0,0:0:0:0:
414,205,100966,2,0,B|427:252|427:252|399:308,1,93.5000028533936,10|2,0:0|0:0,0:0:0:0:
338,341,101633,6,0,L|236:320,1,93.5000028533936,2|0,3:2|0:0,0:0:0:0:
217,299,102133,1,2,3:2:0:0:
217,299,102300,2,0,L|207:205,1,93.5000028533936,10|2,0:0|3:2,0:0:0:0:
266,146,102966,2,0,L|326:157,2,46.7500014266968,0|2|2,0:0|0:0|3:2,0:0:0:0:
205,86,103633,2,0,L|159:94,1,46.7500014266968,8|0,0:0|3:2,0:0:0:0:
129,124,103966,2,0,L|83:115,1,46.7500014266968,2|2,0:0|0:0,0:0:0:0:
46,136,104299,5,2,3:2:0:0:
115,289,104966,1,2,3:2:0:0:
267,360,105633,2,0,L|263:291,1,46.7500014266968,2|10,3:2|0:2,0:0:0:0:
239,279,105966,2,0,L|254:211,1,46.7500014266968,2|10,3:2|0:2,0:0:0:0:
233,193,106300,1,2,3:2:0:0:
284,126,106633,2,0,L|277:79,1,46.7500014266968,0|2,3:2|0:0,0:0:0:0:
285,39,106967,1,2,3:2:0:0:
285,39,107133,1,8,0:0:0:0:
285,39,109633,5,2,3:2:0:0:
272,122,109967,2,0,L|282:190,1,46.7500014266968,2|2,0:0|3:2,0:0:0:0:
300,204,110300,2,0,L|291:250,1,46.7500014266968,10|2,0:2|0:2,0:0:0:0:
259,277,110633,2,0,P|213:286|171:307,1,93.5000028533936,2|2,3:2|0:0,0:0:0:0:
143,338,111133,1,2,3:2:0:0:
143,338,111300,2,0,L|96:333,1,46.7500014266968,2|2,3:2|0:0,0:0:0:0:
64,305,111633,2,0,B|50:260|50:260|62:214,1,93.5000028533936,10|2,0:0|0:2,0:0:0:0:
108,145,112300,6,0,L|204:134,1,93.5000028533936,2|0,3:2|0:0,0:0:0:0:
230,171,112800,1,2,3:2:0:0:
230,171,112967,2,0,P|281:167|324:181,1,93.5000028533936,10|2,0:0|3:2,0:0:0:0:
353,256,113633,2,0,L|344:310,2,46.7500014266968,0|2|2,0:0|0:0|3:2,0:0:0:0:
415,199,114300,2,0,L|424:135,1,46.7500014266968,8|0,0:0|3:2,0:0:0:0:
444,117,114633,2,0,L|438:70,1,46.7500014266968,2|2,0:0|0:0,0:0:0:0:
410,32,114966,5,2,3:2:0:0:
252,95,115633,5,2,3:2:0:0:
471,354,116967,5,2,3:2:0:0:
411,293,117300,5,6,0:2:0:0:
441,213,117633,5,12,0:0:0:0:
