osu file format v14

[General]
AudioFilename: audio.mp3
AudioLeadIn: 0
PreviewTime: 95883
Countdown: 0
SampleSet: Soft
StackLeniency: 0.7
Mode: 0
LetterboxInBreaks: 0
WidescreenStoryboard: 1

[Editor]
Bookmarks: 10967,21633,32300,42966,53633,64300,74966,85633,96300,112300,114967,117633
DistanceSpacing: 1.1
BeatDivisor: 2
GridSize: 16
TimelineZoom: 1.1

[Metadata]
Title:Juicy
TitleUnicode:Juicy
Artist:INSTASAMKA
ArtistUnicode:INSTASAMKA
Creator:M a r v o l l o
Version:ARISTROCRATIC EASY
Source:
Tags:shmiklak marvollo m_a_r_v_o_l_l_o russian hip hop русский хип хоп пусси джуси моя жопа на тусе pussy daycore инстасамка moneydealer манидилер schoolboy komore 228 AYE1337 wajinshu froskya revialink announcerf fackel
BeatmapID:4218117
BeatmapSetID:1951437

[Difficulty]
HPDrainRate:2.5
CircleSize:3
OverallDifficulty:2.5
ApproachRate:4
SliderMultiplier:0.8
SliderTickRate:1

[Events]
//Background and Video events
0,0,"pusijusinatuse.jpg",0,0
//Break Periods
//Storyboard Layer 0 (Background)
//Storyboard Layer 1 (Fail)
//Storyboard Layer 2 (Pass)
//Storyboard Layer 3 (Foreground)
//Storyboard Layer 4 (Overlay)
//Storyboard Sound Samples

[TimingPoints]
9990,324.324324324324,4,2,1,90,1,0
10638,327.868852459016,4,2,1,90,1,0
10967,333.333333333333,4,2,1,90,1,0
10967,-90.9090909090909,4,2,1,90,0,0
32300,-111.111111111111,4,2,2,70,0,0
42966,-99.9999999999999,4,2,1,80,0,0
53633,-90.9090909090909,4,2,1,90,0,0
64300,-90.9090909090909,4,2,1,60,0,0
66966,-90.9090909090909,4,2,1,90,0,0
72300,-100,4,2,1,90,0,0
74966,-111.111111111111,4,2,1,70,0,0
85633,-100,4,2,1,80,0,0
90967,-111.111111111111,4,2,1,80,0,0
93133,-100,4,2,1,80,0,0
94467,-90.9090909090909,4,2,1,80,0,0
96300,-90.9090909090909,4,2,1,90,0,0
114967,-100,4,2,1,90,0,0

[Colours]
Combo1 : 243,128,12
Combo2 : 185,17,21
Combo3 : 235,220,37
Combo4 : 230,13,51

[HitObjects]
475,319,9990,5,4,0:2:0:0:
453,234,10314,2,0,L|465:153,1,80,4|2,0:2|0:0,0:0:0:0:
419,68,10967,6,0,P|384:100|329:101,1,88.000002685547,6|2,3:2|0:0,0:0:0:0:
263,71,11633,1,8,0:0:0:0:
199,131,11967,2,0,L|213:228,2,88.000002685547,2|0|2,3:2|0:0|3:2,0:0:0:0:
133,71,12967,1,10,0:0:0:0:
60,120,13300,2,0,P|41:177|48:216,1,88.000002685547,2|2,0:0|3:2,0:0:0:0:
82,283,13967,1,2,0:0:0:0:
161,321,14300,1,10,0:2:0:0:
247,338,14633,2,0,L|344:317,1,88.000002685547,2|2,3:2|0:0,0:0:0:0:
364,237,15300,2,0,L|277:218,1,88.000002685547,2|10,3:2|0:0,0:0:0:0:
107,174,16300,6,0,P|96:134|114:85,1,88.000002685547,2|0,3:2|0:0,0:0:0:0:
176,32,16967,1,10,0:0:0:0:
256,68,17300,2,0,L|353:50,2,88.000002685547,2|0|2,3:2|0:0|3:2,0:0:0:0:
193,130,18300,2,0,L|96:112,1,88.000002685547,8|2,0:0|0:0,0:0:0:0:
25,148,18967,1,2,3:2:0:0:
69,317,19633,1,2,3:2:0:0:
239,362,20300,2,0,B|337:380|297:291|409:314,1,176.000005371094,2|2,3:2|3:2,0:0:0:0:
474,355,21300,1,2,3:2:0:0:
492,268,21633,6,0,P|473:206|454:170,1,88.000002685547,6|2,3:2|0:0,0:0:0:0:
398,125,22300,1,8,0:0:0:0:
389,37,22633,2,0,L|488:15,2,88.000002685547,2|0|2,3:2|0:0|3:2,0:0:0:0:
302,18,23633,1,10,0:0:0:0:
220,52,23967,2,0,P|171:39|129:37,1,88.000002685547,2|2,0:0|3:2,0:0:0:0:
65,91,24633,1,2,0:0:0:0:
102,170,24967,1,10,0:2:0:0:
53,243,25300,2,0,L|69:338,1,88.000002685547,2|2,3:2|0:0,0:0:0:0:
150,360,25967,2,0,L|166:265,1,88.000002685547,2|10,3:2|0:0,0:0:0:0:
222,106,26967,6,0,P|262:95|311:113,1,88.000002685547,2|0,3:2|0:0,0:0:0:0:
363,174,27634,1,10,0:0:0:0:
405,251,27967,2,0,L|387:348,2,88.000002685547,2|0|2,3:2|0:0|3:2,0:0:0:0:
473,195,28967,2,0,L|491:98,1,88.000002685547,10|2,0:0|0:0,0:0:0:0:
449,29,29634,1,2,3:2:0:0:
449,29,32300,6,0,P|423:81|318:80,1,143.999995605469,2|10,0:0|0:2,0:0:0:0:
269,52,33300,1,2,3:2:0:0:
206,111,33633,2,0,B|178:178|178:178|205:253,1,143.999995605469,2|8,0:2|3:2,0:0:0:0:
56,338,34966,2,0,L|73:185,1,143.999995605469,2|8,3:2|0:0,0:0:0:0:
35,116,35966,1,2,3:2:0:0:
99,58,36300,2,0,P|174:78|261:53,1,143.999995605469,2|8,0:0|3:2,0:0:0:0:
309,16,37300,1,0,3:2:0:0:
367,79,37633,6,0,L|349:233,1,143.999995605469,2|10,0:0|0:2,0:0:0:0:
380,302,38633,1,2,3:2:0:0:
306,346,38966,2,0,B|244:308|244:308|170:336,1,143.999995605469,2|8,0:2|3:2,0:0:0:0:
84,186,40300,2,0,L|219:138,1,143.999995605469,2|8,3:2|0:0,0:0:0:0:
284,79,41300,1,2,3:2:0:0:
337,146,41633,2,0,P|332:192|322:237,1,71.9999978027344,2|2,0:0|0:2,0:0:0:0:
327,217,42966,6,0,L|226:229,1,80,2|0,3:2|0:0,0:0:0:0:
178,281,43633,1,8,0:0:0:0:
116,218,43966,2,0,L|128:126,1,80,2|2,3:2|0:0,0:0:0:0:
50,91,44633,2,0,P|14:156|36:247,1,160,2|2,3:2|3:2,0:0:0:0:
93,297,45633,2,0,L|186:293,1,80,2|0,3:2|0:0,0:0:0:0:
247,246,46300,1,8,0:0:0:0:
321,293,46633,2,0,L|414:297,1,80,2|2,3:2|0:0,0:0:0:0:
471,243,47300,2,0,P|448:188|455:85,1,160,2|2,3:2|3:2,0:0:0:0:
385,33,48300,6,0,B|292:19|327:95|231:78,1,160,2|8,3:2|0:0,0:0:0:0:
154,99,49300,1,2,3:2:0:0:
104,171,49633,2,0,B|92:213|92:213|111:250,2,80,2|2|8,0:0|3:2|3:2,0:0:0:0:
154,99,50633,1,2,3:2:0:0:
232,60,50966,2,0,P|284:53|391:93,1,160,2|8,3:2|0:0,0:0:0:0:
432,160,51966,1,2,3:2:0:0:
392,238,52300,2,0,L|409:318,2,80,2|2|2,0:0|3:2|0:0,0:0:0:0:
293,92,53633,6,0,P|251:123|207:131,1,88.000002685547,6|2,3:2|0:0,0:0:0:0:
135,97,54299,1,8,0:0:0:0:
87,171,54633,2,0,L|-10:185,2,88.000002685547,2|0|2,3:2|0:0|3:2,0:0:0:0:
146,235,55633,1,10,0:0:0:0:
208,296,55966,2,0,L|297:279,1,88.000002685547,2|2,0:0|3:2,0:0:0:0:
361,222,56633,1,2,0:0:0:0:
362,134,56966,1,10,0:2:0:0:
310,62,57299,2,0,L|220:47,1,88.000002685547,2|2,3:2|0:0,0:0:0:0:
153,101,57966,2,0,L|56:108,2,88.000002685547,2|10|2,3:2|0:0|0:0,0:0:0:0:
223,47,58966,6,0,L|310:62,1,88.000002685547,2|0,3:2|0:0,0:0:0:0:
392,32,59633,1,10,0:0:0:0:
468,75,59966,2,0,P|484:120|486:172,2,88.000002685547,2|0|2,3:2|0:0|3:2,0:0:0:0:
392,32,60966,2,0,L|295:50,1,88.000002685547,8|2,0:0|0:0,0:0:0:0:
260,123,61633,1,2,3:2:0:0:
379,252,62299,1,2,3:2:0:0:
234,353,62966,2,0,B|136:371|176:282|64:305,1,176.000005371094,2|2,3:2|3:2,0:0:0:0:
29,227,63966,1,2,3:2:0:0:
62,145,64300,1,6,3:2:0:0:
62,145,66966,6,0,L|156:132,1,88.000002685547,2|2,3:2|0:0,0:0:0:0:
214,73,67633,1,10,0:2:0:0:
283,126,67966,2,0,L|297:212,1,88.000002685547,2|2,3:2|0:0,0:0:0:0:
365,268,68633,2,0,L|349:363,2,88.000002685547,2|10|2,3:2|0:0|0:2,0:0:0:0:
411,193,69633,6,0,P|424:151|413:109,1,88.000002685547,2|0,3:2|0:0,0:0:0:0:
349,48,70300,1,10,0:0:0:0:
270,88,70633,2,0,L|173:70,2,88.000002685547,2|0|2,3:2|0:0|3:2,0:0:0:0:
349,48,71633,2,0,L|446:30,1,88.000002685547,8|2,0:0|0:0,0:0:0:0:
509,79,72300,5,2,3:2:0:0:
31,328,74966,6,0,L|49:154,1,143.999995605469,2|8,3:2|0:0,0:0:0:0:
145,43,76300,2,0,L|159:186,1,143.999995605469,2|8,0:0|3:2,0:0:0:0:
225,242,77300,1,2,3:2:0:0:
265,165,77633,2,0,P|313:149|363:235,1,143.999995605469,2|8,3:2|0:0,0:0:0:0:
255,342,78966,2,0,L|182:326,2,71.9999978027344,2|2|8,0:0|3:2|3:2,0:0:0:0:
334,375,79966,1,2,3:2:0:0:
399,318,80300,6,0,P|385:256|377:145,1,143.999995605469,2|8,3:2|0:0,0:0:0:0:
271,38,81633,2,0,P|264:109|249:179,1,143.999995605469,2|8,0:0|3:2,0:0:0:0:
213,258,82633,1,2,3:2:0:0:
158,324,82966,2,0,B|96:363|96:363|56:299,1,143.999995605469,2|8,3:2|0:0,0:0:0:0:
21,224,83966,1,2,3:2:0:0:
82,162,84300,2,0,P|97:115|101:84,2,71.9999978027344,2|2|0,0:0|3:2|0:0,0:0:0:0:
179,308,85633,6,0,P|220:282|261:276,1,80,2|0,3:2|0:0,0:0:0:0:
333,304,86300,1,8,0:0:0:0:
402,249,86633,2,0,L|380:155,1,80,2|2,3:2|0:0,0:0:0:0:
423,92,87300,1,2,3:2:0:0:
502,130,87633,2,0,P|495:178|483:207,1,80,8|2,3:2|3:2,0:0:0:0:
415,262,88300,2,0,P|367:255|337:243,1,80,2|0,3:2|0:0,0:0:0:0:
261,200,88966,2,0,L|99:220,2,160,8|2|8,0:0|0:0|3:2,0:0:0:0:
308,125,90633,1,2,3:2:0:0:
265,47,90966,1,2,3:2:0:0:
256,192,91133,12,2,94966,0:0:0:0:
58,277,96300,6,0,P|101:255|141:263,1,88.000002685547,6|2,3:2|0:0,0:0:0:0:
215,305,96966,1,8,0:0:0:0:
291,348,97300,2,0,L|388:334,2,88.000002685547,2|0|2,3:2|0:0|3:2,0:0:0:0:
215,305,98300,1,10,0:0:0:0:
138,261,98633,2,0,P|150:221|155:172,1,88.000002685547,2|2,0:0|3:2,0:0:0:0:
138,88,99300,1,2,0:0:0:0:
208,35,99633,1,10,0:2:0:0:
275,91,99966,2,0,L|365:106,1,88.000002685547,2|2,3:2|0:0,0:0:0:0:
411,178,100633,2,0,L|509:164,2,88.000002685547,2|10|2,3:2|0:0|0:0,0:0:0:0:
363,252,101633,6,0,L|276:237,1,88.000002685547,2|0,3:2|0:0,0:0:0:0:
200,191,102300,1,10,0:0:0:0:
133,133,102633,2,0,P|124:90|126:44,2,88.000002685547,2|0|2,3:2|0:0|3:2,0:0:0:0:
200,191,103633,2,0,L|297:173,1,88.000002685547,8|2,0:0|0:0,0:0:0:0:
358,123,104300,1,2,3:2:0:0:
498,228,104966,1,2,3:2:0:0:
376,355,105633,2,0,B|275:375|315:286|217:304,1,176.000005371094,2|2,3:2|3:2,0:0:0:0:
141,346,106633,1,0,3:2:0:0:
64,301,106967,1,2,3:2:0:0:
64,301,109633,6,0,L|51:207,1,88.000002685547,2|2,3:2|0:0,0:0:0:0:
66,126,110300,1,10,0:2:0:0:
139,78,110633,2,0,L|225:92,1,88.000002685547,2|2,3:2|0:0,0:0:0:0:
300,138,111300,2,0,L|395:122,2,88.000002685547,2|10|2,3:2|0:0|0:2,0:0:0:0:
232,195,112300,6,0,P|218:236|229:278,1,88.000002685547,2|0,3:2|0:0,0:0:0:0:
282,348,112967,1,10,0:0:0:0:
360,308,113300,2,0,L|457:326,2,88.000002685547,2|0|2,3:2|0:0|3:2,0:0:0:0:
282,348,114300,2,0,L|185:360,1,88.000002685547,8|2,0:0|0:0,0:0:0:0:
112,327,114967,5,2,3:2:0:0:
112,327,117300,6,0,L|104:232,1,80,6|12,0:2|0:0,0:0:0:0:
