osu file format v14

[General]
AudioFilename: audio.mp3
AudioLeadIn: 0
PreviewTime: 457795
Countdown: 0
SampleSet: Soft
StackLeniency: 0.5
Mode: 0
LetterboxInBreaks: 0
EpilepsyWarning: 1
WidescreenStoryboard: 1

[Editor]
Bookmarks: 1940,27179,54570,80049,104135,132942,156435,185330,214434,242254,269269,293086,318728,343280,368644,397087,426070,452640,477380,503717,531799,557185,585161,612761,644263,672557,700557
DistanceSpacing: 0.6
BeatDivisor: 8
GridSize: 8
TimelineZoom: 2.5

[Metadata]
Title:Thorpe Park Resort Soundtrack
TitleUnicode:Thorpe Park Resort Soundtrack
Artist:IMAscore
ArtistUnicode:IMAscore
Creator:Skidooskei
Version:An Island Like No Other
Source:
Tags:Instrumental Album Pre Listening Merlin Stealth Swarm Colossus Saw X Horror Roller Coaster Ride Attraction Marathon Electronic Dubstep House Remix Tech Declan Welcome To Endless Fun End Of The Line One Way Ticket This Is Your Stop Thrills On Horizon Marooned Cast Away Message In A Bottle Driftwood Island After Dark Your Fate Sealed Lost City Power 10 Ancient Force Secrets Ruins Wave Light And Sound Jawsome Island Chill-Out Hum Canopy Inferno Reigns Jungle Odyssey Torment Madame Mephisto Big Top Theme Epic Sunset Admissions Derren Brown's Ghost Train Port Basecamp Fright Nights Shark Hotel Jungle
BeatmapID:2253886
BeatmapSetID:1077064

[Difficulty]
HPDrainRate:5
CircleSize:4
OverallDifficulty:8.5
ApproachRate:9.5
SliderMultiplier:3
SliderTickRate:1

[Events]
//Background and Video events
0,0,"ThorpePark.jpg",0,0
//Break Periods
//Storyboard Layer 0 (Background)
//Storyboard Layer 1 (Fail)
//Storyboard Layer 2 (Pass)
//Storyboard Layer 3 (Foreground)
//Storyboard Layer 4 (Overlay)
//Storyboard Sound Samples

[TimingPoints]
493,582.52427184466,4,2,1,80,1,0
1940,500,4,2,1,80,1,0
1940,-133.333333333333,4,2,1,80,0,0
2940,500,4,2,1,80,1,0
2940,-133.333333333333,4,2,1,80,0,0
8440,-111.111111111111,4,2,1,80,0,0
8940,-166.666666666667,4,2,1,80,0,0
10440,-100,4,2,1,80,0,0
10940,-100,4,2,1,90,0,1
15440,-125,4,2,1,90,0,1
16940,-100,4,2,1,90,0,1
19940,-83.3333333333333,4,2,1,90,0,1
20940,-100,4,2,1,90,0,0
24940,-100,4,2,1,20,0,0
25938,545.454545454546,4,2,1,80,1,0
25938,-133.333333333333,4,2,1,80,0,0
26483,-133.333333333333,4,2,1,5,0,0
26551,-133.333333333333,4,2,1,80,0,0
27179,545.454545454546,4,2,1,80,1,0
27179,-90.9090909090909,4,2,1,80,0,0
28815,-133.333333333333,4,2,1,80,0,0
29088,-200,4,2,1,80,0,0
29360,-90.9090909090909,4,2,1,80,0,0
30997,-133.333333333333,4,2,1,80,0,0
31269,-200,4,2,1,80,0,0
31542,-90.9090909090909,4,2,1,80,0,0
33179,-133.333333333333,4,2,1,80,0,0
33451,-200,4,2,1,80,0,0
33724,-90.9090909090909,4,2,1,80,0,0
34815,-83.3333333333333,4,2,1,80,0,0
35360,-76.9230769230769,4,2,1,80,0,0
35906,-166.666666666667,4,2,1,65,0,0
42451,535.714285714286,4,2,1,80,1,0
42451,-66.6666666666667,4,2,1,80,0,0
43522,-133.333333333333,4,2,1,80,0,0
44058,-71.4285714285714,4,2,1,80,0,0
44593,545.454545454546,4,2,1,90,1,1
44593,-76.9230769230769,4,2,1,90,0,1
45683,-90.9090909090909,4,2,1,90,0,1
48411,-142.857142857143,4,2,1,90,0,1
48956,-90.9090909090909,4,2,1,90,0,1
50593,-125,4,2,1,90,0,1
51138,-90.9090909090909,4,2,1,90,0,1
52774,-142.857142857143,4,2,1,90,0,1
53320,441.176470588235,4,2,1,80,1,0
53320,-133.333333333333,4,2,1,80,0,0
53761,-133.333333333333,4,2,1,5,0,0
53816,-133.333333333333,4,2,1,80,0,0
54570,545.454545454546,4,2,1,70,1,0
54570,-133.333333333333,4,2,1,70,0,0
55115,-166.666666666667,4,2,1,70,0,0
56206,-100,4,2,1,70,0,0
74206,-133.333333333333,4,2,1,80,0,0
74751,-90.9090909090909,4,2,1,80,0,0
79115,645.161290322581,4,2,1,80,1,0
79115,-83.3333333333333,4,2,1,80,0,0
80049,333.333333333333,3,2,1,80,1,0
80049,-500,3,2,1,60,0,0
81049,-166.666666666667,3,2,1,80,0,0
82049,-142.857142857143,3,2,1,85,0,1
97382,-125,3,2,1,85,0,1
97715,-111.111111111111,3,2,1,85,0,1
98048,-100,3,2,1,85,0,0
99548,-100,3,2,1,45,0,0
100048,-500,3,2,1,45,0,0
101048,-666.666666666667,3,2,1,45,0,0
102382,521.739130434783,3,2,1,45,1,0
102382,-142.857142857143,3,2,1,80,0,0
102903,-142.857142857143,3,2,1,5,0,0
102968,-142.857142857143,3,2,1,80,0,0
104135,1000,4,2,1,45,1,0
104135,-200,4,2,1,45,0,0
107135,1000,4,2,1,45,1,0
107135,-111.111111111111,4,2,1,45,0,0
108135,-142.857142857143,4,2,1,45,0,0
109135,-200,4,2,1,45,0,0
110135,-333.333333333333,4,2,1,45,0,0
111135,-200,4,2,1,45,0,0
112135,-90.9090909090909,4,2,1,45,0,0
113135,-142.857142857143,4,2,1,45,0,0
114135,-500,4,2,1,45,0,0
115134,501.25313283208,4,2,1,45,1,0
115134,-133.333333333333,4,2,1,45,0,0
116136,-111.111111111111,4,2,1,45,0,0
116637,-133.333333333333,4,2,1,45,0,0
117139,-1000,4,2,1,45,0,0
118642,-500,4,2,1,45,0,0
119144,-133.333333333333,4,2,1,45,0,0
120146,-111.111111111111,4,2,1,45,0,0
120647,-133.333333333333,4,2,1,45,0,0
122151,-333.333333333333,4,2,1,45,0,0
123154,-133.333333333333,4,2,1,45,0,0
124156,-111.111111111111,4,2,1,45,0,0
124657,-133.333333333333,4,2,1,45,0,0
125409,-1000,4,2,1,45,0,0
126161,-500,4,2,1,45,0,0
127164,-133.333333333333,4,2,1,45,0,0
128166,-111.111111111111,4,2,1,45,0,0
128667,-133.333333333333,4,2,1,45,0,0
129419,-166.666666666667,4,2,1,45,0,0
131174,-133.333333333333,4,2,1,45,0,0
131675,521.739130434783,4,2,1,80,1,0
131675,-133.333333333333,4,2,1,80,0,0
132196,-133.333333333333,4,2,1,5,0,0
132261,-133.333333333333,4,2,1,80,0,0
132942,461.538461538462,4,2,1,80,1,0
132942,-200,4,2,1,80,0,0
133403,499.750124937531,4,2,1,80,1,0
133403,-200,4,2,1,80,0,0
134902,499.750124937531,4,2,1,80,1,0
134902,-200,4,2,1,80,0,0
142878,499.750124937531,4,2,1,90,1,1
143377,-133.333333333333,4,2,1,90,0,1
143877,-111.111111111111,4,2,1,90,0,1
146876,-100,4,2,1,90,0,1
147375,-133.333333333333,4,2,1,90,0,1
147875,-100,4,2,1,90,0,1
151373,-133.333333333333,4,2,1,90,0,1
151873,-100,4,2,1,90,0,1
154872,-133.333333333333,4,2,1,90,0,1
155371,394.736842105263,4,2,1,80,1,0
155371,-181.818181818181,4,2,1,80,0,0
155765,-181.818181818181,4,2,1,5,0,0
155815,-181.818181818181,4,2,1,80,0,0
156435,500,4,2,1,80,1,0
156435,-133.333333333333,4,2,1,80,0,0
156935,500,4,2,1,80,1,0
156935,-111.111111111111,4,2,1,80,0,0
159935,-133.333333333333,4,2,1,80,0,0
160435,-83.3333333333333,4,2,1,80,0,0
160935,-90.9090909090909,4,2,1,80,0,0
168935,-125,4,2,1,70,0,0
169685,-153.846153846154,4,2,1,70,0,0
171935,-200,4,2,1,70,0,0
177435,-333.333333333333,4,2,1,60,0,0
184435,375,4,2,1,80,1,0
184435,-200,4,2,1,80,0,0
185330,480,4,2,1,80,1,0
185330,-125,4,2,1,80,0,0
185810,-166.666666666667,4,2,1,80,0,0
186290,-500,4,2,1,80,0,0
186770,480,4,2,1,80,1,0
186770,-83.3333333333333,4,2,1,80,0,0
187250,-100,4,2,1,80,0,0
189650,-142.857142857143,4,2,1,80,0,0
190370,-100,4,2,1,80,0,0
193490,-142.857142857143,4,2,1,80,0,0
194450,-100,4,2,1,80,0,0
197330,-142.857142857143,4,2,1,80,0,0
198290,-100,4,2,1,80,0,0
200690,-142.857142857143,4,2,1,80,0,0
201650,-200,4,2,1,80,0,0
202130,-90.9090909090909,4,2,1,80,0,0
213650,652.173913043478,4,2,1,80,1,0
214434,500,4,2,1,80,1,0
214434,-133.333333333333,4,2,1,70,0,0
217434,-100,4,2,1,80,0,0
217934,-166.666666666667,4,2,1,80,0,0
218434,-90.9090909090909,4,2,1,80,0,0
218934,-100,4,2,1,80,0,0
234184,-200,4,2,1,80,0,0
234434,-83.3333333333333,4,2,1,85,0,0
241434,681.818181818182,4,2,1,80,1,0
241434,-83.3333333333333,4,2,1,80,0,0
242254,666.666666666667,4,2,1,80,1,0
242254,-333.333333333333,4,2,1,60,0,0
242920,666.666666666667,4,2,1,80,1,0
242920,-133.333333333333,4,2,1,60,0,0
261586,-117.647058823529,4,2,1,60,0,0
264253,-100,4,2,1,70,0,0
268253,666.666666666667,4,2,1,80,1,0
268253,-133.333333333333,4,2,1,80,0,0
269269,500,4,2,1,80,1,0
269269,-125,4,2,1,80,0,0
271269,-166.666666666667,4,2,1,80,0,0
277269,-125,4,2,1,80,0,0
279269,-166.666666666667,4,2,1,80,0,0
281269,-125,4,2,1,80,0,0
283769,-250.000000000001,4,2,1,80,0,0
285019,-133.333333333333,4,2,1,80,0,0
285269,-100,4,2,1,80,0,0
291769,618.556701030928,4,2,1,80,1,0
291769,-133.333333333333,4,2,1,80,0,0
293086,444.444444444444,4,2,1,80,1,0
296197,-100,4,2,1,40,0,0
296641,-76.9230769230769,4,2,1,80,0,0
303752,-66.6666666666667,4,2,1,80,0,0
310863,-55.5555555555556,4,2,1,80,0,0
317530,555.555555555556,4,2,1,80,1,0
317530,-133.333333333333,4,2,1,80,0,0
318728,600,4,2,1,80,1,0
319328,600,4,2,1,50,1,0
319328,-333.333333333333,4,2,1,50,0,0
321728,-499.999999999999,4,2,1,50,0,0
322928,-999.999999999997,4,2,1,50,0,0
324128,-499.999999999999,4,2,1,50,0,0
328928,-333.333333333333,4,2,1,50,0,0
332528,-499.999999999999,4,2,1,50,0,0
338528,-333.333333333333,4,2,1,50,0,0
340928,-499.999999999999,4,2,1,50,0,0
342128,666.666666666667,4,2,1,80,1,0
342128,-142.857142857143,4,2,1,80,0,0
343280,600,4,2,1,80,1,0
343280,-133.333333333333,4,2,1,80,0,0
343880,600,4,2,1,80,1,0
343880,-83.3333333333333,4,2,1,85,0,1
344480,-100,4,2,1,85,0,1
363080,-133.333333333333,4,2,1,75,0,0
365480,-200,4,2,1,75,0,0
367880,666.666666666667,4,2,1,75,1,0
368644,600,4,2,1,80,1,0
368644,-333.333333333333,4,2,1,65,0,0
369244,600,4,2,1,90,1,1
369244,-76.9230769230769,4,2,1,90,0,1
370444,-133.333333333333,4,2,1,90,0,1
371044,-500,4,2,1,90,0,1
371644,-100,4,2,1,90,0,1
372244,-142.857142857143,4,2,1,90,0,1
372844,-142.857142857143,4,2,1,75,0,1
374044,-100,4,2,1,90,0,1
375244,-133.333333333333,4,2,1,90,0,1
375844,-200,4,2,1,90,0,1
378244,-200,4,2,1,75,0,1
378844,-76.9230769230769,4,2,1,90,0,1
380044,-133.333333333333,4,2,1,90,0,1
380644,-500,4,2,1,90,0,1
381244,-117.647058823529,4,2,1,90,0,1
383044,-142.857142857143,4,2,1,75,0,1
383644,-76.9230769230769,4,2,1,90,0,1
385444,-100,4,2,1,90,0,1
388444,-100,4,2,1,80,0,0
389244,-166.666666666667,4,2,1,60,0,0
395644,444.444444444444,4,2,1,80,1,0
395644,-181.818181818181,4,2,1,80,0,0
396088,-181.818181818181,4,2,1,5,0,0
396144,-181.818181818181,4,2,1,80,0,0
397087,500,4,2,1,75,1,0
397087,-500,4,2,1,75,0,0
398587,500,4,2,1,75,1,0
398587,-133.333333333333,4,2,1,75,0,0
399587,-166.666666666667,4,2,1,75,0,0
400087,-250,4,2,1,75,0,0
400587,-166.666666666667,4,2,1,75,0,0
404087,-250.000000000001,4,2,1,75,0,0
404587,-166.666666666667,4,2,1,75,0,0
412587,-250.000000000001,4,2,1,75,0,0
414587,-100,4,2,1,85,0,1
416087,-133.333333333333,4,2,1,85,0,1
416587,-111.111111111111,4,2,1,85,0,1
420087,-133.333333333333,4,2,1,85,0,1
422587,-100,4,2,1,85,0,1
424587,-133.333333333333,4,2,1,80,0,1
425087,491.803278688525,4,2,1,80,1,0
425087,-166.666666666667,4,2,1,80,0,0
426070,557.620817843866,4,2,1,35,1,0
426287,500,4,2,1,35,1,0
426287,-333.333333333333,4,2,1,35,0,0
427787,545.454545454546,4,2,1,35,1,0
428332,504.201680672269,4,2,1,35,1,0
428332,-333.333333333333,4,2,1,35,0,0
429343,631.578947368421,4,2,1,35,1,0
429343,-333.333333333333,4,2,1,35,0,0
430606,517.241379310345,4,2,1,35,1,0
430606,-333.333333333333,4,2,1,35,0,0
431641,508.474576271186,4,2,1,35,1,0
431641,-333.333333333333,4,2,1,35,0,0
432657,631.578947368421,4,2,1,35,1,0
432657,-333.333333333333,4,2,1,35,0,0
435183,555.555555555556,4,2,1,35,1,0
435183,-333.333333333333,4,2,1,35,0,0
436849,535.714285714286,4,2,1,35,1,0
437390,540.540540540541,4,2,1,35,1,0
437390,-333.333333333333,4,2,1,35,0,0
438471,517.241379310345,4,2,1,35,1,0
438471,-333.333333333333,4,2,1,35,0,0
439505,530.973451327434,4,2,1,35,1,0
439505,-333.333333333333,4,2,1,35,0,0
440566,645.161290322581,4,2,1,35,1,0
440566,-333.333333333333,4,2,1,35,0,0
441211,444.444444444444,4,2,1,35,1,0
441655,638.297872340426,4,2,1,35,1,0
441655,-500,4,2,1,35,0,0
442931,631.578947368421,4,2,1,35,1,0
442931,-666.666666666667,4,2,1,35,0,0
443562,612.244897959184,4,2,1,35,1,0
444174,722.89156626506,4,2,1,20,1,0
444174,-100,4,2,1,35,0,0
445618,612.244897959184,4,2,1,35,1,0
446842,606.060606060606,4,2,1,35,1,0
448054,869.565217391304,4,2,1,35,1,0
448923,863.309352517986,4,2,1,35,1,0
448923,-500,4,2,1,35,0,0
449354,-500,4,2,1,5,0,0
449786,923.076923076923,4,2,1,35,1,0
449786,-500,4,2,1,35,0,0
450247,-500,4,2,1,5,0,0
450709,-142.857142857143,4,2,1,35,0,0
451632,909.090909090909,4,2,1,80,1,0
451632,-66.6666666666667,4,2,1,80,0,0
452640,468.75,4,2,1,80,1,0
452640,-133.333333333333,4,2,1,80,0,0
453108,468.75,4,2,1,80,1,0
453108,-142.857142857143,4,2,1,80,0,0
454045,-200,4,2,1,80,0,0
454983,-142.857142857143,4,2,1,80,0,0
455451,-111.111111111111,4,2,1,80,0,0
455920,468.75,4,2,1,80,1,0
455920,-166.666666666667,4,2,1,80,0,0
457091,-200,4,2,1,80,0,0
457795,-58.8235294117647,4,2,1,90,0,1
458263,-66.6666666666667,4,2,1,90,0,1
464826,-125,4,2,1,90,0,1
465295,-58.8235294117647,4,2,1,90,0,1
465763,-66.6666666666667,4,2,1,90,0,1
468576,-500,4,2,1,90,0,1
469045,-66.6666666666667,4,2,1,90,0,1
471857,-100,4,2,1,90,0,1
472326,-133.333333333333,4,2,1,90,0,1
472795,-66.6666666666667,4,2,1,90,0,1
474552,-133.333333333333,4,2,1,80,0,0
475607,-100,4,2,1,90,0,0
476076,-166.666666666667,4,2,1,90,0,0
476545,566.037735849057,4,2,1,80,1,0
477380,600,4,2,1,80,1,0
478580,-83.3333333333333,4,2,1,80,0,0
479180,600,4,2,1,80,1,0
479180,-83.3333333333333,4,2,1,80,0,0
479480,-100,4,2,1,80,0,0
479780,-125,4,2,1,80,0,0
480980,-500,4,2,1,80,0,0
481580,-58.8235294117647,4,2,1,85,0,1
482080,-66.6666666666667,4,2,1,85,0,1
486380,-50,4,2,1,85,0,1
486880,-66.6666666666667,4,2,1,85,0,1
488780,-58.8235294117647,4,2,1,85,0,1
489380,-100,4,2,1,85,0,1
490880,-333.333333333333,4,2,1,85,0,1
491180,-58.8235294117647,4,2,1,85,0,1
491680,-66.6666666666667,4,2,1,85,0,1
492380,-58.8235294117647,4,2,1,85,0,1
492880,-66.6666666666667,4,2,1,85,0,1
494780,-58.8235294117647,4,2,1,85,0,1
496480,-66.6666666666667,4,2,1,85,0,1
500480,-333.333333333333,4,2,1,85,0,1
500780,-58.8235294117647,4,2,1,90,0,1
501680,-66.6666666666667,4,2,1,85,0,1
501980,-100,4,2,1,80,0,1
502580,545.454545454546,4,2,1,80,1,0
502580,-133.333333333333,4,2,1,80,0,0
503717,521.739130434783,4,2,1,70,1,0
503717,-166.666666666667,4,2,1,70,0,0
504238,681.818181818182,4,2,1,70,1,0
504578,-333.333333333333,4,2,1,70,0,0
505319,600,4,2,1,70,1,0
505319,-166.666666666667,4,2,1,55,0,0
520919,-200,4,2,1,55,0,0
521519,-250.000000000001,4,2,1,55,0,0
524519,-100,4,2,1,80,0,0
530519,491.803278688525,4,2,1,80,1,0
530519,-166.666666666667,4,2,1,80,0,0
531010,-166.666666666667,4,2,1,5,0,0
531072,-166.666666666667,4,2,1,80,0,0
531799,521.739130434783,4,2,1,65,1,0
531799,-200,4,2,1,65,0,0
532920,666.666666666667,4,2,1,65,1,0
532920,-133.333333333333,4,2,1,65,0,0
533331,681.818181818182,4,2,1,65,1,0
533331,-200,4,2,1,65,0,0
533901,789.473684210526,4,2,1,65,1,0
534690,857.142857142857,4,2,1,65,1,0
534690,-250,4,2,1,65,0,0
536404,800,4,2,1,65,1,0
536404,-333.333333333333,4,2,1,65,0,0
538004,800,4,2,1,65,1,0
538004,-338.983050847458,4,2,1,65,0,0
539604,1111.11111111111,4,2,1,65,1,0
541539,967.741935483871,4,2,1,65,1,0
541539,-333.333333333333,4,2,1,65,0,0
542688,750,4,2,1,65,1,0
542688,-166.666666666667,4,2,1,65,0,0
543474,875.912408759124,4,2,1,65,1,0
543474,-166.666666666667,4,2,1,65,0,0
545225,750,4,2,1,65,1,0
545975,-250,4,2,1,65,0,0
546725,747.663551401869,4,2,1,80,1,0
548220,-142.857142857143,4,2,1,80,0,0
549715,-100,4,2,1,80,0,0
551210,-142.857142857143,4,2,1,80,0,0
552706,-100,4,2,1,80,0,0
554201,-142.857142857143,4,2,1,80,0,0
555696,-100,4,2,1,80,0,0
556444,540.540540540541,4,2,1,80,1,0
557185,500,4,2,1,80,1,0
557435,500,4,2,1,80,1,0
558935,500,4,2,1,80,1,0
563935,500,4,2,1,60,1,0
563935,-333.333333333333,4,2,1,60,0,0
566851,-333.333333333333,4,2,1,5,0,0
566935,-333.333333333333,4,2,1,60,0,0
567935,-333.333333333333,4,2,1,5,0,0
568018,-333.333333333333,4,2,1,60,0,0
569362,521.739130434783,4,2,1,70,1,0
569362,-125,4,2,1,70,0,0
583970,759.493670886076,4,2,1,80,1,0
583970,-125,4,2,1,80,0,0
585161,545.454545454546,4,2,1,70,1,0
585161,-500,4,2,1,70,0,0
585706,545.454545454546,4,2,1,70,1,0
585706,-111.111111111111,4,2,1,70,0,0
602615,-166.666666666666,4,2,1,70,0,0
611342,461.538461538462,4,2,1,80,1,0
611342,-166.666666666667,4,2,1,80,0,0
611803,-166.666666666667,4,2,1,5,0,0
611861,-166.666666666667,4,2,1,80,0,0
612761,480,4,2,1,55,1,0
612761,-333.333333333333,4,2,1,55,0,0
613721,480,4,2,1,55,1,0
613721,-333.333333333333,4,2,1,55,0,0
627161,-500,4,2,1,55,0,0
643001,491.803278688525,4,2,1,80,1,0
643001,-166.666666666667,4,2,1,80,0,0
643492,-166.666666666667,4,2,1,5,0,0
643554,-166.666666666667,4,2,1,80,0,0
644263,480,4,2,1,85,1,0
644263,-66.6666666666667,4,2,1,85,0,0
644983,-83.3333333333333,4,2,1,85,0,0
645703,480,4,2,1,80,1,0
645703,-100,4,2,1,80,0,0
646663,-133.333333333333,4,2,1,80,0,0
647143,-200,4,2,1,80,0,0
647623,-200,4,2,1,85,0,0
647653,-200,4,2,1,50,0,0
647863,-83.3333333333333,4,2,1,85,0,0
648583,-200,4,2,1,85,0,0
649063,-133.333333333333,4,2,1,85,0,0
649543,-200,4,2,1,75,0,0
657223,-142.857142857143,4,2,1,75,0,0
662263,-117.647058823529,4,2,1,75,0,0
664423,-66.6666666666667,4,2,1,80,0,0
664903,-133.333333333333,4,2,1,80,0,0
665893,-133.333333333333,4,2,1,50,0,0
666103,-133.333333333333,4,2,1,80,0,0
666133,-133.333333333333,4,2,1,50,0,0
666343,-133.333333333333,4,2,1,80,0,0
667783,-500,4,2,1,80,0,0
668263,-500,4,2,1,85,0,0
668743,-133.333333333333,4,2,1,80,0,0
671143,483.870967741935,4,2,1,80,1,0
671143,-133.333333333333,4,2,1,80,0,0
671626,-133.333333333333,4,2,1,5,0,0
671687,-133.333333333333,4,2,1,80,0,0
672557,800,4,2,1,70,1,0
672557,-500,4,2,1,70,0,0
673357,800,4,2,1,90,1,1
673357,-55.5555555555556,4,2,1,90,0,1
675757,-76.923076923077,4,2,1,90,0,1
676157,-133.333333333333,4,2,1,90,0,1
676557,-55.5555555555556,4,2,1,90,0,1
677757,-133.333333333333,4,2,1,90,0,1
678157,-55.5555555555556,4,2,1,90,0,1
679357,-250,4,2,1,90,0,1
679757,-55.5555555555556,4,2,1,90,0,1
682157,-76.923076923077,4,2,1,90,0,1
682557,-133.333333333333,4,2,1,90,0,1
682957,-55.5555555555556,4,2,1,90,0,1
684157,-133.333333333333,4,2,1,90,0,1
684557,-55.5555555555556,4,2,1,90,0,1
685757,-250,4,2,1,90,0,1
686157,-66.6666666666667,4,2,1,90,0,1
688957,-133.333333333333,4,2,1,90,0,1
689357,-66.6666666666667,4,2,1,90,0,1
691757,-133.333333333333,4,2,1,90,0,1
692157,-250,4,2,1,90,0,1
692557,-55.5555555555556,4,2,1,90,0,1
693757,-76.9230769230769,4,2,1,90,0,1
694157,-55.5555555555556,4,2,1,90,0,1
695357,-133.333333333333,4,2,1,90,0,1
695757,-50,4,2,1,95,0,1
697357,-43.4782608695652,4,2,1,100,0,1
698557,-40,4,2,1,100,0,1
698957,-100,4,2,1,70,0,0
699057,-100,4,2,1,80,0,0
700557,800,4,2,1,20,1,0

[Colours]
Combo1 : 255,142,199
Combo2 : 92,207,251
Combo3 : 255,255,140
Combo4 : 121,255,121

[HitObjects]
256,192,493,12,0,1658,0:0:0:0:
107,255,1940,6,0,B|207:242|160:310|276:293,1,168.750006437302,6|0,0:0|0:0,0:0:0:0:
277,277,2440,1,8,0:3:0:0:
70,86,2690,1,8,0:3:0:0:
73,125,2815,1,8,0:3:0:0:
76,164,2940,5,8,0:0:0:0:
182,78,3190,1,0,0:0:0:0:
301,124,3440,2,0,P|297:183|285:239,1,112.500004291535,8|0,0:3|0:0,0:0:0:0:
131,240,3940,2,0,P|157:293|175:347,1,112.500004291535,8|0,0:0|0:0,0:0:0:0:
368,72,4440,1,8,0:0:0:0:
332,50,4565,1,8,0:3:0:0:
291,46,4690,1,8,0:3:0:0:
253,62,4815,1,8,0:3:0:0:
226,92,4940,6,0,L|235:206,1,112.500004291535,6|0,0:0|0:0,0:0:0:0:
463,20,5440,2,0,B|444:54|444:54|437:186,1,168.750006437302,8|0,0:3|0:0,0:0:0:0:
453,198,5940,1,8,0:0:0:0:
314,222,6190,1,0,0:0:0:0:
468,356,6440,1,8,0:3:0:0:
248,325,6690,1,8,0:3:0:0:
289,318,6815,1,8,0:3:0:0:
329,311,6940,6,0,B|347:335|347:335|205:351,1,168.750006437302,8|0,0:0|0:0,0:0:0:0:
195,331,7440,2,0,L|203:275,1,56.2500021457673,8|0,0:3|0:0,0:0:0:0:
94,144,7690,2,0,L|102:200,1,56.2500021457673,2|0,0:0|0:0,0:0:0:0:
300,64,7940,2,0,L|282:182,1,112.500004291535,10|0,0:0|0:0,0:0:0:0:
161,88,8315,1,8,0:3:0:0:
179,72,8440,2,0,B|96:16|96:16|87:126,1,202.499993820191,2|0,0:0|0:0,0:0:0:0:
105,142,8940,6,0,L|96:243,1,89.9999972534181,6|4,0:0|0:3,0:0:0:0:
255,48,9440,1,4,0:3:0:0:
262,133,9690,1,4,0:3:0:0:
383,11,9940,5,8,0:0:0:0:
346,251,10190,1,4,0:3:0:0:
349,229,10315,1,4,0:3:0:0:
352,206,10440,2,0,B|310:165|255:197|255:197|271:330,1,225,4|0,0:3|0:0,0:0:0:0:
467,203,10940,5,4,0:1:0:0:
467,203,11190,2,0,B|440:235|483:278|519:252|414:126|471:46|471:46|490:64|499:91,1,300,4|0,0:3|0:0,0:0:0:0:
246,342,11940,2,0,P|310:301|388:317,1,150,8|0,0:0|0:0,0:0:0:0:
140,33,12440,2,0,P|204:74|282:58,1,150,4|0,0:3|0:0,0:0:0:0:
38,151,12940,5,8,0:0:0:0:
38,151,13190,2,0,B|84:249|35:367|35:367|12:329|17:284,1,300,4|0,0:3|0:0,0:0:0:0:
260,58,13940,2,0,B|167:62|210:7|113:11,1,150,8|0,0:0|0:0,0:0:0:0:
439,124,14440,1,8,0:0:0:0:
372,160,14565,1,8,0:3:0:0:
352,201,14690,1,8,0:3:0:0:
355,233,14815,1,8,0:3:0:0:
367,249,14940,5,4,0:3:0:0:
512,153,15190,1,4,0:3:0:0:
212,208,15440,2,0,P|231:269|241:342,1,120,0|0,0:3|0:0,0:0:0:0:
348,10,15940,2,0,P|328:71|318:144,1,120,8|0,0:0|0:0,0:0:0:0:
93,350,16440,2,0,L|228:340,1,120,4|0,0:3|0:0,0:0:0:0:
78,58,16940,6,0,B|61:106|2:118|2:118|206:72|138:176|351:137,1,450,8|0,0:0|0:0,0:0:0:0:
512,73,17940,2,0,B|480:18|480:18|507:263,1,300,8|0,0:0|0:0,0:0:0:0:
35,346,18690,1,8,0:3:0:0:
75,350,18815,1,8,0:3:0:0:
116,355,18940,6,0,B|131:270|76:222|76:222|107:145|107:145|67:84,1,300,10|0,0:0|0:0,0:0:0:0:
474,62,19690,1,8,0:3:0:0:
470,110,19815,1,8,0:3:0:0:
466,160,19940,2,0,B|508:133|509:89|509:89|340:47|413:158|232:113,1,359.999989013672,10|0,0:0|0:0,0:0:0:0:
28,376,20690,1,8,0:3:0:0:
99,367,20815,1,8,0:3:0:0:
170,357,20940,1,4,0:1:0:0:
256,192,21002,12,0,24940,0:0:0:0:
90,93,25938,6,0,B|146:79|146:79|199:100|199:100|280:25|280:25|309:147|239:114|252:250,1,450.000017166138
341,342,27179,6,0,B|311:315|311:315|452:311,1,165.000005035401,4|0,0:0|0:0,0:0:0:0:
512,42,27633,1,2,0:0:0:0:
500,52,27724,2,0,P|484:92|481:171,1,110.000003356934,10|2,0:0|0:0,0:0:0:0:
495,241,27997,1,0,0:0:0:0:
271,84,28179,1,2,0:0:0:0:
278,97,28269,2,0,L|398:108,1,110.000003356934,4|0,0:3|0:0,0:0:0:0:
294,188,28542,2,0,P|235:166|183:159,1,110.000003356934,2|0,0:0|0:0,0:0:0:0:
39,215,28815,2,0,P|78:200|114:195,1,75.000002861023,8|0,0:0|0:0,0:0:0:0:
231,277,29088,2,0,P|201:266|175:262,1,50,2|0,0:0|0:0,0:0:0:0:
0,331,29360,6,0,B|98:323|49:372|173:363,1,165.000005035401,4|0,0:3|0:0,0:0:0:0:
366,147,29815,1,2,0:0:0:0:
350,141,29906,2,0,P|326:193|316:250,1,110.000003356934,10|2,0:0|0:0,0:0:0:0:
326,339,30179,1,0,0:0:0:0:
512,151,30360,1,2,0:0:0:0:
498,146,30451,2,0,L|505:267,1,110.000003356934,4|0,0:3|0:0,0:0:0:0:
325,119,30724,2,0,P|334:59|358:3,1,110.000003356934,2|0,0:0|0:0,0:0:0:0:
239,153,30997,2,0,P|253:195|259:231,1,75.000002861023,8|0,0:0|0:0,0:0:0:0:
137,276,31269,2,0,P|142:247|152:220,1,50,2|0,0:0|0:0,0:0:0:0:
172,52,31542,6,0,B|191:82|191:82|47:69,1,165.000005035401,4|0,0:3|0:0,0:0:0:0:
10,292,31997,1,2,0:0:0:0:
0,279,32088,2,0,P|57:256|118:253,1,110.000003356934,10|2,0:0|0:0,0:0:0:0:
189,290,32360,1,0,0:0:0:0:
376,135,32542,1,2,0:0:0:0:
384,148,32633,2,0,L|261:139,1,110.000003356934,4|0,0:3|0:0,0:0:0:0:
128,0,32906,2,0,P|162:49|182:111,1,110.000003356934,2|0,0:0|0:0,0:0:0:0:
89,207,33179,2,0,P|93:154|106:122,1,75.000002861023,8|0,0:0|0:0,0:0:0:0:
233,230,33451,2,0,P|232:261|220:291,1,50,2|0,0:0|0:0,0:0:0:0:
91,344,33724,6,0,B|179:336|148:387|265:376,1,165.000005035401,4|0,0:3|0:0,0:0:0:0:
419,300,34179,1,2,0:0:0:0:
410,314,34269,2,0,P|395:254|396:195,1,110.000003356934,10|2,0:0|0:0,0:0:0:0:
446,135,34542,1,0,0:0:0:0:
187,26,34724,1,2,0:0:0:0:
179,39,34815,2,0,L|312:24,1,119.999996337891,4|0,0:3|0:0,0:0:0:0:
240,261,35088,2,0,L|107:246,1,119.999996337891,2|0,0:0|0:0,0:0:0:0:
54,26,35360,2,0,B|86:80|86:80|64:142,1,129.999994049073,8|0,0:0|0:0,0:0:0:0:
107,343,35633,2,0,B|74:288|74:288|96:226,1,129.999994049073,2|0,0:0|0:0,0:0:0:0:
324,318,35906,6,0,B|212:333|273:261|145:280,1,179.999994506836,4|2,0:0|0:0,0:0:0:0:
236,150,36633,1,0,0:0:0:0:
236,150,36724,2,0,L|240:226,1,59.9999981689454
262,220,36997,2,0,P|300:196|362:191,1,89.9999972534181,2|0,0:0|0:0,0:0:0:0:
479,330,37542,2,0,P|434:322|397:298,1,89.9999972534181,2|0,0:0|0:0,0:0:0:0:
501,82,38088,6,0,L|513:269,1,179.999994506836,4|2,0:3|0:0,0:0:0:0:
358,189,38815,1,0,0:0:0:0:
358,189,38906,2,0,L|362:117,1,59.9999981689454
374,106,39179,2,0,L|267:113,1,89.9999972534181,2|0,0:0|0:0,0:0:0:0:
118,46,39724,2,0,L|225:53,1,89.9999972534181,2|0,0:0|0:0,0:0:0:0:
24,93,40269,6,0,P|77:138|70:249,1,179.999994506836,4|2,0:3|0:0,0:0:0:0:
154,312,40997,1,0,0:0:0:0:
154,312,41088,2,0,L|226:307,1,59.9999981689454
226,287,41360,2,0,P|275:294|325:313,1,89.9999972534181,2|0,0:0|0:0,0:0:0:0:
473,198,41906,2,0,P|424:205|374:224,1,89.9999972534181,2|0,0:0|0:0,0:0:0:0:
439,351,42451,6,0,B|432:267|432:267|442:244|442:244|430:48|430:48|393:114,1,375.000014305115,4|2,0:0|0:0,0:0:0:0:
244,110,42986,2,0,B|281:106|281:106|319:124,5,75.000002861023,2|2|2|2|2|2,0:0|0:0|0:0|0:0|0:0|0:0,0:0:0:0:
274,239,43522,6,0,L|272:194,2,37.5000014305115,2|2|2,0:0|0:0|0:0,0:0:0:0:
178,317,43790,1,8,0:3:0:0:
215,275,43879,1,8,0:3:0:0:
266,255,43968,1,4,0:3:0:0:
321,261,44058,2,0,P|341:298|351:336,1,69.9999978637696,10|0,0:0|0:0,0:0:0:0:
512,99,44236,2,0,B|447:94|447:94|376:146|376:146|306:142,1,209.999993591309,4|0,0:3|0:0,0:0:0:0:
122,123,44593,6,0,P|177:149|130:29,1,324.999985122681,4|0,0:1|0:0,0:0:0:0:
27,252,45138,2,0,P|30:201|64:245,1,129.999994049073,10|0,0:0|0:0,0:0:0:0:
271,295,45411,2,0,P|267:244|233:288,1,129.999994049073,2|0,0:0|0:0,0:0:0:0:
0,380,45683,6,0,B|72:373|72:373|81:364|81:364|161:357,1,165.000005035401,4|0,0:3|0:0,0:0:0:0:
387,364,46138,1,2,0:0:0:0:
369,384,46229,2,0,L|249:367,1,110.000003356934,8|2,0:0|0:0,0:0:0:0:
494,183,46502,2,0,L|477:303,1,110.000003356934,0|2,0:0|0:0,0:0:0:0:
354,38,46774,5,4,0:3:0:0:
286,333,47047,1,2,0:0:0:0:
189,86,47320,1,8,0:0:0:0:
243,21,47502,2,0,B|224:68|224:68|235:187,1,165.000005035401,2|0,0:0|0:0,0:0:0:0:
336,272,47865,2,0,L|158:252,1,165.000005035401,4|0,0:3|0:0,0:0:0:0:
76,131,48320,1,2,0:0:0:0:
90,110,48411,6,0,P|105:152|108:187,1,69.9999978637696,8|2,0:0|0:0,0:0:0:0:
34,249,48683,2,0,P|19:207|16:172,1,69.9999978637696,8|2,0:3|0:0,0:0:0:0:
191,66,48956,5,4,0:3:0:0:
132,345,49229,1,2,0:0:0:0:
337,125,49502,2,0,B|270:85|270:85|297:289,1,275.000008392334,12|0,0:0|0:0,0:0:0:0:
396,213,50047,2,0,L|388:391,1,165.000005035401,4|0,0:3|0:0,0:0:0:0:
512,202,50502,1,2,0:0:0:0:
499,221,50593,6,0,L|491:131,1,80,8|2,0:0|0:0,0:0:0:0:
505,55,50865,2,0,L|513:145,1,80,8|2,0:3|0:0,0:0:0:0:
358,4,51138,5,4,0:3:0:0:
431,297,51411,1,2,0:0:0:0:
244,54,51683,1,8,0:0:0:0:
295,120,51865,2,0,B|261:88|261:88|133:99,1,165.000005035401,2|0,0:0|0:0,0:0:0:0:
31,191,52229,2,0,L|199:174,1,165.000005035401,4|0,0:3|0:0,0:0:0:0:
380,195,52683,1,2,0:0:0:0:
364,176,52774,6,0,P|350:212|348:252,1,69.9999978637696,8|2,0:0|0:0,0:0:0:0:
437,283,53047,2,0,P|451:319|453:359,1,69.9999978637696,8|2,0:3|0:0,0:0:0:0:
503,215,53320,6,0,B|482:169|482:169|501:37|501:37|466:115|361:111|321:81|361:2|432:14,1,450.000017166138
280,85,54570,6,0,L|293:206,1,112.500004291535,2|0,0:0|0:0,0:0:0:0:
379,249,55115,2,0,L|368:346,1,89.9999972534181,2|0,0:0|0:0,0:0:0:0:
301,384,55660,6,0,P|261:358|207:346,1,89.9999972534181,2|0,0:0|0:0,0:0:0:0:
77,216,56070,1,8,0:3:0:0:
160,268,56206,2,0,P|195:258|225:228,1,75,8|0,0:0|0:0,0:0:0:0:
115,75,56479,2,0,P|126:109|155:140,1,75,2|0,0:3|0:0,0:0:0:0:
377,111,56751,6,0,B|296:108|333:156|231:151,1,150,4|0,0:0|0:0,0:0:0:0:
467,133,57160,1,8,0:3:0:0:
396,215,57297,2,0,P|391:259|399:308,1,75,8|0,0:0|0:0,0:0:0:0:
154,290,57570,2,0,P|159:246|151:197,1,75,8|0,0:3|0:0,0:0:0:0:
287,384,57842,2,0,L|453:370,1,150,4|0,0:3|0:0,0:0:0:0:
232,189,58251,1,8,0:3:0:0:
121,215,58388,2,0,L|274:231,1,150,8|0,0:0|0:0,0:0:0:0:
426,171,58797,5,0,0:0:0:0:
380,32,58933,2,0,P|426:94|450:166,1,150,4|0,0:3|0:0,0:0:0:0:
298,33,59342,1,8,0:3:0:0:
212,118,59479,2,0,P|170:101|137:74,1,75,8|0,0:0|0:0,0:0:0:0:
354,276,59751,2,0,P|396:259|429:232,1,75,8|0,0:3|0:0,0:0:0:0:
272,205,60024,2,0,P|250:285|272:352,1,150,4|0,0:3|0:0,0:0:0:0:
83,132,60433,1,8,0:3:0:0:
127,242,60570,2,0,L|122:320,1,75,8|0,0:0|0:0,0:0:0:0:
0,302,60842,2,0,L|5:380,1,75
57,143,61115,6,0,B|141:138|117:180|211:173,1,150,4|0,0:3|0:0,0:0:0:0:
367,248,61524,1,8,0:3:0:0:
323,341,61660,2,0,P|286:358|252:362,1,75,8|0,0:0|0:0,0:0:0:0:
56,220,61933,2,0,P|93:224|126:241,1,75,8|0,0:3|0:0,0:0:0:0:
285,74,62206,2,0,L|277:233,1,150,4|0,0:3|0:0,0:0:0:0:
512,100,62615,1,8,0:3:0:0:
445,193,62751,2,0,P|427:264|428:354,1,150,8|0,0:0|0:0,0:0:0:0:
174,92,63160,5,0,0:0:0:0:
214,223,63297,2,0,P|213:147|196:71,1,150,4|0,0:3|0:0,0:0:0:0:
50,172,63706,1,8,0:3:0:0:
107,279,63842,2,0,P|114:319|116:358,1,75,8|0,0:0|0:0,0:0:0:0:
303,376,64115,2,0,P|310:336|312:297,1,75,8|0,0:3|0:0,0:0:0:0:
176,144,64388,2,0,P|238:193|316:180,1,150,4|0,0:3|0:0,0:0:0:0:
452,17,64797,1,8,0:3:0:0:
502,119,64933,2,0,L|421:112,1,75,8|0,0:0|0:0,0:0:0:0:
427,258,65206,2,0,L|501:251,1,75,8|0,0:3|0:0,0:0:0:0:
258,137,65479,6,0,B|297:201|297:201|282:275,1,150,4|0,0:3|0:0,0:0:0:0:
64,123,65888,1,8,0:3:0:0:
109,232,66024,2,0,P|102:273|83:307,1,75,8|0,0:0|0:0,0:0:0:0:
0,70,66297,2,0,P|6:29|25:-6,1,75,8|0,0:3|0:0,0:0:0:0:
190,217,66570,2,0,L|39:227,1,150,4|0,0:3|0:0,0:0:0:0:
330,139,66979,1,8,0:3:0:0:
209,105,67115,2,0,L|360:115,1,150,8|0,0:0|0:0,0:0:0:0:
494,317,67524,5,0,0:0:0:0:
505,185,67660,2,0,P|471:257|473:335,1,150,4|0,0:3|0:0,0:0:0:0:
274,96,68070,1,8,0:3:0:0:
347,205,68206,2,0,P|360:243|365:287,1,75,8|0,0:0|0:0,0:0:0:0:
189,349,68479,2,0,P|202:311|207:267,1,75,8|0,0:3|0:0,0:0:0:0:
14,199,68751,2,0,P|72:169|147:209,1,150,4|0,0:3|0:0,0:0:0:0:
363,90,69160,1,8,0:3:0:0:
283,176,69297,2,0,L|204:165,1,75,8|0,0:0|0:0,0:0:0:0:
305,22,69570,2,0,L|226:33,1,75,8|0,0:3|0:0,0:0:0:0:
83,161,69842,6,0,B|108:90|108:90|87:18,1,150,4|0,0:3|0:0,0:0:0:0:
238,268,70251,1,8,0:3:0:0:
123,250,70388,2,0,P|86:261|57:282,1,75,8|0,0:0|0:0,0:0:0:0:
307,384,70660,2,0,P|270:373|241:352,1,75,8|0,0:3|0:0,0:0:0:0:
311,119,70933,2,0,L|323:285,1,150,4|0,0:3|0:0,0:0:0:0:
92,64,71342,1,8,0:3:0:0:
143,175,71479,2,0,P|154:257|149:337,1,150,8|0,0:0|0:0,0:0:0:0:
246,53,71888,5,0,0:0:0:0:
388,113,72024,2,0,P|322:86|241:85,1,150,4|0,0:3|0:0,0:0:0:0:
131,162,72433,1,8,0:3:0:0:
202,264,72570,2,0,P|211:307|211:347,1,75,8|0,0:0|0:0,0:0:0:0:
387,192,72842,2,0,P|359:226|329:252,1,75,8|0,0:3|0:0,0:0:0:0:
493,383,73115,2,0,P|425:339|357:367,1,150,4|0,0:3|0:0,0:0:0:0:
160,312,73524,1,8,0:3:0:0:
268,278,73660,2,0,L|261:362,1,75,8|0,0:0|0:0,0:0:0:0:
42,352,73933,2,0,L|35:268,1,75,8|0,0:3|0:0,0:0:0:0:
134,119,74206,6,0,P|167:126|108:145,1,168.750006437302,4|8,0:0|0:3,0:0:0:0:
326,311,74751,5,8,0:0:0:0:
290,223,74888,1,0,0:0:0:0:
208,260,75024,2,0,P|196:303|195:342,1,82.5000025177003,2|0,0:3|0:0,0:0:0:0:
377,225,75297,2,0,P|314:148|248:143,1,165.000005035401,4|2,0:3|0:3,0:0:0:0:
448,294,75706,1,8,0:3:0:0:
307,306,75842,2,0,P|319:342|350:378,1,82.5000025177003,8|0,0:0|0:0,0:0:0:0:
508,119,76115,2,0,L|425:112,1,82.5000025177003,2|8,0:3|0:3,0:0:0:0:
224,243,76388,5,4,0:3:0:0:
317,182,76524,2,0,L|310:264,1,82.5000025177003,0|2,0:0|0:3,0:0:0:0:
129,61,76797,1,8,0:3:0:0:
241,117,76933,2,0,L|234:33,1,82.5000025177003,8|0,0:0|0:0,0:0:0:0:
81,249,77206,2,0,L|88:165,1,82.5000025177003,2|0,0:3|0:0,0:0:0:0:
230,384,77479,6,0,P|186:356|144:344,1,82.5000025177003,4|0,0:3|0:0,0:0:0:0:
420,262,77751,2,0,P|392:306|380:348,1,82.5000025177003,2|8,0:3|0:3,0:0:0:0:
225,90,78024,2,0,P|253:168|265:258,1,165.000005035401,8|2,0:0|0:3,0:0:0:0:
480,82,78433,1,0,0:0:0:0:
346,82,78570,6,0,B|446:72|403:122|512:111,1,165.000005035401,4|2,0:3|0:3,0:0:0:0:
430,320,78979,1,8,0:3:0:0:
356,243,79115,6,0,B|365:306|416:340|416:340|269:364|303:293|175:310,1,359.999989013672,8|0,0:0|0:0,0:0:0:0:
89,210,80049,6,0,L|97:365,1,150
222,320,81049,6,0,B|216:230|216:230|197:223|197:223|187:81|187:81|235:74|273:95|273:95|299:85|299:85|336:107|384:99,1,449.99998626709,4|0,0:0|0:0,0:0:0:0:
465,218,82049,6,0,B|508:191|508:191|343:176,1,209.999993591309,12|4,0:1|0:3,0:0:0:0:
69,152,82549,1,2,0:0:0:0:
262,241,82715,2,0,P|280:293|289:346,1,104.999996795654,8|0,0:0|0:0,0:0:0:0:
130,62,83049,2,0,B|162:31|162:31|143:202,1,209.999993591309,8|4,0:1|0:3,0:0:0:0:
23,71,83549,1,2,0:0:0:0:
145,284,83715,1,8,0:0:0:0:
34,302,83882,1,0,0:0:0:0:
195,375,84049,6,0,B|262:301|262:301|370:322,1,209.999993591309,8|4,0:1|0:3,0:0:0:0:
510,78,84549,1,2,0:0:0:0:
375,220,84715,2,0,P|320:210|278:187,1,104.999996795654,8|0,0:0|0:0,0:0:0:0:
307,363,85049,6,0,L|416:371,1,104.999996795654,8|0,0:1|0:0,0:0:0:0:
205,224,85382,2,0,L|96:232,1,104.999996795654,8|0,0:1|0:0,0:0:0:0:
307,84,85715,2,0,L|416:92,1,104.999996795654,8|0,0:0|0:0,0:0:0:0:
136,60,86049,6,0,B|165:96|165:96|149:268,1,209.999993591309,8|4,0:1|0:3,0:0:0:0:
232,21,86549,1,2,0:0:0:0:
320,209,86715,2,0,P|334:266|336:319,1,104.999996795654,8|0,0:0|0:0,0:0:0:0:
474,24,87049,2,0,B|406:101|406:101|442:206,1,209.999993591309,8|4,0:1|0:3,0:0:0:0:
306,55,87548,1,2,0:0:0:0:
402,311,87715,1,8,0:0:0:0:
295,257,87882,1,0,0:0:0:0:
464,360,88048,6,0,B|495:329|495:329|317:354,1,209.999993591309,8|4,0:1|0:3,0:0:0:0:
135,172,88548,1,2,0:0:0:0:
375,210,88715,2,0,P|398:256|409:316,1,104.999996795654,8|0,0:0|0:0,0:0:0:0:
130,274,89048,6,0,L|234:265,1,104.999996795654,8|0,0:1|0:0,0:0:0:0:
426,89,89382,1,2,0:0:0:0:
410,234,89548,1,8,0:0:0:0:
284,36,89715,1,8,0:0:0:0:
332,324,89882,1,8,0:0:0:0:
424,105,90048,5,12,0:1:0:0:
227,262,90215,2,0,L|236:378,1,104.999996795654,2|4,0:0|0:3,0:0:0:0:
16,240,90548,1,8,0:0:0:0:
212,96,90715,2,0,P|255:132|292:176,1,104.999996795654,8|0,0:0|0:0,0:0:0:0:
17,69,91048,2,0,B|59:91|59:91|225:69,1,209.999993591309,8|4,0:1|0:3,0:0:0:0:
487,38,91548,1,8,0:0:0:0:
278,146,91715,2,0,P|280:209|292:256,1,104.999996795654,8|0,0:0|0:0,0:0:0:0:
512,326,92048,6,0,B|418:278|418:278|346:355,1,209.999993591309,8|4,0:1|0:3,0:0:0:0:
160,147,92548,1,2,0:0:0:0:
244,338,92715,2,0,P|292:360|353:369,1,104.999996795654,8|0,0:0|0:0,0:0:0:0:
431,72,93048,6,0,L|441:192,1,104.999996795654,8|0,0:1|0:0,0:0:0:0:
270,317,93382,2,0,L|280:197,1,104.999996795654,8|0,0:1|0:0,0:0:0:0:
109,72,93715,2,0,L|119:192,1,104.999996795654,8|0,0:0|0:0,0:0:0:0:
339,360,94048,5,8,0:1:0:0:
42,273,94215,2,0,L|154:260,1,104.999996795654,2|4,0:0|0:3,0:0:0:0:
306,115,94548,1,8,0:0:0:0:
23,81,94715,2,0,P|6:132|-1:197,1,104.999996795654,8|0,0:0|0:0,0:0:0:0:
203,41,95048,2,0,B|170:90|170:90|178:251,1,209.999993591309,8|4,0:1|0:3,0:0:0:0:
386,99,95548,1,8,0:0:0:0:
247,284,95715,2,0,P|228:335|222:399,1,104.999996795654,8|0,0:0|0:0,0:0:0:0:
497,326,96048,6,0,B|537:359|537:359|368:352,1,209.999993591309,8|4,0:1|0:3,0:0:0:0:
177,194,96548,1,2,0:0:0:0:
399,210,96715,1,8,0:0:0:0:
156,192,96882,1,2,0:0:0:0:
334,23,97048,6,0,L|323:139,1,104.999996795654,8|0,0:1|0:0,0:0:0:0:
177,336,97382,2,0,L|164:208,1,120,8|0,0:1|0:0,0:0:0:0:
356,24,97715,2,0,L|334:242,1,202.499993820191,8|0,0:0|0:0,0:0:0:0:
334,246,98048,1,4,0:0:0:0:
256,192,98132,12,0,99548,0:0:0:0:
140,107,100048,6,0,L|145:198,1,90,2|0,0:0|0:0,0:0:0:0:
162,207,101048,2,0,L|158:273,1,67.4999979400635
146,293,102048,1,0,0:0:0:0:
146,293,102382,6,0,B|215:278|263:336|263:336|248:275|292:236|292:236|384:226|377:299|469:288,1,419.999987182618
430,74,104135,6,0,P|410:122|409:177,1,100,2|0,0:0|0:0,0:0:0:0:
286,75,105135,2,0,P|292:126|319:174,1,100,2|0,0:0|0:0,0:0:0:0:
161,147,106135,2,0,P|192:188|239:216,1,100,2|0,0:0|0:0,0:0:0:0:
445,254,107135,6,0,B|353:249|389:297|273:291,1,179.999994506836,2|0,0:0|0:0,0:0:0:0:
488,343,108135,2,0,P|452:386|429:327,1,139.999995727539,2|0,0:0|0:0,0:0:0:0:
445,161,109135,2,0,P|404:199|403:255,1,100,2|0,0:0|0:0,0:0:0:0:
512,318,110135,2,0,P|487:296|445:284,1,59.9999981689454,2|0,0:0|0:0,0:0:0:0:
285,214,111135,6,0,P|337:192|383:196,1,100,2|0,0:0|0:0,0:0:0:0:
512,120,112135,2,0,B|407:110|407:110|387:95|387:95|294:85,1,220.000006713867,2|0,0:0|0:0,0:0:0:0:
163,202,113135,2,0,P|222:158|288:177,1,139.999995727539,2|0,0:0|0:0,0:0:0:0:
83,102,114135,6,0,P|92:127|97:158,1,50,2|0,0:0|0:0,0:0:0:0:
54,230,115134,6,0,B|37:229|18:219|18:219|43:175|102:166|144:198,1,168.750006437302,4|0,0:3|0:0,0:0:0:0:
192,257,115635,2,0,P|198:285|196:318,1,56.2500021457673,2|0,0:0|0:0,0:0:0:0:
119,295,115885,1,8,0:3:0:0:
292,184,116136,6,0,P|285:121|218:186,1,202.499993820191,8|0,0:0|0:0,0:0:0:0:
289,206,116637,6,0,L|408:197,1,112.500004291535,0|2,0:0|0:0,0:0:0:0:
423,195,117013,1,0,0:0:0:0:
443,192,117139,6,0,L|439:238,1,45,4|0,0:3|0:0,0:0:0:0:
451,98,118141,1,8,0:0:0:0:
428,361,118642,2,0,L|466:358,1,30
399,244,119144,6,0,P|340:261|311:356,1,168.750006437302,4|0,0:3|0:0,0:0:0:0:
386,323,119645,2,0,L|317:317,1,56.2500021457673,2|0,0:0|0:0,0:0:0:0:
254,310,119895,1,8,0:3:0:0:
241,136,120146,6,0,P|186:165|273:204,1,202.499993820191,8|0,0:0|0:0,0:0:0:0:
256,125,120647,6,0,L|129:116,1,112.500004291535,0|2,0:0|0:0,0:0:0:0:
121,114,121023,1,0,0:0:0:0:
100,111,121149,5,4,0:3:0:0:
106,207,121399,1,8,0:3:0:0:
114,303,121650,1,8,0:3:0:0:
100,111,122151,6,0,L|171:117,1,67.4999979400635,8|0,0:0|0:0,0:0:0:0:
185,131,122652,2,0,L|185:143,7,11.2499996566773
204,112,123154,6,0,B|305:106|271:165|376:159,1,168.750006437302,4|0,0:3|0:0,0:0:0:0:
423,88,123655,2,0,P|419:53|410:26,1,56.2500021457673,2|0,0:0|0:0,0:0:0:0:
347,79,123905,1,8,0:3:0:0:
468,243,124156,6,0,P|457:187|397:258,1,202.499993820191,8|0,0:0|0:0,0:0:0:0:
463,265,124657,6,0,L|332:275,1,112.500004291535,0|2,0:0|0:0,0:0:0:0:
330,274,125033,1,0,0:0:0:0:
309,275,125159,1,4,0:3:0:0:
226,282,125409,6,0,L|228:316,1,30,8|0,0:3|0:0,0:0:0:0:
220,168,126161,2,0,L|222:204,2,30,8|0|0,0:0|0:0|0:0,0:0:0:0:
226,282,126913,1,8,0:3:0:0:
425,115,127164,6,0,P|373:149|377:254,1,168.750006437302,4|0,0:3|0:0,0:0:0:0:
422,332,127665,2,0,L|349:322,1,56.2500021457673,2|0,0:0|0:0,0:0:0:0:
287,312,127915,1,8,0:3:0:0:
252,143,128166,6,0,P|235:222|181:152,1,202.499993820191,8|0,0:0|0:0,0:0:0:0:
242,126,128667,6,0,L|128:118,1,112.500004291535,0|2,0:0|0:0,0:0:0:0:
30,229,129169,6,0,L|29:195,3,28.1250010728836,4|0|0|0,0:3|0:0|0:0|0:0,0:0:0:0:
94,274,129419,2,0,L|122:274,7,22.4999993133545,8|0|0|0|0|0|0|0,0:3|0:0|0:0|0:0|0:0|0:0|0:0|0:0,0:0:0:0:
32,327,129920,2,0,L|-2:328,3,22.4999993133545,8|0|0|0,0:3|0:0|0:0|0:0,0:0:0:0:
93,378,130171,1,8,0:0:0:0:
125,376,130421,1,2,0:0:0:0:
158,373,130672,1,0,0:0:0:0:
194,369,130922,1,0,0:0:0:0:
369,178,131174,6,0,B|347:146|347:146|355:276,1,168.750006437302,4|0,0:3|0:0,0:0:0:0:
294,337,131675,6,0,B|226:284|153:327|153:327|172:257|172:257|149:204|149:204|121:270|23:233|52:164,1,450.000017166138
63,143,132942,6,0,L|141:127,1,75,2|0,0:0|0:0,0:0:0:0:
217,51,133403,2,0,L|300:63,1,75
335,257,133902,1,2,0:0:0:0:
336,221,134152,1,0,0:0:0:0:
337,185,134402,1,0,0:0:0:0:
339,149,134652,1,0,0:0:0:0:
512,313,134902,5,2,0:0:0:0:
491,272,135151,1,0,0:0:0:0:
452,249,135401,1,0,0:0:0:0:
407,251,135651,1,0,0:0:0:0:
228,347,135901,1,2,0:0:0:0:
272,357,136151,1,0,0:0:0:0:
315,342,136401,1,0,0:0:0:0:
342,306,136651,1,0,0:0:0:0:
212,152,136901,5,2,0:0:0:0:
202,196,137150,1,0,0:0:0:0:
217,239,137400,1,0,0:0:0:0:
253,266,137650,1,0,0:0:0:0:
365,63,137900,1,2,0:0:0:0:
324,83,138150,1,0,0:0:0:0:
301,122,138400,1,0,0:0:0:0:
304,167,138650,1,0,0:0:0:0:
171,34,138900,5,2,0:0:0:0:
173,74,139149,1,0,0:0:0:0:
176,115,139399,1,0,0:0:0:0:
179,155,139649,1,0,0:0:0:0:
48,297,139899,1,2,0:0:0:0:
50,257,140149,1,0,0:0:0:0:
53,216,140399,1,0,0:0:0:0:
56,176,140649,1,0,0:0:0:0:
251,254,140899,5,2,0:0:0:0:
223,251,141148,1,0,0:0:0:0:
195,249,141398,1,0,0:0:0:0:
167,247,141648,1,0,0:0:0:0:
262,342,141898,1,2,0:0:0:0:
280,340,142148,1,0,0:0:0:0:
298,338,142398,1,0,0:0:0:0:
317,336,142648,2,0,L|363:332,1,37.5
478,202,142878,6,0,B|452:213|420:202|420:202|422:209|422:209|350:154|257:207,1,225,4|8,0:1|0:3,0:0:0:0:
117,30,143377,2,0,P|147:73|169:143,1,112.500004291535,8|0,0:1|0:0,0:0:0:0:
0,338,143877,6,0,L|143:350,1,134.999995880127,4|0,0:3|0:0,0:0:0:0:
342,72,144377,2,0,L|199:84,1,134.999995880127,8|0,0:1|0:0,0:0:0:0:
334,384,144877,2,0,B|243:376|243:376|218:383|218:383|124:375,1,202.499993820191,4|8,0:3|0:3,0:0:0:0:
122,359,145376,1,8,0:1:0:0:
221,86,145626,1,0,0:0:0:0:
471,324,145876,1,4,0:3:0:0:
365,223,146001,2,0,B|388:266|388:266|396:360,1,134.999995880127,8|0,0:3|0:0,0:0:0:0:
512,74,146376,2,0,L|502:216,1,134.999995880127,8|0,0:1|0:0,0:0:0:0:
293,29,146876,6,0,B|244:8|244:8|252:146|252:146|276:118,1,225,4|8,0:3|0:3,0:0:0:0:
37,0,147375,2,0,P|59:54|71:115,1,112.500004291535,8|0,0:1|0:0,0:0:0:0:
157,369,147875,6,0,B|148:219,1,150,4|0,0:3|0:0,0:0:0:0:
135,20,148375,1,8,0:1:0:0:
307,250,148625,1,0,0:0:0:0:
13,333,148875,2,0,L|163:350,1,150,4|0,0:3|0:0,0:0:0:0:
363,152,149374,2,0,L|213:169,1,150,8|0,0:1|0:0,0:0:0:0:
512,137,149874,1,4,0:3:0:0:
507,235,149998,1,8,0:3:0:0:
502,333,150123,1,8,0:3:0:0:
261,49,150374,2,0,L|421:67,1,150,8|0,0:1|0:0,0:0:0:0:
229,262,150874,6,0,B|206:224|206:224|87:227|87:227|72:236|72:236|10:237,1,225,4|8,0:3|0:3,0:0:0:0:
185,47,151373,2,0,P|210:85|229:154,1,112.500004291535,8|0,0:1|0:0,0:0:0:0:
1,384,151873,6,0,L|13:227,1,150,4|0,0:3|0:0,0:0:0:0:
335,113,152373,2,0,L|347:270,1,150,8|0,0:1|0:0,0:0:0:0:
102,50,152873,1,4,0:3:0:0:
159,368,153122,1,0,0:0:0:0:
376,134,153372,2,0,L|364:291,1,150,8|0,0:1|0:0,0:0:0:0:
97,164,153872,1,4,0:3:0:0:
102,262,153996,1,8,0:3:0:0:
107,360,154121,1,8,0:3:0:0:
122,37,154372,2,0,L|132:200,1,150,8|0,0:1|0:0,0:0:0:0:
458,74,154872,6,0,B|381:37|381:37|294:60,1,168.750006437302,4|8,0:3|0:3,0:0:0:0:
246,145,155371,6,0,B|251:182|234:220|234:220|283:176|340:196|340:196|360:272|306:326,1,330.000010070801,8|0,0:1|0:0,0:0:0:0:
503,261,156435,6,0,P|430:283|482:332,1,168.750006437302,8|0,0:0|0:0,0:0:0:0:
499,228,156935,6,0,B|423:222|448:265|361:258,1,134.999995880127,4|2,0:0|0:0,0:0:0:0:
225,155,157310,1,0,0:0:0:0:
241,237,157435,2,0,P|240:198|225:156,1,67.4999979400635,8|0,0:0|0:0,0:0:0:0:
325,38,157685,2,0,P|324:77|309:119,1,67.4999979400635,2|0,0:0|0:0,0:0:0:0:
172,34,157935,1,4,0:3:0:0:
171,13,158060,1,0,0:0:0:0:
241,66,158185,2,0,L|95:55,1,134.999995880127,2|8,0:0|0:0,0:0:0:0:
55,190,158560,1,0,0:0:0:0:
94,130,158685,2,0,L|100:201,1,67.4999979400635,2|0,0:0|0:0,0:0:0:0:
24,297,158935,6,0,B|50:265|50:265|34:359,1,134.999995880127,4|2,0:3|0:0,0:0:0:0:
156,280,159310,1,0,0:0:0:0:
139,369,159435,2,0,P|138:323|146:293,1,67.4999979400635,8|0,0:0|0:0,0:0:0:0:
280,224,159685,1,2,0:0:0:0:
203,205,159810,1,0,0:0:0:0:
300,230,159935,2,0,L|361:224,1,56.2500021457673,4|0,0:3|0:0,0:0:0:0:
232,334,160185,2,0,L|293:340,1,56.2500021457673,2|0,0:0|0:0,0:0:0:0:
438,172,160435,6,0,P|371:218|493:258,1,269.999991760254,8|0,0:0|0:0,0:0:0:0:
441,147,160935,6,0,B|455:190|432:224|432:224|383:146|438:54,1,247.500007553101,4|0,0:0|0:0,0:0:0:0:
291,18,161435,2,0,P|316:52|334:94,1,82.5000025177003,8|0,0:0|0:0,0:0:0:0:
214,166,161685,1,2,0:0:0:0:
234,172,161810,1,0,0:0:0:0:
189,94,161935,2,0,P|206:184|205:263,1,165.000005035401,4|2,0:3|0:0,0:0:0:0:
35,163,162310,1,0,0:0:0:0:
127,204,162435,2,0,P|94:182|54:167,1,82.5000025177003,8|0,0:0|0:0,0:0:0:0:
118,312,162685,2,0,P|186:289|287:277,1,165.000005035401,2|4,0:0|0:3,0:0:0:0:
290,287,163185,6,0,P|303:325|308:369,1,82.5000025177003,2|0,0:0|0:0,0:0:0:0:
483,173,163435,2,0,P|470:211|465:255,1,82.5000025177003,8|0,0:0|0:0,0:0:0:0:
328,357,163685,2,0,P|324:316|311:278,1,82.5000025177003,2|0,0:0|0:0,0:0:0:0:
253,5,163935,2,0,P|240:43|235:87,1,82.5000025177003,4|0,0:3|0:0,0:0:0:0:
390,246,164185,2,0,P|363:215|327:189,1,82.5000025177003,2|0,0:0|0:0,0:0:0:0:
113,244,164435,2,0,P|152:236|193:218,1,82.5000025177003,8|0,0:0|0:0,0:0:0:0:
278,11,164685,2,0,P|265:49|260:93,1,82.5000025177003,2|0,0:0|0:0,0:0:0:0:
498,50,164935,6,0,B|515:29|515:29|440:12|383:69,1,165.000005035401,4|2,0:3|0:0,0:0:0:0:
508,202,165310,1,0,0:0:0:0:
410,184,165435,2,0,P|458:185|502:198,1,82.5000025177003,8|0,0:0|0:0,0:0:0:0:
405,307,165685,2,0,P|357:306|313:293,1,82.5000025177003,2|0,0:0|0:0,0:0:0:0:
212,96,165935,2,0,P|238:149|244:257,1,165.000005035401,4|2,0:3|0:0,0:0:0:0:
55,169,166310,1,0,0:0:0:0:
153,187,166435,2,0,P|105:186|61:173,1,82.5000025177003,8|0,0:0|0:0,0:0:0:0:
201,80,166685,2,0,P|249:81|293:94,1,82.5000025177003,2|0,0:0|0:0,0:0:0:0:
271,336,166935,6,0,B|174:342|216:283|113:289,1,165.000005035401,4|2,0:3|0:0,0:0:0:0:
229,157,167310,1,0,0:0:0:0:
254,254,167435,2,0,P|253:209|244:169,1,82.5000025177003,8|0,0:0|0:0,0:0:0:0:
395,77,167685,1,2,0:0:0:0:
393,103,167810,1,0,0:0:0:0:
319,69,167935,2,0,L|403:60,1,82.5000025177003,4|0,0:3|0:0,0:0:0:0:
487,232,168185,2,0,L|403:223,1,82.5000025177003,2|0,0:0|0:0,0:0:0:0:
283,353,168435,1,8,0:0:0:0:
277,267,168560,1,0,0:0:0:0:
285,374,168685,2,0,P|333:371|375:353,1,82.5000025177003,2|0,0:0|0:0,0:0:0:0:
114,295,168935,6,0,B|174:227|174:227|202:312,1,180,4|0,0:0|0:0,0:0:0:0:
193,330,169435,1,4,0:3:0:0:
269,178,169685,2,0,L|271:243,1,48.7499977684022,2|0,0:0|0:0,0:0:0:0:
103,146,169935,1,4,0:3:0:0:
183,152,170185,1,0,0:0:0:0:
263,159,170435,1,2,0:0:0:0:
259,182,170560,1,0,0:0:0:0:
256,205,170685,1,0,0:0:0:0:
414,52,170935,6,0,P|373:83|377:178,1,146.249993305207,4|0,0:3|0:0,0:0:0:0:
394,175,171435,1,4,0:3:0:0:
260,149,171685,1,2,0:0:0:0:
303,320,171935,2,0,L|313:242,1,75,4|0,0:3|0:0,0:0:0:0:
211,302,172435,1,2,0:0:0:0:
211,313,172560,1,0,0:0:0:0:
212,324,172685,1,0,0:0:0:0:
213,335,172810,1,0,0:0:0:0:
214,346,172935,1,2,0:0:0:0:
256,192,172997,12,4,176935,0:0:0:0:
168,160,177435,5,0,0:0:0:0:
145,79,177685,1,2,0:0:0:0:
217,92,177935,1,0,0:0:0:0:
145,79,178185,1,2,0:0:0:0:
291,21,178685,6,0,L|288:72,1,44.999998626709,2|0,0:0|0:0,0:0:0:0:
284,146,179185,2,0,L|281:197,1,44.999998626709,2|0,0:0|0:0,0:0:0:0:
400,54,179935,1,2,0:0:0:0:
401,84,180185,1,0,0:0:0:0:
450,144,180435,1,0,0:0:0:0:
449,173,180685,1,0,0:0:0:0:
284,263,180935,5,2,0:0:0:0:
284,263,181435,1,0,0:0:0:0:
308,172,181685,1,2,0:0:0:0:
234,182,181935,1,0,0:0:0:0:
308,172,182185,1,2,0:0:0:0:
205,42,182685,6,0,L|208:93,1,44.999998626709,2|0,0:0|0:0,0:0:0:0:
213,166,183185,2,0,L|216:217,1,44.999998626709,2|0,0:0|0:0,0:0:0:0:
113,100,183935,1,2,0:0:0:0:
114,70,184185,1,0,0:0:0:0:
82,176,184435,6,0,B|56:162|40:133|40:133|86:207|77:286|77:286|30:286|-2:256,1,300
53,382,185330,6,0,P|110:357|180:347,1,120,4|2,0:3|0:0,0:0:0:0:
329,262,185810,2,0,P|277:252|229:231,1,89.9999972534181,0|2,0:0|0:0,0:0:0:0:
180,86,186290,6,0,P|190:109|195:137,1,45,8|0,0:0|0:0,0:0:0:0:
157,262,186770,6,0,B|113:253|87:213|87:213|130:193|180:210,1,179.999994506836,4|2,0:1|0:0,0:0:0:0:
368,318,187130,1,0,0:0:0:0:
301,192,187250,2,0,P|254:246|259:324,1,150,8|2,0:0|0:0,0:0:0:0:
319,185,187610,1,0,0:0:0:0:
386,311,187730,2,0,P|433:257|428:179,1,150,4|2,0:3|0:0,0:0:0:0:
252,33,188090,1,0,0:0:0:0:
352,117,188210,2,0,P|365:69|363:38,1,75,8|0,0:0|0:0,0:0:0:0:
172,127,188450,2,0,P|172:164|184:199,1,75,2|0,0:0|0:0,0:0:0:0:
0,142,188690,5,4,0:3:0:0:
71,20,188810,2,0,B|54:117|104:68|90:178,1,150,2|0,0:0|0:0,0:0:0:0:
120,311,189170,2,0,P|82:293|56:259,1,75,10|0,0:0|0:0,0:0:0:0:
257,228,189410,1,2,0:0:0:0:
147,211,189530,1,0,0:0:0:0:
279,231,189650,2,0,L|275:295,1,52.4999983978272,4|0,0:3|0:0,0:0:0:0:
194,328,189890,2,0,L|198:392,1,52.4999983978272,2|0,0:0|0:0,0:0:0:0:
297,222,190130,2,0,L|293:286,1,52.4999983978272,8|0,0:0|0:0,0:0:0:0:
202,94,190370,2,0,L|206:169,1,75,2|0,0:0|0:0,0:0:0:0:
446,21,190610,6,0,P|383:62|381:142,1,150,4|2,0:3|0:0,0:0:0:0:
293,27,190970,1,0,0:0:0:0:
308,172,191090,2,0,P|338:202|371:215,1,75,8|0,0:0|0:0,0:0:0:0:
192,88,191330,2,0,P|162:118|149:151,1,75,2|0,0:0|0:0,0:0:0:0:
283,295,191570,2,0,P|229:246|151:245,1,150,4|2,0:3|0:0,0:0:0:0:
230,156,191930,1,0,0:0:0:0:
83,234,192050,2,0,P|120:235|154:221,1,75,8|0,0:0|0:0,0:0:0:0:
24,63,192290,2,0,P|4:94|0:130,1,75,2|0,0:0|0:0,0:0:0:0:
150,6,192530,5,4,0:3:0:0:
270,51,192650,2,0,B|195:44|222:102|125:89,1,150,2|0,0:0|0:0,0:0:0:0:
331,158,193010,2,0,P|295:139|255:135,1,75,10|0,0:0|0:0,0:0:0:0:
416,256,193250,1,2,0:0:0:0:
426,147,193370,1,0,0:0:0:0:
413,281,193490,2,0,L|351:275,1,52.4999983978272,4|0,0:3|0:0,0:0:0:0:
226,357,193730,2,0,L|288:351,1,52.4999983978272,2|0,0:0|0:0,0:0:0:0:
423,298,193970,2,0,L|361:292,1,52.4999983978272,8|0,0:0|0:0,0:0:0:0:
236,374,194210,2,0,L|298:368,1,52.4999983978272,2|0,0:0|0:0,0:0:0:0:
187,197,194450,6,0,B|202:189|220:173|220:173|199:222|191:286,1,150,4|2,0:3|0:0,0:0:0:0:
1,223,194810,1,0,0:0:0:0:
116,303,194930,2,0,P|136:340|139:378,1,75,8|0,0:0|0:0,0:0:0:0:
24,208,195170,2,0,P|28:171|47:138,1,75,2|0,0:0|0:0,0:0:0:0:
263,169,195410,2,0,P|184:159|135:206,1,150,4|2,0:3|0:0,0:0:0:0:
289,35,195770,1,0,0:0:0:0:
352,164,195890,2,0,P|345:200|328:234,1,75,8|0,0:0|0:0,0:0:0:0:
458,353,196130,2,0,P|441:319|433:282,1,75,2|0,0:0|0:0,0:0:0:0:
477,69,196370,5,4,0:3:0:0:
357,137,196490,2,0,B|440:122|412:179|508:160,1,150,2|0,0:0|0:0,0:0:0:0:
296,198,196850,2,0,P|330:213|372:216,1,75,10|0,0:0|0:0,0:0:0:0:
264,65,197090,1,2,0:0:0:0:
380,53,197210,1,0,0:0:0:0:
239,68,197330,2,0,L|243:132,1,52.4999983978272,4|0,0:3|0:0,0:0:0:0:
157,276,197570,2,0,L|161:212,1,52.4999983978272,2|0,0:0|0:0,0:0:0:0:
259,374,197810,2,0,L|255:310,1,52.4999983978272,8|0,0:0|0:0,0:0:0:0:
332,150,198050,2,0,L|336:214,1,52.4999983978272,2|0,0:0|0:0,0:0:0:0:
464,353,198290,6,0,P|427:334|401:302,1,75,4|0,0:3|0:0,0:0:0:0:
498,179,198530,1,2,0:0:0:0:
483,273,198650,1,0,0:0:0:0:
502,154,198770,2,0,P|460:159|425:180,1,75,8|0,0:0|0:0,0:0:0:0:
284,263,199010,2,0,P|325:257|360:236,1,75,2|0,0:0|0:0,0:0:0:0:
258,132,199250,1,4,0:3:0:0:
149,193,199370,2,0,P|208:165|295:184,1,150,2|0,0:0|0:0,0:0:0:0:
69,293,199730,2,0,P|106:297|139:314,1,75,8|0,0:0|0:0,0:0:0:0:
0,120,199970,2,0,P|37:115|70:98,1,75,2|0,0:0|0:0,0:0:0:0:
335,94,200210,6,0,B|260:90|283:144|195:140,1,150,4|2,0:3|0:0,0:0:0:0:
350,72,200570,1,0,0:0:0:0:
328,175,200690,2,0,L|334:240,1,52.4999983978272,8|0,0:0|0:0,0:0:0:0:
294,310,200930,2,0,L|300:375,1,52.4999983978272,2|0,0:0|0:0,0:0:0:0:
185,218,201170,2,0,L|250:224,1,52.4999983978272,4|0,0:3|0:0,0:0:0:0:
441,329,201410,2,0,L|376:335,1,52.4999983978272,2|0,0:0|0:0,0:0:0:0:
166,329,201650,6,0,P|209:303|203:337,1,112.5,8|0,0:0|0:0,0:0:0:0:
111,384,202130,6,0,P|68:368|31:366,1,82.5000025177003,4|0,0:1|0:0,0:0:0:0:
186,202,202370,2,0,P|193:247|210:280,1,82.5000025177003,2|0,0:0|0:0,0:0:0:0:
8,116,202610,2,0,B|113:128|70:66|163:75,1,165.000005035401,8|2,0:0|0:0,0:0:0:0:
333,105,202970,1,0,0:0:0:0:
272,213,203090,2,0,P|302:141|268:61,1,165.000005035401,4|2,0:3|0:0,0:0:0:0:
145,156,203450,1,0,0:0:0:0:
280,242,203570,2,0,P|313:211|332:165,1,82.5000025177003,8|0,0:0|0:0,0:0:0:0:
124,311,203810,2,0,P|164:331|213:334,1,82.5000025177003,2|0,0:0|0:0,0:0:0:0:
416,281,204050,5,4,0:3:0:0:
283,320,204170,2,0,B|380:310|341:374|449:360,1,165.000005035401,2|0,0:0|0:0,0:0:0:0:
423,107,204530,2,0,P|373:141|352:241,1,165.000005035401,10|0,0:0|0:0,0:0:0:0:
256,40,205010,1,4,0:3:0:0:
231,147,205250,1,0,0:0:0:0:
462,30,205490,1,8,0:0:0:0:
512,208,205730,2,0,L|426:196,1,82.5000025177003,2|0,0:0|0:0,0:0:0:0:
276,31,205970,6,0,P|311:40|350:68,1,82.5000025177003,4|0,0:3|0:0,0:0:0:0:
128,132,206210,2,0,P|137:97|165:58,1,82.5000025177003,2|0,0:0|0:0,0:0:0:0:
341,285,206450,2,0,P|312:249|271:230,1,82.5000025177003,8|0,0:0|0:0,0:0:0:0:
54,312,206690,2,0,P|89:292|114:259,1,82.5000025177003,2|0,0:0|0:0,0:0:0:0:
303,89,206930,2,0,P|222:130|199:207,1,165.000005035401,4|2,0:3|0:0,0:0:0:0:
406,206,207290,1,0,0:0:0:0:
319,69,207410,2,0,P|270:75|227:98,1,82.5000025177003,8|0,0:0|0:0,0:0:0:0:
280,269,207650,2,0,P|299:223|300:174,1,82.5000025177003,2|0,0:0|0:0,0:0:0:0:
156,294,207890,5,4,0:3:0:0:
294,347,208010,2,0,B|196:338|229:389|136:381,1,165.000005035401,2|0,0:0|0:0,0:0:0:0:
16,194,208370,2,0,P|63:259|60:341,1,165.000005035401,10|0,0:0|0:0,0:0:0:0:
45,338,208730,1,0,0:0:0:0:
31,335,208850,1,4,0:3:0:0:
97,148,209090,1,0,0:0:0:0:
210,350,209330,1,8,0:0:0:0:
192,161,209570,2,0,L|199:243,1,82.5000025177003
380,342,209810,6,0,P|346:318|301:311,1,82.5000025177003,4|0,0:3|0:0,0:0:0:0:
438,216,210050,2,0,P|478:208|511:184,1,82.5000025177003,2|0,0:0|0:0,0:0:0:0:
326,119,210290,2,0,P|344:155|351:213,1,82.5000025177003,8|0,0:0|0:0,0:0:0:0:
180,4,210530,2,0,P|219:13|268:45,1,82.5000025177003,2|0,0:0|0:0,0:0:0:0:
182,272,210770,2,0,P|184:187|248:120,1,165.000005035401,4|2,0:3|0:0,0:0:0:0:
0,52,211130,1,0,0:0:0:0:
80,146,211250,2,0,P|93:185|93:230,1,82.5000025177003,8|0,0:0|0:0,0:0:0:0:
182,366,211490,2,0,P|182:324|195:285,1,82.5000025177003,2|0,0:0|0:0,0:0:0:0:
399,281,211730,5,4,0:3:0:0:
265,339,211850,2,0,B|359:327|318:384|430:370,1,165.000005035401,2|0,0:0|0:0,0:0:0:0:
359,133,212210,2,0,P|308:164|271:267,1,165.000005035401,10|0,0:0|0:0,0:0:0:0:
421,67,212690,1,4,0:3:0:0:
451,243,212930,1,0,0:0:0:0:
294,33,213170,1,8,0:0:0:0:
258,143,213410,1,0,0:0:0:0:
125,52,213650,6,0,B|171:44|199:75|199:75|147:171|34:125|46:34,1,300
34,32,214434,6,0,L|25:159,1,112.500004291535,4|0,0:3|0:0,0:0:0:0:
111,227,214809,1,8,0:3:0:0:
181,162,214934,2,0,L|261:167,1,75.000002861023,8|2,0:0|0:0,0:0:0:0:
265,191,215184,2,0,L|329:186,1,56.2500021457673
410,72,215434,6,0,P|398:127|421:185,1,112.500004291535,4|0,0:3|0:0,0:0:0:0:
489,271,215809,1,8,0:3:0:0:
430,338,215934,2,0,L|350:328,1,75.000002861023,8|2,0:0|0:0,0:0:0:0:
334,308,216184,2,0,L|268:312,1,56.2500021457673
180,359,216434,6,0,L|65:339,1,112.500004291535,4|0,0:3|0:0,0:0:0:0:
8,267,216809,1,8,0:3:0:0:
86,202,216934,2,0,L|80:122,1,75.000002861023,8|2,0:0|0:0,0:0:0:0:
55,117,217184,2,0,L|60:47,1,56.2500021457673
153,270,217434,6,0,B|292:280|253:200|364:210,1,225,4|8,0:3|0:3,0:0:0:0:
378,193,217934,2,0,L|376:259,1,59.9999981689454,8|0,0:0|0:0,0:0:0:0:
394,203,218184,1,8,0:0:0:0:
386,338,218309,1,8,0:0:0:0:
259,259,218434,6,0,B|275:289|307:305|307:305|228:260|124:276,1,247.500007553101,4|2,0:1|0:3,0:0:0:0:
29,161,218934,1,8,0:0:0:0:
181,68,219100,1,0,0:0:0:0:
165,49,219184,2,0,P|145:77|132:116,1,75,2|0,0:3|0:0,0:0:0:0:
349,139,219434,2,0,B|263:133|293:184|199:176,1,150,4|0,0:3|0:0,0:0:0:0:
410,32,219809,1,2,0:3:0:0:
366,123,219934,2,0,L|380:234,1,100,8|0,0:0|0:0,0:0:0:0:
471,299,220184,2,0,L|482:207,1,75,2|0,0:3|0:0,0:0:0:0:
261,353,220434,6,0,P|309:305|391:311,1,150,4|0,0:3|0:0,0:0:0:0:
155,253,220809,1,2,0:3:0:0:
226,172,220934,2,0,P|199:205|181:265,1,100,8|0,0:0|0:0,0:0:0:0:
50,143,221184,2,0,P|72:174|84:220,1,75,2|0,0:3|0:0,0:0:0:0:
124,30,221434,2,0,L|283:17,1,150,4|0,0:3|0:0,0:0:0:0:
328,179,221809,1,2,0:3:0:0:
235,146,221934,2,0,L|248:250,1,100,8|0,0:0|0:0,0:0:0:0:
403,301,222184,2,0,L|393:226,1,75,2|0,0:3|0:0,0:0:0:0:
174,272,222434,6,0,B|311:256|230:344|396:317,1,225,4|2,0:3|0:3,0:0:0:0:
503,162,222934,1,8,0:0:0:0:
354,122,223100,1,0,0:0:0:0:
335,136,223184,2,0,P|332:177|340:216,1,75,2|0,0:3|0:0,0:0:0:0:
164,16,223434,2,0,P|217:66|301:70,1,150,4|0,0:3|0:0,0:0:0:0:
91,120,223809,1,2,0:3:0:0:
140,215,223934,2,0,L|133:323,1,100,8|0,0:0|0:0,0:0:0:0:
249,244,224184,2,0,L|244:169,1,75,2|0,0:3|0:0,0:0:0:0:
390,322,224434,1,4,0:3:0:0:
401,334,224684,6,0,P|424:298|436:262,1,75,0|2,0:0|0:3,0:0:0:0:
222,261,224934,2,0,P|236:302|274:348,1,100,8|0,0:0|0:0,0:0:0:0:
324,197,225184,1,2,0:3:0:0:
332,291,225309,1,0,0:0:0:0:
421,187,225434,2,0,L|272:172,1,150,4|0,0:3|0:0,0:0:0:0:
146,62,225809,1,2,0:3:0:0:
188,160,225934,2,0,L|179:270,1,100,8|0,0:0|0:0,0:0:0:0:
63,203,226184,2,0,L|56:128,1,75,2|0,0:3|0:0,0:0:0:0:
164,375,226434,6,0,B|185:370|209:349|209:349|127:310|30:335,1,225,4|2,0:3|0:3,0:0:0:0:
145,181,226934,1,8,0:0:0:0:
285,295,227100,1,0,0:0:0:0:
298,278,227184,2,0,P|255:261|212:258,1,75,2|0,0:3|0:0,0:0:0:0:
474,139,227434,2,0,P|416:200|345:199,1,150,4|0,0:3|0:0,0:0:0:0:
212,42,227809,1,2,0:3:0:0:
168,139,227934,2,0,L|281:125,1,100,8|0,0:0|0:0,0:0:0:0:
208,234,228184,2,0,L|133:224,1,75,2|0,0:3|0:0,0:0:0:0:
73,182,228371,1,0,0:0:0:0:
82,168,228434,6,0,P|99:214|109:318,1,150,4|0,0:3|0:0,0:0:0:0:
303,118,228809,1,2,0:3:0:0:
214,63,228934,2,0,P|198:105|188:166,1,100,8|0,0:0|0:0,0:0:0:0:
291,254,229184,2,0,P|277:211|258:177,1,75,2|0,0:3|0:0,0:0:0:0:
430,107,229434,2,0,L|417:257,1,150,4|0,0:3|0:0,0:0:0:0:
250,380,229809,1,2,0:3:0:0:
170,325,229934,2,0,L|63:334,1,100,8|0,0:0|0:0,0:0:0:0:
158,247,230184,2,0,L|207:252,2,50,2|0|0,0:3|0:0|0:0,0:0:0:0:
246,66,230434,6,0,B|272:93|315:103|315:103|166:123,1,225,4|2,0:3|0:3,0:0:0:0:
42,53,230934,1,8,0:0:0:0:
85,234,231100,1,0,0:0:0:0:
103,222,231184,2,0,P|99:177|79:132,1,75,2|0,0:3|0:0,0:0:0:0:
253,215,231434,2,0,P|206:269|198:362,1,150,4|0,0:3|0:0,0:0:0:0:
396,233,231809,1,2,0:3:0:0:
350,130,231934,2,0,L|457:144,1,100,8|0,0:0|0:0,0:0:0:0:
374,47,232184,2,0,L|292:52,1,75,2|0,0:3|0:0,0:0:0:0:
152,287,232434,6,0,P|142:214|184:136,1,150,4|0,0:3|0:0,0:0:0:0:
255,301,232809,1,2,0:3:0:0:
332,215,232934,2,0,P|283:213|222:232,1,100,8|0,0:0|0:0,0:0:0:0:
337,312,233184,2,0,P|374:313|420:299,1,75,2|0,0:3|0:0,0:0:0:0:
458,97,233434,6,0,L|464:260,1,150,4|0,0:3|0:0,0:0:0:0:
315,134,233809,1,8,0:3:0:0:
379,209,233934,5,8,0:0:0:0:
393,49,234059,1,8,0:0:0:0:
263,65,234184,2,0,L|307:60,1,37.5,2|0,0:3|0:0,0:0:0:0:
224,268,234434,6,0,B|237:298|235:330|235:330|115:366|40:293,1,269.999991760254,4|0,0:1|0:0,0:0:0:0:
158,176,234934,1,8,0:0:0:0:
146,258,235059,1,0,0:0:0:0:
26,132,235184,2,0,P|74:117|120:113,1,89.9999972534181,2|0,0:3|0:0,0:0:0:0:
329,2,235434,2,0,B|224:-3|270:57|156:52,1,179.999994506836,4|2,0:3|0:3,0:0:0:0:
398,87,235809,1,0,0:0:0:0:
326,206,235934,2,0,P|311:164|310:112,1,89.9999972534181,8|0,0:0|0:0,0:0:0:0:
434,234,236184,2,0,L|428:326,1,89.9999972534181,2|0,0:3|0:0,0:0:0:0:
163,346,236434,6,0,B|211:338|251:361|251:361|276:323|328:308,1,179.999994506836,4|2,0:3|0:3,0:0:0:0:
77,237,236809,1,0,0:0:0:0:
175,171,236934,2,0,P|196:217|201:261,1,89.9999972534181,8|0,0:0|0:0,0:0:0:0:
0,91,237184,2,0,P|46:70|90:65,1,89.9999972534181,2|0,0:3|0:0,0:0:0:0:
346,39,237434,2,0,B|245:27|288:103|175:85,1,179.999994506836,4|2,0:3|0:3,0:0:0:0:
396,119,237809,1,0,0:0:0:0:
273,184,237934,2,0,P|314:206|370:209,1,89.9999972534181,8|0,0:0|0:0,0:0:0:0:
172,300,238184,2,0,L|275:289,1,89.9999972534181,2|0,0:3|0:0,0:0:0:0:
38,195,238434,6,0,B|66:143|66:143|82:360,1,269.999991760254,4|0,0:3|0:0,0:0:0:0:
241,242,238934,1,8,0:0:0:0:
231,324,239059,1,0,0:0:0:0:
142,175,239184,2,0,P|161:215|169:270,1,89.9999972534181,2|0,0:3|0:0,0:0:0:0:
398,176,239434,2,0,B|302:191|335:121|215:138,1,179.999994506836,4|2,0:3|0:3,0:0:0:0:
453,271,239809,1,0,0:0:0:0:
342,370,239934,2,0,P|389:345|434:339,1,89.9999972534181,8|0,0:0|0:0,0:0:0:0:
225,264,240184,2,0,L|230:363,1,89.9999972534181,2|0,0:3|0:0,0:0:0:0:
67,194,240434,6,0,B|106:150|106:150|81:205|77:275,1,179.999994506836,4|2,0:3|0:3,0:0:0:0:
184,53,240809,1,0,0:0:0:0:
276,160,240934,2,0,P|234:140|180:132,1,89.9999972534181,8|0,0:0|0:0,0:0:0:0:
366,269,241184,2,0,P|410:260|450:241,1,89.9999972534181,2|0,0:3|0:0,0:0:0:0:
151,296,241434,6,0,B|196:274|208:233|208:233|184:377|184:377|246:330|318:347,1,359.999989013672,4|0,0:3|0:0,0:0:0:0:
320,355,242254,6,0,L|316:298,1,44.999998626709,2|0,0:0|0:0,0:0:0:0:
455,181,242920,6,0,B|386:173|414:218|334:207,1,112.500004291535,4|0,0:0|0:0,0:0:0:0:
278,99,243420,1,2,0:0:0:0:
180,221,243586,2,0,L|170:154,1,56.2500021457673,8|0,0:3|0:0,0:0:0:0:
284,83,243920,2,0,L|294:150,1,56.2500021457673,2|0,0:0|0:0,0:0:0:0:
85,45,244253,6,0,P|143:56|205:95,1,112.500004291535,2|0,0:0|0:0,0:0:0:0:
16,117,244753,1,2,0:0:0:0:
137,163,244920,2,0,P|110:166|79:176,1,56.2500021457673,8|0,0:3|0:0,0:0:0:0:
199,244,245253,2,0,P|226:247|257:257,1,56.2500021457673,2|0,0:0|0:0,0:0:0:0:
33,257,245586,6,0,L|42:373,1,112.500004291535,8|0,0:3|0:0,0:0:0:0:
188,359,246086,1,2,0:0:0:0:
114,250,246253,2,0,L|119:318,1,56.2500021457673,8|0,0:3|0:0,0:0:0:0:
288,384,246586,2,0,L|293:315,1,56.2500021457673,2|0,0:0|0:0,0:0:0:0:
211,167,246920,6,0,P|255:207|310:222,1,112.500004291535,2|0,0:0|0:0,0:0:0:0:
419,60,247420,1,2,0:0:0:0:
295,77,247586,2,0,L|297:138,1,56.2500021457673,8|0,0:3|0:0,0:0:0:0:
480,195,247920,2,0,P|454:184|410:181,1,56.2500021457673,2|0,0:0|0:0,0:0:0:0:
292,299,248253,6,0,B|369:305|339:271|408:276,1,112.500004291535,8|0,0:3|0:0,0:0:0:0:
222,156,248753,1,2,0:0:0:0:
277,284,248920,2,0,L|217:288,1,56.2500021457673,8|0,0:3|0:0,0:0:0:0:
293,113,249253,2,0,L|353:117,1,56.2500021457673,2|0,0:0|0:0,0:0:0:0:
260,268,249586,6,0,L|148:274,1,112.500004291535,2|0,0:0|0:0,0:0:0:0:
110,119,250086,1,2,0:0:0:0:
233,251,250253,2,0,L|173:255,1,56.2500021457673,8|0,0:3|0:0,0:0:0:0:
330,334,250586,1,2,0:0:0:0:
347,152,250753,1,8,0:3:0:0:
453,285,250920,6,0,P|395:257|337:251,1,112.500004291535,8|0,0:3|0:0,0:0:0:0:
432,84,251420,1,2,0:0:0:0:
330,167,251586,2,0,P|294:161|268:150,1,56.2500021457673,8|0,0:3|0:0,0:0:0:0:
423,63,251920,2,0,P|459:69|485:80,1,56.2500021457673,2|0,0:0|0:0,0:0:0:0:
250,30,252253,6,0,P|275:95|284:150,1,112.500004291535,2|0,0:0|0:0,0:0:0:0:
70,75,252753,1,2,0:0:0:0:
173,185,252920,2,0,P|166:154|168:119,1,56.2500021457673,8|0,0:3|0:0,0:0:0:0:
30,307,253253,1,2,0:0:0:0:
43,214,253420,1,8,0:3:0:0:
219,351,253586,6,0,B|162:341|162:341|115:370,1,112.500004291535,4|0,0:3|0:0,0:0:0:0:
248,236,254086,1,2,0:0:0:0:
329,371,254253,2,0,L|334:311,1,56.2500021457673,8|0,0:3|0:0,0:0:0:0:
169,226,254586,2,0,L|174:286,1,56.2500021457673,2|0,0:0|0:0,0:0:0:0:
362,93,254920,6,0,P|334:148|323:203,1,112.500004291535,2|0,0:0|0:0,0:0:0:0:
189,55,255420,1,2,0:0:0:0:
211,210,255586,2,0,P|227:178|233:148,1,56.2500021457673,8|0,0:3|0:0,0:0:0:0:
88,36,255920,2,0,P|104:68|110:98,1,56.2500021457673,2|0,0:0|0:0,0:0:0:0:
4,263,256253,6,0,L|124:273,1,112.500004291535,8|0,0:3|0:0,0:0:0:0:
188,384,256753,1,2,0:0:0:0:
199,245,256920,2,0,L|193:313,1,56.2500021457673,8|0,0:3|0:0,0:0:0:0:
65,187,257253,2,0,L|71:255,1,56.2500021457673,2|0,0:0|0:0,0:0:0:0:
151,59,257586,6,0,P|191:94|261:109,1,112.500004291535,2|0,0:0|0:0,0:3:0:0:
383,42,258086,1,2,0:0:0:0:
430,170,258253,2,0,P|433:135|430:105,1,56.2500021457673,8|0,0:3|0:0,0:0:0:0:
305,206,258586,2,0,P|302:241|305:271,1,56.2500021457673,2|0,0:0|0:0,0:0:0:0:
490,341,258920,6,0,B|428:335|443:359|375:351,1,112.500004291535,8|0,0:3|0:0,0:0:0:0:
182,328,259420,1,2,0:0:0:0:
292,224,259586,2,0,L|288:291,1,56.2500021457673,8|0,0:3|0:0,0:0:0:0:
141,174,259920,2,0,L|144:230,1,56.2500021457673,2|0,0:0|0:0,0:0:0:0:
53,354,260253,6,0,B|105:334|105:334|166:342,1,112.500004291535,2|0,0:0|0:0,0:0:0:0:
212,138,260753,1,2,0:0:0:0:
40,262,260920,2,0,L|96:257,1,56.2500021457673,8|0,0:3|0:0,0:0:0:0:
231,148,261253,1,2,0:0:0:0:
109,106,261420,1,0,0:0:0:0:
213,275,261586,6,0,B|272:248|272:248|340:258,1,127.50000243187,8|0,0:3|0:0,0:0:0:0:
511,118,262086,1,2,0:0:0:0:
348,86,262253,2,0,P|341:125|343:158,1,63.7500012159348,8|0,0:3|0:0,0:0:0:0:
498,321,262586,2,0,P|505:282|503:249,1,63.7500012159348,2|0,0:0|0:0,0:0:0:0:
269,107,262920,6,0,P|312:165|330:225,1,127.50000243187,2|0,0:0|0:0,0:0:0:0:
238,342,263420,1,2,0:0:0:0:
410,105,263586,1,4,0:0:0:0:
412,126,263920,1,8,0:3:0:0:
174,63,264253,6,0,B|200:34|200:34|191:151,1,150,4|0,0:0|0:0,0:0:0:0:
175,298,264753,1,2,0:0:0:0:
8,175,264920,2,0,L|88:166,1,75,2|0,0:0|0:0,0:0:0:0:
264,223,265253,1,2,0:0:0:0:
94,252,265420,1,8,0:3:0:0:
294,301,265586,5,4,0:3:0:0:
154,368,265753,2,0,L|228:379,1,75
430,200,266086,1,2,0:0:0:0:
295,218,266253,1,2,0:0:0:0:
447,333,266420,1,8,0:3:0:0:
313,352,266586,2,0,L|228:339,1,75,2|0,0:0|0:0,0:0:0:0:
76,239,266920,6,0,B|152:231|135:279|234:266,1,150,4|0,0:3|0:0,0:0:0:0:
387,146,267420,1,2,0:0:0:0:
195,110,267586,2,0,P|189:157|195:197,1,75,2|0,0:0|0:0,0:0:0:0:
422,57,267920,1,2,0:0:0:0:
246,31,268086,1,8,0:3:0:0:
357,227,268253,6,0,B|306:197|297:136|297:136|303:197|264:243,1,225.000008583069,4|0,0:3|0:0,0:0:0:0:
55,103,269269,6,0,L|68:235,1,120,4|0,0:1|0:0,0:0:0:0:
203,33,269769,2,0,L|199:101,1,60,2|0,0:0|0:0,0:0:0:0:
211,105,270019,2,0,L|214:45,1,60,8|0,0:3|0:0,0:0:0:0:
339,124,270269,1,2,0:0:0:0:
323,110,270352,2,0,L|330:205,1,80
488,185,270769,2,0,L|478:311,1,120,2|0,0:0|0:0,0:0:0:0:
208,264,271269,6,0,L|257:270,1,44.999998626709,2|0,0:0|0:0,0:0:0:0:
272,263,271519,2,0,L|227:257,1,44.999998626709,8|0,0:3|0:0,0:0:0:0:
182,335,271769,2,0,L|277:347,1,89.9999972534181,2|0,0:0|0:0,0:0:0:0:
121,147,272269,2,0,L|125:207,1,44.999998626709,2|0,0:0|0:0,0:0:0:0:
62,355,272519,2,0,L|65:290,1,44.999998626709,8|0,0:3|0:0,0:0:0:0:
53,293,272769,2,0,L|50:337,1,44.999998626709,2|0,0:0|0:0,0:0:0:0:
162,351,273019,1,0,0:0:0:0:
206,129,273269,5,2,0:0:0:0:
207,144,273394,1,0,0:0:0:0:
208,160,273519,1,0,0:0:0:0:
93,57,273769,2,0,L|88:115,1,44.999998626709,2|0,0:0|0:0,0:0:0:0:
103,116,274019,2,0,L|106:71,1,44.999998626709,8|0,0:3|0:0,0:0:0:0:
314,61,274269,2,0,L|319:163,1,89.9999972534181,2|0,0:0|0:0,0:0:0:0:
323,44,274769,1,2,0:0:0:0:
224,207,275019,1,0,0:0:0:0:
432,204,275269,6,0,B|373:168|373:168|300:187,1,134.999995880127,2|0,0:0|0:0,0:0:0:0:
291,167,275769,1,2,0:0:0:0:
221,296,276019,1,0,0:0:0:0:
158,102,276269,1,2,0:0:0:0:
164,191,276519,1,0,0:0:0:0:
158,102,276769,2,0,L|165:202,1,89.9999972534181,2|0,0:0|0:0,0:0:0:0:
15,260,277269,6,0,B|63:231|63:231|50:357,1,180,2|0,0:0|0:0,0:0:0:0:
166,267,277769,2,0,L|230:276,1,60,8|0,0:0|0:0,0:0:0:0:
147,263,278019,1,8,0:3:0:0:
337,137,278269,1,2,0:0:0:0:
321,119,278352,2,0,L|326:212,1,80,0|8,0:0|0:3,0:0:0:0:
484,343,278769,2,0,L|360:354,1,120,8|0,0:0|0:0,0:0:0:0:
468,158,279269,6,0,L|462:260,1,89.9999972534181,2|0,0:0|0:0,0:0:0:0:
376,84,279769,1,8,0:0:0:0:
381,196,280019,1,8,0:3:0:0:
267,96,280269,1,2,0:0:0:0:
273,20,280519,1,8,0:3:0:0:
257,204,280769,1,8,0:0:0:0:
96,107,281269,6,0,L|159:115,1,60,2|0,0:0|0:0,0:0:0:0:
260,220,281519,1,0,0:0:0:0:
188,230,281644,2,0,L|128:238,1,60,0|8,0:0|0:0,0:0:0:0:
287,334,281894,1,0,0:0:0:0:
262,329,282019,1,8,0:3:0:0:
237,323,282144,1,0,0:0:0:0:
160,376,282269,1,2,0:0:0:0:
160,376,282519,1,8,0:3:0:0:
234,183,282769,1,8,0:0:0:0:
209,181,282894,1,0,0:0:0:0:
304,190,283019,1,0,0:0:0:0:
397,343,283269,5,2,0:0:0:0:
373,337,283394,1,0,0:0:0:0:
468,358,283519,1,8,0:3:0:0:
299,321,283769,2,0,L|296:219,1,90,8|0,0:0|0:0,0:0:0:0:
295,209,284269,1,2,0:0:0:0:
480,284,284519,5,8,0:0:0:0:
106,247,284769,1,8,0:0:0:0:
349,136,285019,1,0,0:0:0:0:
291,76,285144,1,8,0:0:0:0:
420,101,285269,6,0,B|445:75|445:75|335:64|378:112|254:102,1,225,4|2,0:0|0:0,0:0:0:0:
115,18,285769,2,0,P|144:35|177:70,1,75,8|0,0:0|0:0,0:0:0:0:
57,160,286019,2,0,L|52:84,1,75,2|0,0:0|0:0,0:0:0:0:
246,246,286269,2,0,P|161:218|95:224,1,150,4|0,0:3|0:0,0:0:0:0:
234,220,286644,1,2,0:0:0:0:
157,306,286769,2,0,P|151:353|155:390,1,75,8|0,0:0|0:0,0:0:0:0:
378,347,287019,5,2,0:0:0:0:
238,352,287144,1,0,0:0:0:0:
400,345,287269,6,0,B|381:358|367:378|367:378|377:268,1,150,4|0,0:3|0:0,0:0:0:0:
315,149,287644,1,2,0:0:0:0:
441,208,287769,2,0,P|485:200|525:180,1,75,8|0,0:0|0:0,0:0:0:0:
380,28,288019,2,0,L|387:105,1,75,2|0,0:0|0:0,0:0:0:0:
284,217,288269,1,4,0:3:0:0:
292,124,288394,1,0,0:0:0:0:
281,243,288519,2,0,P|323:240|360:230,1,75,0|2,0:0|0:0,0:0:0:0:
179,91,288769,6,0,B|185:203,2,100,8|0|0,0:0|0:0|0:0,0:0:0:0:
32,268,289269,6,0,B|79:258|112:216|112:216|80:260|69:356,1,225,4|2,0:3|0:0,0:0:0:0:
0,99,289769,2,0,P|22:131|37:168,1,75,8|0,0:0|0:0,0:0:0:0:
149,16,290019,2,0,L|140:102,1,75,2|0,0:0|0:0,0:0:0:0:
317,106,290269,2,0,P|250:143|198:207,1,150,4|0,0:3|0:0,0:0:0:0:
325,89,290644,1,2,0:0:0:0:
437,197,290769,2,0,P|396:174|353:167,1,75,8|0,0:0|0:0,0:0:0:0:
307,332,291019,5,2,0:0:0:0:
297,203,291144,1,0,0:0:0:0:
309,354,291269,6,0,B|340:337|340:337|212:319,1,150,4|0,0:3|0:0,0:0:0:0:
109,206,291644,1,2,0:0:0:0:
141,308,291769,6,0,B|89:282|92:230|92:230|108:136|108:136|101:93,1,225.000008583069,8|0,0:0|0:0,0:0:0:0:
256,192,292464,12,0,296197,0:0:0:0:
259,64,296641,6,0,B|282:38|282:38|313:207|217:155|234:339|234:339|265:310,1,389.999982147218,12|0,0:0|0:0,0:0:0:0:
102,89,297530,5,2,0:0:0:0:
115,87,297752,1,0,0:0:0:0:
412,208,298419,5,2,0:0:0:0:
399,206,298641,1,0,0:0:0:0:
164,366,299308,5,2,0:0:0:0:
177,364,299530,1,0,0:0:0:0:
453,46,300197,6,0,B|494:94|494:94|355:77|355:77|329:95|329:95|249:87|249:87|229:74|229:74|207:83|207:83|167:80,1,389.999982147218,12|0,0:0|0:0,0:0:0:0:
74,347,301086,5,2,0:0:0:0:
72,334,301308,1,0,0:0:0:0:
290,110,301974,5,2,0:0:0:0:
288,123,302196,1,0,0:0:0:0:
416,295,302863,5,2,0:0:0:0:
414,282,303085,1,0,0:0:0:0:
223,92,303752,6,0,B|264:72|268:20|268:20|264:141|264:141|237:189|237:189|274:273|274:273|248:313|253:362,1,450.000017166138,12|0,0:0|0:0,0:0:0:0:
41,296,304641,5,2,0:0:0:0:
54,294,304863,1,0,0:0:0:0:
384,193,305530,5,2,0:0:0:0:
371,191,305752,1,0,0:0:0:0:
174,60,306419,5,2,0:0:0:0:
187,58,306641,1,0,0:0:0:0:
437,243,307308,6,0,B|463:217|463:217|356:204|267:288|267:288|200:234|146:241|146:241|97:247|65:224,1,450.000017166138,12|0,0:0|0:0,0:0:0:0:
436,20,308197,5,2,0:0:0:0:
438,33,308419,1,0,0:0:0:0:
266,295,309086,5,2,0:0:0:0:
268,282,309308,1,0,0:0:0:0:
82,143,309974,5,2,0:0:0:0:
84,156,310196,1,0,0:0:0:0:
215,80,310863,6,0,B|190:18|241:-29|331:0|291:91|291:91|246:171|295:251|295:251|277:243|277:243|299:305|287:378,1,539.999983520508,12|0,0:0|0:0,0:0:0:0:
53,60,311752,5,2,0:0:0:0:
40,62,311974,1,0,0:0:0:0:
359,342,312641,5,2,0:0:0:0:
372,344,312863,1,0,0:0:0:0:
166,175,313530,5,2,0:0:0:0:
153,177,313752,1,0,0:0:0:0:
404,117,314419,6,0,B|424:140|456:150|456:150|400:154|360:182|360:182|312:159|263:164|263:164|272:149|272:149|223:152|190:131|190:131|155:155|112:160|112:160|95:140|71:134|71:134|50:144|12:142,1,539.999983520508,12|0,0:0|0:0,0:0:0:0:
476,54,315308,5,2,0:0:0:0:
474,41,315530,1,0,0:0:0:0:
65,291,316197,5,2,0:0:0:0:
67,304,316419,1,0,0:0:0:0:
303,138,317086,5,2,0:0:0:0:
305,125,317308,1,0,0:0:0:0:
212,43,317530,6,0,P|225:136|225:267,1,225.000008583069
486,74,319328,6,0,B|468:76|468:76|456:87|456:87|380:72|400:128|346:119|346:119|305:97|305:97|279:111|279:111|269:108|269:108|259:115|259:115|244:115|244:115|238:113|238:113|234:115,1,269.999991760254,4|0,0:3|0:0,0:0:0:0:
224,107,321728,2,0,B|237:123|243:149|243:149|241:166,1,60,2|0,0:0|0:0,0:0:0:0:
176,233,322928,2,0,B|169:245|168:255|168:255|169:264,1,30,2|0,0:0|0:0,0:0:0:0:
88,300,324128,6,0,B|104:301|104:301|149:295|149:295|156:300|156:300|206:288|241:320|241:320|264:321|285:309|285:309|290:332|309:350|309:350|337:302|381:283|381:283|409:299|418:329|418:329|416:344,1,420
472,47,328928,6,0,B|496:88|491:127|491:127|471:136|454:155|454:155|467:166|467:166|471:189|471:189|487:197|494:222|494:222|485:247|485:270|485:270|492:262,1,269.999991760254,4|0,0:3|0:0,0:0:0:0:
308,216,331328,2,0,B|325:222|345:223|345:223|371:235|389:252,1,89.9999972534181,2|0,0:0|0:0,0:0:0:0:
253,292,332228,1,0,0:0:0:0:
253,292,332528,2,0,B|262:303|267:315|267:315|269:330|273:347,1,60,2|0,0:0|0:0,0:0:0:0:
136,197,333728,6,0,B|160:182|186:189|186:189|198:203|219:208|219:208|241:185|241:185|272:201|286:183|286:183|331:192|331:192|333:147|333:147|365:137|394:149|394:149|387:106|407:70|407:70|416:76|421:87,1,420
254,44,338528,6,0,B|229:55|214:73|214:73|187:77|159:53|159:53|120:65|120:65|96:52|68:52|68:52|44:74|44:74|30:57|30:57|8:52,1,269.999991760254,4|0,0:3|0:0,0:0:0:0:
0,41,340928,2,0,B|13:55|13:55|24:75|23:103,1,60,2|0,0:0|0:0,0:0:0:0:
157,231,342128,6,0,B|164:208|186:191|186:191|87:212|123:159|30:175,1,209.999993591309
380,113,343280,6,0,P|383:79|396:29,2,75.000002861023,8|8|8,0:3|0:3|0:3,0:0:0:0:
424,364,343880,6,0,B|450:336|491:327|491:327|404:343|324:298,1,239.999992675781,4|0,0:0|0:0,0:0:0:0:
151,118,344480,2,0,P|179:152|204:206,1,100,8|0,0:1|0:0,0:0:0:0:
255,350,344880,1,0,0:0:0:0:
359,41,345080,2,0,P|331:75|306:129,1,100,8|0,0:1|0:0,0:0:0:0:
256,328,345480,1,0,0:0:0:0:
129,75,345680,5,8,0:1:0:0:
256,352,345880,1,8,0:1:0:0:
383,75,346080,1,8,0:1:0:0:
64,240,346280,6,0,B|170:222|142:296|264:274,1,200,4|0,0:3|0:0,0:0:0:0:
458,44,346880,2,0,P|404:58|359:92,1,100,8|0,0:1|0:0,0:0:0:0:
256,224,347280,1,0,0:0:0:0:
58,42,347480,2,0,P|112:56|157:90,1,100,8|0,0:1|0:0,0:0:0:0:
256,256,347880,1,0,0:0:0:0:
107,153,348080,5,8,0:1:0:0:
409,153,348280,1,8,0:1:0:0:
257,354,348480,1,8,0:1:0:0:
389,46,348680,6,0,B|426:74|426:74|261:56,1,200,4|0,0:3|0:0,0:0:0:0:
379,221,349280,2,0,P|422:188|469:173,1,100,8|0,0:1|0:0,0:0:0:0:
256,328,349680,1,0,0:0:0:0:
133,221,349880,2,0,P|90:188|43:173,1,100,8|0,0:1|0:0,0:0:0:0:
256,360,350280,1,0,0:0:0:0:
256,136,350480,5,8,0:1:0:0:
82,185,350680,1,8,0:1:0:0:
431,185,350880,1,8,0:1:0:0:
105,289,351080,6,0,B|227:306|182:235|301:250,1,200,4|0,0:3|0:0,0:0:0:0:
256,36,351680,2,0,L|256:149,1,100,8|0,0:1|0:0,0:0:0:0:
256,320,352080,1,0,0:0:0:0:
185,147,352280,5,8,0:1:0:0:
328,146,352480,1,8,0:1:0:0:
256,304,352680,1,8,0:1:0:0:
256,36,352880,5,8,0:1:0:0:
130,346,353080,1,8,0:1:0:0:
390,347,353280,1,8,0:1:0:0:
157,153,353480,6,0,B|184:108|184:108|171:266,1,200,4|0,0:0|0:0,0:0:0:0:
417,30,354080,2,0,P|400:71|366:117,1,100,8|0,0:1|0:0,0:0:0:0:
200,192,354480,1,0,0:0:0:0:
417,354,354680,2,0,P|400:313|366:267,1,100,8|0,0:1|0:0,0:0:0:0:
176,192,355080,1,0,0:0:0:0:
465,193,355280,5,8,0:1:0:0:
256,56,355480,1,8,0:1:0:0:
256,328,355680,1,8,0:1:0:0:
407,44,355880,6,0,B|423:162|363:103|380:246,1,200,4|0,0:3|0:0,0:0:0:0:
182,81,356480,2,0,P|222:45|276:16,1,100,8|0,0:1|0:0,0:0:0:0:
88,192,356880,1,0,0:0:0:0:
182,303,357080,2,0,P|222:339|276:368,1,100,8|0,0:1|0:0,0:0:0:0:
64,192,357480,1,0,0:0:0:0:
346,90,357680,5,8,0:1:0:0:
40,192,357880,1,8,0:1:0:0:
346,292,358080,1,8,0:1:0:0:
183,35,358280,6,0,B|188:160|188:160|162:127|120:117,1,200,4|0,0:3|0:0,0:0:0:0:
286,351,358880,2,0,P|275:298|280:242,1,100,8|0,0:1|0:0,0:0:0:0:
448,192,359280,1,0,0:0:0:0:
286,33,359480,2,0,P|275:86|280:142,1,100,8|0,0:1|0:0,0:0:0:0:
472,192,359880,1,0,0:0:0:0:
208,192,360080,5,8,0:1:0:0:
262,23,360280,1,8,0:1:0:0:
262,343,360480,1,8,0:1:0:0:
110,53,360680,6,0,B|123:174|59:129|73:255,1,200,4|0,0:3|0:0,0:0:0:0:
328,192,361280,2,0,L|227:192,1,100,8|0,0:1|0:0,0:0:0:0:
109,193,361680,1,0,0:0:0:0:
285,278,361880,5,12,0:3:0:0:
285,106,362080,1,8,0:1:0:0:
285,291,362280,1,8,0:1:0:0:
392,32,362480,5,12,0:3:0:0:
392,365,362680,1,8,0:1:0:0:
392,6,362880,1,8,0:1:0:0:
512,253,363080,6,0,P|470:238|423:233,1,75.000002861023,8|0,0:1|0:0,0:0:0:0:
312,151,363480,1,0,0:0:0:0:
303,175,363680,2,0,P|339:168|374:155,1,75.000002861023,8|0,0:1|0:0,0:0:0:0:
239,266,364080,1,0,0:0:0:0:
251,245,364280,2,0,P|215:231|179:225,1,75.000002861023,8|0,0:1|0:0,0:0:0:0:
50,167,364680,1,0,0:0:0:0:
49,192,364880,5,8,0:1:0:0:
106,66,365080,1,8,0:1:0:0:
106,318,365280,1,8,0:1:0:0:
175,118,365480,6,0,P|199:107|233:98,2,50,8|0|0,0:1|0:0|0:0,0:0:0:0:
337,182,366080,2,0,P|313:171|279:162,2,50,8|0|0,0:3|0:0|0:0,0:0:0:0:
175,246,366680,2,0,P|199:235|233:226,2,50,8|0|0,0:1|0:0|0:0,0:0:0:0:
346,344,367280,1,8,0:1:0:0:
313,336,367480,1,8,0:1:0:0:
291,331,367680,1,8,0:1:0:0:
274,325,367880,6,0,P|287:234|405:327,1,300
395,325,368644,6,0,L|398:363,2,29.9999990844727,8|8|8,0:3|0:3|0:3,0:0:0:0:
483,74,369244,6,0,B|444:80|444:80|404:62|404:62|290:58|334:162|218:159|218:159|177:143|177:143|128:147,1,389.999982147218,12|0,0:1|0:0,0:0:0:0:
167,221,370044,1,2,0:0:0:0:
193,3,370244,1,2,0:0:0:0:
270,300,370444,6,0,L|260:173,1,112.500004291535,8|0,0:1|0:0,0:0:0:0:
154,284,371044,6,0,P|168:307|175:335,1,45,2|0,0:0|0:0,0:0:0:0:
158,352,371644,6,0,L|247:341,1,75,8|0,0:1|0:0,0:0:0:0:
283,165,371944,2,0,L|348:226,1,75
505,140,372244,2,0,L|501:292,1,139.999995727539,8|0,0:1|0:0,0:0:0:0:
372,314,372844,6,0,P|406:324|434:345,2,69.9999978637696,2|0|0,0:0|0:3|0:3,0:0:0:0:
208,291,373444,2,0,P|234:267|266:254,2,69.9999978637696,2|0|0,0:0|0:3|0:3,0:0:0:0:
29,268,374044,6,0,B|67:303|79:372|79:372|70:267|108:193,1,300,8|0,0:1|0:0,0:0:0:0:
172,287,374844,1,2,0:0:0:0:
0,135,375044,1,2,0:0:0:0:
293,149,375244,6,0,P|245:179|185:202,1,112.500004291535,8|0,0:1|0:0,0:0:0:0:
397,263,375844,2,0,P|362:251|326:231,1,75,2|0,0:0|0:0,0:0:0:0:
20,349,376444,6,0,B|59:343|59:343|93:359|93:359|181:364|132:303|219:288|247:302|247:302|249:369|331:384|356:321,1,400,2|0,0:0|0:0,0:0:0:0:
342,316,378244,2,0,L|347:376,2,50,8|8|8,0:3|0:3|0:3,0:0:0:0:
252,9,378844,6,0,B|253:39|237:68|237:68|256:78|269:93|269:93|216:130|227:214|227:214|268:289|245:370,1,389.999982147218,12|0,0:1|0:0,0:0:0:0:
155,300,379644,1,2,0:0:0:0:
388,176,379844,1,2,0:0:0:0:
53,126,380044,6,0,L|189:109,1,112.500004291535,8|0,0:1|0:0,0:0:0:0:
10,256,380644,6,0,P|9:233|-1:199,1,45,2|0,0:0|0:0,0:0:0:0:
1,282,381244,6,0,B|122:264|65:333|177:308|177:308|206:282|206:282|240:292,1,255.000004863739,8|0,0:1|0:0,0:0:0:0:
426,64,382444,2,0,B|382:63|353:102|353:102|316:67|265:72,1,170.000003242493,8|0,0:1|0:0,0:0:0:0:
154,181,383044,2,0,P|185:160|224:148,2,69.9999978637696,2|0|0,0:0|0:3|0:3,0:0:0:0:
371,333,383644,6,0,B|406:295|459:302|459:302|283:241|311:324|167:286,1,389.999982147218,4|0,0:0|0:0,0:0:0:0:
233,174,384444,1,2,0:0:0:0:
440,376,384644,1,2,0:0:0:0:
376,58,384844,6,0,B|385:89|385:89|372:264,1,194.999991073609,6|0,0:0|0:0,0:0:0:0:
134,216,385444,2,0,B|127:238|127:238|133:367,1,150,6|0,0:0|0:0,0:0:0:0:
256,192,386044,1,12,0:1:0:0:
256,192,386119,12,4,388444,0:0:0:0:
153,125,389244,6,0,P|156:93|163:63,1,59.9999981689454
160,146,389644,2,0,P|107:120|34:115,1,119.999996337891
172,239,390244,1,2,0:0:0:0:
131,233,390444,1,8,0:3:0:0:
62,223,390644,1,8,0:3:0:0:
273,121,390844,6,0,L|281:220,1,89.9999972534181,4|0,0:3|0:0,0:0:0:0:
438,88,391444,2,0,P|383:81|317:53,1,119.999996337891
491,207,392044,2,0,L|496:143,2,59.9999981689454,2|0|0,0:0|0:0|0:0,0:0:0:0:
291,239,392644,1,2,0:0:0:0:
332,233,392844,1,8,0:3:0:0:
401,223,393044,1,8,0:3:0:0:
293,361,393244,6,0,L|161:351,1,119.999996337891,4|0,0:3|0:0,0:0:0:0:
67,285,393844,1,0,0:0:0:0:
86,297,394044,2,0,P|86:257|80:222,1,59.9999981689454
169,126,394444,2,0,L|165:195,2,59.9999981689454,2|0|0,0:0|0:0|0:0,0:0:0:0:
330,291,395044,1,2,0:0:0:0:
289,285,395244,1,8,0:3:0:0:
220,275,395444,1,8,0:3:0:0:
404,177,395644,6,0,B|391:230|391:230|428:263|428:263|340:268|321:377|321:377|383:363,1,330.000010070801
257,311,397087,6,0,P|194:330|111:369,1,150
21,178,398587,6,0,B|63:137|63:137|47:306,1,225.000008583069,8|0,0:1|0:0,0:0:0:0:
71,54,399337,1,8,0:3:0:0:
260,120,399587,2,0,P|213:97|162:88,1,89.9999972534181,2|0,0:0|0:0,0:0:0:0:
31,264,400087,2,0,P|57:250|86:243,1,60,8|0,0:3|0:0,0:0:0:0:
337,324,400587,6,0,B|231:304|278:373|155:353,1,179.999994506836,8|0,0:3|0:0,0:0:0:0:
95,223,401337,1,8,0:3:0:0:
353,174,401587,1,2,0:0:0:0:
329,298,401837,1,0,0:0:0:0:
206,274,402087,1,8,0:3:0:0:
230,150,402337,1,0,0:0:0:0:
441,266,402587,6,0,B|402:238|402:238|353:284|372:362,1,179.999994506836,8|0,0:1|0:0,0:0:0:0:
192,226,403337,1,8,0:1:0:0:
289,380,403587,2,0,P|281:333|260:294,1,89.9999972534181,2|0,0:0|0:0,0:0:0:0:
344,99,404087,2,0,P|330:125|326:155,1,60,8|0,0:3|0:0,0:0:0:0:
512,304,404587,6,0,L|410:291,1,89.9999972534181,8|0,0:3|0:0,0:0:0:0:
150,147,405087,2,0,L|252:134,1,89.9999972534181,0|8,0:0|0:3,0:0:0:0:
393,36,405587,1,2,0:0:0:0:
343,253,405837,1,0,0:0:0:0:
244,53,406087,1,8,0:3:0:0:
251,154,406337,1,0,0:0:0:0:
25,95,406587,6,0,B|53:93|72:81|72:81|125:134|197:105,1,179.999994506836,8|0,0:1|0:0,0:0:0:0:
243,265,407337,1,8,0:1:0:0:
66,247,407587,2,0,P|111:232|164:227,1,89.9999972534181,2|0,0:0|0:0,0:0:0:0:
337,78,408087,2,0,P|292:72|249:57,1,89.9999972534181,8|0,0:3|0:0,0:0:0:0:
476,195,408587,6,0,B|442:151|442:151|459:286,1,179.999994506836,8|0,0:3|0:0,0:0:0:0:
262,202,409337,1,8,0:3:0:0:
349,65,409587,2,0,L|344:171,1,89.9999972534181,2|0,0:0|0:0,0:0:0:0:
186,257,410087,1,8,0:3:0:0:
195,345,410337,1,0,0:0:0:0:
54,120,410587,6,0,B|161:112|128:165|237:151,1,179.999994506836,8|0,0:1|0:0,0:0:0:0:
203,49,411337,1,8,0:1:0:0:
93,198,411587,2,0,P|92:246|101:295,1,89.9999972534181,2|0,0:0|0:0,0:0:0:0:
306,117,412087,2,0,P|307:165|298:214,1,89.9999972534181,8|0,0:3|0:0,0:0:0:0:
64,355,412587,6,0,B|94:277|181:268|229:320|225:382|225:382|280:387|312:348|312:348|345:383|396:381,1,420,8|0,0:3|0:0,0:0:0:0:
493,143,414587,6,0,P|462:53|410:170,1,300,12|0,0:1|0:0,0:0:0:0:
259,19,415337,1,4,0:3:0:0:
306,330,415587,1,8,0:0:0:0:
338,219,415837,1,0,0:0:0:0:
110,110,416087,2,0,P|124:168|130:225,1,112.500004291535,8|0,0:3|0:0,0:0:0:0:
323,41,416587,6,0,P|318:101|235:13,1,269.999991760254,4|0,0:3|0:0,0:0:0:0:
395,24,417337,1,0,0:0:0:0:
131,76,417587,1,4,0:3:0:0:
302,265,417837,1,4,0:3:0:0:
273,269,417962,1,8,0:3:0:0:
245,273,418087,1,4,0:3:0:0:
69,296,418337,1,8,0:3:0:0:
387,368,418587,6,0,P|391:288|297:365,1,269.999991760254,8|0,0:1|0:0,0:0:0:0:
484,289,419337,1,4,0:3:0:0:
238,87,419587,1,8,0:0:0:0:
250,197,419837,1,0,0:0:0:0:
477,123,420087,2,0,P|444:182|428:241,1,112.500004291535,8|0,0:3|0:0,0:0:0:0:
190,337,420587,6,0,L|318:355,1,112.500004291535,4|0,0:3|0:0,0:0:0:0:
0,148,421087,2,0,L|128:130,1,112.500004291535
370,41,421587,1,4,0:3:0:0:
195,177,421837,1,8,0:3:0:0:
196,202,421962,1,8,0:3:0:0:
197,227,422087,1,4,0:3:0:0:
37,45,422337,1,8,0:3:0:0:
185,339,422587,6,0,P|184:245|93:343,1,300,12|0,0:1|0:0,0:0:0:0:
307,232,423337,1,4,0:3:0:0:
0,112,423587,1,8,0:0:0:0:
34,24,423837,1,0,0:0:0:0:
227,187,424087,1,8,0:3:0:0:
193,99,424337,1,0,0:0:0:0:
432,282,424587,6,0,B|341:268|368:330|271:312,1,168.750006437302
262,296,425087,6,0,P|247:230|191:292,1,179.999994506836
377,211,426070,5,4,0:0:0:0:
377,211,426287,2,0,B|372:174|393:147|393:147|278:134|325:222|200:206,1,269.999991760254
54,111,428332,2,0,P|72:156|82:200,1,89.9999972534181,2|0,0:0|0:0,0:0:0:0:
141,273,429343,2,0,P|125:319|105:359,1,89.9999972534181
186,179,430606,6,0,B|267:169|228:223|320:209,1,134.999995880127,2|0,0:0|0:0,0:0:0:0:
471,158,431641,2,0,P|421:184|388:264,1,134.999995880127
301,87,432657,2,0,B|305:112|326:131|326:131|253:108|202:142|202:142|166:105|115:108,1,269.999991760254,2|0,0:0|0:0,0:0:0:0:
0,195,435183,6,0,B|30:177|42:142|42:142|64:261|5:235|17:348,1,269.999991760254,2|0,0:0|0:0,0:0:0:0:
136,201,437390,2,0,P|178:222|236:228,1,89.9999972534181,2|0,0:0|0:0,0:0:0:0:
294,308,438471,2,0,P|339:297|387:264,1,89.9999972534181
318,79,439505,6,0,B|283:94|269:123|269:123|245:95|207:92,1,134.999995880127,2|0,0:0|0:0,0:0:0:0:
95,47,440566,2,0,P|110:84|122:132,1,89.9999972534181
39,200,441655,2,0,B|88:196|81:219|129:215,1,90,2|0,0:0|0:0,0:0:0:0:
196,122,442931,2,0,P|190:146|188:172,1,44.999998626709
256,192,444174,5,4,0:1:0:0:
256,192,444354,12,0,448054,0:0:0:0:
23,97,448923,6,0,P|28:114|32:135,1,30,2|0,0:0|0:0,0:0:0:0:
104,114,449786,2,0,P|104:131|102:153,1,30,2|0,0:0|0:0,0:0:0:0:
180,123,450709,2,0,B|186:209|141:191|147:288,1,157.499995193482,2|0,0:0|0:0,0:0:0:0:
64,329,451632,6,0,B|49:296|12:281|12:281|68:267|108:288|108:288|212:338|215:222|379:278,1,450.000017166138
476,173,452874,6,0,L|472:243,1,56.2500021457673,2|0,0:3|0:0,0:0:0:0:
359,76,453108,6,0,L|357:19,1,52.4999983978272
343,88,453342,2,0,L|341:31,1,52.4999983978272,2|0,0:3|0:0,0:0:0:0:
91,137,453576,2,0,L|93:80,1,52.4999983978272
107,149,453810,2,0,L|109:92,1,52.4999983978272,2|0,0:3|0:0,0:0:0:0:
317,253,454045,6,0,L|315:208,1,37.5
304,262,454279,2,0,L|302:217,1,37.5,2|0,0:3|0:0,0:0:0:0:
184,337,454514,2,0,L|185:292,1,37.5
197,346,454748,2,0,L|198:301,1,37.5,2|0,0:3|0:0,0:0:0:0:
349,54,454983,6,0,L|354:118,1,52.4999983978272
282,204,455217,2,0,L|277:140,1,52.4999983978272,2|0,0:3|0:0,0:0:0:0:
226,18,455451,6,0,L|220:99,1,67.4999979400635
368,306,455686,2,0,L|362:225,1,67.4999979400635,2|0,0:3|0:0,0:0:0:0:
174,203,455920,6,0,B|175:217|175:217|180:231,1,22.4999993133545,2|0,0:0|0:0,0:0:0:0:
182,199,456037,2,0,B|183:213|183:213|188:227,1,22.4999993133545
190,195,456154,2,0,B|191:209|191:209|196:223,1,22.4999993133545,2|0,0:0|0:0,0:0:0:0:
198,191,456271,2,0,B|199:205|199:205|204:219,1,22.4999993133545
257,267,456388,6,0,B|271:268|271:268|285:273,1,22.4999993133545,2|0,0:0|0:0,0:0:0:0:
253,275,456505,2,0,B|267:276|267:276|281:281,1,22.4999993133545
249,283,456622,2,0,B|263:284|263:284|277:289,1,22.4999993133545,2|0,0:0|0:0,0:0:0:0:
245,291,456739,2,0,B|259:292|259:292|273:297,1,22.4999993133545
180,339,456857,5,4,0:3:0:0:
123,286,456974,1,0,0:0:0:0:
32,330,457091,6,0,L|35:375,1,37.5,4|0,0:3|0:0,0:0:0:0:
123,286,457326,5,4,0:0:0:0:
131,287,457443,1,0,0:0:0:0:
197,249,457560,1,0,0:0:0:0:
205,247,457677,1,0,0:0:0:0:
307,308,457795,6,0,B|329:274|329:274|227:270|227:270|210:289|210:289|112:286,1,255.000004863739,4|2,0:1|0:0,0:0:0:0:
56,63,458146,1,0,0:0:0:0:
28,194,458263,2,0,B|87:201|87:201|133:167,1,112.500004291535,8|0,0:0|0:0,0:0:0:0:
282,50,458498,2,0,B|223:43|223:43|177:77,1,112.500004291535,2|0,0:0|0:0,0:0:0:0:
389,260,458732,2,0,B|376:100|376:100|421:156,1,225.000008583069,4|2,0:3|0:0,0:0:0:0:
149,211,459084,1,0,0:0:0:0:
276,321,459201,2,0,B|289:161|289:161|244:217,1,225.000008583069,8|2,0:0|0:0,0:0:0:0:
391,344,459552,6,0,B|307:339|307:339|292:351|292:351|170:343,1,225.000008583069,4|0,0:3|0:0,0:0:0:0:
469,234,459904,2,0,L|477:348,1,112.500004291535,2|0,0:0|0:0,0:0:0:0:
278,121,460138,2,0,B|266:178|266:178|282:238,1,112.500004291535,8|0,0:0|0:0,0:0:0:0:
469,234,460373,2,0,B|481:177|481:177|465:117,1,112.500004291535,2|0,0:0|0:0,0:0:0:0:
186,14,460607,2,0,B|148:50|148:50|327:37,1,225.000008583069,4|2,0:3|0:0,0:0:0:0:
35,28,460959,1,0,0:0:0:0:
136,157,461076,5,8,0:0:0:0:
148,50,461194,1,2,0:0:0:0:
111,174,461311,1,0,0:0:0:0:
84,97,461428,1,2,0:0:0:0:
171,229,461545,6,0,B|222:215|222:215|144:208|144:208|115:215|115:215|44:209,1,225.000008583069,4|2,0:3|0:0,0:0:0:0:
331,206,461896,1,0,0:0:0:0:
300,316,462013,2,0,B|358:316|358:316|405:288,1,112.500004291535,8|0,0:0|0:0,0:0:0:0:
504,130,462248,2,0,B|446:130|446:130|399:102,1,112.500004291535,2|0,0:0|0:0,0:0:0:0:
300,316,462482,2,0,B|289:157|289:157|338:214,1,225.000008583069,4|2,0:3|0:0,0:0:0:0:
62,81,462834,1,0,0:0:0:0:
179,182,462951,2,0,B|190:23|190:23|141:80,1,225.000008583069,8|2,0:0|0:0,0:0:0:0:
85,268,463302,6,0,B|64:235|64:235|137:243|137:243|169:265|169:265|201:253|201:253|245:258,1,225.000008583069,4|0,0:3|0:0,0:0:0:0:
258,56,463654,2,0,L|139:73,1,112.500004291535,2|0,0:0|0:0,0:0:0:0:
426,142,463888,2,0,B|437:81|437:81|419:25,1,112.500004291535,8|0,0:0|0:0,0:0:0:0:
330,322,464123,2,0,B|319:261|319:261|337:205,1,112.500004291535,2|0,0:0|0:0,0:0:0:0:
128,64,464357,6,0,B|157:54|157:54|186:55,1,56.2500021457673,4|0,0:3|0:0,0:0:0:0:
138,133,464474,2,0,B|167:123|167:123|196:124,1,56.2500021457673
146,202,464591,2,0,B|175:192|175:192|204:193,1,56.2500021457673,2|0,0:0|0:0,0:0:0:0:
155,271,464709,2,0,B|184:261|184:261|213:262,1,56.2500021457673
78,293,464826,6,0,B|64:296|64:296|50:296,1,30,10|0,0:0|0:0,0:0:0:0:
74,259,464943,2,0,B|60:262|60:262|46:262,1,30
69,224,465060,2,0,B|55:227|55:227|41:227,1,30
64,190,465178,2,0,B|50:193|50:193|36:193,1,30
155,271,465295,6,0,B|123:312|123:312|277:331|277:331|255:284,1,255.000004863739,4|2,0:1|0:0,0:0:0:0:
226,61,465646,1,0,0:0:0:0:
164,173,465763,2,0,B|214:194|214:194|273:181,1,112.500004291535,8|0,0:0|0:0,0:0:0:0:
7,51,465998,2,0,B|57:30|57:30|116:43,1,112.500004291535,2|0,0:0|0:0,0:0:0:0:
270,181,466232,2,0,B|238:134|238:134|259:311,1,225.000008583069,4|2,0:3|0:0,0:0:0:0:
499,100,466584,1,0,0:0:0:0:
362,72,466701,2,0,B|394:25|394:25|373:202,1,225.000008583069,8|2,0:0|0:0,0:0:0:0:
163,314,467052,6,0,B|260:307|260:307|276:318|276:318|390:309,1,225.000008583069,4|0,0:3|0:0,0:0:0:0:
307,125,467404,2,0,L|296:243,1,112.500004291535,2|0,0:0|0:0,0:0:0:0:
49,167,467638,2,0,B|95:192|95:192|153:179,1,112.500004291535,8|0,0:0|0:0,0:0:0:0:
314,47,467873,2,0,B|256:34|256:34|200:65,1,112.500004291535,2|0,0:0|0:0,0:0:0:0:
392,261,468107,2,0,B|216:246|216:246|246:297,1,225.000008583069,4|2,0:3|0:0,0:0:0:0:
472,121,468459,1,0,0:0:0:0:
481,254,468576,6,0,L|477:208,1,45,8|0,0:0|0:0,0:0:0:0:
263,140,469045,6,0,B|324:134|324:134|343:150|343:150|401:145|401:145|417:126|417:126|485:120,1,225.000008583069,4|2,0:3|0:0,0:0:0:0:
231,58,469396,1,0,0:0:0:0:
146,190,469513,2,0,B|158:134|158:134|141:76,1,112.500004291535,8|0,0:0|0:0,0:0:0:0:
219,357,469748,2,0,B|207:301|207:301|224:243,1,112.500004291535,2|0,0:0|0:0,0:0:0:0:
5,192,469982,2,0,B|-20:145|-20:145|152:191,1,225.000008583069,4|2,0:3|0:0,0:0:0:0:
317,213,470334,1,0,0:0:0:0:
219,357,470451,2,0,B|176:324|176:324|351:293,1,225.000008583069,8|2,0:0|0:0,0:0:0:0:
5,192,470802,6,0,B|44:185|44:185|80:198|80:198|146:172|146:172|223:184,1,225.000008583069,4|0,0:3|0:0,0:0:0:0:
92,6,471154,2,0,L|79:121,1,112.500004291535,2|0,0:0|0:0,0:0:0:0:
336,119,471388,2,0,B|287:89|287:89|229:104,1,112.500004291535,8|0,0:0|0:0,0:0:0:0:
180,325,471623,2,0,B|229:295|229:295|287:310,1,112.500004291535,2|0,0:0|0:0,0:0:0:0:
439,282,471857,6,0,L|484:291,3,37.5,4|0|0|0,0:0|0:0|0:0|0:0,0:0:0:0:
365,225,472091,2,0,L|320:234,3,37.5
464,177,472326,6,0,L|499:184,3,28.1250010728836,8|0|0|0,0:0|0:0|0:0|0:0,0:0:0:0:
405,132,472560,2,0,L|369:139,3,28.1250010728836
495,72,472795,6,0,B|455:38|455:38|410:129|410:129|465:178,1,225.000008583069,4|2,0:1|0:0,0:0:0:0:
256,35,473146,1,0,0:0:0:0:
318,199,473263,2,0,B|299:141|299:141|312:84,1,112.500004291535,8|0,0:0|0:0,0:0:0:0:
211,367,473498,2,0,B|230:309|230:309|217:252,1,112.500004291535,2|0,0:0|0:0,0:0:0:0:
469,204,473732,2,0,B|492:243|492:243|318:199,1,225.000008583069,4|2,0:3|0:0,0:0:0:0:
172,122,474084,1,0,0:0:0:0:
219,259,474201,2,0,B|242:220|242:220|68:264,1,225.000008583069,8|2,0:0|0:0,0:0:0:0:
285,129,474552,6,0,L|165:122,1,112.500004291535,4|0,0:3|0:0,0:0:0:0:
105,35,474904,2,0,L|175:31,1,56.2500021457673,2|0,0:0|0:0,0:0:0:0:
284,150,475138,2,0,L|214:146,1,56.2500021457673,8|0,0:0|0:0,0:0:0:0:
71,264,475373,2,0,L|141:260,1,56.2500021457673,2|0,0:0|0:0,0:0:0:0:
383,332,475607,6,0,B|386:272|386:272|345:237|345:237|301:269|301:269|298:325,1,225,4|0,0:0|0:0,0:0:0:0:
383,332,476076,6,0,B|447:303|447:303|518:319,1,134.999995880127,8|0,0:3|0:0,0:0:0:0:
510,325,476545,6,0,B|449:311|449:311|329:364|329:364|221:330,1,300
86,284,477380,5,2,0:3:0:0:
86,284,477680,2,0,P|103:322|122:398,1,100,8|0,0:3|0:0,0:0:0:0:
194,193,477980,2,0,P|183:223|174:260,1,50,4|0,0:3|0:0,0:0:0:0:
68,112,478180,1,8,0:3:0:0:
60,133,478280,2,0,P|84:126|107:117,1,50,2|0,0:3|0:0,0:0:0:0:
262,99,478480,1,8,0:0:0:0:
186,116,478580,2,0,B|180:49|218:64|211:-14,1,119.999996337891,8|8,0:3|0:3,0:0:0:0:
277,116,478880,1,6,0:3:0:0:
212,338,479180,6,0,P|273:317|315:272,1,119.999996337891,4|0,0:3|0:0,0:0:0:0:
355,110,479480,2,0,P|344:164|359:215,1,100,2|0,0:3|0:0,0:0:0:0:
444,308,479780,2,0,P|426:291|399:272,1,40,8|0,0:3|0:0,0:0:0:0:
333,365,479980,1,8,0:0:0:0:
352,364,480080,1,4,0:3:0:0:
153,156,480380,5,4,0:0:0:0:
153,156,480980,2,0,P|182:144|205:139,1,50
272,170,481580,6,0,B|138:151|201:229|13:202,1,255.000004863739,4|8,0:1|0:0,0:0:0:0:
439,284,482080,1,8,0:3:0:0:
430,258,482180,2,0,P|411:296|399:342,1,75.000002861023,4|0,0:3|0:0,0:0:0:0:
202,181,482380,1,8,0:3:0:0:
203,99,482480,2,0,P|233:184|243:253,1,150.000005722046,8|0,0:0|0:0,0:0:0:0:
456,56,482780,2,0,P|400:30|355:99,1,150.000005722046,4|0,0:3|0:0,0:0:0:0:
390,199,483080,2,0,P|355:187|310:184,1,75.000002861023,8|0,0:0|0:0,0:0:0:0:
157,10,483280,1,8,0:3:0:0:
178,26,483380,2,0,P|137:22|95:6,1,75.000002861023,4|0,0:3|0:0,0:0:0:0:
158,183,483580,1,8,0:3:0:0:
232,149,483680,2,0,P|153:150|75:174,1,150.000005722046,8|0,0:0|0:0,0:0:0:0:
389,338,483980,6,0,P|334:310|275:373,1,150.000005722046,4|0,0:3|0:0,0:0:0:0:
399,357,484280,2,0,P|454:385|513:322,1,150.000005722046,8|0,0:0|0:0,0:0:0:0:
368,129,484580,2,0,P|417:182|424:269,1,150.000005722046,4|8,0:3|0:3,0:0:0:0:
257,355,484880,2,0,P|266:281|315:227,1,150.000005722046,8|0,0:0|0:0,0:0:0:0:
122,193,485180,6,0,P|145:229|177:335,1,150.000005722046,4|0,0:3|0:0,0:0:0:0:
248,43,485480,2,0,P|219:82|203:122,1,75.000002861023,8|0,0:0|0:0,0:0:0:0:
350,207,485680,1,8,0:3:0:0:
267,217,485780,2,0,P|310:187|409:162,1,150.000005722046,4|0,0:3|0:0,0:0:0:0:
32,92,486080,6,0,P|106:109|116:43,1,150.000005722046,8|0,0:0|0:0,0:0:0:0:
15,114,486380,6,0,B|75:172|176:128|135:68|208:29|291:59,1,300,4|8,0:0|0:0,0:0:0:0:
393,328,486880,1,8,0:3:0:0:
419,314,486980,2,0,P|384:298|335:292,1,75.000002861023,4|0,0:3|0:0,0:0:0:0:
189,214,487180,1,8,0:3:0:0:
122,262,487280,2,0,P|194:254|266:205,1,150.000005722046,8|0,0:0|0:0,0:0:0:0:
13,82,487580,2,0,P|65:29|126:68,1,150.000005722046,4|0,0:3|0:0,0:0:0:0:
227,64,487880,2,0,P|239:103|242:141,1,75.000002861023,8|0,0:0|0:0,0:0:0:0:
66,313,488080,1,8,0:3:0:0:
46,296,488180,2,0,P|85:284|123:281,1,75.000002861023,4|0,0:3|0:0,0:0:0:0:
270,271,488380,1,8,0:3:0:0:
194,241,488480,2,0,B|280:258|262:208|339:222,1,150.000005722046,8|0,0:0|0:0,0:0:0:0:
307,0,488780,6,0,P|261:46|281:149,1,170.000003242493,4|0,0:3|0:0,0:0:0:0:
454,32,489080,2,0,P|474:111|423:175,1,170.000003242493,8|0,0:0|0:0,0:0:0:0:
146,58,489380,6,0,P|189:42|250:48,1,100,4|8,0:3|0:3,0:0:0:0:
139,148,489680,2,0,P|89:151|42:135,1,100,8|0,0:0|0:0,0:0:0:0:
334,174,489980,5,4,0:3:0:0:
286,247,490080,1,0,0:0:0:0:
206,216,490180,1,8,0:3:0:0:
139,263,490280,5,8,0:0:0:0:
102,238,490380,1,8,0:3:0:0:
51,250,490480,1,8,0:3:0:0:
26,329,490580,5,8,0:3:0:0:
40,327,490680,1,8,0:3:0:0:
54,326,490780,1,8,0:3:0:0:
69,325,490880,6,0,L|67:363,1,29.9999990844727,4|0,0:3|0:0,0:0:0:0:
327,271,491180,6,0,P|198:245|221:329,1,255.000004863739,4|8,0:1|0:0,0:0:0:0:
403,95,491680,1,8,0:3:0:0:
419,124,491780,2,0,P|374:103|337:95,1,75.000002861023,4|0,0:3|0:0,0:0:0:0:
166,20,491980,1,8,0:3:0:0:
250,32,492080,2,0,P|181:55|83:62,1,150.000005722046,8|0,0:0|0:0,0:0:0:0:
179,272,492380,6,0,P|165:186|56:254,1,255.000004863739,4|8,0:0|0:0,0:0:0:0:
430,233,492880,1,8,0:3:0:0:
413,210,492980,2,0,P|393:246|370:363,1,150.000005722046,4|0,0:3|0:0,0:0:0:0:
264,44,493280,2,0,P|284:80|307:197,1,150.000005722046,8|0,0:0|0:0,0:0:0:0:
509,362,493580,6,0,P|450:314|375:350,1,150.000005722046,4|0,0:0|0:0,0:0:0:0:
170,296,493880,2,0,P|238:316|293:269,1,150.000005722046,8|0,0:0|0:0,0:0:0:0:
97,90,494180,2,0,P|154:152|172:230,1,150.000005722046,4|8,0:3|0:3,0:0:0:0:
0,324,494480,2,0,P|22:253|74:200,1,150.000005722046,8|0,0:0|0:0,0:0:0:0:
358,92,494780,6,0,P|272:66|309:184,1,255.000004863739,4|8,0:0|0:0,0:0:0:0:
507,231,495180,2,0,P|533:145|368:180,1,340.000006484985,0|8,0:0|0:3,0:0:0:0:
291,344,495680,2,0,P|323:283|415:300,1,170.000003242493,8|0,0:0|0:0,0:0:0:0:
271,159,495980,6,0,B|113:156|196:232|20:228,1,255.000004863739,4|8,0:0|0:0,0:0:0:0:
216,30,496480,1,8,0:3:0:0:
190,13,496580,2,0,P|182:56|184:92,1,75.000002861023,4|0,0:3|0:0,0:0:0:0:
313,230,496780,1,8,0:3:0:0:
398,215,496880,2,0,P|314:190|245:193,1,150.000005722046,8|0,0:0|0:0,0:0:0:0:
20,167,497180,2,0,P|82:108|119:151,1,150.000005722046,4|0,0:3|0:0,0:0:0:0:
116,265,497480,2,0,P|152:256|184:237,1,75.000002861023,8|0,0:0|0:0,0:0:0:0:
306,72,497680,1,8,0:3:0:0:
287,48,497780,2,0,P|277:87|277:131,1,75.000002861023,4|0,0:3|0:0,0:0:0:0:
442,198,497980,1,8,0:3:0:0:
461,122,498080,2,0,P|410:195|395:265,1,150.000005722046,8|0,0:0|0:0,0:0:0:0:
89,256,498380,6,0,P|162:288|214:240,1,150.000005722046,4|0,0:3|0:0,0:0:0:0:
322,221,498680,2,0,P|249:189|197:237,1,150.000005722046,8|0,0:0|0:0,0:0:0:0:
411,371,498980,2,0,P|406:301|418:214,1,150.000005722046,4|8,0:3|0:3,0:0:0:0:
324,52,499280,2,0,P|333:126|329:200,1,150.000005722046,8|0,0:0|0:0,0:0:0:0:
115,158,499580,5,4,0:3:0:0:
176,101,499680,1,0,0:0:0:0:
251,139,499780,1,8,0:3:0:0:
285,208,499880,5,8,0:0:0:0:
331,231,499980,1,8,0:3:0:0:
368,196,500080,1,8,0:3:0:0:
447,150,500180,5,8,0:3:0:0:
445,164,500280,1,8,0:3:0:0:
444,178,500380,1,8,0:3:0:0:
443,193,500480,6,0,L|481:191,1,29.9999990844727,4|0,0:3|0:0,0:0:0:0:
263,3,500780,6,0,P|329:71|316:147,1,170.000003242493,4|0,0:0|0:0,0:0:0:0:
130,69,501080,2,0,P|150:28|185:-1,1,85.0000016212464,8|0,0:0|0:0,0:0:0:0:
165,183,501280,1,8,0:3:0:0:
66,180,501380,2,0,P|139:188|161:279,1,170.000003242493,4|0,0:3|0:0,0:0:0:0:
325,151,501680,2,0,P|291:221|276:303,1,150.000005722046,8|0,0:0|0:0,0:0:0:0:
512,263,501980,6,0,P|429:265|363:218,1,150,4|0,0:3|0:0,0:0:0:0:
503,95,502580,6,0,B|512:222|429:152|436:310,1,225.000008583069
345,125,503717,5,2,0:0:0:0:
367,121,503977,1,0,0:0:0:0:
227,60,504578,6,0,P|246:93|257:137,1,78.7499975967408
250,152,505319,6,0,L|152:136,1,89.9999972534181,2|0,0:0|0:0,0:0:0:0:
342,281,505919,1,2,0:0:0:0:
349,201,506069,1,0,0:0:0:0:
340,300,506219,2,0,L|391:295,1,44.999998626709
193,137,506519,1,2,0:0:0:0:
211,257,506669,2,0,P|151:245|115:225,1,89.9999972534181
69,73,507119,2,0,P|78:99|82:125,1,44.999998626709,2|0,0:0|0:0,0:0:0:0:
20,283,507419,2,0,P|24:260|32:239,1,44.999998626709
214,138,507719,5,2,0:0:0:0:
60,146,508019,1,0,0:0:0:0:
122,267,508319,2,0,L|173:262,1,44.999998626709,2|0,0:0|0:0,0:0:0:0:
244,203,508619,2,0,L|295:208,1,44.999998626709
138,64,508919,2,0,P|155:109|166:166,1,89.9999972534181,2|0,0:0|0:0,0:0:0:0:
360,21,509369,1,0,0:0:0:0:
285,100,509519,2,0,P|279:130|278:161,1,44.999998626709,2|0,0:0|0:0,0:0:0:0:
439,54,509819,2,0,P|445:84|446:115,1,44.999998626709
317,224,510119,6,0,L|416:214,1,89.9999972534181,2|0,0:0|0:0,0:0:0:0:
220,155,510719,1,2,0:0:0:0:
140,162,510869,1,0,0:0:0:0:
239,153,511019,2,0,L|234:204,1,44.999998626709
369,33,511319,1,2,0:0:0:0:
333,145,511469,2,0,P|379:147|435:128,1,89.9999972534181
283,263,511919,2,0,P|310:248|331:241,1,44.999998626709,2|0,0:0|0:0,0:0:0:0:
472,340,512219,2,0,P|445:325|424:318,1,44.999998626709
261,172,512519,5,2,0:0:0:0:
215,351,512819,1,0,0:0:0:0:
126,198,513119,2,0,L|132:253,1,44.999998626709,2|0,0:0|0:0,0:0:0:0:
55,346,513419,2,0,L|61:291,1,44.999998626709
193,145,513719,2,0,P|213:197|238:238,1,89.9999972534181,2|0,0:0|0:0,0:0:0:0:
142,41,514169,1,0,0:0:0:0:
80,130,514319,2,0,P|47:126|20:117,1,44.999998626709,2|0,0:0|0:0,0:0:0:0:
270,56,514619,2,0,P|247:58|225:64,1,44.999998626709
411,152,514919,6,0,B|356:148|374:175|315:170,1,89.9999972534181,2|0,0:0|0:0,0:0:0:0:
470,310,515519,1,2,0:0:0:0:
477,230,515669,1,0,0:0:0:0:
468,329,515819,2,0,L|512:324,1,44.999998626709
286,302,516119,1,2,0:0:0:0:
364,355,516269,2,0,P|371:305|368:255,1,89.9999972534181
198,278,516719,2,0,P|201:306|205:329,1,44.999998626709,2|0,0:0|0:0,0:0:0:0:
321,168,517019,2,0,P|318:140|314:117,1,44.999998626709
85,177,517319,5,2,0:0:0:0:
235,194,517619,1,0,0:0:0:0:
98,331,517919,2,0,L|103:280,1,44.999998626709,2|0,0:0|0:0,0:0:0:0:
159,185,518219,2,0,L|154:134,1,44.999998626709
11,58,518519,2,0,P|44:90|91:113,1,89.9999972534181,2|0,0:0|0:0,0:0:0:0:
241,26,518969,1,0,0:0:0:0:
176,140,519119,2,0,P|172:171|171:193,1,44.999998626709,2|0,0:0|0:0,0:0:0:0:
331,99,519419,2,0,P|335:130|336:152,1,44.999998626709
252,337,519719,6,0,L|259:236,1,89.9999972534181,2|0,0:0|0:0,0:0:0:0:
419,312,520319,1,2,0:0:0:0:
339,319,520469,1,0,0:0:0:0:
438,310,520619,2,0,L|433:354,1,44.999998626709
463,169,520919,2,0,P|481:207|489:249,1,75,2|0,0:0|0:0,0:0:0:0:
329,206,521369,1,0,0:0:0:0:
379,121,521519,6,0,P|374:92|363:54,2,60,2|0|2,0:0|0:0|0:0,0:0:0:0:
229,88,522419,5,0,0:0:0:0:
230,97,522719,1,0,0:0:0:0:
231,107,523019,1,0,0:0:0:0:
232,116,523319,2,0,L|166:112,1,60,0|2,0:0|0:0,0:0:0:0:
101,54,523819,2,0,L|128:53,1,20,0|8,0:0|0:0,0:0:0:0:
90,54,524219,1,2,0:0:0:0:
245,234,524519,6,0,B|268:207|268:207|215:170|155:217,1,150,4|2,0:0|0:0,0:0:0:0:
17,140,524969,1,0,0:0:0:0:
81,262,525119,2,0,P|85:308|84:345,1,75,8|0,0:0|0:0,0:0:0:0:
0,149,525419,2,0,P|0:111|3:74,1,75,2|0,0:0|0:0,0:0:0:0:
230,92,525719,2,0,P|158:112|95:164,1,150,4|2,0:3|0:0,0:0:0:0:
241,67,526169,1,0,0:0:0:0:
213,216,526319,2,0,L|309:200,1,75,8|0,0:0|0:0,0:0:0:0:
398,92,526619,2,0,L|471:104,1,75,2|0,0:0|0:0,0:0:0:0:
468,233,526919,6,0,B|378:239|425:288|337:293,1,150,4|2,0:3|0:0,0:0:0:0:
249,181,527369,1,0,0:0:0:0:
218,359,527519,2,0,L|296:353,1,75,8|0,0:0|0:0,0:0:0:0:
162,173,527819,2,0,L|84:167,1,75,2|0,0:0|0:0,0:0:0:0:
305,85,528119,1,4,0:3:0:0:
272,243,528269,1,0,0:0:0:0:
157,73,528419,1,2,0:0:0:0:
169,162,528569,1,0,0:0:0:0:
47,29,528719,2,0,L|37:104,1,75,8|0,0:0|0:0,0:0:0:0:
92,265,529019,2,0,L|82:190,1,75,2|0,0:0|0:0,0:0:0:0:
23,384,529319,6,0,P|94:343|167:320,1,150,4|2,0:3|0:0,0:0:0:0:
250,161,529769,1,0,0:0:0:0:
306,297,529919,2,0,P|348:289|388:276,1,75,8|0,0:0|0:0,0:0:0:0:
230,142,530219,2,0,P|188:150|148:163,1,75,2|0,0:0|0:0,0:0:0:0:
388,115,530519,6,0,B|434:72|408:23|408:23|317:80|358:204|472:207,1,359.999989013672,4|0,0:3|0:0,0:0:0:0:
291,265,531799,6,0,B|323:258|340:236|340:236|309:273|308:332,1,150
137,278,532920,6,0,B|144:217,1,56.2500021457673,8|0,0:1|0:0,0:0:0:0:
60,130,533331,2,0,B|71:167|71:167|65:212,1,75,8|0,0:0|0:0,0:0:0:0:
64,222,533901,1,8,0:3:0:0:
172,93,534690,6,0,B|202:121|243:121|267:93|269:52|269:52|236:89|250:167,1,240
258,164,536604,2,0,L|373:155,1,112.499996566773
450,336,538004,6,0,B|426:356|396:354|396:354|389:306|409:261|409:261|354:323|274:282,1,299.812504574776
188,214,541539,2,0,P|212:253|221:302,1,89.9999972534181
207,316,542688,2,0,L|160:311,1,44.999998626709,8|8,0:1|0:3,0:0:0:0:
73,251,543063,2,0,L|120:245,1,44.999998626709,8|8,0:3|0:3,0:0:0:0:
0,123,543474,6,0,B|0:89|-17:64|-17:64|16:63|43:34|43:34|5:121|5:223,1,314.999990386963,8|0,0:3|0:0,0:0:0:0:
10,234,545225,1,8,0:3:0:0:
10,234,545975,2,0,P|58:234|111:249,1,90
177,331,546725,6,0,P|136:343|77:343,1,100,4|0,0:3|0:0,0:0:0:0:
222,153,547098,1,2,0:0:0:0:
209,164,547223,2,0,L|216:218,1,50
371,381,547472,1,2,0:0:0:0:
358,370,547597,2,0,L|365:316,1,50
473,186,547846,2,0,L|515:190,1,37.5,8|0,0:3|0:0,0:0:0:0:
512,200,548033,2,0,L|474:196,1,37.5,8|0,0:3|0:0,0:0:0:0:
308,53,548220,6,0,P|337:110|345:164,1,104.999996795654,4|0,0:3|0:0,0:0:0:0:
156,238,548781,2,0,P|185:181|193:127,1,104.999996795654,4|2,0:3|0:0,0:0:0:0:
44,49,549341,2,0,P|59:78|67:108,1,52.4999983978272,4|0,0:3|0:0,0:0:0:0:
32,313,549715,6,0,B|122:301|87:357|197:344,2,150,4|8|8,0:3|0:3|0:3,0:0:0:0:
20,301,550650,1,2,0:0:0:0:
168,318,550837,2,0,L|208:321,1,37.5
249,139,551024,2,0,L|252:179,1,37.5,8|0,0:3|0:0,0:0:0:0:
288,294,551210,6,0,P|317:293|345:286,1,52.4999983978272,4|0,0:3|0:0,0:0:0:0:
199,238,551584,1,2,0:0:0:0:
394,354,551771,2,0,P|411:331|424:305,1,52.4999983978272,4|0,0:3|0:0,0:0:0:0:
212,220,552145,1,2,0:0:0:0:
506,314,552332,2,0,P|499:285|488:259,1,52.4999983978272,4|0,0:3|0:0,0:0:0:0:
317,81,552706,6,0,B|336:67|349:40|349:40|338:151,2,150,4|8|8,0:3|0:3|0:3,0:0:0:0:
440,138,553827,1,2,0:0:0:0:
193,106,554014,1,8,0:3:0:0:
319,269,554201,6,0,P|291:254|264:245,1,52.4999983978272,4|0,0:3|0:0,0:0:0:0:
323,356,554575,1,2,0:0:0:0:
266,163,554762,2,0,P|236:174|212:189,1,52.4999983978272,4|0,0:3|0:0,0:0:0:0:
339,357,555136,1,2,0:0:0:0:
151,134,555323,2,0,P|141:164|136:192,1,52.4999983978272,4|0,0:3|0:0,0:0:0:0:
12,363,555696,6,0,B|8:276|59:310|52:210,1,150,4|8,0:3|0:3,0:0:0:0:
125,53,556444,6,0,P|106:150|204:74,1,300,8|0,0:3|0:0,0:0:0:0:
209,56,557185,6,0,L|291:48,1,75,8|0,0:3|0:0,0:0:0:0:
491,159,557435,2,0,L|505:79,1,75,8|0,0:0|0:0,0:0:0:0:
368,278,557685,2,0,L|382:358,1,75,8|0,0:0|0:0,0:0:0:0:
161,154,557935,6,0,L|246:160,1,75,8|0,0:0|0:0,0:0:0:0:
35,144,558185,1,8,0:3:0:0:
144,240,558310,2,0,L|229:246,1,75,8|0,0:0|0:0,0:0:0:0:
18,230,558560,1,8,0:3:0:0:
127,326,558685,2,0,L|212:332,1,75,8|0,0:0|0:0,0:0:0:0:
246,71,558935,6,0,L|254:220,1,150,8|8,0:0|0:3,0:0:0:0:
439,50,559310,1,0,0:3:0:0:
349,21,559435,2,0,L|357:170,1,150,8|8,0:0|0:3,0:0:0:0:
457,138,559810,1,0,0:0:0:0:
426,223,559935,6,0,L|502:217,1,75,8|0,0:0|0:0,0:0:0:0:
330,146,560185,1,8,0:3:0:0:
341,286,560310,2,0,L|347:362,1,75,8|0,0:0|0:0,0:0:0:0:
340,158,560560,1,8,0:3:0:0:
200,169,560685,2,0,L|124:175,1,75,8|0,0:0|0:0,0:0:0:0:
425,37,560935,5,8,0:3:0:0:
279,90,561060,1,8,0:0:0:0:
483,104,561185,2,0,L|489:188,1,75,8|0,0:3|0:0,0:0:0:0:
155,273,561435,2,0,L|235:253,1,75,8|0,0:0|0:0,0:0:0:0:
419,362,561685,2,0,L|339:342,1,75,8|0,0:3|0:0,0:0:0:0:
82,133,561935,6,0,L|96:209,1,75,8|0,0:0|0:0,0:0:0:0:
67,53,562185,1,8,0:3:0:0:
236,179,562310,2,0,L|222:103,1,75,8|0,0:0|0:0,0:0:0:0:
251,259,562560,1,8,0:3:0:0:
362,77,562685,2,0,L|376:151,1,75,8|0,0:0|0:0,0:0:0:0:
46,285,562935,6,0,L|129:274,1,75,8|0,0:0|0:0,0:0:0:0:
464,285,563185,2,0,L|381:274,1,75,8|0,0:0|0:0,0:0:0:0:
46,308,563435,2,0,L|129:297,1,75,8|0,0:0|0:0,0:0:0:0:
464,308,563685,2,0,L|381:297,1,75,8|0,0:0|0:0,0:0:0:0:
256,33,563935,6,0,B|305:82|293:163|293:163|232:167|210:110|210:110|232:181|173:228|173:228|256:215|291:294,1,524.999983978272,4|0,0:0|0:0,0:0:0:0:
289,311,566935,2,0,B|394:299|346:367|467:351,1,179.999994506836
467,339,568018,1,8,0:3:0:0:
467,339,568685,1,8,0:3:0:0:
467,339,569362,6,0,P|404:342|356:291,1,120,4|0,0:0|0:0,0:0:0:0:
294,127,569753,1,0,0:0:0:0:
304,111,569883,2,0,P|321:138|330:169,1,60,2|0,0:0|0:0,0:0:0:0:
216,318,570144,1,0,0:0:0:0:
213,299,570274,2,0,P|243:308|270:326,1,60
48,218,570535,2,0,P|75:200|106:191,1,60,2|0,0:0|0:0,0:0:0:0:
105,347,570796,1,0,0:0:0:0:
90,354,570927,2,0,P|90:321|104:286,1,60,2|0,0:0|0:0,0:0:0:0:
147,66,571188,2,0,P|155:94|155:124,1,60,0|8,0:0|0:3,0:0:0:0:
361,265,571448,5,4,0:3:0:0:
306,200,571579,1,0,0:0:0:0:
230,245,571709,2,0,P|226:278|229:308,1,60
345,110,571970,2,0,P|312:106|282:109,1,60,2|0,0:0|0:0,0:0:0:0:
456,243,572231,1,0,0:0:0:0:
440,229,572362,2,0,P|440:192|448:163,1,60
496,76,572622,2,0,P|496:39|488:10,1,60,2|0,0:0|0:0,0:0:0:0:
307,230,572883,1,0,0:0:0:0:
298,211,573014,2,0,P|329:203|363:202,1,60,2|0,0:0|0:0,0:0:0:0:
512,320,573275,2,0,P|481:312|447:311,1,60,0|8,0:0|0:3,0:0:0:0:
216,277,573535,6,0,P|276:298|306:346,1,120,4|0,0:3|0:0,0:0:0:0:
105,341,573927,1,0,0:0:0:0:
117,359,574057,2,0,P|151:353|184:340,1,60,2|0,0:0|0:0,0:0:0:0:
39,200,574318,1,0,0:0:0:0:
21,212,574448,2,0,P|27:246|40:279,1,60
225,89,574709,2,0,P|219:123|206:156,1,60,2|0,0:0|0:0,0:0:0:0:
40,74,574970,1,0,0:0:0:0:
29,54,575101,2,0,P|64:45|98:44,1,60,2|0,0:0|0:0,0:0:0:0:
252,217,575362,2,0,P|217:226|183:227,1,60,0|8,0:0|0:3,0:0:0:0:
406,67,575622,5,4,0:3:0:0:
351,141,575753,1,0,0:0:0:0:
270,99,575883,2,0,P|268:69|271:39,1,60
455,155,576144,2,0,P|457:185|454:215,1,60,2|0,0:0|0:0,0:0:0:0:
275,345,576405,1,0,0:0:0:0:
264,325,576535,2,0,P|301:318|335:319,1,60
419,368,576796,2,0,P|448:367|478:360,1,60,2|0,0:0|0:0,0:0:0:0:
328,183,577057,1,0,0:0:0:0:
349,170,577188,2,0,P|359:202|364:239,1,60,2|0,0:0|0:0,0:0:0:0:
210,99,577448,1,8,0:3:0:0:
305,83,577579,1,8,0:3:0:0:
228,175,577709,6,0,B|157:185|177:141|102:150,1,120,4|0,0:0|0:0,0:0:0:0:
0,27,578101,1,0,0:0:0:0:
16,10,578231,2,0,P|25:42|29:80,1,60,2|0,0:0|0:0,0:0:0:0:
83,241,578492,1,0,0:0:0:0:
67,258,578622,2,0,P|58:226|54:188,1,60
116,11,578883,2,0,P|125:43|129:81,1,60,2|0,0:0|0:0,0:0:0:0:
189,237,579144,1,0,0:0:0:0:
173,254,579274,2,0,P|164:222|160:184,1,60,2|0,0:0|0:0,0:0:0:0:
216,12,579535,2,0,P|225:44|229:82,1,60,0|8,0:0|0:3,0:0:0:0:
400,191,579796,5,4,0:3:0:0:
332,130,579927,1,0,0:0:0:0:
264,186,580057,2,0,P|260:219|259:251,1,60
459,79,580318,2,0,P|431:97|405:116,1,60,2|0,0:0|0:0,0:0:0:0:
344,317,580579,1,0,0:0:0:0:
363,330,580709,2,0,P|361:296|356:265,1,60
446,67,580970,2,0,P|418:85|392:104,1,60,2|0,0:0|0:0,0:0:0:0:
445,308,581231,1,0,0:0:0:0:
464,321,581361,2,0,P|462:287|457:256,1,60,2|0,0:0|0:0,0:0:0:0:
433,55,581622,2,0,P|405:73|379:92,1,60,0|8,0:0|0:3,0:0:0:0:
255,233,581883,6,0,P|300:189|366:201,1,120,4|0,0:3|0:0,0:0:0:0:
273,349,582275,1,0,0:0:0:0:
289,362,582405,2,0,P|305:330|314:298,1,60,2|0,0:0|0:0,0:0:0:0:
138,183,582666,1,0,0:0:0:0:
154,170,582796,2,0,P|170:202|179:234,1,60
61,358,583057,2,0,P|77:326|86:294,1,60,2|0,0:0|0:0,0:0:0:0:
11,137,583318,1,0,0:0:0:0:
0,154,583448,2,0,P|34:164|67:167,1,60,2|0,0:0|0:0,0:0:0:0:
197,75,583709,2,0,P|168:65|138:61,1,60,0|8,0:0|0:3,0:0:0:0:
203,208,583970,6,0,B|269:203|303:150|303:150|355:193|423:176,1,240
461,64,585706,6,0,L|318:48,1,134.999995880127,4|0,0:0|0:0,0:0:0:0:
139,103,586115,1,0,0:0:0:0:
216,38,586251,2,0,P|235:77|241:115,1,67.4999979400635,8|0,0:0|0:0,0:0:0:0:
64,239,586524,2,0,P|72:206|87:176,1,67.4999979400635,8|0,0:3|0:0,0:0:0:0:
261,295,586796,2,0,P|204:236|148:239,1,134.999995880127,4|0,0:3|0:0,0:0:0:0:
474,119,587342,2,0,P|417:178|361:175,1,134.999995880127,8|0,0:0|0:0,0:0:0:0:
506,269,587887,6,0,P|473:288|437:297,1,67.4999979400635,4|0,0:3|0:0,0:0:0:0:
236,103,588160,2,0,P|268:112|297:129,1,67.4999979400635,2|0,0:0|0:0,0:0:0:0:
368,342,588433,2,0,P|335:332|306:315,1,67.4999979400635,8|0,0:0|0:0,0:0:0:0:
196,227,588706,2,0,P|163:236|134:253,1,67.4999979400635,8|0,0:3|0:0,0:0:0:0:
42,366,588978,2,0,L|46:288,1,67.4999979400635,4|0,0:3|0:0,0:0:0:0:
0,112,589251,2,0,L|4:190,1,67.4999979400635,2|0,0:0|0:0,0:0:0:0:
236,184,589524,2,0,B|165:176|196:221|98:210,1,134.999995880127,8|0,0:0|0:0,0:0:0:0:
284,56,589933,1,8,0:3:0:0:
187,91,590069,6,0,L|328:82,1,134.999995880127,4|0,0:3|0:0,0:0:0:0:
500,152,590478,1,0,0:0:0:0:
439,61,590615,2,0,P|409:90|395:122,1,67.4999979400635,8|0,0:0|0:0,0:0:0:0:
480,323,590887,2,0,P|463:293|438:271,1,67.4999979400635,8|0,0:3|0:0,0:0:0:0:
216,185,591160,2,0,P|284:177|329:223,1,134.999995880127,4|0,0:3|0:0,0:0:0:0:
47,24,591706,1,8,0:0:0:0:
132,138,591842,1,8,0:3:0:0:
205,11,591978,1,8,0:3:0:0:
220,18,592251,6,0,P|235:53|242:93,1,67.4999979400635,4|0,0:3|0:0,0:0:0:0:
151,274,592524,2,0,P|173:243|204:217,1,67.4999979400635,2|0,0:0|0:0,0:0:0:0:
396,223,592796,2,0,P|358:218|320:204,1,67.4999979400635,8|0,0:0|0:0,0:0:0:0:
136,262,593069,2,0,P|158:231|189:205,1,67.4999979400635,8|0,0:3|0:0,0:0:0:0:
434,316,593342,2,0,L|358:307,1,67.4999979400635,4|0,0:3|0:0,0:0:0:0:
117,362,593615,2,0,L|193:371,1,67.4999979400635,2|0,0:0|0:0,0:0:0:0:
341,131,593887,2,0,B|313:114|296:81|296:81|306:253,1,236.249992790222,8|0,0:0|0:0,0:0:0:0:
293,270,594433,6,0,L|150:253,1,134.999995880127,4|0,0:0|0:0,0:0:0:0:
77,62,594842,1,0,0:0:0:0:
149,151,594978,2,0,P|118:171|87:181,1,67.4999979400635,8|0,0:0|0:0,0:0:0:0:
240,27,595251,2,0,P|271:37|299:56,1,67.4999979400635,8|0,0:3|0:0,0:0:0:0:
245,276,595524,2,0,P|226:209|254:154,1,134.999995880127,4|0,0:3|0:0,0:0:0:0:
415,253,596069,2,0,P|434:320|406:375,1,134.999995880127,8|0,0:0|0:0,0:0:0:0:
386,15,596615,6,0,P|405:58|410:85,1,67.4999979400635,4|0,0:3|0:0,0:0:0:0:
206,202,596887,2,0,P|214:169|229:139,1,67.4999979400635,2|0,0:0|0:0,0:0:0:0:
408,10,597160,2,0,P|427:53|432:80,1,67.4999979400635,8|0,0:0|0:0,0:0:0:0:
290,211,597433,2,0,P|298:243|313:273,1,67.4999979400635,8|0,0:3|0:0,0:0:0:0:
483,160,597706,2,0,L|413:153,1,67.4999979400635,4|0,0:3|0:0,0:0:0:0:
219,60,597978,2,0,L|289:53,1,67.4999979400635,2|0,0:0|0:0,0:0:0:0:
204,217,598251,2,0,P|140:232|87:193,1,134.999995880127,8|0,0:0|0:0,0:0:0:0:
156,157,598660,1,0,0:0:0:0:
158,319,598796,6,0,L|18:305,1,134.999995880127,4|0,0:3|0:0,0:0:0:0:
256,195,599206,1,0,0:0:0:0:
169,134,599342,2,0,P|150:169|141:204,1,67.4999979400635,8|0,0:0|0:0,0:0:0:0:
362,194,599615,2,0,P|352:161|335:132,1,67.4999979400635,8|0,0:3|0:0,0:0:0:0:
213,371,599887,2,0,P|260:321|329:328,1,134.999995880127,4|0,0:3|0:0,0:0:0:0:
482,156,600433,1,8,0:0:0:0:
368,210,600570,1,8,0:3:0:0:
342,92,600706,1,8,0:3:0:0:
327,99,600978,6,0,P|308:134|299:170,1,67.4999979400635,4|0,0:3|0:0,0:0:0:0:
130,17,601251,2,0,P|149:52|158:88,1,67.4999979400635,2|0,0:0|0:0,0:0:0:0:
320,304,601524,2,0,P|285:285|249:276,1,67.4999979400635,8|0,0:0|0:0,0:0:0:0:
31,316,601796,2,0,P|66:335|102:344,1,67.4999979400635,8|0,0:3|0:0,0:0:0:0:
98,76,602069,2,0,L|106:148,1,67.4999979400635,4|0,0:3|0:0,0:0:0:0:
175,322,602342,2,0,L|183:250,1,67.4999979400635,2|0,0:0|0:0,0:0:0:0:
0,153,602615,6,0,B|28:127|28:127|15:235,1,134.999995880127,8|0,0:0|0:0,0:0:0:0:
130,83,603160,6,0,L|204:80,1,59.9999981689454,4|0,0:0|0:0,0:0:0:0:
206,67,603433,1,8,0:3:0:0:
281,166,603615,1,0,0:0:0:0:
256,155,603706,1,8,0:3:0:0:
158,244,603887,1,8,0:3:0:0:
182,235,603978,2,0,L|181:305,1,59.9999981689454
244,352,604251,2,0,L|317:345,1,59.9999981689454,2|8,0:0|0:3,0:0:0:0:
316,330,604524,2,0,L|389:337,1,59.9999981689454,8|8,0:3|0:3,0:0:0:0:
396,337,604796,2,0,L|391:389,1,44.999998626709,4|0,0:3|0:0,0:0:0:0:
482,294,605069,2,0,L|487:346,1,44.999998626709
412,165,605342,6,0,L|408:241,1,59.9999981689454,2|8,0:0|0:3,0:0:0:0:
391,244,605615,2,0,L|315:240,1,59.9999981689454,8|0,0:3|0:0,0:0:0:0:
315,220,605887,1,4,0:3:0:0:
272,325,606069,1,8,0:3:0:0:
257,307,606160,2,0,L|181:303,1,59.9999981689454
119,296,606433,2,0,L|128:219,1,59.9999981689454,4|8,0:3|0:3,0:0:0:0:
109,220,606706,2,0,L|100:143,1,59.9999981689454,8|8,0:3|0:3,0:0:0:0:
99,139,606978,2,0,L|149:148,1,44.999998626709,4|0,0:3|0:0,0:0:0:0:
32,62,607251,2,0,L|82:53,1,44.999998626709
450,123,607524,6,0,B|316:104|368:223|203:197,1,269.999991760254,4|0,0:3|0:0,0:0:0:0:
37,286,608615,2,0,L|111:281,1,59.9999981689454,2|8,0:0|0:3,0:0:0:0:
114,303,608887,2,0,L|188:308,1,59.9999981689454,8|8,0:3|0:3,0:0:0:0:
193,288,609160,1,4,0:3:0:0:
255,366,609296,1,8,0:3:0:0:
327,301,609433,1,4,0:3:0:0:
236,152,609706,6,0,L|240:230,1,59.9999981689454,4|8,0:3|0:3,0:0:0:0:
249,228,609978,1,4,0:3:0:0:
327,102,610160,1,8,0:3:0:0:
323,124,610251,1,0,0:0:0:0:
404,222,610433,2,0,B|385:187|385:187|393:335,1,179.999994506836,2|0,0:0|0:0,0:0:0:0:
373,346,611069,1,8,0:3:0:0:
299,276,611206,1,8,0:3:0:0:
222,333,611342,6,0,B|184:326|167:288|167:288|113:351|31:325|31:325|83:258|75:184,1,359.999989013672,4|0,0:3|0:0,0:0:0:0:
47,115,612761,6,0,B|93:109|93:109|135:128|135:128,1,89.9999972534181
280,75,613721,2,0,B|254:22|254:22|226:137|226:137|261:232,1,269.999991760254,2|0,0:0|0:0,0:0:0:0:
446,285,615641,6,0,B|364:274|364:274|287:330|287:330|192:316,1,269.999991760254,2|0,0:0|0:0,0:0:0:0:
35,133,617561,2,0,B|94:142|94:142|134:82|134:82|98:16|98:16|33:25,1,269.999991760254,2|0,0:0|0:0,0:0:0:0:
206,184,619481,6,0,B|267:197|267:197|326:178|326:178|342:199|342:199|396:177|396:177|466:193,1,269.999991760254,2|0,0:0|0:0,0:0:0:0:
395,48,621401,2,0,B|351:100|351:100|343:167|343:167|319:102|319:102|258:55,1,269.999991760254,2|0,0:0|0:0,0:0:0:0:
134,144,623321,6,0,B|173:74|173:74|186:195|186:195|163:266,1,269.999991760254,2|0,0:0|0:0,0:0:0:0:
436,344,625241,2,0,B|446:293|446:293|377:300|377:300|369:325|369:325|318:258|318:258|301:303,1,269.999991760254,2|0,0:0|0:0,0:0:0:0:
62,203,627161,6,0,B|85:201|104:192|104:192|140:195|130:216|176:218,1,120,2|0,0:0|0:0,0:0:0:0:
252,52,629081,2,0,B|245:42|234:36|234:36|196:64|185:127,1,120,2|0,0:0|0:0,0:0:0:0:
263,297,631001,6,0,B|265:288|265:280|265:280|222:281|196:306|196:306|179:300|159:298,1,120,2|0,0:0|0:0,0:0:0:0:
327,119,632921,2,0,B|318:109|307:110|307:110|303:158|336:154|330:208,1,120,2|0,0:0|0:0,0:0:0:0:
234,331,634601,2,0,L|248:330,1,15
341,374,634841,6,0,B|328:355|326:331|326:331|297:352|254:353,1,120,2|0,0:0|0:0,0:0:0:0:
225,186,636761,2,0,B|226:160|251:159|251:159|237:200|238:239,1,120,2|0,0:0|0:0,0:0:0:0:
91,369,638681,6,0,B|71:369|59:351|59:351|101:349|136:372,1,120,2|0,0:0|0:0,0:0:0:0:
0,232,640361,2,0,L|2:208,1,15
67,141,640601,6,0,B|26:163|28:214|28:214|68:228|103:210|103:210|125:245|173:245,1,240,2|2,0:0|0:0,0:0:0:0:
287,112,643001,6,0,B|258:87|258:87|244:156|244:156|268:210|268:210|348:166|348:166|358:235|358:235|342:278,1,359.999989013672
346,265,644263,5,2,0:0:0:0:
280,325,644503,2,0,B|278:357|278:357|289:385,1,56.2500021457673,4|0,0:3|0:0,0:0:0:0:
262,324,644623,2,0,B|260:356|260:356|271:384,1,56.2500021457673,2|0,0:0|0:0,0:0:0:0:
186,290,644743,2,0,B|184:258|184:258|195:230,1,56.2500021457673,2|0,0:0|0:0,0:0:0:0:
168,291,644863,2,0,B|166:259|166:259|177:231,1,56.2500021457673,2|0,0:0|0:0,0:0:0:0:
105,341,644983,2,0,B|69:258|69:258|-7:319,2,179.999994506836,4|2|8,0:3|0:0|0:3,0:0:0:0:
141,66,645703,6,0,B|163:33|163:33|154:155,1,150,4|0,0:0|0:0,0:0:0:0:
473,55,646183,2,0,L|231:34,1,225,4|0,0:3|0:0,0:0:0:0:
347,139,646663,6,0,L|411:134,3,56.2500021457673,4|0|0|0,0:3|0:0|0:0|0:0,0:0:0:0:
494,37,647143,6,0,L|457:34,3,37.5,4|0|0|0,0:3|0:0|0:0|0:0,0:0:0:0:
299,204,647623,6,0,L|299:217,6,9.375,4|0|0|0|0|0|0,0:3|0:0|0:0|0:0|0:0|0:0|0:0,0:0:0:0:
285,188,647863,6,0,L|291:291,1,89.9999972534181,2|0,0:0|0:0,0:0:0:0:
130,100,648103,2,0,B|174:81|174:81|213:107,1,89.9999972534181,4|0,0:3|0:0,0:0:0:0:
134,289,648343,2,0,B|99:311|99:311|54:293,1,89.9999972534181,2|0,0:0|0:0,0:0:0:0:
289,38,648583,6,0,L|286:86,1,37.5,4|0,0:3|0:0,0:0:0:0:
281,157,648823,2,0,L|278:205,1,37.5,2|0,0:0|0:0,0:0:0:0:
415,41,649063,6,0,L|418:114,1,56.2500021457673,4|0,0:3|0:0,0:0:0:0:
427,304,649303,2,0,L|424:247,1,56.2500021457673,2|0,0:0|0:0,0:0:0:0:
505,49,649543,5,4,0:0:0:0:
505,49,649783,2,0,L|504:77,1,18.75,2|0,0:0|0:0,0:0:0:0:
326,59,650023,2,0,L|327:87,1,18.75,4|0,0:3|0:0,0:0:0:0:
505,192,650263,6,0,L|458:187,1,37.5,2|0,0:0|0:0,0:0:0:0:
270,337,650503,2,0,L|355:329,1,75,4|2,0:3|0:0,0:0:0:0:
204,159,650863,1,0,0:0:0:0:
193,275,650983,2,0,L|196:235,1,37.5,4|0,0:3|0:0,0:0:0:0:
126,154,651223,2,0,L|122:193,1,37.5,2|0,0:0|0:0,0:0:0:0:
106,319,651463,5,4,0:3:0:0:
106,319,651703,2,0,L|104:289,1,18.75,2|0,0:0|0:0,0:0:0:0:
23,226,651943,2,0,L|25:196,1,18.75,4|0,0:3|0:0,0:0:0:0:
164,64,652183,2,0,L|162:34,1,18.75,2|0,0:0|0:0,0:0:0:0:
244,212,652423,6,0,L|196:209,1,37.5,4|0,0:3|0:0,0:0:0:0:
26,91,652663,2,0,L|63:93,1,37.5,2|0,0:0|0:0,0:0:0:0:
274,109,652903,1,4,0:3:0:0:
264,200,653023,1,0,0:0:0:0:
254,291,653143,1,2,0:0:0:0:
372,166,653383,5,4,0:3:0:0:
372,166,653623,2,0,L|346:165,1,18.75,2|0,0:0|0:0,0:0:0:0:
178,130,653863,2,0,L|204:129,1,18.75,4|0,0:3|0:0,0:0:0:0:
447,97,654103,6,0,L|397:95,1,37.5,2|0,0:0|0:0,0:0:0:0:
272,246,654343,1,4,0:3:0:0:
344,237,654463,1,0,0:0:0:0:
416,229,654583,2,0,L|414:273,1,37.5,2|0,0:0|0:0,0:0:0:0:
193,214,654823,2,0,L|197:305,1,75,4|2,0:3|0:0,0:0:0:0:
80,126,655303,5,4,0:3:0:0:
80,126,655543,2,0,L|104:124,1,18.75,2|0,0:0|0:0,0:0:0:0:
308,58,655783,2,0,L|284:56,1,18.75,4|0,0:3|0:0,0:0:0:0:
65,206,656023,2,0,L|89:204,1,18.75,2|0,0:0|0:0,0:0:0:0:
306,78,656263,5,4,0:3:0:0:
233,73,656383,1,0,0:0:0:0:
160,69,656503,2,0,L|159:94,1,18.75,2|0,0:0|0:0,0:0:0:0:
352,268,656743,2,0,L|377:267,1,18.75,4|0,0:3|0:0,0:0:0:0:
146,59,656983,2,0,L|145:84,2,18.75,2|0|0,0:0|0:0|0:0,0:0:0:0:
474,43,657223,5,4,0:0:0:0:
474,43,657463,2,0,B|458:41|458:41|443:33,1,26.2499991989136,2|0,0:0|0:0,0:0:0:0:
249,225,657703,2,0,B|265:223|265:223|280:215,1,26.2499991989136,4|0,0:3|0:0,0:0:0:0:
89,34,657943,6,0,B|81:62|81:62|84:91,1,52.4999983978272,2|0,0:0|0:0,0:0:0:0:
367,144,658183,2,0,B|320:118|320:118|260:136,1,104.999996795654,4|2,0:3|0:0,0:0:0:0:
75,25,658663,1,4,0:3:0:0:
102,330,658903,1,2,0:0:0:0:
170,144,659143,5,4,0:3:0:0:
170,144,659383,2,0,B|185:148|185:148|202:147,1,26.2499991989136,2|0,0:0|0:0,0:0:0:0:
325,292,659623,2,0,B|310:296|310:296|293:295,1,26.2499991989136,4|0,0:3|0:0,0:0:0:0:
178,65,659863,2,0,B|193:69|193:69|210:68,1,26.2499991989136,2|0,0:0|0:0,0:0:0:0:
411,323,660103,5,4,0:3:0:0:
404,230,660223,1,0,0:0:0:0:
396,137,660343,1,2,0:0:0:0:
152,213,660583,2,0,B|181:211|181:211|211:221,1,52.4999983978272,4|0,0:3|0:0,0:0:0:0:
399,344,660823,2,0,B|370:342|370:342|340:352,1,52.4999983978272,2|0,0:0|0:0,0:0:0:0:
313,51,661063,5,4,0:3:0:0:
313,51,661303,2,0,B|309:68|309:68|311:85,1,26.2499991989136,2|0,0:0|0:0,0:0:0:0:
118,85,661543,2,0,B|122:102|122:102|120:119,1,26.2499991989136,4|0,0:3|0:0,0:0:0:0:
311,257,661783,2,0,B|307:274|307:274|309:291,1,26.2499991989136,2|0,0:0|0:0,0:0:0:0:
4,174,662023,5,4,0:3:0:0:
75,182,662143,1,0,0:0:0:0:
146,191,662263,2,0,B|152:223|152:223|142:257,1,63.7500012159348,2|0,0:0|0:0,0:0:0:0:
294,17,662503,2,0,B|273:50|273:50|287:143,1,127.50000243187,4|2,0:3|0:0,0:0:0:0:
407,273,662983,5,4,0:3:0:0:
424,203,663103,1,0,0:0:0:0:
390,267,663223,5,2,0:0:0:0:
405,203,663343,1,0,0:0:0:0:
375,261,663463,5,4,0:3:0:0:
387,204,663583,1,0,0:0:0:0:
365,257,663703,5,2,0:0:0:0:
376,206,663823,1,0,0:0:0:0:
299,216,663943,5,4,0:3:0:0:
284,217,664063,1,8,0:3:0:0:
269,218,664183,1,10,0:3:0:0:
210,140,664423,6,0,B|239:19|239:19|290:122|290:122|266:228,1,337.500012874604,4|0,0:0|0:0,0:0:0:0:
277,237,664903,5,4,0:3:0:0:
379,212,665143,1,2,0:0:0:0:
193,115,665383,5,4,0:3:0:0:
273,133,665623,1,2,0:0:0:0:
101,96,665863,6,0,L|100:74,14,14.0625005364418,4|0|0|0|0|0|0|0|2|0|0|0|0|0|0,0:3|0:0|0:0|0:0|0:0|0:0|0:0|0:0|0:0|0:0|0:0|0:0|0:0|0:0|0:0,0:0:0:0:
90,113,666343,5,4,0:3:0:0:
92,186,666463,1,0,0:0:0:0:
95,260,666583,1,2,0:0:0:0:
97,333,666703,1,0,0:0:0:0:
185,289,666823,5,4,0:3:0:0:
18,242,667063,1,2,0:0:0:0:
291,249,667303,5,4,0:3:0:0:
190,271,667543,1,2,0:0:0:0:
350,339,667783,6,0,L|353:294,1,45,4|0,0:3|0:0,0:0:0:0:
365,281,668263,5,4,0:0:0:0:
431,304,668383,1,2,0:0:0:0:
441,229,668503,1,2,0:0:0:0:
508,253,668623,1,2,0:0:0:0:
497,176,668743,6,0,L|501:113,1,56.2500021457673
483,358,668983,1,2,0:0:0:0:
323,52,669223,5,4,0:3:0:0:
340,176,669463,1,2,0:0:0:0:
183,106,669703,5,4,0:3:0:0:
166,230,669943,1,2,0:0:0:0:
386,212,670183,5,4,0:3:0:0:
311,213,670303,1,0,0:0:0:0:
234,216,670423,1,2,0:0:0:0:
157,219,670543,1,0,0:0:0:0:
305,196,670663,5,4,0:3:0:0:
252,355,670903,1,2,0:0:0:0:
428,342,671143,6,0,B|445:308|471:283|471:283|411:310|355:298|355:298|336:325|336:325|294:246|188:255|165:343,1,450.000017166138,4|0,0:3|0:0,0:0:0:0:
165,340,672557,6,0,P|141:330|113:326,1,52.5
2,218,673357,6,0,P|110:99|103:251,1,404.999987640381,4|0,0:1|0:0,0:0:0:0:
315,351,674157,2,0,P|302:284|274:223,1,134.999995880127,2|0,0:0|0:0,0:0:0:0:
399,31,674557,2,0,P|370:92|358:158,1,134.999995880127
192,310,674957,6,0,B|171:271|135:251|135:251|323:284,1,269.999991760254,2|0,0:0|0:0,0:0:0:0:
111,338,675557,1,0,0:0:0:0:
186,77,675757,2,0,P|230:107|253:154,1,97.4999955368044,2|0,0:0|0:0,0:0:0:0:
98,353,676157,6,0,P|105:311|128:269,1,84.3750032186509,4|0,0:3|0:0,0:0:0:0:
272,242,676557,6,0,B|200:224|142:270|142:270|92:212|9:221,1,269.999991760254,4|0,0:0|0:0,0:0:0:0:
331,357,677157,1,0,0:0:0:0:
319,94,677357,2,0,B|329:71|356:57|356:57|336:215,1,202.499993820191,2|0,0:0|0:0,0:0:0:0:
236,294,677757,6,0,P|241:247|272:212,1,84.3750032186509,4|0,0:3|0:0,0:0:0:0:
366,282,678157,6,0,B|229:271|285:350|100:336,1,269.999991760254,4|0,0:0|0:0,0:0:0:0:
233,91,678757,1,0,0:0:0:0:
45,267,678957,1,2,0:0:0:0:
172,256,679157,1,0,0:0:0:0:
93,10,679357,6,0,L|95:59,1,45,4|0,0:3|0:0,0:0:0:0:
56,179,679757,6,0,P|74:113|130:248,1,404.999987640381,4|0,0:0|0:0,0:0:0:0:
336,361,680557,2,0,P|280:340|200:324,1,134.999995880127,2|0,0:0|0:0,0:0:0:0:
339,154,680957,2,0,P|395:133|475:117,1,134.999995880127
74,156,681357,6,0,B|121:143|148:96|148:96|105:157|85:270,1,269.999991760254,2|0,0:0|0:0,0:0:0:0:
57,65,681957,1,0,0:0:0:0:
333,179,682157,2,0,P|289:149|236:146,1,97.4999955368044,2|0,0:0|0:0,0:0:0:0:
435,354,682557,6,0,P|473:350|514:325,1,84.3750032186509,4|0,0:3|0:0,0:0:0:0:
418,206,682957,6,0,P|480:255|511:306,1,134.999995880127,4|0,0:0|0:0,0:0:0:0:
182,120,683357,2,0,P|259:104|318:113,1,134.999995880127
359,337,683757,2,0,B|269:287|269:287|168:305,1,202.499993820191,2|0,0:0|0:0,0:0:0:0:
20,364,684157,6,0,P|67:345|89:298,1,84.3750032186509,4|0,0:3|0:0,0:0:0:0:
62,201,684557,6,0,B|88:182|110:143|110:143|92:342,1,269.999991760254,4|0,0:0|0:0,0:0:0:0:
22,121,685157,1,0,0:0:0:0:
283,79,685357,1,2,0:0:0:0:
159,54,685557,1,0,0:0:0:0:
392,234,685757,6,0,L|338:241,1,45,4|0,0:3|0:0,0:0:0:0:
236,124,686157,6,0,P|263:261|324:148,1,337.500012874604,4|0,0:1|0:0,0:0:0:0:
111,336,686957,2,0,P|118:289|113:211,1,112.500004291535,2|0,0:0|0:0,0:0:0:0:
352,67,687357,2,0,P|347:126|355:186,1,112.500004291535
194,321,687757,2,0,B|332:307|287:388|434:370,1,225.000008583069,2|0,0:0|0:0,0:0:0:0:
27,137,688557,2,0,B|51:130|65:110|65:110|46:245,1,168.750006437302,2|0,0:0|0:0,0:0:0:0:
103,362,688957,6,0,P|113:319|141:288,1,84.3750032186509,4|0,0:3|0:0,0:0:0:0:
256,325,689357,6,0,P|208:289|141:282,1,112.500004291535,4|0,0:0|0:0,0:0:0:0:
408,142,689757,2,0,P|360:177|293:184,1,112.500004291535
162,56,690157,2,0,P|187:99|209:175,1,112.500004291535,2|0,0:0|0:0,0:0:0:0:
358,337,690557,2,0,P|373:282|401:232,1,112.500004291535
193,179,690957,2,0,B|315:181|262:115|413:123,1,225.000008583069,2|0,0:0|0:0,0:0:0:0:
0,226,691757,6,0,P|26:261|23:317,1,84.3750032186509,4|0,0:0|0:0,0:0:0:0:
112,356,692157,6,0,L|119:298,1,45,4|0,0:3|0:0,0:0:0:0:
130,152,692557,6,0,P|151:309|271:185,1,404.999987640381,4|0,0:0|0:0,0:0:0:0:
512,143,693357,2,0,P|454:178|381:195,1,134.999995880127,2|0,0:0|0:0,0:0:0:0:
274,303,693757,2,0,P|319:310|363:336,1,97.4999955368044
364,25,694157,6,0,P|242:61|300:156,1,269.999991760254,4|0,0:0|0:0,0:0:0:0:
117,47,694757,1,0,0:0:0:0:
173,311,694957,2,0,P|170:236|155:159,1,134.999995880127,2|0,0:0|0:0,0:0:0:0:
512,250,695357,6,0,P|470:245|429:231,1,84.3750032186509,4|0,0:3|0:0,0:0:0:0:
326,365,695757,6,0,B|382:316|397:236|397:236|422:313|484:357,1,300,4|0,0:0|0:0,0:0:0:0:
7,103,696557,6,0,B|3:67|-25:47|-25:47|113:34|73:90|213:78,1,300,4|0,0:0|0:0,0:0:0:0:
512,100,697357,6,0,B|495:134|495:134|489:-10,1,172.500003290176,4|0,0:0|0:0,0:0:0:0:
178,330,697757,6,0,B|223:335|260:361|260:361|288:327|337:317,1,172.500003290176,4|0,0:0|0:0,0:0:0:0:
1,107,698157,6,0,B|6:186|6:186|-4:205|-4:205|1:291,1,172.500003290176,4|0,0:0|0:0,0:0:0:0:
343,52,698557,6,0,B|294:48|294:48|256:24|256:24|215:41|215:41|167:37,1,187.5,4|0,0:0|0:0,0:0:0:0:
256,328,698957,5,4,0:1:0:0:
256,192,699057,12,0,700557,0:0:0:0:
