osu file format v14

[General]
AudioFilename: audio.ogg
AudioLeadIn: 0
PreviewTime: 34930
Countdown: 0
SampleSet: Soft
StackLeniency: 0.7
Mode: 0
LetterboxInBreaks: 0
WidescreenStoryboard: 1

[Editor]
Bookmarks: 7563,22220,36876,51533,64128,66189,80846,95502,110159,126647,128480,143136,150464,154128,155960
DistanceSpacing: 0.9
BeatDivisor: 8
GridSize: 8
TimelineZoom: 4.899997

[Metadata]
Title:Magnetic
TitleUnicode:Magnetic
Artist:ILLIT
ArtistUnicode:아일릿
Creator:mnyui
Version:Insane
Source:
Tags:gelidium super real me I'LL-IT I Will Be It english korean kpop pop 하이브 hybe entertainment belift lab yunah 윤아 minju 민주 moka 모카 wonhee 원희 iroha 이로하 slow rabbit hitman bang martin salem ilese danke vincenzo 이이진 sophie leigh mcburnie lauren aquilina marcus andersson 김키위 오현선 lalala studio james
BeatmapID:4547796
BeatmapSetID:2156751

[Difficulty]
HPDrainRate:5
CircleSize:3.8
OverallDifficulty:8
ApproachRate:9
SliderMultiplier:2.2
SliderTickRate:1

[Events]
//Background and Video events
0,0,"illit2.jpg",0,0
//Break Periods
2,124799,126060
//Storyboard Layer 0 (Background)
//Storyboard Layer 1 (Fail)
//Storyboard Layer 2 (Pass)
//Storyboard Layer 3 (Foreground)
//Storyboard Layer 4 (Overlay)
//Storyboard Sound Samples

[TimingPoints]
7577,458.015267175573,4,2,1,75,1,0
7577,-83.3333333333333,4,2,1,75,0,0
29561,-100,4,2,1,55,0,0
36889,-76.9230769230769,4,2,1,75,0,0
37118,-100,4,2,1,85,0,0
37577,-83.3333333333333,4,2,1,85,0,0
38035,-71.4285714285714,4,2,1,85,0,0
38493,-83.3333333333333,4,2,1,85,0,0
39180,-71.4285714285714,4,2,1,85,0,0
40554,-100,4,2,1,85,0,0
41012,-83.3333333333333,4,2,1,85,0,0
41470,-71.4285714285714,4,2,1,85,0,0
42386,-83.3333333333333,4,2,1,85,0,0
44447,-142.857142857143,4,2,1,85,0,0
44905,-83.3333333333333,4,2,1,85,0,0
45363,-71.4285714285714,4,2,1,85,0,0
45821,-83.3333333333333,4,2,1,85,0,0
47882,-100,4,2,1,85,0,0
48340,-83.3333333333333,4,2,1,85,0,0
48798,-71.4285714285714,4,2,1,85,0,0
49714,-83.3333333333333,4,2,1,85,0,0
51546,-90.9090909090909,4,2,1,75,0,0
57500,-76.9230769230769,4,2,1,75,0,0
58874,-83.3333333333333,4,2,1,75,0,0
66202,-76.9230769230769,4,2,1,65,0,0
69638,-90.9090909090909,4,2,1,65,0,0
69867,-83.3333333333333,4,2,1,65,0,0
76050,-71.4285714285714,4,2,1,65,0,0
77195,-83.3333333333333,4,2,1,65,0,0
77882,-76.9230769230769,4,2,1,65,0,0
80859,-83.3333333333333,4,2,1,75,0,0
88187,-125,4,2,1,55,0,0
95515,-76.9230769230769,4,2,1,85,0,0
95744,-125,4,2,1,85,0,0
96202,-83.3333333333333,4,2,1,85,0,0
96660,-71.4285714285714,4,2,1,85,0,0
97118,-83.3333333333333,4,2,1,85,0,0
97806,-71.4285714285714,4,2,1,85,0,0
99180,-100,4,2,1,85,0,0
99638,-83.3333333333333,4,2,1,85,0,0
100096,-71.4285714285714,4,2,1,85,0,0
101012,-83.3333333333333,4,2,1,85,0,0
103073,-142.857142857143,4,2,1,85,0,0
103531,-83.3333333333333,4,2,1,85,0,0
103989,-71.4285714285714,4,2,1,85,0,0
104447,-83.3333333333333,4,2,1,85,0,0
106508,-100,4,2,1,85,0,0
106966,-83.3333333333333,4,2,1,85,0,0
107424,-71.4285714285714,4,2,1,85,0,0
108340,-83.3333333333333,4,2,1,85,0,0
110172,-90.9090909090909,4,2,1,65,0,0
119790,-83.3333333333333,4,2,1,65,0,0
122080,-100,4,2,1,65,0,0
122538,-83.3333333333333,4,2,1,65,0,0
122996,-100,4,2,1,65,0,0
123912,-125,4,2,1,65,0,0
128493,-125,4,2,1,85,0,0
128722,-100,4,2,1,85,0,0
129180,-83.3333333333333,4,2,1,85,0,0
129638,-71.4285714285714,4,2,1,85,0,0
130096,-83.3333333333333,4,2,1,85,0,0
130784,-71.4285714285714,4,2,1,85,0,0
132157,-83.3333333333333,4,2,1,85,0,0
132615,-71.4285714285714,4,2,1,85,0,0
133073,-62.5,4,2,1,85,0,0
133531,-55.5555555555556,4,2,1,85,0,0
133989,-83.3333333333333,4,2,1,85,0,0
135134,-76.9230769230769,4,2,1,85,0,0
135592,-90.9090909090909,4,2,1,85,0,0
136050,-142.857142857143,4,2,1,85,0,0
136508,-83.3333333333333,4,2,1,85,0,0
136966,-71.4285714285714,4,2,1,85,0,0
137424,-83.3333333333333,4,2,1,85,0,0
139485,-83.3333333333333,4,2,1,85,0,0
139943,-71.4285714285714,4,2,1,85,0,0
140401,-62.5,4,2,1,85,0,0
140859,-55.5555555555556,4,2,1,85,0,0
141317,-83.3333333333333,4,2,1,85,0,0
142462,-76.9230769230769,4,2,1,85,0,0
142920,-83.3333333333333,4,2,1,85,0,0
143149,-90.9090909090909,4,2,1,85,0,0
145668,-76.9230769230769,4,2,1,85,0,0
146813,-90.9090909090909,4,2,1,85,0,0
149103,-76.9230769230769,4,2,1,85,0,0
149790,-90.9090909090909,4,2,1,85,0,0

[Colours]
Combo1 : 180,220,200
Combo2 : 143,173,191
Combo3 : 72,106,119
Combo4 : 176,209,217

[HitObjects]
11,62,7576,6,0,P|65:66|116:46,1,110,0|2,1:2|0:3,0:0:0:0:
179,88,7920,1,2,0:3:0:0:
193,92,8035,2,0,P|183:133|160:160,1,65.9999979858399,10|0,0:0|0:0,0:0:0:0:
109,202,8264,2,0,P|113:234|127:264,1,65.9999979858399,2|0,0:0|0:0,0:0:0:0:
274,351,8493,1,0,1:0:0:0:
274,351,8722,1,2,0:3:0:0:
326,330,8836,1,2,0:3:0:0:
373,354,8951,2,0,P|406:358|436:373,1,65.9999979858399,10|0,0:2|0:0,0:0:0:0:
310,251,9180,2,0,P|277:246|246:235,1,65.9999979858399,2|0,1:2|0:0,0:0:0:0:
388,270,9409,6,0,P|454:274|510:239,1,131.99999597168,0|2,1:0|0:3,0:0:0:0:
483,169,9752,1,2,0:3:0:0:
409,152,9867,2,0,P|410:119|420:87,1,65.9999979858399,8|0,0:0|0:0,0:0:0:0:
319,0,10096,2,0,P|329:31|330:64,1,65.9999979858399,2|0,0:0|0:0,0:0:0:0:
258,218,10325,1,2,0:0:0:0:
118,143,10554,1,0,1:0:0:0:
241,109,10783,1,8,0:0:0:0:
164,227,11012,2,0,P|168:259|180:290,1,65.9999979858399,0|2,1:0|0:3,0:0:0:0:
139,363,11241,6,0,P|46:370|5:353,1,131.99999597168,2|2,1:2|0:3,0:0:0:0:
33,284,11584,1,2,0:3:0:0:
58,214,11699,2,0,P|73:150|57:86,1,131.99999597168,8|0,0:0|0:0,0:0:0:0:
253,224,12157,2,0,P|283:235|316:238,1,65.9999979858399,0|0,1:0|0:0,0:0:0:0:
432,314,12386,1,2,0:3:0:0:
432,314,12500,1,2,0:3:0:0:
432,314,12615,2,0,P|402:303|369:300,1,65.9999979858399,8|0,0:0|0:0,0:0:0:0:
290,381,12844,2,0,P|286:348|291:315,1,65.9999979858399,0|2,1:0|0:3,0:0:0:0:
427,227,13073,6,0,P|435:162|411:101,1,131.99999597168,2|0,1:2|0:0,0:0:0:0:
342,59,13416,1,2,0:3:0:0:
342,59,13531,2,0,P|333:90|327:123,1,65.9999979858399,8|0,0:0|0:0,0:0:0:0:
212,290,13760,5,2,0:0:0:0:
103,183,13989,1,2,0:0:0:0:
171,46,14218,1,2,1:2:0:0:
322,68,14447,1,10,0:0:0:0:
322,68,14561,1,2,0:3:0:0:
322,68,14676,1,2,0:0:0:0:
347,217,14905,6,2,P|281:221|218:199,1,131.99999597168,6|2,1:2|0:3,0:1:0:0:
195,129,15248,1,2,0:3:0:0:
145,182,15363,2,0,P|79:186|16:164,1,131.99999597168,8|0,0:0|0:0,0:0:0:0:
183,357,15821,6,2,P|248:361|311:339,1,131.99999597168,6|2,1:2|0:3,0:1:0:0:
335,269,16164,1,2,0:3:0:0:
385,325,16279,2,0,P|450:329|513:307,1,131.99999597168,8|2,2:0|2:3,2:0:0:0:
324,184,16737,6,2,P|258:182|198:154,1,131.99999597168,6|2,1:2|0:3,0:1:0:0:
180,83,17080,1,2,0:3:0:0:
125,131,17195,2,0,P|59:129|0:101,1,131.99999597168,8|2,2:0|2:0,2:0:0:0:
139,209,17653,2,0,P|161:266|160:290,1,65.9999979858399,2|0,2:0|0:0,2:0:0:0:
117,383,17882,2,0,P|104:353|100:321,1,65.9999979858399,0|0,1:0|0:0,0:0:0:0:
232,191,18111,1,10,0:0:0:0:
22,282,18340,1,2,0:0:0:0:
236,362,18569,6,2,P|253:298|240:234,1,131.99999597168,6|0,1:2|0:0,0:1:0:0:
179,190,18912,1,0,0:0:0:0:
111,218,19027,2,0,P|76:238|49:240,2,65.9999979858399,8|2|2,0:0|0:3|0:3,0:0:0:0:
236,362,19485,6,2,P|293:328|329:274,1,131.99999597168,2|0,1:2|0:0,0:1:0:0:
357,206,19828,1,2,0:3:0:0:
317,147,19943,1,8,0:0:0:0:
96,309,20172,1,2,0:3:0:0:
167,336,20286,1,2,0:3:0:0:
236,362,20401,6,2,P|300:379|363:366,1,131.99999597168,6|0,1:2|0:0,0:1:0:0:
420,316,20744,1,0,0:0:0:0:
494,335,20859,2,0,P|512:256|490:181,1,131.99999597168,8|2,0:2|0:2,0:0:0:0:
252,71,21317,5,2,0:0:0:0:
459,143,21546,1,0,1:0:0:0:
264,220,21775,1,10,0:0:0:0:
370,27,22004,1,2,0:3:0:0:
388,223,22233,5,0,1:2:0:0:
388,223,22462,1,2,0:3:0:0:
319,253,22577,1,2,0:3:0:0:
255,211,22691,2,0,P|247:179|245:146,1,65.9999979858399,8|0,0:0|0:0,0:0:0:0:
283,15,22920,2,0,P|290:46|292:79,1,65.9999979858399,2|0,0:0|0:0,0:0:0:0:
166,164,23149,6,0,P|108:134|43:134,1,131.99999597168,2|2,1:2|1:2,0:0:0:0:
0,201,23493,1,2,0:3:0:0:
26,212,23607,2,0,P|21:245|9:276,1,65.9999979858399,8|0,0:0|0:0,0:0:0:0:
184,376,23836,2,0,P|179:343|167:312,1,65.9999979858399,2|0,0:0|0:0,0:0:0:0:
107,223,24065,5,2,1:2:0:0:
323,271,24294,1,2,0:0:0:0:
323,271,24409,1,2,0:3:0:0:
323,271,24523,1,8,0:0:0:0:
174,177,24752,1,2,0:0:0:0:
275,355,24981,5,2,0:0:0:0:
260,280,25210,1,0,1:0:0:0:
321,229,25439,1,8,0:0:0:0:
397,247,25668,1,2,0:3:0:0:
453,195,25897,6,0,P|464:163|465:130,1,65.9999979858399,4|0,1:2|0:0,0:0:0:0:
297,18,26126,1,2,0:3:0:0:
297,18,26241,1,2,0:3:0:0:
297,18,26355,2,0,P|286:49|285:82,1,65.9999979858399,8|0,0:0|0:0,0:0:0:0:
509,60,26584,2,0,P|477:50|444:49,1,65.9999979858399,2|0,0:0|0:0,0:0:0:0:
319,153,26813,6,0,P|257:174|192:165,2,131.99999597168,0|2|8,1:2|0:3|0:0,0:0:0:0:
384,195,27386,1,2,0:3:0:0:
394,202,27500,2,0,P|410:265|411:280,1,65.9999979858399,2|0,0:0|0:0,0:0:0:0:
317,374,27729,5,2,1:2:0:0:
219,266,27958,1,2,0:3:0:0:
271,125,28187,1,8,0:0:0:0:
101,259,28416,2,0,P|27:268|13:265,1,65.9999979858399,2|0,0:3|0:0,0:0:0:0:
149,181,28645,6,0,P|130:119|129:53,1,131.99999597168,2|0,0:0|1:0,0:0:0:0:
362,202,29103,2,0,P|381:264|382:330,1,131.99999597168,10|0,0:0|0:0,0:0:0:0:
127,372,29561,5,2,0:0:0:0:
281,218,29790,2,0,P|273:244|258:266,2,55,0|2|2,0:0|0:3|0:0,0:0:0:0:
173,279,30248,2,0,P|121:297|65:300,1,110
182,129,30706,2,0,P|170:104|166:77,2,55,2|0|2,0:0|0:0|0:0,0:0:0:0:
11,225,31164,1,2,0:0:0:0:
37,121,31393,6,0,P|61:72|100:34,1,110,2|2,0:0|0:3,0:0:0:0:
139,3,31737,1,2,0:3:0:0:
182,7,31851,1,2,0:0:0:0:
302,47,32080,2,0,P|354:94|377:140,1,110,2|0,0:0|0:0,0:0:0:0:
285,169,32538,2,0,P|271:237|249:275,1,110,2|0,0:0|0:0,0:0:0:0:
173,288,32996,1,2,0:0:0:0:
450,361,33225,5,2,0:0:0:0:
365,269,33454,1,2,0:0:0:0:
365,269,33569,1,2,0:0:0:0:
365,269,33683,1,2,0:0:0:0:
442,174,33912,1,2,0:0:0:0:
400,348,34141,5,2,0:0:0:0:
345,236,34370,1,2,0:0:0:0:
345,236,34485,1,2,0:0:0:0:
345,236,34599,1,2,0:0:0:0:
464,162,34828,1,2,0:0:0:0:
276,346,35057,5,2,0:0:0:0:
227,264,36889,5,6,1:2:0:0:
16,155,37118,6,0,P|64:128|119:121,1,110,2|8,0:1|0:0,0:0:0:0:
114,25,37462,5,0,3:0:0:0:
114,25,37577,2,0,P|177:45|219:93,1,131.99999597168,2|0,0:1|1:0,0:0:0:0:
313,20,37920,5,2,0:3:0:0:
313,20,38035,2,0,P|346:88|344:164,1,153.999995300293,2|8,0:1|0:0,0:0:0:0:
468,153,38378,5,2,3:0:0:0:
468,153,38493,2,0,P|457:184|437:210,2,65.9999979858399,0|2|0,1:0|0:3|1:2,0:0:0:0:
355,259,38951,5,2,0:3:0:0:
342,306,39065,1,2,0:3:0:0:
384,341,39180,2,0,P|418:351|460:351,1,76.9999976501466,8|0,0:2|0:0,0:0:0:0:
281,217,39409,2,0,P|242:216|205:227,1,76.9999976501466,2|0,0:2|0:0,0:0:0:0:
52,344,39638,1,0,0:0:0:0:
52,344,39867,2,0,P|127:368|217:348,1,153.999995300293,2|8,1:2|0:0,0:0:0:0:
249,204,40325,1,0,1:0:0:0:
184,243,40439,1,0,1:0:0:0:
110,217,40554,6,0,P|100:191|98:164,1,55,2|0,1:1|0:0,0:1:0:0:
151,53,40783,2,0,P|160:78|162:105,1,55,2|0,0:1|0:0,0:1:0:0:
17,158,41012,6,0,P|29:127|52:103,1,65.9999979858399,10|0,0:1|0:0,0:0:0:0:
244,110,41241,2,0,P|231:140|208:164,1,65.9999979858399,2|0,0:1|0:0,0:0:0:0:
34,28,41470,6,0,P|93:36|117:52,1,76.9999976501466,2|0,1:1|0:0,0:0:0:0:
230,243,41699,2,0,P|171:235|147:219,1,76.9999976501466,2|0,0:1|0:0,0:0:0:0:
124,131,41928,5,10,0:1:0:0:
385,21,42157,1,0,1:0:0:0:
385,21,42271,1,2,0:3:0:0:
385,21,42386,6,0,P|285:34|234:20,1,131.99999597168,0|2,1:0|0:3,0:0:0:0:
192,76,42729,1,2,0:3:0:0:
174,93,42844,2,0,P|180:125|198:153,1,65.9999979858399,10|0,0:0|0:0,0:0:0:0:
216,333,43073,2,0,P|234:305|242:273,1,65.9999979858399,10|0,0:0|0:0,0:0:0:0:
280,127,43302,1,2,0:0:0:0:
279,126,43531,6,0,P|310:140|342:143,1,65.9999979858399,2|0,1:2|0:0,0:0:0:0:
501,239,43760,1,8,0:0:0:0:
437,278,43874,1,2,0:3:0:0:
365,261,43989,1,2,0:0:0:0:
447,64,44218,1,4,1:2:0:0:
287,276,44447,6,0,P|287:314|298:351,1,76.9999976501466,2|8,0:1|0:0,0:0:0:0:
223,226,44790,5,0,1:0:0:0:
209,219,44905,2,0,P|165:279|156:355,1,131.99999597168,2|0,0:1|1:0,0:0:0:0:
195,132,45248,5,2,0:3:0:0:
180,116,45363,2,0,P|104:126|42:171,1,153.999995300293,2|8,0:1|0:0,0:0:0:0:
259,73,45706,5,2,0:3:0:0:
266,52,45821,2,0,P|210:16|187:15,2,65.9999979858399,2|0|0,1:2|1:0|1:0,0:0:0:0:
427,173,46279,5,0,1:0:0:0:
458,132,46393,1,2,0:3:0:0:
442,85,46508,1,10,0:0:0:0:
328,194,46737,2,0,P|334:245|347:270,1,65.9999979858399,2|0,0:0|0:0,0:0:0:0:
505,355,46966,1,2,0:3:0:0:
505,355,47195,6,0,P|417:357|352:330,1,131.99999597168,2|8,1:2|0:0,0:0:0:0:
183,367,47653,1,0,1:0:0:0:
214,300,47767,1,2,0:3:0:0:
177,232,47882,6,0,P|173:204|162:179,1,55,2|0,1:1|0:0,0:1:0:0:
63,106,48111,2,0,P|66:133|77:158,1,55,2|0,0:1|0:0,0:1:0:0:
231,136,48340,6,0,P|205:115|174:104,1,65.9999979858399,10|0,0:1|0:0,0:0:0:0:
8,200,48569,2,0,P|33:220|64:231,1,65.9999979858399,2|0,0:1|0:0,0:0:0:0:
155,29,48798,6,0,P|106:63|92:89,1,76.9999976501466,2|0,1:1|0:0,0:0:0:0:
83,311,49027,2,0,P|131:276|145:250,1,76.9999976501466,2|0,0:1|0:0,0:0:0:0:
124,162,49256,5,10,0:1:0:0:
348,101,49485,1,2,1:2:0:0:
348,101,49599,1,2,0:3:0:0:
348,101,49714,6,0,P|363:164|349:228,1,131.99999597168,0|2,1:0|0:3,0:0:0:0:
300,287,50057,1,2,0:3:0:0:
345,348,50172,2,0,P|398:360|433:358,1,65.9999979858399,8|0,0:0|0:0,0:0:0:0:
273,212,50401,2,0,P|220:200|185:202,1,65.9999979858399,2|0,0:0|0:0,0:0:0:0:
377,272,50630,2,0,P|386:229|387:202,1,65.9999979858399,2|0,0:0|0:0,0:0:0:0:
220,276,50859,2,0,P|211:319|210:346,1,65.9999979858399,2|0,1:2|0:0,0:0:0:0:
22,214,51088,1,8,0:0:0:0:
22,214,51202,1,0,1:0:0:0:
22,214,51317,1,0,1:0:0:0:
87,135,51546,6,0,P|83:70|69:11,1,121.000003692627,6|0,1:2|0:0,0:0:0:0:
0,96,51889,2,0,P|3:160|17:219,1,121.000003692627,2|0,0:0|0:0,0:0:0:0:
94,279,52233,2,0,P|105:228|101:194,1,60.5000018463135,2|0,0:0|0:0,0:0:0:0:
185,45,52462,6,0,P|180:105|167:164,1,121.000003692627,2|2,1:2|0:3,0:0:0:0:
238,234,52806,2,0,P|251:174|256:114,1,121.000003692627,2|0,0:0|0:0,0:0:0:0:
305,9,53149,2,0,P|319:51|322:87,1,60.5000018463135,2|0,1:2|1:0,0:0:0:0:
374,210,53378,6,0,P|379:150|393:92,1,121.000003692627,2|2,1:2|0:3,0:0:0:0:
470,158,53722,2,0,P|464:218|450:276,1,121.000003692627,2|0,0:0|0:0,0:0:0:0:
378,370,54065,2,0,P|370:331|374:289,1,60.5000018463135,2|0,0:0|0:0,0:0:0:0:
480,69,54294,5,2,0:0:0:0:
480,69,54981,1,0,1:0:0:0:
480,69,55096,1,0,1:0:0:0:
480,69,55210,6,0,P|417:51|344:47,1,121.000003692627,6|0,1:2|0:0,0:0:0:0:
287,107,55554,2,0,P|344:124|405:129,1,121.000003692627,2|0,0:0|0:0,0:0:0:0:
285,20,55897,2,0,P|239:25|213:38,1,60.5000018463135,2|0,0:0|0:0,0:0:0:0:
120,161,56126,6,0,P|59:156|3:135,1,121.000003692627,2|0,1:2|0:0,0:0:0:0:
80,78,56470,2,0,P|176:101|217:124,1,121.000003692627,2|0,0:0|0:0,0:0:0:0:
207,247,56813,2,0,P|157:263|127:264,1,60.5000018463135,0|2,1:2|0:0,0:0:0:0:
257,179,57042,6,0,P|324:162|382:162,1,121.000003692627,2|2,1:2|0:3,0:0:0:0:
446,190,57386,1,2,0:3:0:0:
500,135,57500,6,0,P|510:101|512:65,1,71.4999967269899,8|0,0:2|0:0,0:0:0:0:
375,161,57729,2,0,P|364:194|362:230,1,71.4999967269899,2|0,3:2|1:0,0:0:0:0:
499,335,57958,1,2,0:0:0:0:
499,335,58187,2,0,P|435:347|344:315,1,142.99999345398,2|8,1:2|0:0,0:0:0:0:
296,291,58531,1,0,1:0:0:0:
296,291,58645,1,2,0:0:0:0:
27,245,58874,6,0,P|27:307|45:376,1,131.99999597168,4|0,1:2|1:0,0:0:0:0:
101,296,59218,2,0,P|111:231|109:165,1,131.99999597168,2|0,0:0|0:0,0:0:0:0:
40,96,59561,2,0,P|36:128|27:160,1,65.9999979858399,2|0,0:0|0:0,0:0:0:0:
183,352,59790,6,0,P|188:282|206:219,1,131.99999597168,2|0,1:2|0:0,0:0:0:0:
277,153,60134,2,0,P|281:225|266:304,1,131.99999597168,2|0,0:0|0:0,0:0:0:0:
327,355,60477,2,0,P|343:324|353:283,1,65.9999979858399,2|0,1:2|1:0,0:0:0:0:
425,178,60706,6,0,P|427:243|442:308,1,131.99999597168,2|0,1:2|0:0,0:0:0:0:
505,229,61050,2,0,P|499:146|479:94,1,131.99999597168,2|0,0:0|0:0,0:0:0:0:
420,5,61393,2,0,P|409:53|410:81,1,65.9999979858399,2|0,0:0|0:0,0:0:0:0:
168,192,61622,5,2,0:0:0:0:
168,192,62309,1,0,3:0:0:0:
168,192,62424,1,0,3:0:0:0:
168,192,62538,6,0,P|238:199|304:192,1,131.99999597168,2|0,1:2|0:0,0:0:0:0:
214,118,62882,2,0,P|133:111|70:124,1,131.99999597168,2|0,0:0|0:0,0:0:0:0:
22,212,63225,2,0,P|79:213|104:204,1,65.9999979858399,2|0,0:0|0:0,0:0:0:0:
313,101,63454,6,0,P|237:77|179:77,1,131.99999597168,2|0,1:2|0:0,0:0:0:0:
277,227,63798,2,0,P|353:251|411:251,1,131.99999597168,2|0,0:0|0:0,0:0:0:0:
511,187,64141,2,0,P|478:183|445:183,1,65.9999979858399,2|0,0:0|0:0,0:0:0:0:
253,379,64370,5,0,0:0:0:0:
253,379,64828,1,8,0:0:0:0:
253,379,65744,1,8,0:0:0:0:
253,379,66202,6,0,P|261:344|263:305,1,71.4999967269899,6|0,1:2|0:0,0:0:0:0:
183,295,66431,2,0,P|191:260|193:221,1,71.4999967269899,2|0,0:0|0:0,0:0:0:0:
119,213,66660,2,0,P|127:178|129:142,1,71.4999967269899,2|0,0:0|0:0,0:0:0:0:
16,40,66889,5,0,1:0:0:0:
67,29,67004,1,0,1:0:0:0:
110,55,67118,2,0,P|143:65|179:66,1,71.4999967269899,8|0,0:0|0:0,0:0:0:0:
359,165,67347,1,0,0:0:0:0:
359,165,67462,1,2,0:3:0:0:
359,165,67577,2,0,P|288:174|222:149,1,142.99999345398,2|0,1:2|1:0,0:0:0:0:
0,307,68035,6,0,P|70:297|136:322,1,142.99999345398,2|0,0:0|0:0,0:0:0:0:
136,322,68493,2,0,P|136:339|143:356,2,35.749998363495,0|0|0,1:0|0:0|0:0,0:0:0:0:
76,267,68722,2,0,P|62:213|63:179,1,71.4999967269899,0|0,1:0|0:0,0:0:0:0:
218,333,68951,2,0,P|288:341|354:315,1,142.99999345398,10|2,0:0|0:0,0:0:0:0:
354,315,69409,1,2,0:0:0:0:
425,283,69523,1,2,0:0:0:0:
493,318,69638,2,0,P|505:347|512:376,1,60.5000018463135,2|0,0:0|0:0,0:0:0:0:
352,236,69867,6,0,P|357:157|389:107,1,131.99999597168,2|8,1:2|0:0,0:0:0:0:
384,113,70554,1,0,1:0:0:0:
343,90,70668,1,0,1:0:0:0:
295,86,70783,2,0,P|280:21|282:-4,1,65.9999979858399,8|0,0:0|0:0,0:0:0:0:
321,165,71012,2,0,P|337:238|334:261,1,65.9999979858399,8|0,0:0|0:0,0:0:0:0:
242,141,71241,6,0,P|151:137|104:101,1,131.99999597168,0|8,1:0|0:0,0:0:0:0:
365,14,71699,2,0,P|456:18|503:54,1,131.99999597168,2|0,0:0|1:0,0:0:0:0:
488,38,72042,1,2,0:3:0:0:
488,38,72157,1,2,0:3:0:0:
417,236,72386,6,0,P|421:268|429:300,1,65.9999979858399,2|0,1:2|0:0,0:0:0:0:
312,194,72615,2,0,P|338:174|361:150,1,65.9999979858399,10|0,0:0|0:0,0:0:0:0:
324,297,72844,2,0,P|293:284|261:275,1,65.9999979858399,2|0,0:0|0:0,0:0:0:0:
93,372,73073,1,0,1:0:0:0:
93,372,73187,1,2,0:0:0:0:
93,372,73302,2,0,P|124:363|155:350,1,65.9999979858399,2|0,0:0|0:0,0:0:0:0:
176,259,73531,6,0,P|184:224|186:185,1,65.9999979858399,2|0,1:2|0:0,0:0:0:0:
106,175,73760,2,0,P|114:140|116:101,1,65.9999979858399,10|0,0:2|0:0,0:0:0:0:
42,93,73989,2,0,P|50:58|52:22,1,65.9999979858399,2|0,0:0|0:0,0:0:0:0:
201,86,74218,5,0,1:0:0:0:
252,79,74332,1,0,1:0:0:0:
303,70,74447,2,0,P|335:66|366:55,1,65.9999979858399,8|0,0:0|0:0,0:0:0:0:
286,204,74676,1,2,0:0:0:0:
314,212,74790,1,2,0:0:0:0:
344,219,74905,6,0,P|408:233|475:232,1,131.99999597168,2|2,1:2|0:0,0:0:0:0:
168,165,75363,2,0,P|103:150|37:152,1,131.99999597168,2|2,0:2|0:0,0:0:0:0:
203,368,75821,1,2,1:2:0:0:
203,368,76050,6,0,P|219:334|220:295,1,76.9999976501466,2|0,1:2|0:0,0:0:0:0:
94,198,76279,2,0,P|116:229|148:250,1,76.9999976501466,10|0,0:0|0:0,0:0:0:0:
293,188,76508,2,0,P|254:191|220:208,1,76.9999976501466,2|0,1:2|0:0,0:0:0:0:
377,338,76737,1,2,1:2:0:0:
377,338,76851,1,2,0:0:0:0:
377,338,76966,2,0,P|412:355|450:358,1,76.9999976501466,2|0,0:0|0:0,0:0:0:0:
309,262,77195,6,0,P|322:192|297:109,2,131.99999597168,0|10|0,1:2|0:0|0:0,0:0:0:0:
309,262,77882,2,0,L|384:252,1,71.4999967269899,2|0,1:2|0:0,0:0:0:0:
435,196,78111,2,0,L|510:186,1,71.4999967269899,10|0,0:0|0:0,0:0:0:0:
280,244,78340,6,0,L|355:247,1,71.4999967269899,2|0,0:0|0:0,0:0:0:0:
415,200,78569,2,0,L|490:203,1,71.4999967269899,2|0,1:2|0:0,0:0:0:0:
475,367,78798,1,10,0:0:0:0:
262,200,79256,6,0,L|336:214,1,71.4999967269899,2|0,1:2|0:0,0:0:0:0:
401,176,79485,2,0,L|475:190,1,71.4999967269899,2|0,0:0|0:0,0:0:0:0:
253,163,79714,6,0,L|325:184,1,71.4999967269899,2|0,1:2|0:0,0:0:0:0:
393,151,79943,2,0,L|465:172,1,71.4999967269899,2|0,1:2|0:0,0:0:0:0:
493,342,80172,2,0,P|427:369|356:360,1,142.99999345398,2|2,0:0|0:0,0:0:0:0:
18,170,80859,5,4,1:2:0:0:
18,170,81088,1,2,0:3:0:0:
81,129,81202,1,2,0:3:0:0:
151,161,81317,2,0,P|163:191|171:223,1,65.9999979858399,8|0,0:0|0:0,0:0:0:0:
250,261,81546,2,0,P|241:328|234:344,1,65.9999979858399,2|0,0:0|0:0,0:0:0:0:
95,272,81775,2,0,P|64:213|63:148,1,131.99999597168,2|2,1:2|0:0,0:0:0:0:
95,80,82118,1,2,0:3:0:0:
105,72,82233,2,0,P|164:64|189:56,1,65.9999979858399,10|0,0:0|0:0,0:0:0:0:
362,182,82462,2,0,P|329:174|296:172,1,65.9999979858399,2|0,0:0|1:0,0:0:0:0:
237,122,82691,5,2,1:2:0:0:
394,70,82920,1,2,0:3:0:0:
394,70,83035,1,2,0:3:0:0:
394,70,83149,1,8,0:0:0:0:
478,200,83378,1,2,0:0:0:0:
363,284,83607,6,2,P|354:361|356:380,1,65.9999979858399,0|0,0:0|0:0,0:1:0:0:
441,259,83836,2,2,P|450:182|448:163,1,65.9999979858399,0|0,1:0|0:0,0:1:0:0:
247,261,84065,2,2,P|247:332|280:390,1,131.99999597168,8|2,0:0|0:3,0:1:0:0:
275,384,84523,6,0,P|242:380|211:367,1,65.9999979858399,4|0,1:2|0:0,0:0:0:0:
58,295,84752,1,2,0:3:0:0:
58,295,84867,1,2,0:3:0:0:
58,295,84981,2,0,P|37:224|40:188,1,65.9999979858399,8|0,0:0|3:0,0:0:0:0:
136,317,85210,2,0,P|133:349|123:381,1,65.9999979858399,2|0,0:3|0:0,0:0:0:0:
220,288,85439,6,0,P|222:222|253:162,1,131.99999597168,2|0,1:2|0:0,0:0:0:0:
315,126,85783,1,2,0:3:0:0:
315,126,85897,1,10,0:0:0:0:
106,2,86126,2,0,P|109:34|122:65,1,65.9999979858399,2|2,0:3|0:3,0:0:0:0:
177,119,86355,5,2,1:2:0:0:
361,196,86584,1,2,1:2:0:0:
455,39,86813,1,10,0:0:0:0:
349,207,87042,2,0,P|337:281|340:304,1,65.9999979858399,0|2,0:0|0:3,0:0:0:0:
256,198,87271,6,0,P|181:214|121:208,1,131.99999597168,2|0,0:0|1:0,0:0:0:0:
382,110,87729,2,0,P|446:94|512:98,1,131.99999597168,10|2,0:0|0:3,0:0:0:0:
425,347,88187,5,2,0:0:0:0:
347,233,88416,2,0,P|338:214|334:181,2,44,2|2|2,0:3|0:3|0:0,0:0:0:0:
275,132,88874,2,0,P|276:88|295:32,1,88,2|0,0:0|0:0,0:0:0:0:
422,280,89332,2,0,P|419:308|411:334,2,44,2|2|2,0:0|0:3|0:0,0:0:0:0:
177,374,89790,1,2,0:0:0:0:
335,316,90019,6,0,P|292:313|251:297,1,88,2|2,0:0|0:3,0:0:0:0:
214,266,90363,1,2,0:3:0:0:
213,220,90477,1,2,0:0:0:0:
75,376,90706,2,0,P|81:273|110:223,1,154,2|0,0:0|0:0,0:0:0:0:
83,155,91164,2,0,P|55:140|26:136,2,44,2|2|0,0:3|0:0|0:0,0:0:0:0:
237,119,91622,1,2,0:0:0:0:
262,305,91851,5,2,0:0:0:0:
187,341,92080,1,2,0:0:0:0:
187,341,92195,1,2,0:0:0:0:
187,341,92309,1,2,0:0:0:0:
112,285,92538,1,2,0:3:0:0:
299,220,92767,5,0,0:0:0:0:
183,141,92996,1,2,0:3:0:0:
183,141,93111,1,2,0:3:0:0:
183,141,93225,1,2,0:3:0:0:
235,9,93454,1,2,0:3:0:0:
395,48,93683,5,2,0:0:0:0:
283,120,95515,5,2,1:2:0:0:
65,104,95744,6,0,P|41:64|33:20,1,88,2|8,0:1|0:0,0:0:0:0:
155,131,96088,5,0,3:0:0:0:
154,149,96202,2,0,P|106:194|42:199,1,131.99999597168,2|0,0:1|1:0,0:0:0:0:
134,47,96546,5,2,0:3:0:0:
140,33,96660,2,0,P|215:25|283:61,1,153.999995300293,2|0,0:1|1:0,0:0:0:0:
269,242,97004,5,2,3:0:0:0:
249,260,97118,2,0,P|220:275|188:283,2,65.9999979858399,2|2|4,1:0|0:3|1:2,0:0:0:0:
385,144,97577,5,2,0:3:0:0:
407,188,97691,1,2,0:3:0:0:
392,221,97806,2,0,P|383:279|392:319,1,76.9999976501466,2|0,1:2|0:0,0:0:0:0:
448,97,98035,2,0,P|457:39|447:-1,1,76.9999976501466,2|0,1:2|0:0,0:0:0:0:
216,146,98264,1,2,0:0:0:0:
325,354,98493,2,0,P|432:365|473:322,1,153.999995300293,2|8,1:2|0:0,0:0:0:0:
462,339,98951,1,0,1:0:0:0:
479,266,99065,1,0,1:0:0:0:
421,214,99180,6,0,P|414:187|400:163,1,55,2|0,1:1|0:0,0:1:0:0:
368,281,99409,2,0,P|373:307|387:331,1,55,2|0,0:1|0:0,0:1:0:0:
478,266,99638,6,0,P|496:238|503:206,1,65.9999979858399,10|0,0:1|0:0,0:0:0:0:
313,226,99867,2,0,P|294:252|286:284,1,65.9999979858399,2|0,0:1|0:0,0:0:0:0:
436,336,100096,6,0,P|473:345|510:340,1,76.9999976501466,2|0,1:1|0:0,0:0:0:0:
355,159,100325,2,0,P|317:149|280:154,1,76.9999976501466,2|0,0:1|0:0,0:0:0:0:
180,339,100554,5,10,0:1:0:0:
0,187,100783,1,0,1:0:0:0:
0,187,100897,1,2,0:3:0:0:
0,187,101012,6,0,P|57:218|122:224,1,131.99999597168,6|2,1:2|0:3,0:0:0:0:
231,103,101355,1,2,0:3:0:0:
211,100,101470,2,0,P|194:128|186:160,1,65.9999979858399,10|0,0:0|0:0,0:0:0:0:
43,236,101699,2,0,P|51:267|72:293,1,65.9999979858399,10|0,0:0|0:0,0:0:0:0:
333,194,101928,1,2,0:0:0:0:
333,194,102157,2,0,P|281:180|253:162,1,65.9999979858399,2|0,1:2|0:0,0:0:0:0:
30,81,102386,1,8,0:0:0:0:
81,26,102500,1,2,0:3:0:0:
155,24,102615,1,2,0:0:0:0:
393,119,102844,5,4,1:2:0:0:
268,378,103073,6,0,P|257:341|256:302,1,76.9999976501466,2|8,0:1|0:0,0:0:0:0:
144,373,103416,5,0,1:0:0:0:
124,361,103531,2,0,P|138:297|178:245,1,131.99999597168,2|0,0:1|1:0,0:0:0:0:
26,214,103874,5,2,0:3:0:0:
11,200,103989,2,0,P|73:155|148:145,1,153.999995300293,2|8,0:1|0:0,0:0:0:0:
164,58,104332,5,2,0:3:0:0:
182,43,104447,2,0,P|212:56|235:78,2,65.9999979858399,0|0|4,1:0|1:0|1:2,0:0:0:0:
0,104,104905,5,2,0:3:0:0:
44,124,105019,1,2,0:3:0:0:
86,103,105134,1,10,0:0:0:0:
311,56,105363,2,0,P|299:123|291:137,1,65.9999979858399,2|0,0:0|0:0,0:0:0:0:
126,296,105592,1,2,0:2:0:0:
126,296,105821,2,0,P|66:269|1:275,1,131.99999597168,0|8,1:0|0:0,0:0:0:0:
213,218,106279,1,0,1:0:0:0:
283,204,106393,1,2,0:3:0:0:
357,191,106508,6,0,P|350:164|351:136,1,55,2|0,1:1|0:0,0:1:0:0:
435,224,106737,2,0,P|442:251|440:278,1,55,2|0,0:1|0:0,0:1:0:0:
331,263,106966,6,0,P|302:247|281:222,1,65.9999979858399,10|0,0:1|0:0,0:0:0:0:
459,148,107195,2,0,P|488:164|510:189,1,65.9999979858399,2|0,0:1|0:0,0:0:0:0:
403,303,107424,6,0,P|374:328|337:340,1,76.9999976501466,2|0,1:1|0:0,0:0:0:0:
390,106,107653,2,0,P|419:80|455:67,1,76.9999976501466,2|0,0:1|0:0,0:0:0:0:
254,313,107882,5,10,0:1:0:0:
86,171,108111,1,0,1:0:0:0:
86,171,108225,1,2,0:3:0:0:
86,171,108340,5,2,0:3:0:0:
86,171,108798,1,8,0:0:0:0:
86,171,109714,1,8,0:0:0:0:
302,40,110172,5,6,1:2:0:0:
365,242,110401,1,2,0:0:0:0:
234,189,110630,1,2,1:2:0:0:
443,144,110859,1,2,0:0:0:0:
273,294,111088,5,2,1:2:0:0:
447,325,111317,1,2,0:0:0:0:
170,260,111546,1,2,1:2:0:0:
203,100,111775,1,2,0:2:0:0:
43,328,112004,5,2,1:2:0:0:
264,261,112233,1,2,0:0:0:0:
95,136,112462,6,2,P|86:104|86:71,1,60.5000018463135,2|0,1:2|0:0,0:1:0:0:
16,25,112691,2,2,P|3:55|0:88,1,60.5000018463135,2|0,0:0|0:0,0:1:0:0:
171,177,112920,2,2,P|163:270|144:316,1,121.000003692627,2|0,1:2|0:0,0:1:0:0:
95,136,113378,6,2,P|86:104|86:71,1,60.5000018463135,2|0,1:2|0:0,0:1:0:0:
16,25,113607,2,2,P|3:55|0:88,1,60.5000018463135,2|0,1:2|0:0,0:1:0:0:
171,177,113836,5,6,1:2:0:0:
338,101,114065,1,2,0:0:0:0:
258,66,114294,1,2,1:2:0:0:
310,292,114523,1,2,0:0:0:0:
477,173,114752,5,2,1:2:0:0:
265,146,114981,1,2,0:0:0:0:
399,42,115210,1,2,1:2:0:0:
215,249,115439,1,2,0:0:0:0:
366,377,115668,6,0,P|381:351|389:322,1,60.5000018463135,2|0,1:2|0:0,0:0:0:0:
450,272,115897,2,0,P|443:242|428:216,1,60.5000018463135,2|0,0:0|0:0,0:0:0:0:
253,332,116126,6,2,P|282:327|310:316,1,60.5000018463135,2|0,1:2|0:0,0:1:0:0:
484,156,116355,2,2,P|456:142|427:137,1,60.5000018463135,2|0,1:2|0:0,0:1:0:0:
249,49,116584,2,2,P|249:112|282:180,1,121.000003692627,2|0,1:2|0:0,0:1:0:0:
253,332,117042,6,2,P|282:327|310:316,1,60.5000018463135,2|0,1:2|0:0,0:1:0:0:
484,156,117271,2,2,P|456:142|427:137,1,60.5000018463135,2|0,1:2|0:0,0:1:0:0:
249,49,117500,5,2,1:2:0:0:
190,213,117729,1,2,0:0:0:0:
337,55,117958,1,2,1:2:0:0:
106,167,118187,1,2,0:0:0:0:
347,290,118416,5,2,1:2:0:0:
181,113,118645,1,2,0:0:0:0:
156,328,118874,1,2,1:2:0:0:
271,150,119103,1,2,0:0:0:0:
30,269,119332,5,2,1:2:0:0:
256,370,119561,1,2,0:0:0:0:
109,243,119790,2,2,P|100:198|102:153,1,65.9999979858399,2|0,1:2|0:0,0:1:0:0:
169,293,120019,2,2,P|176:325|178:357,1,65.9999979858399,2|0,0:0|0:0,0:1:0:0:
18,191,120248,2,2,P|28:126|64:71,1,131.99999597168,2|0,1:2|0:0,0:1:0:0:
109,243,120706,6,2,P|100:198|102:153,1,65.9999979858399,2|0,1:2|0:0,0:1:0:0:
169,293,120935,2,2,P|176:325|178:357,1,65.9999979858399,2|0,1:2|0:0,0:1:0:0:
18,191,121164,5,2,1:2:0:0:
216,131,121393,1,2,0:0:0:0:
30,277,121622,1,2,1:2:0:0:
259,343,121851,1,2,0:0:0:0:
117,177,122080,6,2,P|106:124|112:70,1,110,2|0,1:2|0:0,0:1:0:0:
329,217,122538,2,0,P|324:249|312:280,1,65.9999979858399,2|0,1:2|0:0,0:0:0:0:
231,267,122767,2,0,P|177:309|160:317,1,65.9999979858399,2|0,0:0|0:0,0:0:0:0:
134,135,122996,6,0,P|136:80|158:30,1,110,2|0,1:2|0:0,0:0:0:0:
409,219,123454,2,0,P|406:273|384:323,1,110,2|0,1:2|0:0,0:0:0:0:
222,103,123912,6,0,P|254:73|294:55,1,88,2|0,1:2|0:0,0:0:0:0:
356,148,124370,2,0,P|323:177|283:195,1,88,2|0,1:2|1:0,0:0:0:0:
0,186,126660,5,2,0:0:0:0:
503,345,128493,5,6,1:2:0:0:
400,224,128722,2,0,P|453:232|507:221,1,110,2|8,0:1|0:0,0:0:0:0:
235,160,129065,5,2,0:3:0:0:
248,148,129180,2,0,P|312:135|376:147,1,131.99999597168,2|0,0:1|1:0,0:0:0:0:
48,205,129523,5,2,0:3:0:0:
48,226,129638,2,0,P|122:245|196:227,1,153.999995300293,2|8,0:1|0:0,0:0:0:0:
232,28,129981,5,2,3:0:0:0:
191,16,130096,2,0,P|173:43|167:76,1,65.9999979858399,2|2,1:1|0:3,0:0:0:0:
270,283,130325,5,6,1:2:0:0:
361,94,130554,1,2,0:3:0:0:
361,94,130668,1,2,0:3:0:0:
361,94,130783,1,10,0:0:0:0:
187,261,131012,2,0,P|203:339|218:358,1,76.9999976501466,2|2,0:0|0:3,0:0:0:0:
447,211,131241,5,2,0:0:0:0:
273,111,131470,2,2,P|261:74|258:36,2,76.9999976501466,2|2|8,1:2|0:3|0:0,0:0:0:0:
398,360,131928,1,0,1:0:0:0:
450,300,132042,1,0,1:0:0:0:
401,237,132157,6,0,P|368:238|338:251,1,65.9999979858399,2|0,1:1|0:0,0:1:0:0:
223,327,132386,2,0,P|255:325|285:312,1,65.9999979858399,2|0,0:1|0:0,0:1:0:0:
462,179,132615,6,0,P|428:161|390:159,1,76.9999976501466,10|0,0:1|0:0,0:0:0:0:
172,229,132844,2,0,P|205:246|243:248,1,76.9999976501466,2|0,0:1|0:0,0:0:0:0:
412,77,133073,6,0,P|368:82|332:107,1,88,2|0,1:1|0:0,0:0:0:0:
91,236,133302,2,0,P|106:276|138:306,1,88,2|0,0:1|0:0,0:0:0:0:
267,56,133531,6,0,P|251:102|257:151,1,98.9999969787599,10|0,0:1|0:0,0:0:0:0:
365,361,133760,2,0,P|375:314|362:266,1,98.9999969787599,0|2,1:0|0:3,0:0:0:0:
317,201,133989,5,4,1:2:0:0:
30,70,134218,1,2,0:3:0:0:
95,109,134332,1,2,0:3:0:0:
161,72,134447,2,0,P|193:69|224:56,1,65.9999979858399,10|0,0:0|0:0,0:0:0:0:
102,186,134676,2,0,P|88:215|83:248,1,65.9999979858399,2|0,0:0|0:0,0:0:0:0:
266,367,134905,1,2,0:0:0:0:
162,235,135134,6,0,P|142:166|152:96,1,142.99999345398,2|8,1:2|0:0,0:0:0:0:
316,176,135477,1,2,0:3:0:0:
289,191,135592,2,0,P|258:188|229:179,1,60.5000018463135,2|0,0:0|3:0,0:0:0:0:
256,0,135821,5,4,1:2:0:0:
451,96,136050,2,0,P|423:166|406:184,1,76.9999976501466,2|8,0:1|0:0,0:0:0:0:
204,202,136393,5,0,1:0:0:0:
213,185,136508,2,0,P|287:174|348:194,1,131.99999597168,2|0,0:1|1:0,0:0:0:0:
485,362,136851,5,2,0:3:0:0:
467,383,136966,2,0,P|420:323|408:225,1,153.999995300293,2|8,0:1|0:0,0:0:0:0:
345,12,137309,5,2,0:3:0:0:
379,35,137424,2,0,P|380:67|367:97,1,65.9999979858399,2|0,3:1|3:0,0:0:0:0:
112,192,137653,5,4,1:2:0:0:
268,91,137882,1,2,0:3:0:0:
268,91,137996,1,2,0:3:0:0:
268,91,138111,2,0,P|249:117|224:138,1,65.9999979858399,2|0,1:0|0:0,0:0:0:0:
0,207,138340,1,2,0:0:0:0:
164,272,138569,1,2,0:3:0:0:
39,139,138798,2,0,P|18:77|17:12,1,131.99999597168,2|8,1:2|0:0,0:0:0:0:
340,175,139256,1,0,1:0:0:0:
274,216,139370,1,2,0:3:0:0:
202,185,139485,6,0,P|212:153|233:128,1,65.9999979858399,2|0,1:1|0:0,0:1:0:0:
212,263,139714,2,0,P|201:294|181:320,1,65.9999979858399,2|0,0:1|0:0,0:1:0:0:
169,82,139943,6,0,P|196:55|231:41,1,76.9999976501466,10|0,0:1|0:0,0:0:0:0:
137,250,140172,2,0,P|110:277|74:291,1,76.9999976501466,2|0,0:1|0:0,0:0:0:0:
91,91,140401,6,0,P|96:47|122:12,1,88,2|0,1:1|0:0,0:0:0:0:
110,369,140630,2,0,P|66:373|25:357,1,88,2|0,0:1|0:0,0:0:0:0:
229,176,140859,6,0,P|272:197|301:237,1,98.9999969787599,10|0,0:1|0:0,0:0:0:0:
72,176,141088,2,0,P|31:147|8:104,1,98.9999969787599,0|2,1:0|0:3,0:0:0:0:
284,30,141317,5,4,1:2:0:0:
403,178,141546,1,2,0:3:0:0:
403,178,141660,1,2,0:3:0:0:
403,178,141775,2,0,P|414:147|436:122,1,65.9999979858399,8|0,0:0|0:0,0:0:0:0:
324,224,142004,2,0,P|291:229|259:223,1,65.9999979858399,2|0,0:0|0:0,0:0:0:0:
411,273,142233,2,0,P|432:297|442:329,1,65.9999979858399,2|0,0:0|0:0,0:0:0:0:
299,144,142462,2,0,P|279:61|295:-18,1,142.99999345398,2|8,1:2|0:0,0:0:0:0:
193,336,142920,2,0,P|189:303|180:271,1,65.9999979858399,2|0,0:0|0:0,0:0:0:0:
27,176,143149,6,0,P|14:239|12:300,1,121.000003692627,6|2,1:2|0:3,0:0:0:0:
100,236,143493,2,0,P|113:173|115:112,1,121.000003692627,2|0,0:0|0:0,0:0:0:0:
57,36,143836,2,0,P|33:82|28:116,1,60.5000018463135,2|0,0:0|0:0,0:0:0:0:
202,189,144065,6,0,P|197:129|184:70,1,121.000003692627,2|0,1:2|0:0,0:0:0:0:
292,16,144409,2,0,P|289:77|278:136,1,121.000003692627,2|0,0:0|0:0,0:0:0:0:
329,207,144752,2,0,P|350:168|360:133,1,60.5000018463135,2|0,0:0|0:0,0:0:0:0:
416,24,144981,6,0,P|420:84|434:143,1,121.000003692627,2|0,1:2|0:0,0:0:0:0:
489,293,145325,2,0,P|503:234|509:174,1,121.000003692627,2|0,0:0|0:0,0:0:0:0:
238,220,145668,2,0,P|240:268|254:303,1,71.4999967269899,2|0,0:0|0:0,0:0:0:0:
476,375,145897,5,2,0:0:0:0:
476,375,146584,5,0,3:0:0:0:
476,375,146699,1,0,3:0:0:0:
476,375,146813,6,0,P|413:357|334:354,1,121.000003692627,2|0,1:2|0:0,0:0:0:0:
294,305,147157,2,0,P|220:313|169:330,1,121.000003692627,2|0,0:0|0:0,0:0:0:0:
114,278,147500,2,0,P|66:270|45:260,1,60.5000018463135,2|0,0:0|0:0,0:0:0:0:
448,256,147729,6,0,P|391:235|331:228,1,121.000003692627,2|0,1:2|0:0,0:0:0:0:
270,177,148073,2,0,P|195:181|143:195,1,121.000003692627,2|0,0:0|0:0,0:0:0:0:
92,148,148416,2,0,P|44:137|24:126,1,60.5000018463135,2|0,1:2|3:0,0:0:0:0:
404,120,148645,6,0,P|349:94|290:82,1,121.000003692627,2|2,1:2|0:3,0:0:0:0:
217,103,148989,1,2,0:3:0:0:
193,98,149103,2,0,P|181:64|176:26,1,71.4999967269899,10|0,0:0|0:0,0:0:0:0:
274,163,149332,2,0,P|285:196|290:234,1,71.4999967269899,2|0,0:0|0:0,0:0:0:0:
76,349,149561,1,2,0:0:0:0:
0,276,149790,6,0,P|54:250|114:246,1,121.000003692627,2|8,1:2|0:0,0:0:0:0:
189,256,150134,1,2,0:3:0:0:
207,274,150248,1,2,3:2:0:0:
448,72,150477,5,6,1:1:0:0:
296,160,150821,1,2,0:1:0:0:
448,240,151164,1,2,0:1:0:0:
336,72,151393,5,2,1:1:0:0:
192,208,151737,1,2,0:1:0:0:
328,352,152080,1,2,0:1:0:0:
192,56,152309,5,2,1:1:0:0:
24,216,152653,1,2,0:1:0:0:
328,264,152996,1,2,0:1:0:0:
61,78,153225,5,2,0:0:0:0:
61,78,153912,1,0,1:0:0:0:
61,78,154027,1,0,1:0:0:0:
61,78,154141,6,0,P|123:76|210:50,1,121.000003692627,2|0,1:2|0:0,0:0:0:0:
380,124,154485,2,0,P|317:122|231:96,1,121.000003692627,2|0,0:0|0:0,0:0:0:0:
188,142,154828,2,0,P|173:195|172:225,1,60.5000018463135,2|0,0:0|0:0,0:0:0:0:
451,223,155057,6,0,P|351:250|304:245,1,121.000003692627,2|0,1:2|0:0,0:0:0:0:
136,308,155401,2,0,P|196:308|254:291,1,121.000003692627,2|0,0:0|0:0,0:0:0:0:
324,384,155744,2,0,P|333:326|329:309,1,60.5000018463135,2|0,0:0|0:0,0:0:0:0:
194,64,155973,5,2,0:0:0:0:
467,155,156431,1,8,0:0:0:0:
53,242,157347,1,8,0:0:0:0:
