osu file format v14

[General]
AudioFilename: audio.ogg
AudioLeadIn: 0
PreviewTime: 34930
Countdown: 0
SampleSet: Soft
StackLeniency: 0.7
Mode: 0
LetterboxInBreaks: 0
WidescreenStoryboard: 1

[Editor]
Bookmarks: 7563,22220,36876,51533,64128,66189,80846,95502,110159,126647,128480,143136,150464,154128,155960
DistanceSpacing: 0.9
BeatDivisor: 8
GridSize: 8
TimelineZoom: 3.599998

[Metadata]
Title:Magnetic
TitleUnicode:Magnetic
Artist:ILLIT
ArtistUnicode:아일릿
Creator:mnyui
Version:Hard
Source:
Tags:gelidium super real me I'LL-IT I Will Be It english korean kpop pop 하이브 hybe entertainment belift lab yunah 윤아 minju 민주 moka 모카 wonhee 원희 iroha 이로하 slow rabbit hitman bang martin salem ilese danke vincenzo 이이진 sophie leigh mcburnie lauren aquilina marcus andersson 김키위 오현선 lalala studio james
BeatmapID:4548855
BeatmapSetID:2156751

[Difficulty]
HPDrainRate:4.5
CircleSize:3.6
OverallDifficulty:6
ApproachRate:7
SliderMultiplier:2
SliderTickRate:1

[Events]
//Background and Video events
0,0,"illit2.jpg",0,0
//Break Periods
2,64570,65302
2,124799,125760
//Storyboard Layer 0 (Background)
//Storyboard Layer 1 (Fail)
//Storyboard Layer 2 (Pass)
//Storyboard Layer 3 (Foreground)
//Storyboard Layer 4 (Overlay)
//Storyboard Sound Samples

[TimingPoints]
7577,458.015267175573,4,2,1,75,1,0
7577,-83.3333333333333,4,2,1,75,0,0
29561,-125,4,2,1,55,0,0
36889,-76.9230769230769,4,2,1,85,0,0
37118,-100,4,2,1,85,0,0
37577,-83.3333333333333,4,2,1,85,0,0
38035,-71.4285714285714,4,2,1,85,0,0
38493,-83.3333333333333,4,2,1,85,0,0
39180,-71.4285714285714,4,2,1,85,0,0
40554,-100,4,2,1,85,0,0
41012,-83.3333333333333,4,2,1,85,0,0
41470,-71.4285714285714,4,2,1,85,0,0
42386,-83.3333333333333,4,2,1,85,0,0
44447,-142.857142857143,4,2,1,85,0,0
44905,-83.3333333333333,4,2,1,85,0,0
45363,-71.4285714285714,4,2,1,85,0,0
45821,-83.3333333333333,4,2,1,85,0,0
47882,-100,4,2,1,85,0,0
48340,-83.3333333333333,4,2,1,85,0,0
48798,-71.4285714285714,4,2,1,85,0,0
49714,-83.3333333333333,4,2,1,85,0,0
51546,-90.9090909090909,4,2,1,75,0,0
57500,-76.9230769230769,4,2,1,75,0,0
58874,-83.3333333333333,4,2,1,75,0,0
66202,-76.9230769230769,4,2,1,65,0,0
69638,-90.9090909090909,4,2,1,65,0,0
69867,-83.3333333333333,4,2,1,65,0,0
76050,-71.4285714285714,4,2,1,65,0,0
77195,-83.3333333333333,4,2,1,65,0,0
77882,-76.9230769230769,4,2,1,65,0,0
80859,-83.3333333333333,4,2,1,75,0,0
88187,-125,4,2,1,55,0,0
95515,-76.9230769230769,4,2,1,85,0,0
95744,-125,4,2,1,85,0,0
96202,-83.3333333333333,4,2,1,85,0,0
96660,-71.4285714285714,4,2,1,85,0,0
97118,-83.3333333333333,4,2,1,85,0,0
97806,-71.4285714285714,4,2,1,85,0,0
99180,-100,4,2,1,85,0,0
99638,-83.3333333333333,4,2,1,85,0,0
100096,-71.4285714285714,4,2,1,85,0,0
101012,-83.3333333333333,4,2,1,85,0,0
103073,-142.857142857143,4,2,1,85,0,0
103531,-83.3333333333333,4,2,1,85,0,0
103989,-71.4285714285714,4,2,1,85,0,0
104447,-83.3333333333333,4,2,1,85,0,0
106508,-100,4,2,1,85,0,0
106966,-83.3333333333333,4,2,1,85,0,0
107424,-71.4285714285714,4,2,1,85,0,0
108340,-83.3333333333333,4,2,1,85,0,0
110172,-111.111111111111,4,2,1,65,0,0
119790,-83.3333333333333,4,2,1,65,0,0
122080,-100,4,2,1,65,0,0
122538,-83.3333333333333,4,2,1,65,0,0
122996,-100,4,2,1,65,0,0
123912,-125,4,2,1,85,0,0
128722,-100,4,2,1,85,0,0
129180,-83.3333333333333,4,2,1,85,0,0
129638,-71.4285714285714,4,2,1,85,0,0
130096,-83.3333333333333,4,2,1,85,0,0
130784,-71.4285714285714,4,2,1,85,0,0
132157,-83.3333333333333,4,2,1,85,0,0
132615,-76.9230769230769,4,2,1,85,0,0
133073,-66.6666666666667,4,2,1,85,0,0
133531,-76.9230769230769,4,2,1,85,0,0
133989,-83.3333333333333,4,2,1,85,0,0
135592,-90.9090909090909,4,2,1,85,0,0
136050,-142.857142857143,4,2,1,85,0,0
136508,-83.3333333333333,4,2,1,85,0,0
136966,-71.4285714285714,4,2,1,85,0,0
137424,-83.3333333333333,4,2,1,85,0,0
139485,-83.3333333333333,4,2,1,85,0,0
139943,-76.9230769230769,4,2,1,85,0,0
140401,-71.4285714285714,4,2,1,85,0,0
140859,-66.6666666666667,4,2,1,85,0,0
141317,-83.3333333333333,4,2,1,85,0,0
142462,-76.9230769230769,4,2,1,85,0,0
142920,-83.3333333333333,4,2,1,85,0,0
143149,-90.9090909090909,4,2,1,85,0,0
145668,-76.9230769230769,4,2,1,85,0,0
146813,-90.9090909090909,4,2,1,85,0,0
149103,-76.9230769230769,4,2,1,85,0,0
149790,-100,4,2,1,75,0,0

[Colours]
Combo1 : 180,220,200
Combo2 : 143,173,191
Combo3 : 72,106,119
Combo4 : 176,209,217

[HitObjects]
25,82,7576,6,0,P|75:86|122:70,1,100,2|2,1:2|0:3,0:0:0:0:
121,70,7920,1,2,0:3:0:0:
121,70,8035,1,10,0:0:0:0:
217,42,8264,1,2,0:0:0:0:
283,114,8493,1,0,1:0:0:0:
230,179,8722,2,0,P|218:208|216:239,2,59.9999981689454,2|2|10,0:3|0:3|0:2,0:0:0:0:
298,120,9180,1,2,1:2:0:0:
381,169,9409,6,0,P|441:184|500:176,1,119.999996337891,0|2,1:0|0:3,0:0:0:0:
332,264,9867,2,0,P|374:314|440:344,1,119.999996337891,8|2,0:0|0:0,0:0:0:0:
496,302,10325,1,2,0:0:0:0:
431,254,10554,1,0,1:0:0:0:
358,281,10783,1,8,0:0:0:0:
286,244,11012,2,0,P|275:216|271:186,1,59.9999981689454,0|2,1:0|0:3,0:0:0:0:
224,161,11241,6,0,P|221:98|245:40,1,119.999996337891,2|2,1:2|0:3,0:0:0:0:
282,28,11584,1,2,0:3:0:0:
323,27,11699,2,0,P|381:51|444:49,1,119.999996337891,8|0,0:0|0:0,0:0:0:0:
511,132,12157,1,0,1:0:0:0:
449,200,12386,1,2,0:3:0:0:
449,200,12500,1,2,0:3:0:0:
449,200,12615,1,8,0:0:0:0:
361,159,12844,1,0,1:0:0:0:
301,222,13073,6,0,P|293:284|305:345,1,119.999996337891,2|0,1:2|0:0,0:0:0:0:
276,376,13416,1,2,0:3:0:0:
231,381,13531,2,0,P|186:337|158:281,1,119.999996337891,8|2,0:0|0:0,0:0:0:0:
218,209,13989,1,2,0:0:0:0:
176,126,14218,1,2,1:2:0:0:
86,166,14447,1,10,0:0:0:0:
86,166,14561,1,0,0:0:0:0:
86,166,14676,1,2,0:0:0:0:
1,126,14905,6,2,P|-12:64|0:3,1,119.999996337891,6|2,1:2|0:3,0:1:0:0:
54,3,15248,1,2,0:3:0:0:
100,8,15363,2,0,P|113:69|101:130,1,119.999996337891,8|0,0:0|0:0,0:0:0:0:
206,140,15821,6,2,P|192:78|204:17,1,119.999996337891,6|2,1:2|0:3,0:1:0:0:
256,7,16164,1,2,0:3:0:0:
302,14,16279,2,0,P|315:75|303:136,1,119.999996337891,8|2,2:0|2:3,2:0:0:0:
412,129,16737,6,2,P|398:67|410:6,1,119.999996337891,6|2,1:2|0:3,0:1:0:0:
465,6,17080,1,2,0:3:0:0:
511,12,17195,2,0,P|524:73|512:134,1,119.999996337891,8|2,2:0|2:0,2:0:0:0:
471,220,17653,2,0,P|422:217|394:222,1,59.9999981689454,2|0,2:0|0:0,2:0:0:0:
363,252,17882,2,0,P|309:243|283:231,1,59.9999981689454,0|0,1:0|0:0,0:0:0:0:
271,198,18111,1,10,0:0:0:0:
198,255,18340,1,2,0:0:0:0:
255,337,18569,6,2,P|193:347|131:327,1,119.999996337891,6|0,1:2|0:0,0:1:0:0:
138,331,18912,1,0,0:0:0:0:
138,331,19027,1,8,0:0:0:0:
67,370,19256,1,2,0:3:0:0:
31,291,19485,6,2,P|3:234|1:172,1,119.999996337891,2|0,1:2|0:0,0:1:0:0:
0,178,19828,1,2,0:3:0:0:
0,178,19943,1,8,0:0:0:0:
93,116,20172,1,2,0:3:0:0:
93,116,20286,1,2,0:3:0:0:
93,116,20401,6,2,P|89:53|108:-7,1,119.999996337891,6|0,1:2|0:0,0:1:0:0:
195,122,20859,2,0,P|198:184|179:244,1,119.999996337891,8|2,0:2|0:2,0:0:0:0:
119,309,21317,5,2,0:0:0:0:
193,379,21546,1,0,1:0:0:0:
286,337,21775,2,0,P|342:355|402:349,1,119.999996337891,10|2,0:0|0:3,0:0:0:0:
461,287,22233,5,0,1:2:0:0:
413,224,22462,1,2,0:3:0:0:
413,224,22577,1,2,0:3:0:0:
413,224,22691,2,0,P|404:162|426:103,1,119.999996337891,8|2,0:0|0:0,0:0:0:0:
368,49,23149,2,0,P|299:80|236:76,1,119.999996337891,2|2,1:2|1:2,0:0:0:0:
181,41,23607,1,8,0:0:0:0:
181,41,23836,1,2,0:0:0:0:
95,86,24065,6,0,P|91:164|63:210,1,119.999996337891,2|2,1:2|0:0,0:0:0:0:
71,199,24409,1,2,0:3:0:0:
71,199,24523,1,8,0:0:0:0:
0,261,24752,1,2,0:0:0:0:
52,330,24981,2,2,P|138:351|199:336,1,119.999996337891,0|0,0:0|1:0,0:1:0:0:
261,384,25439,2,2,P|282:325|273:263,1,119.999996337891,8|2,0:0|0:3,0:1:0:0:
196,201,25897,5,4,1:2:0:0:
251,129,26126,1,2,0:3:0:0:
251,129,26241,1,2,0:3:0:0:
251,129,26355,2,0,P|297:137|382:117,1,119.999996337891,8|2,0:0|0:0,0:0:0:0:
493,43,26813,2,0,P|438:22|375:22,1,119.999996337891,0|2,1:2|0:3,0:0:0:0:
378,21,27157,1,2,0:3:0:0:
378,21,27271,1,8,0:0:0:0:
303,86,27500,6,0,P|290:58|288:28,2,59.9999981689454,0|0|2,0:0|0:0|1:2,0:0:0:0:
377,134,27958,1,2,0:3:0:0:
393,214,28187,1,8,0:0:0:0:
323,265,28416,2,0,P|293:263|263:256,1,59.9999981689454,2|0,0:3|0:0,0:0:0:0:
236,224,28645,6,0,P|176:227|118:243,1,119.999996337891,2|0,0:0|1:0,0:0:0:0:
120,117,29103,2,0,P|61:103|1:104,1,119.999996337891,10|0,0:0|0:0,0:0:0:0:
202,21,29561,5,2,0:0:0:0:
295,77,29790,2,0,P|306:93|315:111,2,40,0|2|2,0:0|0:3|0:0,0:0:0:0:
230,123,30248,2,0,P|213:159|183:190,1,80
113,223,30706,2,0,P|105:262|108:302,1,80,2|2,0:0|0:0,0:0:0:0:
165,361,31164,1,2,0:0:0:0:
242,327,31393,6,0,P|281:329|321:335,1,80,2|2,0:0|0:3,0:0:0:0:
321,335,31737,1,2,0:3:0:0:
321,335,31851,1,2,0:0:0:0:
446,263,32080,2,0,P|406:267|366:262,1,80,2|0,0:0|0:0,0:0:0:0:
295,209,32538,2,0,P|288:170|293:131,1,80,2|0,0:0|0:0,0:0:0:0:
347,67,32996,1,2,0:0:0:0:
479,91,33225,5,2,0:0:0:0:
401,166,33454,1,2,0:0:0:0:
401,166,33569,1,2,0:0:0:0:
401,166,33683,1,2,0:0:0:0:
308,120,33912,1,2,0:0:0:0:
243,181,34141,6,0,P|209:201|170:208,1,80,2|2,0:3|0:3,0:0:0:0:
170,208,34485,1,2,0:0:0:0:
170,208,34599,1,2,0:0:0:0:
96,192,34828,1,2,0:0:0:0:
45,254,35057,5,2,0:0:0:0:
0,128,36889,5,6,1:2:0:0:
105,28,37118,6,0,P|154:25|204:12,1,100,2|8,0:1|0:0,0:0:0:0:
288,90,37577,6,0,P|228:94|169:107,1,119.999996337891,2|0,0:1|1:0,0:0:0:0:
97,168,37920,5,2,0:3:0:0:
93,194,38035,2,0,P|152:193|233:179,1,139.999995727539,2|8,0:1|0:0,0:0:0:0:
307,216,38378,5,2,3:0:0:0:
323,249,38493,2,0,P|294:259|264:263,2,59.9999981689454,0|2|0,1:0|0:3|1:2,0:0:0:0:
445,145,38951,5,2,0:3:0:0:
445,145,39065,1,2,0:3:0:0:
445,145,39180,1,8,0:2:0:0:
491,252,39409,1,2,0:2:0:0:
403,347,39638,1,0,0:0:0:0:
271,296,39867,2,2,P|249:226|271:143,1,139.999995727539,2|8,1:2|0:0,0:0:0:0:
368,47,40325,1,0,1:0:0:0:
368,47,40439,1,0,1:0:0:0:
368,47,40554,6,0,P|318:41|273:20,1,100,2|2,1:1|0:1,0:1:0:0:
190,91,41012,5,10,0:1:0:0:
84,114,41241,1,2,0:1:0:0:
156,185,41470,6,0,P|58:229|19:231,1,139.999995727539,2|2,1:1|0:1,0:0:0:0:
0,315,41928,5,10,0:1:0:0:
145,358,42157,1,0,1:0:0:0:
145,358,42271,1,2,0:3:0:0:
145,357,42386,6,0,P|204:359|261:379,1,119.999996337891,0|2,1:0|0:3,0:0:0:0:
354,322,42844,2,0,P|346:294|343:264,1,59.9999981689454,10|0,0:0|0:0,0:0:0:0:
296,245,43073,2,0,P|295:215|306:187,1,59.9999981689454,10|0,0:0|0:0,0:0:0:0:
350,156,43302,1,2,0:0:0:0:
475,130,43531,1,2,1:2:0:0:
395,37,43760,1,8,0:0:0:0:
395,37,43874,1,2,0:3:0:0:
395,37,43989,1,2,0:0:0:0:
283,65,44218,1,4,1:2:0:0:
197,171,44447,6,0,P|182:101|182:70,1,69.9999978637696,2|8,0:1|0:0,0:0:0:0:
82,14,44905,6,0,P|83:73|97:132,1,119.999996337891,2|0,0:1|1:0,0:0:0:0:
49,196,45248,5,2,0:3:0:0:
18,217,45363,2,0,P|-2:138|3:62,1,139.999995727539,2|8,0:1|0:0,0:0:0:0:
62,20,45706,5,2,0:3:0:0:
95,43,45821,2,0,P|85:115|82:126,2,59.9999981689454,2|0|0,1:2|1:0|1:0,0:0:0:0:
232,77,46279,5,0,1:0:0:0:
232,77,46393,1,2,0:3:0:0:
232,77,46508,1,10,0:0:0:0:
155,199,46737,2,0,P|139:307|156:353,1,119.999996337891,2|2,0:0|0:3,0:0:0:0:
274,368,47195,2,0,P|292:312|288:252,1,119.999996337891,2|8,1:2|0:0,0:0:0:0:
247,139,47653,1,0,1:0:0:0:
247,139,47767,1,2,0:3:0:0:
247,139,47882,6,0,P|296:132|345:110,1,100,2|2,1:1|0:1,0:1:0:0:
450,17,48340,5,10,0:1:0:0:
483,157,48569,1,2,0:1:0:0:
362,223,48798,6,0,P|334:304|337:359,1,139.999995727539,2|2,1:1|0:1,0:0:0:0:
225,255,49256,5,10,0:1:0:0:
134,325,49485,1,2,1:2:0:0:
134,325,49599,1,2,0:3:0:0:
134,325,49714,6,0,P|61:351|2:350,1,119.999996337891,0|2,1:0|0:3,0:0:0:0:
90,227,50172,1,8,0:0:0:0:
12,126,50401,2,0,P|100:132|141:155,1,119.999996337891,2|2,0:0|0:0,0:0:0:0:
258,204,50859,1,2,1:2:0:0:
346,92,51088,1,8,0:0:0:0:
346,92,51202,1,0,1:0:0:0:
346,92,51317,1,0,1:0:0:0:
458,160,51546,6,0,P|461:230|449:282,1,110.000003356934,6|0,1:2|0:0,0:0:0:0:
472,330,51889,2,0,P|417:327|366:307,1,110.000003356934,2|0,0:0|0:0,0:0:0:0:
305,317,52233,1,2,0:0:0:0:
223,212,52462,2,0,P|217:157|229:104,1,110.000003356934,2|2,1:2|0:3,0:0:0:0:
203,59,52806,2,0,P|152:38|97:32,1,110.000003356934,2|0,0:0|0:0,0:0:0:0:
48,61,53149,1,2,1:2:0:0:
29,191,53378,6,0,P|38:293|52:325,1,110.000003356934,2|2,1:2|0:3,0:0:0:0:
22,336,53722,2,0,P|74:355|129:358,1,110.000003356934,2|0,0:0|0:0,0:0:0:0:
185,337,54065,1,2,0:0:0:0:
251,223,54294,5,2,0:0:0:0:
251,223,54981,1,0,1:0:0:0:
251,223,55096,1,0,1:0:0:0:
251,223,55210,6,0,P|240:169|246:110,1,110.000003356934,6|0,1:2|0:0,0:0:0:0:
231,67,55554,2,0,P|283:52|338:50,1,110.000003356934,2|0,0:0|0:0,0:0:0:0:
382,83,55897,1,2,0:0:0:0:
496,148,56126,2,0,P|504:202|496:256,1,110.000003356934,2|0,1:2|0:0,0:0:0:0:
453,293,56470,2,0,P|398:284|345:294,1,110.000003356934,2|0,0:0|0:0,0:0:0:0:
309,342,56813,1,0,1:2:0:0:
207,294,57042,6,0,P|152:293|98:280,1,110.000003356934,2|2,1:2|0:3,0:0:0:0:
25,304,57386,1,2,0:3:0:0:
0,290,57500,2,0,P|1:226|19:164,1,129.999994049073,8|2,0:2|3:2,0:0:0:0:
75,78,57958,1,2,0:0:0:0:
175,144,58187,2,0,P|271:138|321:117,1,129.999994049073,2|8,1:2|0:0,0:0:0:0:
302,126,58531,1,0,1:0:0:0:
302,126,58645,1,2,0:0:0:0:
506,48,58874,6,0,P|446:43|388:27,1,119.999996337891,4|0,1:2|1:0,0:0:0:0:
337,38,59218,2,0,P|318:94|320:154,1,119.999996337891,2|0,0:0|0:0,0:0:0:0:
363,188,59561,1,2,0:0:0:0:
481,307,59790,2,0,P|422:303|367:280,1,119.999996337891,2|0,1:2|0:0,0:0:0:0:
336,312,60134,2,0,P|278:324|219:317,1,119.999996337891,2|0,0:0|0:0,0:0:0:0:
187,348,60477,1,2,1:2:0:0:
45,332,60706,6,0,P|35:274|41:214,1,119.999996337891,2|0,1:2|0:0,0:0:0:0:
8,190,61050,2,0,P|0:123|15:62,1,119.999996337891,2|0,0:0|0:0,0:0:0:0:
57,40,61393,1,2,0:0:0:0:
158,102,61622,5,2,0:0:0:0:
158,102,62309,1,0,3:0:0:0:
158,102,62424,1,0,3:0:0:0:
158,102,62538,6,0,P|138:188|138:225,1,119.999996337891,2|0,1:2|0:0,0:0:0:0:
178,254,62882,2,0,P|189:324|211:370,1,119.999996337891,2|0,0:0|0:0,0:0:0:0:
268,367,63225,1,2,0:0:0:0:
409,338,63454,2,0,P|418:257|414:207,1,119.999996337891,2|0,1:2|0:0,0:0:0:0:
450,194,63798,2,0,P|461:110|448:53,1,119.999996337891,2|0,0:0|0:0,0:0:0:0:
410,45,64141,1,2,0:0:0:0:
275,115,64370,5,0,0:0:0:0:
86,36,66202,6,0,P|73:65|67:97,1,64.9999970245363,6|0,1:2|0:0,0:0:0:0:
19,125,66431,2,0,P|18:157|26:188,1,64.9999970245363,2|0,0:0|0:0,0:0:0:0:
77,224,66660,1,2,0:0:0:0:
24,311,66889,5,0,1:0:0:0:
24,311,67004,1,0,1:0:0:0:
24,311,67118,2,0,P|57:321|166:305,1,129.999994049073,10|0,0:0|0:0,0:0:0:0:
181,284,67462,1,2,0:3:0:0:
222,267,67577,2,0,P|286:272|344:300,1,129.999994049073,2|0,1:2|1:0,0:0:0:0:
165,195,68035,6,0,P|138:95|146:39,1,129.999994049073,2|0,0:0|0:0,0:0:0:0:
296,6,68493,2,0,P|299:38|290:69,1,64.9999970245363,0|0,1:0|0:0,0:0:0:0:
317,114,68722,2,0,P|306:144|305:176,1,64.9999970245363,0|0,1:0|0:0,0:0:0:0:
346,198,68951,2,0,P|407:180|472:181,1,129.999994049073,10|2,0:0|0:0,0:0:0:0:
417,351,69409,1,2,0:0:0:0:
417,351,69523,1,2,0:0:0:0:
417,351,69638,2,0,P|339:330|331:325,1,55.0000016784668,2|0,0:0|0:0,0:0:0:0:
325,313,69867,6,0,P|235:317|196:337,2,119.999996337891,2|8|0,1:2|0:0|0:0,0:0:0:0:
458,264,70554,1,0,1:0:0:0:
458,264,70668,1,0,1:0:0:0:
458,264,70783,2,0,P|475:197|473:177,2,59.9999981689454,8|0|8,0:0|0:0|0:0,0:0:0:0:
380,164,71241,2,0,P|361:107|359:47,1,119.999996337891,0|8,1:0|0:0,0:0:0:0:
268,115,71699,6,0,P|257:173|232:228,1,119.999996337891,2|0,0:0|1:0,0:0:0:0:
231,228,72042,1,2,0:3:0:0:
231,228,72157,1,2,0:3:0:0:
126,338,72386,2,0,P|114:310|108:280,1,59.9999981689454,2|0,1:2|0:0,0:0:0:0:
55,248,72615,2,0,P|56:218|64:189,1,59.9999981689454,10|0,0:0|0:0,0:0:0:0:
117,157,72844,1,2,0:0:0:0:
53,58,73073,1,0,1:0:0:0:
53,58,73187,1,2,0:0:0:0:
53,58,73302,1,2,0:0:0:0:
189,12,73531,6,0,P|262:22|273:20,1,59.9999981689454,2|0,1:2|0:0,0:0:0:0:
287,47,73760,2,0,P|275:112|270:123,1,59.9999981689454,10|0,0:2|0:0,0:0:0:0:
237,145,73989,1,2,0:0:0:0:
185,241,74218,1,0,1:0:0:0:
185,241,74332,1,0,1:0:0:0:
185,241,74447,1,8,0:0:0:0:
269,338,74676,1,2,0:0:0:0:
269,338,74790,1,2,0:0:0:0:
269,338,74905,6,0,P|327:347|386:334,1,119.999996337891,2|2,1:2|0:0,0:0:0:0:
512,196,75363,2,0,P|453:186|394:199,1,119.999996337891,2|2,1:2|0:0,0:0:0:0:
273,241,75821,1,2,1:2:0:0:
204,136,76050,2,0,P|192:67|210:0,2,139.999995727539,2|10|2,1:2|0:0|1:2,0:0:0:0:
131,220,76737,1,2,1:2:0:0:
131,220,76851,1,2,0:0:0:0:
131,220,76966,2,0,P|96:237|58:240,1,69.9999978637696,2|0,0:0|0:0,0:0:0:0:
27,266,77195,6,0,P|12:334|17:386,2,119.999996337891,0|10|0,1:2|0:0|0:0,0:0:0:0:
69,116,77882,1,2,1:2:0:0:
225,158,78111,1,10,0:0:0:0:
187,309,78340,1,2,0:0:0:0:
76,198,78569,1,2,1:2:0:0:
147,59,78798,1,10,0:0:0:0:
147,59,79256,5,2,1:2:0:0:
299,90,79485,1,2,0:0:0:0:
335,241,79714,1,2,1:2:0:0:
199,318,79943,1,2,1:2:0:0:
199,317,80859,6,0,P|258:313|314:332,1,119.999996337891,4|2,1:2|0:3,0:0:0:0:
314,332,81202,1,2,0:3:0:0:
314,332,81317,1,8,0:0:0:0:
449,383,81546,2,0,P|439:356|435:326,1,59.9999981689454,2|0,0:0|0:0,0:0:0:0:
470,297,81775,2,0,P|477:238|509:188,1,119.999996337891,2|2,1:2|0:0,0:0:0:0:
435,94,82233,2,0,P|401:143|390:202,1,119.999996337891,10|2,0:0|0:0,0:0:0:0:
288,264,82691,5,2,1:2:0:0:
237,183,82920,1,2,0:3:0:0:
237,183,83035,1,2,0:3:0:0:
237,183,83149,1,8,0:0:0:0:
300,99,83378,1,2,0:0:0:0:
219,37,83607,2,2,P|162:53|102:53,1,119.999996337891,0|0,0:0|1:0,0:1:0:0:
0,160,84065,2,2,P|59:159|117:176,1,119.999996337891,8|2,0:0|0:3,0:1:0:0:
235,287,84523,5,4,1:2:0:0:
110,384,84752,1,2,0:3:0:0:
110,384,84867,1,2,0:3:0:0:
110,384,84981,2,0,P|91:328|94:269,1,119.999996337891,8|2,0:0|0:3,0:0:0:0:
216,176,85439,2,0,P|209:253|189:303,1,119.999996337891,2|0,1:2|0:0,0:0:0:0:
194,292,85783,1,2,0:3:0:0:
194,292,85897,1,10,0:0:0:0:
295,369,86126,1,2,0:3:0:0:
295,369,86241,1,2,0:3:0:0:
295,369,86355,5,2,1:2:0:0:
385,302,86584,1,2,1:2:0:0:
341,186,86813,1,10,0:0:0:0:
223,207,87042,2,0,P|157:196|139:187,1,59.9999981689454,2|2,0:0|0:3,0:0:0:0:
134,222,87271,2,0,P|51:215|1:191,1,119.999996337891,2|0,0:0|1:0,0:0:0:0:
136,99,87729,2,0,P|196:102|252:124,1,119.999996337891,10|2,0:0|0:3,0:0:0:0:
263,228,88187,5,2,0:0:0:0:
355,284,88416,2,0,P|348:302|348:322,2,40,2|2|2,0:3|0:3|0:0,0:0:0:0:
380,166,88874,2,0,P|394:129|400:90,1,80,2|0,0:0|0:0,0:0:0:0:
254,190,89332,2,0,P|257:214|267:235,2,40,2|2|2,0:0|0:3|0:0,0:0:0:0:
293,97,89790,1,2,0:0:0:0:
187,110,90019,6,0,P|147:116|107:112,1,80,2|2,0:0|0:3,0:0:0:0:
107,112,90363,1,2,0:3:0:0:
107,112,90477,1,2,0:0:0:0:
27,184,90706,2,0,P|59:206|97:220,1,80,2|0,0:0|0:0,0:0:0:0:
152,320,91164,2,0,P|135:356|129:362,2,40,2|2|0,0:3|0:0|0:0,0:0:0:0:
218,272,91622,1,2,0:0:0:0:
325,297,91851,5,2,0:0:0:0:
407,232,92080,1,2,0:0:0:0:
407,232,92195,1,2,0:0:0:0:
407,232,92309,1,2,0:0:0:0:
347,151,92538,1,2,0:3:0:0:
252,184,92767,6,0,P|243:146|241:107,1,80,2|0,0:3|0:0,0:0:0:0:
241,105,93111,1,2,0:3:0:0:
241,105,93225,1,2,0:3:0:0:
282,43,93454,1,2,0:3:0:0:
358,57,93683,5,2,0:0:0:0:
418,97,95515,5,2,1:2:0:0:
485,239,95744,6,0,P|466:307|465:337,1,80,2|8,3:1|0:0,0:0:0:0:
356,363,96202,6,0,P|375:307|382:247,1,119.999996337891,2|0,0:1|1:0,0:0:0:0:
323,187,96546,5,2,0:3:0:0:
292,167,96660,2,0,P|284:263|292:317,1,139.999995727539,2|0,0:1|1:0,0:0:0:0:
234,366,97004,5,2,3:0:0:0:
206,371,97118,2,0,P|193:345|185:316,2,59.9999981689454,2|2|4,1:0|0:3|1:2,0:0:0:0:
97,306,97577,5,2,0:3:0:0:
97,306,97691,1,2,0:3:0:0:
97,306,97806,2,0,P|110:226|115:218,1,69.9999978637696,2|0,1:2|0:0,0:0:0:0:
61,198,98035,2,0,P|66:162|79:131,1,69.9999978637696,2|0,1:2|0:0,0:0:0:0:
53,83,98264,1,2,0:0:0:0:
211,1,98493,2,0,P|233:71|228:141,1,139.999995727539,2|8,1:2|0:0,0:0:0:0:
207,278,98951,1,0,1:0:0:0:
207,278,99065,1,0,1:0:0:0:
207,278,99180,6,0,P|253:299|303:305,1,100,2|2,1:1|0:1,0:1:0:0:
449,371,99638,5,10,0:1:0:0:
417,255,99867,1,2,0:1:0:0:
289,197,100096,6,0,P|304:129|345:72,1,139.999995727539,2|2,1:1|0:1,0:0:0:0:
477,27,100554,5,10,0:1:0:0:
510,161,100783,1,0,1:0:0:0:
510,161,100897,1,2,0:3:0:0:
510,161,101012,6,0,P|452:155|389:128,1,119.999996337891,6|2,1:2|0:3,0:0:0:0:
280,25,101470,2,0,P|225:31|199:41,1,59.9999981689454,10|0,0:0|0:0,0:0:0:0:
188,62,101699,2,0,P|158:60|129:51,1,59.9999981689454,10|0,0:0|0:0,0:0:0:0:
91,10,101928,1,2,0:0:0:0:
9,121,102157,1,2,1:2:0:0:
108,218,102386,1,8,0:0:0:0:
108,218,102500,1,2,0:3:0:0:
108,218,102615,1,2,0:0:0:0:
222,151,102844,1,4,1:2:0:0:
287,275,103073,6,0,P|283:309|272:342,1,69.9999978637696,2|8,0:1|0:0,0:0:0:0:
386,378,103531,6,0,P|401:293|395:244,1,119.999996337891,2|0,0:1|1:0,0:0:0:0:
440,191,103874,5,2,0:3:0:0:
468,183,103989,2,0,P|500:244|509:313,1,139.999995727539,2|8,0:1|0:0,0:0:0:0:
425,371,104332,5,2,0:3:0:0:
394,343,104447,2,0,P|395:313|404:284,2,59.9999981689454,0|0|4,1:0|1:0|1:2,0:0:0:0:
287,384,104905,5,2,0:3:0:0:
287,384,105019,1,2,0:3:0:0:
287,384,105134,1,10,0:0:0:0:
188,315,105363,1,2,0:0:0:0:
235,204,105592,1,2,0:2:0:0:
353,222,105821,2,0,P|412:229|469:212,1,119.999996337891,0|8,1:0|0:0,0:0:0:0:
500,87,106279,1,0,1:0:0:0:
500,87,106393,1,2,0:3:0:0:
500,87,106508,6,0,P|455:64|406:55,1,100,2|2,1:1|0:1,0:1:0:0:
287,43,106966,5,10,0:1:0:0:
222,144,107195,1,2,0:1:0:0:
95,83,107424,6,0,P|64:145|58:222,1,139.999995727539,2|2,1:1|0:1,0:0:0:0:
107,332,107882,5,10,0:1:0:0:
250,305,108111,1,0,1:0:0:0:
250,305,108225,1,2,0:3:0:0:
250,305,108340,1,0,0:0:0:0:
374,99,108798,5,8,0:0:0:0:
374,99,109714,1,8,0:0:0:0:
374,99,110172,6,0,P|389:141|396:185,1,89.9999972534181,6|2,1:2|0:0,0:0:0:0:
321,319,110630,2,0,P|305:276|298:232,1,89.9999972534181,2|2,1:2|0:0,0:0:0:0:
243,161,111088,1,2,1:2:0:0:
155,183,111317,1,2,0:0:0:0:
112,262,111546,2,0,P|69:253|30:231,1,89.9999972534181,2|2,1:2|0:2,0:0:0:0:
13,142,112004,5,2,1:2:0:0:
63,67,112233,1,2,0:0:0:0:
149,89,112462,2,2,P|172:84|192:75,1,44.999998626709,2|0,1:2|0:0,0:1:0:0:
227,47,112691,2,2,P|287:57|301:64,1,44.999998626709,2|0,0:0|0:0,0:1:0:0:
309,76,112920,2,2,P|353:76|400:61,1,89.9999972534181,2|0,1:2|0:0,0:1:0:0:
474,107,113378,2,2,P|486:158|486:170,1,44.999998626709,2|0,1:2|0:0,0:1:0:0:
444,170,113607,2,2,P|427:221|419:232,1,44.999998626709,2|0,1:2|0:0,0:1:0:0:
396,241,113836,6,2,P|356:232|306:228,1,89.9999972534181,6|2,1:2|0:0,0:1:0:0:
185,294,114294,2,0,P|226:310|270:316,1,89.9999972534181,2|2,1:2|0:0,0:0:0:0:
348,363,114752,5,2,1:2:0:0:
420,309,114981,1,2,0:0:0:0:
380,227,115210,1,2,1:2:0:0:
291,243,115439,1,2,0:0:0:0:
232,174,115668,6,0,P|231:124|247:82,1,89.9999972534181,2|2,1:2|0:0,0:0:0:0:
181,21,116126,2,2,P|160:28|138:30,1,44.999998626709,2|0,1:2|0:0,0:1:0:0:
111,67,116355,2,2,P|46:61|40:59,1,44.999998626709,2|0,1:2|0:0,0:1:0:0:
30,92,116584,2,2,P|18:136|22:180,1,89.9999972534181,2|0,1:2|0:0,0:1:0:0:
100,225,117042,2,2,P|92:283|89:292,1,44.999998626709,2|0,1:2|0:0,0:1:0:0:
61,299,117271,2,2,P|75:347|78:354,1,44.999998626709,2|0,1:2|0:0,0:1:0:0:
108,378,117500,6,0,P|152:376|196:358,1,89.9999972534181,2|2,1:2|0:0,0:0:0:0:
248,287,117958,1,2,1:2:0:0:
200,210,118187,1,2,0:0:0:0:
255,139,118416,5,2,1:2:0:0:
338,173,118645,1,2,0:0:0:0:
342,262,118874,2,0,P|379:287|422:299,1,89.9999972534181,2|2,1:2|0:0,0:0:0:0:
478,228,119332,2,0,P|493:186|499:142,1,89.9999972534181,2|2,1:2|0:0,0:0:0:0:
436,24,119790,2,2,P|426:53|423:83,1,59.9999981689454,2|0,1:2|0:0,0:1:0:0:
378,98,120019,2,2,P|326:106|301:103,1,59.9999981689454,2|0,0:0|0:0,0:1:0:0:
294,143,120248,2,2,P|235:144|177:130,1,119.999996337891,2|0,1:2|0:0,0:1:0:0:
30,83,120706,2,2,P|45:168|51:178,1,59.9999981689454,2|0,1:2|0:0,0:1:0:0:
17,177,120935,2,2,P|29:240|41:256,1,59.9999981689454,2|0,1:2|0:0,0:1:0:0:
82,266,121164,5,2,1:2:0:0:
156,359,121393,1,2,0:0:0:0:
271,327,121622,1,2,1:2:0:0:
267,207,121851,1,2,0:0:0:0:
172,174,122080,2,2,P|161:125|166:75,1,100,2|0,1:2|0:0,0:1:0:0:
274,22,122538,1,2,1:2:0:0:
367,97,122767,1,2,0:0:0:0:
459,59,122996,6,0,P|484:103|496:151,1,100,2|0,1:2|0:0,0:0:0:0:
430,226,123454,2,0,P|427:280|405:330,1,100,2|0,1:2|0:0,0:0:0:0:
320,302,123912,2,0,P|286:321|246:328,1,80,2|0,1:2|0:0,0:0:0:0:
186,276,124370,2,0,P|126:271|92:258,1,80,2|0,1:2|1:0,0:0:0:0:
422,60,126660,5,2,0:0:0:0:
181,362,128493,5,6,1:2:0:0:
37,263,128722,2,0,P|15:216|7:167,1,100,2|8,0:1|0:0,0:0:0:0:
66,74,129180,6,0,P|92:144|99:199,1,119.999996337891,2|0,0:1|1:0,0:0:0:0:
143,254,129523,5,2,0:3:0:0:
153,266,129638,2,0,P|179:201|183:131,1,139.999995727539,2|8,0:1|0:0,0:0:0:0:
235,70,129981,5,2,3:0:0:0:
259,78,130096,2,0,P|268:107|269:137,1,59.9999981689454,2|2,1:1|0:3,0:0:0:0:
262,182,130325,5,6,1:2:0:0:
346,282,130554,1,2,0:3:0:0:
346,282,130668,1,2,0:3:0:0:
346,282,130783,1,10,0:0:0:0:
470,217,131012,1,2,0:0:0:0:
414,88,131241,1,2,0:0:0:0:
280,130,131470,2,2,P|236:210|231:259,1,139.999995727539,2|8,1:2|0:0,0:0:0:0:
148,371,131928,1,0,1:0:0:0:
148,371,132042,1,0,1:0:0:0:
148,371,132157,6,0,P|50:350|30:335,1,119.999996337891,2|2,1:1|0:1,0:1:0:0:
91,245,132615,6,0,P|70:216|61:182,1,64.9999970245363,10|0,0:1|0:0,0:0:0:0:
28,160,132844,2,0,P|25:127|33:96,1,64.9999970245363,2|0,0:1|0:0,0:0:0:0:
82,67,133073,5,2,1:1:0:0:
234,19,133302,1,2,0:1:0:0:
197,124,133531,2,0,P|177:186|182:253,1,129.999994049073,10|0,0:1|1:0,0:0:0:0:
181,249,133874,1,2,0:3:0:0:
181,249,133989,5,4,1:2:0:0:
318,375,134218,1,2,0:3:0:0:
318,375,134332,1,2,0:3:0:0:
318,375,134447,2,0,P|337:313|333:246,1,119.999996337891,10|0,0:0|0:0,0:0:0:0:
287,148,134905,1,2,0:0:0:0:
381,72,135134,2,0,P|440:76|495:100,1,119.999996337891,2|8,1:2|0:0,0:0:0:0:
495,100,135477,1,2,0:3:0:0:
495,100,135592,2,0,P|486:127|474:154,1,55.0000016784668,2|0,0:0|3:0,0:0:0:0:
448,186,135821,1,4,1:2:0:0:
302,242,136050,6,0,P|303:276|313:310,1,69.9999978637696,2|8,0:1|0:0,0:0:0:0:
198,346,136508,6,0,P|201:286|216:228,1,119.999996337891,2|0,0:1|1:0,0:0:0:0:
183,156,136851,5,2,0:3:0:0:
153,157,136966,2,0,P|108:210|85:276,1,139.999995727539,2|8,0:1|0:0,0:0:0:0:
49,364,137309,5,2,0:3:0:0:
23,356,137424,2,0,P|6:333|0:304,2,59.9999981689454,2|0|4,3:1|3:0|1:2,0:0:0:0:
85,275,137882,5,2,0:3:0:0:
85,275,137996,1,2,0:3:0:0:
85,275,138111,2,0,P|90:246|90:216,1,59.9999981689454,2|0,1:2|0:0,0:0:0:0:
55,189,138340,2,0,P|38:131|43:72,1,119.999996337891,2|2,0:0|0:3,0:0:0:0:
139,0,138798,2,0,P|155:57|150:116,1,119.999996337891,2|8,1:2|0:0,0:0:0:0:
232,209,139256,1,0,1:0:0:0:
232,209,139370,1,2,0:3:0:0:
232,209,139485,6,0,P|326:217|361:203,1,119.999996337891,2|2,1:1|0:1,0:1:0:0:
474,147,139943,5,10,0:1:0:0:
449,284,140172,1,2,0:1:0:0:
303,353,140401,6,0,P|234:348|171:318,1,139.999995727539,2|2,1:1|0:1,0:0:0:0:
42,243,140859,1,10,0:1:0:0:
99,104,141088,1,0,1:0:0:0:
99,104,141202,1,2,0:3:0:0:
99,104,141317,5,4,1:2:0:0:
220,133,141546,1,2,0:3:0:0:
220,133,141660,1,2,0:3:0:0:
220,133,141775,2,0,P|295:121|342:87,1,119.999996337891,8|2,0:0|0:0,0:0:0:0:
442,52,142233,2,0,P|436:122|431:135,1,59.9999981689454,2|0,0:0|0:0,0:0:0:0:
473,134,142462,2,0,P|459:198|417:248,1,129.999994049073,2|8,1:2|0:0,0:0:0:0:
362,352,142920,1,2,0:0:0:0:
254,328,143149,6,0,P|254:273|265:219,1,110.000003356934,6|2,1:2|0:3,0:0:0:0:
313,212,143493,2,0,P|314:134|296:88,1,110.000003356934,2|0,0:0|0:0,0:0:0:0:
258,79,143836,1,2,0:0:0:0:
170,32,144065,2,0,P|116:42|62:34,1,110.000003356934,2|0,1:2|0:0,0:0:0:0:
16,62,144409,2,0,P|4:116|13:170,1,110.000003356934,2|0,0:0|0:0,0:0:0:0:
42,204,144752,1,2,0:0:0:0:
26,316,144981,6,0,P|79:331|134:326,1,110.000003356934,2|0,1:2|0:0,0:0:0:0:
180,362,145325,2,0,P|198:291|195:246,1,110.000003356934,2|0,0:0|0:0,0:0:0:0:
180,199,145668,1,2,0:0:0:0:
230,79,145897,5,2,0:0:0:0:
230,79,146584,1,0,3:0:0:0:
230,79,146699,1,0,3:0:0:0:
230,79,146813,6,0,P|285:76|338:62,1,110.000003356934,2|0,1:2|0:0,0:0:0:0:
360,93,147157,2,0,P|410:114|464:122,1,110.000003356934,2|0,0:0|0:0,0:0:0:0:
501,168,147500,1,2,0:0:0:0:
444,257,147729,2,0,P|427:310|425:365,1,110.000003356934,2|0,1:2|0:0,0:0:0:0:
376,376,148073,2,0,P|353:325|342:272,1,110.000003356934,2|0,0:0|0:0,0:0:0:0:
362,219,148416,1,2,1:2:0:0:
284,141,148645,6,0,P|191:158|161:157,1,110.000003356934,2|2,1:2|0:3,0:0:0:0:
111,201,148989,1,2,0:3:0:0:
91,206,149103,2,0,P|26:182|15:173,1,64.9999970245363,10|0,0:0|0:0,0:0:0:0:
18,136,149332,1,2,0:0:0:0:
79,21,149561,1,2,0:0:0:0:
186,36,149790,2,0,P|240:49|295:49,1,100,2|8,1:2|0:0,0:0:0:0:
284,49,150134,1,2,0:3:0:0:
284,49,150248,1,2,3:2:0:0:
411,152,150477,6,0,P|436:81|434:7,2,150,6|2|2,1:1|0:1|0:1,0:0:0:0:
330,211,151393,2,0,P|304:281|306:355,2,150,2|2|2,1:1|0:1|0:1,0:0:0:0:
262,136,152309,5,2,1:1:0:0:
183,263,152653,1,2,0:1:0:0:
42,211,152996,1,2,0:1:0:0:
12,306,153225,5,2,0:0:0:0:
12,306,153912,1,0,1:0:0:0:
12,306,154027,1,0,1:0:0:0:
12,306,154141,6,0,P|62:306|111:295,1,100,2|0,1:2|0:0,0:0:0:0:
137,326,154485,2,0,P|211:348|246:344,1,100,2|0,0:0|0:0,0:0:0:0:
276,369,154828,1,2,0:0:0:0:
369,334,155057,2,0,P|380:285|379:235,1,100,2|0,1:2|0:0,0:0:0:0:
343,203,155401,2,0,P|343:119|353:87,1,100,2|0,0:0|0:0,0:0:0:0:
385,73,155744,1,2,0:0:0:0:
483,58,155973,5,2,0:0:0:0:
483,58,156431,1,8,0:0:0:0:
483,58,157347,1,8,0:0:0:0:
